  0
SECTION
  2
HEADER
  9
$ACADVER
  1
AC1021
  9
$ACADMAINTVER
 70
    26
  9
$DWGCODEPAGE
  3
ANSI_932
  9
$LASTSAVEDBY
  1
Htm_Terada
  9
$CUSTOMPROPERTYTAG
  1
AmdtFileType
  9
$CUSTOMPROPERTY
  1
84
  9
$INSBASE
 10
0.0
 20
0.0
 30
0.0
  9
$EXTMIN
 10
787.038582150918
 20
827.9165112354062
 30
-0.000000000000013
  9
$EXTMAX
 10
1828.8995423442
 20
1578.120672631895
 30
0.0000000000000023
  9
$LIMMIN
 10
0.0000011486031326
 20
0.0000022162923869
  9
$LIMMAX
 10
2520.000001148603
 20
1782.000002216293
  9
$ORTHOMODE
 70
     1
  9
$REGENMODE
 70
     1
  9
$FILLMODE
 70
     1
  9
$QTEXTMODE
 70
     0
  9
$MIRRTEXT
 70
     1
  9
$LTSCALE
 40
6.0
  9
$ATTMODE
 70
     1
  9
$TEXTSIZE
 40
25.0
  9
$TRACEWID
 40
1.0
  9
$TEXTSTYLE
  7
SEISA
  9
$CLAYER
  8
AM_0 外形線1
  9
$CELTYPE
  6
ByLayer
  9
$CECOLOR
 62
   256
  9
$CELTSCALE
 40
1.0
  9
$DISPSILH
 70
     0
  9
$DIMSCALE
 40
6.0
  9
$DIMASZ
 40
2.5
  9
$DIMEXO
 40
0.625
  9
$DIMDLI
 40
10.0
  9
$DIMRND
 40
0.0
  9
$DIMDLE
 40
0.0
  9
$DIMEXE
 40
0.625
  9
$DIMTP
 40
0.1
  9
$DIMTM
 40
0.1
  9
$DIMTXT
 40
3.5
  9
$DIMCEN
 40
0.0
  9
$DIMTSZ
 40
0.0
  9
$DIMTOL
 70
     0
  9
$DIMLIM
 70
     0
  9
$DIMTIH
 70
     0
  9
$DIMTOH
 70
     0
  9
$DIMSE1
 70
     0
  9
$DIMSE2
 70
     0
  9
$DIMTAD
 70
     3
  9
$DIMZIN
 70
     8
  9
$DIMBLK
  1
Open30
  9
$DIMASO
 70
     1
  9
$DIMSHO
 70
     1
  9
$DIMPOST
  1

  9
$DIMAPOST
  1
"
  9
$DIMALT
 70
     0
  9
$DIMALTD
 70
     2
  9
$DIMALTF
 40
0.0393701
  9
$DIMLFAC
 40
1.0
  9
$DIMTOFL
 70
     1
  9
$DIMTVP
 40
0.0
  9
$DIMTIX
 70
     0
  9
$DIMSOXD
 70
     0
  9
$DIMSAH
 70
     0
  9
$DIMBLK1
  1

  9
$DIMBLK2
  1

  9
$DIMSTYLE
  2
SEISA
  9
$DIMCLRD
 70
     3
  9
$DIMCLRE
 70
     3
  9
$DIMCLRT
 70
     3
  9
$DIMTFAC
 40
0.71
  9
$DIMGAP
 40
1.5
  9
$DIMJUST
 70
     0
  9
$DIMSD1
 70
     0
  9
$DIMSD2
 70
     0
  9
$DIMTOLJ
 70
     0
  9
$DIMTZIN
 70
     0
  9
$DIMALTZ
 70
     0
  9
$DIMALTTZ
 70
     8
  9
$DIMUPT
 70
     0
  9
$DIMDEC
 70
     2
  9
$DIMTDEC
 70
     2
  9
$DIMALTU
 70
     2
  9
$DIMALTTD
 70
     2
  9
$DIMTXSTY
  7
SEISA
  9
$DIMAUNIT
 70
     0
  9
$DIMADEC
 70
     0
  9
$DIMALTRND
 40
0.0
  9
$DIMAZIN
 70
     2
  9
$DIMDSEP
 70
    46
  9
$DIMATFIT
 70
     3
  9
$DIMFRAC
 70
     0
  9
$DIMLDRBLK
  1
Open30
  9
$DIMLUNIT
 70
     2
  9
$DIMLWD
 70
    -1
  9
$DIMLWE
 70
    -1
  9
$DIMTMOVE
 70
     0
  9
$DIMFXL
 40
1.0
  9
$DIMFXLON
 70
     0
  9
$DIMJOGANG
 40
0.7853981633974483
  9
$DIMTFILL
 70
     0
  9
$DIMTFILLCLR
 70
     0
  9
$DIMARCSYM
 70
     1
  9
$DIMLTYPE
  6

  9
$DIMLTEX1
  6

  9
$DIMLTEX2
  6

  9
$LUNITS
 70
     2
  9
$LUPREC
 70
     2
  9
$SKETCHINC
 40
1.0
  9
$FILLETRAD
 40
1.6
  9
$AUNITS
 70
     0
  9
$AUPREC
 70
     0
  9
$MENU
  1
.
  9
$ELEVATION
 40
0.0
  9
$PELEVATION
 40
0.0
  9
$THICKNESS
 40
0.0
  9
$LIMCHECK
 70
     0
  9
$CHAMFERA
 40
1.0
  9
$CHAMFERB
 40
1.0
  9
$CHAMFERC
 40
7.999999999999772
  9
$CHAMFERD
 40
0.7853981633974625
  9
$SKPOLY
 70
     0
  9
$TDCREATE
 40
2454937.620681215
  9
$TDUCREATE
 40
2454937.245681215
  9
$TDUPDATE
 40
2456479.692836180
  9
$TDUUPDATE
 40
2456479.317836180
  9
$TDINDWG
 40
0.1891175463
  9
$TDUSRTIMER
 40
0.1891162847
  9
$USRTIMER
 70
     1
  9
$ANGBASE
 50
0.0
  9
$ANGDIR
 70
     0
  9
$PDMODE
 70
     0
  9
$PDSIZE
 40
0.0
  9
$PLINEWID
 40
0.0
  9
$SPLFRAME
 70
     0
  9
$SPLINETYPE
 70
     6
  9
$SPLINESEGS
 70
     8
  9
$HANDSEED
  5
73D5
  9
$SURFTAB1
 70
     6
  9
$SURFTAB2
 70
     6
  9
$SURFTYPE
 70
     6
  9
$SURFU
 70
     6
  9
$SURFV
 70
     6
  9
$UCSBASE
  2

  9
$UCSNAME
  2

  9
$UCSORG
 10
0.0
 20
0.0
 30
0.0
  9
$UCSXDIR
 10
1.0
 20
0.0
 30
0.0
  9
$UCSYDIR
 10
0.0
 20
1.0
 30
0.0
  9
$UCSORTHOREF
  2

  9
$UCSORTHOVIEW
 70
     0
  9
$UCSORGTOP
 10
0.0
 20
0.0
 30
0.0
  9
$UCSORGBOTTOM
 10
0.0
 20
0.0
 30
0.0
  9
$UCSORGLEFT
 10
0.0
 20
0.0
 30
0.0
  9
$UCSORGRIGHT
 10
0.0
 20
0.0
 30
0.0
  9
$UCSORGFRONT
 10
0.0
 20
0.0
 30
0.0
  9
$UCSORGBACK
 10
0.0
 20
0.0
 30
0.0
  9
$PUCSBASE
  2

  9
$PUCSNAME
  2

  9
$PUCSORG
 10
0.0
 20
0.0
 30
0.0
  9
$PUCSXDIR
 10
1.0
 20
0.0
 30
0.0
  9
$PUCSYDIR
 10
0.0
 20
1.0
 30
0.0
  9
$PUCSORTHOREF
  2

  9
$PUCSORTHOVIEW
 70
     0
  9
$PUCSORGTOP
 10
0.0
 20
0.0
 30
0.0
  9
$PUCSORGBOTTOM
 10
0.0
 20
0.0
 30
0.0
  9
$PUCSORGLEFT
 10
0.0
 20
0.0
 30
0.0
  9
$PUCSORGRIGHT
 10
0.0
 20
0.0
 30
0.0
  9
$PUCSORGFRONT
 10
0.0
 20
0.0
 30
0.0
  9
$PUCSORGBACK
 10
0.0
 20
0.0
 30
0.0
  9
$USERI1
 70
     0
  9
$USERI2
 70
     0
  9
$USERI3
 70
     0
  9
$USERI4
 70
     0
  9
$USERI5
 70
     0
  9
$USERR1
 40
0.0
  9
$USERR2
 40
0.0
  9
$USERR3
 40
0.0
  9
$USERR4
 40
0.0
  9
$USERR5
 40
0.0
  9
$WORLDVIEW
 70
     1
  9
$SHADEDGE
 70
     3
  9
$SHADEDIF
 70
    70
  9
$TILEMODE
 70
     1
  9
$MAXACTVP
 70
    64
  9
$PINSBASE
 10
0.0
 20
0.0
 30
0.0
  9
$PLIMCHECK
 70
     0
  9
$PEXTMIN
 10
1.000000000000000E+20
 20
1.000000000000000E+20
 30
1.000000000000000E+20
  9
$PEXTMAX
 10
-1.000000000000000E+20
 20
-1.000000000000000E+20
 30
-1.000000000000000E+20
  9
$PLIMMIN
 10
0.0
 20
0.0
  9
$PLIMMAX
 10
420.0
 20
297.0
  9
$UNITMODE
 70
     0
  9
$VISRETAIN
 70
     1
  9
$PLINEGEN
 70
     0
  9
$PSLTSCALE
 70
     1
  9
$TREEDEPTH
 70
  3020
  9
$CMLSTYLE
  2
Standard
  9
$CMLJUST
 70
     0
  9
$CMLSCALE
 40
20.0
  9
$PROXYGRAPHICS
 70
     1
  9
$MEASUREMENT
 70
     1
  9
$CELWEIGHT
370
    -1
  9
$ENDCAPS
280
     0
  9
$JOINSTYLE
280
     0
  9
$LWDISPLAY
290
     0
  9
$INSUNITS
 70
     4
  9
$HYPERLINKBASE
  1

  9
$STYLESHEET
  1
SEISA.CTB
  9
$XEDIT
290
     1
  9
$CEPSNTYPE
380
     0
  9
$PSTYLEMODE
290
     1
  9
$FINGERPRINTGUID
  2
{50A7CF71-8D26-4014-B34F-6D2276D0F55F}
  9
$VERSIONGUID
  2
{0702CAB8-682D-4C39-A748-5E988EAB7F12}
  9
$EXTNAMES
290
     1
  9
$PSVPSCALE
 40
0.0
  9
$OLESTARTUP
290
     0
  9
$SORTENTS
280
   127
  9
$INDEXCTL
280
     0
  9
$HIDETEXT
280
     0
  9
$XCLIPFRAME
290
     0
  9
$HALOGAP
280
     0
  9
$OBSCOLOR
 70
   257
  9
$OBSLTYPE
280
     0
  9
$INTERSECTIONDISPLAY
280
     0
  9
$INTERSECTIONCOLOR
 70
   257
  9
$DIMASSOC
280
     2
  9
$PROJECTNAME
  1

  9
$CAMERADISPLAY
290
     0
  9
$LENSLENGTH
 40
50.0
  9
$CAMERAHEIGHT
 40
0.0
  9
$STEPSPERSEC
 40
2.0
  9
$STEPSIZE
 40
6.0
  9
$3DDWFPREC
 40
2.0
  9
$PSOLWIDTH
 40
0.25
  9
$PSOLHEIGHT
 40
4.0
  9
$LOFTANG1
 40
1.570796326794896
  9
$LOFTANG2
 40
1.570796326794896
  9
$LOFTMAG1
 40
0.0
  9
$LOFTMAG2
 40
0.0
  9
$LOFTPARAM
 70
     7
  9
$LOFTNORMALS
280
     1
  9
$LATITUDE
 40
37.795
  9
$LONGITUDE
 40
-122.394
  9
$NORTHDIRECTION
 40
0.0
  9
$TIMEZONE
 70
 -8000
  9
$LIGHTGLYPHDISPLAY
280
     1
  9
$TILEMODELIGHTSYNCH
280
     1
  9
$CMATERIAL
347
27C
  9
$SOLIDHIST
280
     1
  9
$SHOWHIST
280
     1
  9
$DWFFRAME
280
     2
  9
$DGNFRAME
280
     0
  9
$REALWORLDSCALE
290
     1
  9
$INTERFERECOLOR
 62
     1
  9
$INTERFEREOBJVS
345
289
  9
$INTERFEREVPVS
346
286
  9
$CSHADOW
280
     0
  9
$SHADOWPLANELOCATION
 40
0.0
  0
ENDSEC
  0
SECTION
  2
CLASSES
  0
CLASS
  1
ACDBDICTIONARYWDFLT
  2
AcDbDictionaryWithDefault
  3
ObjectDBX Classes
 90
        0
 91
        1
280
     0
281
     0
  0
CLASS
  1
AMGSETTINGSOBJ
  2
AmgSettingsObj
  3
"AcadM|Product Description: AutoCAD Mechanical|Company: Autodesk, Inc."
 90
     1024
 91
        2
280
     0
281
     0
  0
CLASS
  1
ACME_DOCUMENT
  2
AcMeDbDoc
  3
AcMeServices
 90
     1024
 91
        1
280
     0
281
     0
  0
CLASS
  1
ACMESCOPE
  2
AcMeScope
  3
AcMeServices
 90
     1024
 91
        1
280
     0
281
     0
  0
CLASS
  1
ACMECOMMANDHISTORY
  2
AcMeCommandHistory
  3
AcMeServices
 90
     1024
 91
        1
280
     0
281
     0
  0
CLASS
  1
DICTIONARYVAR
  2
AcDbDictionaryVar
  3
ObjectDBX Classes
 90
        0
 91
        9
280
     0
281
     0
  0
CLASS
  1
ACIMSYSVARMAN
  2
AcImSysVarManager
  3
AcMeServices
 90
     1024
 91
        5
280
     0
281
     0
  0
CLASS
  1
ACIMREALSYSVAR
  2
AcImRealSysVar
  3
AcMeServices
 90
     1024
 91
        1
280
     0
281
     0
  0
CLASS
  1
ACIMINTSYSVAR
  2
AcImIntSysVar
  3
AcMeServices
 90
     1024
 91
       27
280
     0
281
     0
  0
CLASS
  1
ACMEDRAWINGMAN
  2
AcMeDrawingMan
  3
AcMeServices
 90
     1024
 91
        1
280
     0
281
     0
  0
CLASS
  1
ACMEVIEW
  2
AcMeView
  3
AcMeServices
 90
     1024
 91
        1
280
     0
281
     0
  0
CLASS
  1
ACDBENTITYCACHE
  2
AcMeEntityCache
  3
AcMeServices
 90
     1024
 91
        1
280
     0
281
     0
  0
CLASS
  1
GSMANAGER
  2
AcMeGSManager
  3
AcMeServices
 90
     1024
 91
        1
280
     0
281
     0
  0
CLASS
  1
AMDTINTERNALREACTOR
  2
AmdtInternalReactor
  3
AcMeServices
 90
     1024
 91
        2
280
     0
281
     0
  0
CLASS
  1
ACMESTATEMGR
  2
AcMeStateMgr
  3
AcMeServices
 90
     1024
 91
        1
280
     0
281
     0
  0
CLASS
  1
ACGREFMASTER
  2
AcGrefMaster
  3
AcAttribServices
 90
     1024
 91
        1
280
     0
281
     0
  0
CLASS
  1
ACME_DATABASE
  2
AcMeDbDatabase
  3
AcMeServices
 90
     1024
 91
        1
280
     0
281
     0
  0
CLASS
  1
ACRFINSADJUSTERMGR
  2
AcRfInsAdjusterMgr
  3
AcMeServices
 90
     1024
 91
        1
280
     0
281
     0
  0
CLASS
  1
ACGREFACADMASTER
  2
AcGrefacadMaster
  3
AcGrefServices
 90
     1024
 91
        1
280
     0
281
     0
  0
CLASS
  1
AMIMASTER
  2
AmiMaster
  3
AmiServices
 90
     1024
 91
        1
280
     0
281
     0
  0
CLASS
  1
ACIMSTRSYSVAR
  2
AcImStrSysVar
  3
AcMeServices
 90
     1024
 91
        5
280
     0
281
     0
  0
CLASS
  1
ACMSTANDARDJIS
  2
AcmStandardJIS
  3
"Amdt_StdImp|Product Description: AutoCAD Mechanical|Company: Autodesk, Inc."
 90
     1024
 91
        0
280
     0
281
     0
  0
CLASS
  1
AMGOBJPROPCFG
  2
AmgObjPropCfg
  3
"AmgLay|Product Description: AutoCAD Mechanical|Company: Autodesk, Inc."
 90
     1025
 91
        1
280
     0
281
     0
  0
CLASS
  1
ACMSURFSTANDARDJIS
  2
AcmSurfTextStdJIS
  3
"Amdt_StdImp|Product Description: AutoCAD Mechanical|Company: Autodesk, Inc."
 90
     1024
 91
        0
280
     0
281
     0
  0
CLASS
  1
ACMFCFSTANDARDJIS
  2
AcmFCFStdJIS
  3
"Amdt_StdImp|Product Description: AutoCAD Mechanical|Company: Autodesk, Inc."
 90
     1024
 91
        0
280
     0
281
     0
  0
CLASS
  1
ACMWELDSTANDARDJIS
  2
AcmWeldingStdJIS
  3
"Amdt_StdImp|Product Description: AutoCAD Mechanical|Company: Autodesk, Inc."
 90
     1024
 91
        0
280
     0
281
     0
  0
CLASS
  1
ACMIDSTANDARDJIS
  2
AcmIdStdJIS
  3
"Amdt_StdImp|Product Description: AutoCAD Mechanical|Company: Autodesk, Inc."
 90
     1024
 91
        0
280
     0
281
     0
  0
CLASS
  1
ACMDATUMSTANDARDJIS
  2
AcmDatumStdJIS
  3
"Amdt_StdImp|Product Description: AutoCAD Mechanical|Company: Autodesk, Inc."
 90
     1024
 91
        0
280
     0
281
     0
  0
CLASS
  1
ACMBOMSTANDARDJIS
  2
AcmBOMStdJIS
  3
"Amdt_StdImp|Product Description: AutoCAD Mechanical|Company: Autodesk, Inc."
 90
     1024
 91
        0
280
     0
281
     0
  0
CLASS
  1
ACMDETAILSTANDARDJIS
  2
AmdtDetailSymStdJIS
  3
"Amdt_StdImp|Product Description: AutoCAD Mechanical|Company: Autodesk, Inc."
 90
     1024
 91
        0
280
     0
281
     0
  0
CLASS
  1
ACMSECTIONSTANDARDJIS
  2
AmdtSectionSymStdJIS
  3
"Amdt_StdImp|Product Description: AutoCAD Mechanical|Company: Autodesk, Inc."
 90
     1024
 91
        0
280
     0
281
     0
  0
CLASS
  1
ACMCENTERLINESTANDARDJIS
  2
AmdtCenterLineStdJIS
  3
"Amdt_StdImp|Product Description: AutoCAD Mechanical|Company: Autodesk, Inc."
 90
     1024
 91
        0
280
     0
281
     0
  0
CLASS
  1
ACMTHREADLINESTANDARDJIS
  2
AmdtThreadLineStdJIS
  3
"Amdt_StdImp|Product Description: AutoCAD Mechanical|Company: Autodesk, Inc."
 90
     1024
 91
        0
280
     0
281
     0
  0
CLASS
  1
ACAMGLAYSTD
  2
AcAmgLayStd
  3
"AmgLay|Product Description: AutoCAD Mechanical|Company: Autodesk, Inc."
 90
     1024
 91
        1
280
     0
281
     0
  0
CLASS
  1
ACAMGDIMSTD
  2
AcAmgDimStd
  3
"AmgDim|Product Description: AutoCAD Mechanical|Company: Autodesk, Inc."
 90
     1024
 91
        1
280
     0
281
     0
  0
CLASS
  1
ACAMGTITLESTD
  2
AcAmgTitleStd
  3
"AmgTitle|Product Description: AutoCAD Mechanical|Company: Autodesk, Inc."
 90
     4095
 91
        1
280
     0
281
     0
  0
CLASS
  1
ACMDATADICTIONARY
  2
AcmDataDictionary
  3
"AcmSymBB|Product Description: AutoCAD Mechanical|Company: Autodesk, Inc."
 90
     1024
 91
        1
280
     0
281
     0
  0
CLASS
  1
ACMDATAENTRYBLOCK
  2
AcmDataEntryBlock
  3
AcmSymBB|Product Description: AutoCAD Mechanical|Company: Autodesk, Inc.
 90
     1024
 91
        0
280
     0
281
     0
  0
CLASS
  1
LAYER_INDEX
  2
AcDbLayerIndex
  3
ObjectDBX Classes
 90
        0
 91
        0
280
     0
281
     0
  0
CLASS
  1
IDBUFFER
  2
AcDbIdBuffer
  3
ObjectDBX Classes
 90
        0
 91
        0
280
     0
281
     0
  0
CLASS
  1
ACMNOTESTANDARDJIS
  2
AmdtNoteStdJIS
  3
"Amdt_StdImp|Product Description: AutoCAD Mechanical|Company: Autodesk, Inc."
 90
     1024
 91
        0
280
     0
281
     0
  0
CLASS
  1
ACAMGHOLECHARTSTDJIS
  2
AcAmgHoleChartStdJIS
  3
AmgDim|Product Description: AutoCAD Mechanical|Company: Autodesk, Inc.
 90
     1024
 91
        0
280
     0
281
     0
  0
CLASS
  1
AM_DRAWING_MGR
  2
AcDmDwgMgr
  3
AcMechDwgViewMgmt
 90
     1024
 91
        1
280
     0
281
     0
  0
CLASS
  1
AM_DWG_DOCUMENT
  2
AcDmDwgDocument
  3
AcMechDwgViewMgmt
 90
     1024
 91
        1
280
     0
281
     0
  0
CLASS
  1
AM_DWG_SHEET
  2
AcDmSheet
  3
AcMechDwgViewMgmt
 90
     1024
 91
        2
280
     0
281
     0
  0
CLASS
  1
AM_VIEWDIMPARMAP
  2
AcDmViewDimParMap
  3
AcMechDwgViewMgmt
 90
     1024
 91
        2
280
     0
281
     0
  0
CLASS
  1
AM_DWGMGR_NAME
  2
AcDmDwgMgrName
  3
AcMechDwgViewMgmt
 90
     1024
 91
        1
280
     0
281
     0
  0
CLASS
  1
AMDTMENUSTATEMGR
  2
AmdtMenuStateMgr
  3
McadcomServices
 90
     1024
 91
        1
280
     0
281
     0
  0
CLASS
  1
AMDTMCOMMENUSTATE
  2
AmdtMcomMenuState
  3
McadcomServices
 90
     1024
 91
        1
280
     0
281
     0
  0
CLASS
  1
MAPIAMMOUDLE
  2
MApiAmModule
  3
MApiAmServices
 90
     1024
 91
        1
280
     0
281
     0
  0
CLASS
  1
AMDTADMENUSTATE
  2
AmdtAdMenuState
  3
DesignerServices
 90
     1024
 91
        1
280
     0
281
     0
  0
CLASS
  1
ADAPPL
  2
AcAdAppl
  3
DesignerServices
 90
     1024
 91
        1
280
     0
281
     0
  0
CLASS
  1
DEPMGR
  2
AcAdDepMgr
  3
DesignerServices
 90
     1024
 91
        1
280
     0
281
     0
  0
CLASS
  1
PARAMMGR
  2
AcAdParamMgr
  3
DesignerServices
 90
     1024
 91
        1
280
     0
281
     0
  0
CLASS
  1
PARAMSCOPE
  2
AcAdParamScope
  3
DesignerServices
 90
     1024
 91
        1
280
     0
281
     0
  0
CLASS
  1
NAMEDAPPL
  2
AcAdNamedAppl
  3
DesignerServices
 90
     1024
 91
        1
280
     0
281
     0
  0
CLASS
  1
AMDTDMMENUSTATE
  2
AmdtDmMenuState
  3
AcMechDwgViewMgmt
 90
     1024
 91
        1
280
     0
281
     0
  0
CLASS
  1
AMDTAMMENUSTATE
  2
AmdtAmMenuState
  3
DesignerAssemblies
 90
     1024
 91
        1
280
     0
281
     0
  0
CLASS
  1
ACAMPROJECT
  2
AcAmProject
  3
DesignerAssemblies
 90
     1024
 91
        1
280
     0
281
     0
  0
CLASS
  1
ACAMGRCOMPDEF
  2
AcAmGrCompDef
  3
DesignerAssemblies
 90
     1024
 91
        1
280
     0
281
     0
  0
CLASS
  1
ACCMCONTEXT
  2
AcCmContext
  3
DesignerAssemblies
 90
     1024
 91
        1
280
     0
281
     0
  0
CLASS
  1
ACAMCOMPDEF
  2
AcAmCompDef
  3
DesignerAssemblies
 90
     1024
 91
        1
280
     0
281
     0
  0
CLASS
  1
ACAMCOMPDEFMGR
  2
AcAmCompDefMgr
  3
DesignerAssemblies
 90
     1024
 91
        1
280
     0
281
     0
  0
CLASS
  1
AMCONTEXTMGR
  2
AcAmContextMgr
  3
DesignerAssemblies
 90
     1024
 91
        1
280
     0
281
     0
  0
CLASS
  1
ACAMCONTEXTMODELER
  2
AcAmContextModeler
  3
DesignerAssemblies
 90
     1024
 91
        1
280
     0
281
     0
  0
CLASS
  1
CATALOGSTATE
  2
AcAmCatalogState
  3
DesignerAssemblies
 90
     1024
 91
        1
280
     0
281
     0
  0
CLASS
  1
ACAMGRCOMPDEFSET
  2
AcAmGrCompDefSet
  3
DesignerAssemblies
 90
     1024
 91
        1
280
     0
281
     0
  0
CLASS
  1
AMDTBROWSERDBTAB
  2
AmdtBrowserDbTab
  3
McadcomServices
 90
     1024
 91
        1
280
     0
281
     0
  0
CLASS
  1
CBROWSERAPPOBJECT
  2
CBrowserAppObject
  3
McadcomServices
 90
     1024
 91
        3
280
     0
281
     0
  0
CLASS
  1
DM_PLACEHOLDER
  2
AcDmSelsetPlaceholder
  3
AcMechDwgViewMgmt
 90
     1024
 91
        1
280
     0
281
     0
  0
CLASS
  1
TABLESTYLE
  2
AcDbTableStyle
  3
ObjectDBX Classes
 90
     4095
 91
        1
280
     0
281
     0
  0
CLASS
  1
VAACXREFPANELOBJECT
  2
VaAcXREFPanelObject
  3
VAAC_ADDIN
 90
        0
 91
        0
280
     0
281
     0
  0
CLASS
  1
VAACIMAGEINVENTORY
  2
VaAcImageInventory
  3
VAAC_ADDIN
 90
        0
 91
        0
280
     0
281
     0
  0
CLASS
  1
AMDTNOTETEMPLATEDB
  2
AmdtNoteTemplateDB
  3
AcmSymBB|Product Description: AutoCAD Mechanical|Company: Autodesk, Inc.
 90
     1024
 91
        6
280
     0
281
     0
  0
CLASS
  1
ACAMGFILTERDAT
  2
AcAmgFilterDat
  3
"AcadM|Product Description: AutoCAD Mechanical|Company: Autodesk, Inc."
 90
     1024
 91
        0
280
     0
281
     0
  0
CLASS
  1
MATERIAL
  2
AcDbMaterial
  3
ObjectDBX Classes
 90
     1153
 91
        3
280
     0
281
     0
  0
CLASS
  1
VISUALSTYLE
  2
AcDbVisualStyle
  3
ObjectDBX Classes
 90
     4095
 91
       16
280
     0
281
     0
  0
CLASS
  1
ACRFATTGENMGR
  2
AcRfAttGeneralMgr
  3
AcAttribServices
 90
     1024
 91
        0
280
     0
281
     0
  0
CLASS
  1
ACRFOBJATTMGR
  2
AcRfObjAttGroupMgr
  3
AcAttribServices
 90
     1024
 91
        0
280
     0
281
     0
  0
CLASS
  1
ACRFMCADAPIATTHOLDER
  2
AcRfMCADAPIAttHolder
  3
AcAttribServices
 90
     1024
 91
        0
280
     0
281
     0
  0
CLASS
  1
AMDTSYSATTR
  2
AmdtSystemAttribute
  3
AcAttribServices
 90
     1024
 91
        0
280
     0
281
     0
  0
CLASS
  1
ACMTAPERSTANDARDJIS
  2
AcmTaperStdJIS
  3
"Amdt_StdImp|Product Description: AutoCAD Mechanical|Company: Autodesk, Inc."
 90
     1024
 91
        0
280
     0
281
     0
  0
CLASS
  1
CAMSSTRUCTBTNSTATE
  2
StructBtnState
  3
DesignerAssemblies
 90
     1024
 91
        0
280
     0
281
     0
  0
CLASS
  1
SCALE
  2
AcDbScale
  3
ObjectDBX Classes
 90
     1153
 91
       37
280
     0
281
     0
  0
CLASS
  1
MLEADERSTYLE
  2
AcDbMLeaderStyle
  3
ACDB_MLEADERSTYLE_CLASS
 90
     4095
 91
        1
280
     0
281
     0
  0
CLASS
  1
ACMANOOTATIONVIEWSTANDARDJIS
  2
AmdtAnViewStdJIS
  3
"Amdt_StdImp|Product Description: AutoCAD Mechanical|Company: Autodesk, Inc."
 90
     1024
 91
        0
280
     0
281
     0
  0
CLASS
  1
ACMSURFSTANDARDJIS2003
  2
AcmSurfTextStdJIS2003
  3
"Amdt_StdImp|Product Description: AutoCAD Mechanical|Company: Autodesk, Inc."
 90
     1024
 91
        0
280
     0
281
     0
  0
CLASS
  1
CELLSTYLEMAP
  2
AcDbCellStyleMap
  3
ObjectDBX Classes
 90
     1152
 91
        2
280
     0
281
     0
  0
CLASS
  1
ACMFCFSTANDARDJIS98
  2
AcmFCFStdJIS98
  3
"Amdt_StdImp|Product Description: AutoCAD Mechanical|Company: Autodesk, Inc."
 90
     1024
 91
        0
280
     0
281
     0
  0
CLASS
  1
SORTENTSTABLE
  2
AcDbSortentsTable
  3
ObjectDBX Classes
 90
        0
 91
       13
280
     0
281
     0
  0
CLASS
  1
DIMASSOC
  2
AcDbDimAssoc
  3
"AcDbDimAssoc|Product Desc:     AcDim ARX App For Dimension|Company:          Autodesk, Inc.|WEB Address:      www.autodesk.com"
 90
        0
 91
       14
280
     0
281
     0
  0
CLASS
  1
STDPART2D
  2
AmgStdPart
  3
AmgStdPart|Product Description: AutoCAD Mechanical|Company: Autodesk, Inc.
 90
     4095
 91
        0
280
     0
281
     1
  0
CLASS
  1
ACMDATAENTRYPART
  2
AcmDataEntryPart
  3
AcmSymBB|Product Description: AutoCAD Mechanical|Company: Autodesk, Inc.
 90
     1024
 91
        0
280
     0
281
     0
  0
CLASS
  1
ACMPARTREF
  2
AcmPartRef
  3
"AcmSymBB|Product Description: AutoCAD Mechanical|Company: Autodesk, Inc."
 90
     4095
 91
        0
280
     0
281
     1
  0
CLASS
  1
ACDBSTDPARTRES_LINE
  2
AcDbStdPartRes_Line
  3
AmgStdPart|Product Description: AutoCAD Mechanical|Company: Autodesk, Inc.
 90
     1024
 91
        0
280
     0
281
     0
  0
CLASS
  1
ACMBOM
  2
AcmBom
  3
"AcmSymBB|Product Description: AutoCAD Mechanical|Company: Autodesk, Inc."
 90
     1024
 91
        0
280
     0
281
     0
  0
CLASS
  1
AMDTFORMULAUPDATEDISPATCHER
  2
AmdtFormulaUpdateDispatcher
  3
AcMeServices
 90
     1024
 91
        0
280
     0
281
     0
  0
CLASS
  1
ACMBOMROW
  2
AcmBomRow
  3
"AcmSymBB|Product Description: AutoCAD Mechanical|Company: Autodesk, Inc."
 90
     1024
 91
        0
280
     0
281
     0
  0
CLASS
  1
ACMPARTLIST
  2
AcmPartList
  3
"AcmSymBB|Product Description: AutoCAD Mechanical|Company: Autodesk, Inc."
 90
     4095
 91
        0
280
     0
281
     1
  0
CLASS
  1
ACDBLINERES
  2
AcDbLineRes
  3
AcGrefServices
 90
     1024
 91
        0
280
     0
281
     0
  0
CLASS
  1
ACRFINSADJ
  2
AcRfInsAdjuster
  3
AcMeServices
 90
     1024
 91
        0
280
     0
281
     0
  0
CLASS
  1
ACMSTANDARDISO
  2
AcmStandardISO
  3
"Amdt_StdImp|Product Description: AutoCAD Mechanical|Company: Autodesk, Inc."
 90
     1024
 91
        1
280
     0
281
     0
  0
CLASS
  1
AMDTEDGESTANDARDISO13715
  2
AmdtEdgeStdISO13715
  3
"Amdt_StdImp|Product Description: AutoCAD Mechanical|Company: Autodesk, Inc."
 90
     1024
 91
        1
280
     0
281
     0
  0
CLASS
  1
ACMSURFSTANDARDISO2002
  2
AcmSurfTextStdISO2002
  3
"Amdt_StdImp|Product Description: AutoCAD Mechanical|Company: Autodesk, Inc."
 90
     1024
 91
        1
280
     0
281
     0
  0
CLASS
  1
ACMFCFSTANDARDISO
  2
AcmFCFStdISO
  3
"Amdt_StdImp|Product Description: AutoCAD Mechanical|Company: Autodesk, Inc."
 90
     1024
 91
        1
280
     0
281
     0
  0
CLASS
  1
ACMWELDSTANDARDISO
  2
AcmWeldingStdISO
  3
"Amdt_StdImp|Product Description: AutoCAD Mechanical|Company: Autodesk, Inc."
 90
     1024
 91
        1
280
     0
281
     0
  0
CLASS
  1
ACMIDSTANDARDISO
  2
AcmIdStdISO
  3
"Amdt_StdImp|Product Description: AutoCAD Mechanical|Company: Autodesk, Inc."
 90
     1024
 91
        1
280
     0
281
     0
  0
CLASS
  1
ACMDATUMSTANDARDISO
  2
AcmDatumStdISO
  3
"Amdt_StdImp|Product Description: AutoCAD Mechanical|Company: Autodesk, Inc."
 90
     1024
 91
        1
280
     0
281
     0
  0
CLASS
  1
ACMBOMSTANDARDISO
  2
AcmBOMStdISO
  3
"Amdt_StdImp|Product Description: AutoCAD Mechanical|Company: Autodesk, Inc."
 90
     1024
 91
        1
280
     0
281
     0
  0
CLASS
  1
ACMDETAILSTANDARDISO
  2
AmdtDetailSymStdISO
  3
"Amdt_StdImp|Product Description: AutoCAD Mechanical|Company: Autodesk, Inc."
 90
     1024
 91
        1
280
     0
281
     0
  0
CLASS
  1
ACMSECTIONSTANDARDISO2001
  2
AmdtSectionSymStdISO2001
  3
"Amdt_StdImp|Product Description: AutoCAD Mechanical|Company: Autodesk, Inc."
 90
     1024
 91
        1
280
     0
281
     0
  0
CLASS
  1
ACMCENTERLINESTANDARDISO
  2
AmdtCenterLineStdISO
  3
"Amdt_StdImp|Product Description: AutoCAD Mechanical|Company: Autodesk, Inc."
 90
     1024
 91
        1
280
     0
281
     0
  0
CLASS
  1
ACMTHREADLINESTANDARDISO
  2
AmdtThreadLineStdISO
  3
"Amdt_StdImp|Product Description: AutoCAD Mechanical|Company: Autodesk, Inc."
 90
     1024
 91
        1
280
     0
281
     0
  0
CLASS
  1
ACMNOTESTANDARDISO
  2
AmdtNoteStdISO
  3
"Amdt_StdImp|Product Description: AutoCAD Mechanical|Company: Autodesk, Inc."
 90
     1024
 91
        1
280
     0
281
     0
  0
CLASS
  1
ACMTAPERSTANDARDISO
  2
AcmTaperStdISO
  3
"Amdt_StdImp|Product Description: AutoCAD Mechanical|Company: Autodesk, Inc."
 90
     1024
 91
        1
280
     0
281
     0
  0
CLASS
  1
ACMANOOTATIONVIEWSTANDARDISO
  2
AmdtAnViewStdISO
  3
"Amdt_StdImp|Product Description: AutoCAD Mechanical|Company: Autodesk, Inc."
 90
     1024
 91
        1
280
     0
281
     0
  0
CLASS
  1
ACAMGHOLECHARTSTDISO
  2
AcAmgHoleChartStdISO
  3
AmgDim|Product Description: AutoCAD Mechanical|Company: Autodesk, Inc.
 90
     1024
 91
        1
280
     0
281
     0
  0
CLASS
  1
EXACXREFPANELOBJECT
  2
ExAcXREFPanelObject
  3
EXAC_ESW
 90
     1025
 91
        0
280
     0
281
     0
  0
CLASS
  1
NPOCOLLECTION
  2
AcDbImpNonPersistentObjectsCollection
  3
ObjectDBX Classes
 90
     1153
 91
        0
280
     0
281
     0
  0
CLASS
  1
ACDBSTDPARTRES_ARC
  2
AcDbStdPartRes_Arc
  3
AmgStdPart|Product Description: AutoCAD Mechanical|Company: Autodesk, Inc.
 90
     1024
 91
        0
280
     0
281
     0
  0
CLASS
  1
AMDTNOTE
  2
AmdtNote
  3
"AcmSymBB|Product Description: AutoCAD Mechanical|Company: Autodesk, Inc."
 90
     4095
 91
        0
280
     0
281
     1
  0
CLASS
  1
PLOTSETTINGS
  2
AcDbPlotSettings
  3
ObjectDBX Classes
 90
        0
 91
        1
280
     0
281
     0
  0
CLASS
  1
ACMSTANDARDANSI
  2
AcmStandardANSI
  3
"Amdt_StdImp|Product Description: AutoCAD Mechanical|Company: Autodesk, Inc."
 90
     1024
 91
        0
280
     0
281
     0
  0
CLASS
  1
ACMSURFSTANDARDANSI
  2
AcmSurfTextStdANSI
  3
"Amdt_StdImp|Product Description: AutoCAD Mechanical|Company: Autodesk, Inc."
 90
     1024
 91
        0
280
     0
281
     0
  0
CLASS
  1
ACMFCFSTANDARDANSI
  2
AcmFCFStdANSI
  3
"Amdt_StdImp|Product Description: AutoCAD Mechanical|Company: Autodesk, Inc."
 90
     1024
 91
        0
280
     0
281
     0
  0
CLASS
  1
ACMWELDSTANDARDANSI
  2
AcmWeldingStdANSI
  3
"Amdt_StdImp|Product Description: AutoCAD Mechanical|Company: Autodesk, Inc."
 90
     1024
 91
        0
280
     0
281
     0
  0
CLASS
  1
ACMIDSTANDARDANSI
  2
AcmIdStdANSI
  3
"Amdt_StdImp|Product Description: AutoCAD Mechanical|Company: Autodesk, Inc."
 90
     1024
 91
        0
280
     0
281
     0
  0
CLASS
  1
ACMDATUMSTANDARDANSI
  2
AcmDatumStdANSI
  3
"Amdt_StdImp|Product Description: AutoCAD Mechanical|Company: Autodesk, Inc."
 90
     1024
 91
        0
280
     0
281
     0
  0
CLASS
  1
ACMBOMSTANDARDANSI
  2
AcmBOMStdANSI
  3
"Amdt_StdImp|Product Description: AutoCAD Mechanical|Company: Autodesk, Inc."
 90
     1024
 91
        0
280
     0
281
     0
  0
CLASS
  1
ACMDETAILSTANDARDANSI
  2
AmdtDetailSymStdANSI
  3
"Amdt_StdImp|Product Description: AutoCAD Mechanical|Company: Autodesk, Inc."
 90
     1024
 91
        0
280
     0
281
     0
  0
CLASS
  1
ACMSECTIONSTANDARDANSI
  2
AmdtSectionSymStdANSI
  3
"Amdt_StdImp|Product Description: AutoCAD Mechanical|Company: Autodesk, Inc."
 90
     1024
 91
        0
280
     0
281
     0
  0
CLASS
  1
ACMCENTERLINESTANDARDANSI
  2
AmdtCenterLineStdANSI
  3
"Amdt_StdImp|Product Description: AutoCAD Mechanical|Company: Autodesk, Inc."
 90
     1024
 91
        0
280
     0
281
     0
  0
CLASS
  1
ACMTHREADLINESTANDARDANSI
  2
AmdtThreadLineStdANSI
  3
"Amdt_StdImp|Product Description: AutoCAD Mechanical|Company: Autodesk, Inc."
 90
     1024
 91
        0
280
     0
281
     0
  0
CLASS
  1
ACMNOTESTANDARDANSI
  2
AmdtNoteStdANSI
  3
"Amdt_StdImp|Product Description: AutoCAD Mechanical|Company: Autodesk, Inc."
 90
     1024
 91
        0
280
     0
281
     0
  0
CLASS
  1
ACMTAPERSTANDARDANSI
  2
AcmTaperStdANSI
  3
"Amdt_StdImp|Product Description: AutoCAD Mechanical|Company: Autodesk, Inc."
 90
     1024
 91
        0
280
     0
281
     0
  0
CLASS
  1
ACMANOOTATIONVIEWSTANDARDANSI
  2
AmdtAnViewStdANSI
  3
"Amdt_StdImp|Product Description: AutoCAD Mechanical|Company: Autodesk, Inc."
 90
     1024
 91
        0
280
     0
281
     0
  0
CLASS
  1
ACAMGHOLECHARTSTDANSI
  2
AcAmgHoleChartStdANSI
  3
AmgDim|Product Description: AutoCAD Mechanical|Company: Autodesk, Inc.
 90
     1024
 91
        0
280
     0
281
     0
  0
CLASS
  1
ACMSTANDARDBSI
  2
AcmStandardBSI
  3
"Amdt_StdImp|Product Description: AutoCAD Mechanical|Company: Autodesk, Inc."
 90
     1024
 91
        0
280
     0
281
     0
  0
CLASS
  1
ACMSURFSTANDARDBSI2002
  2
AcmSurfTextStdBSI2002
  3
"Amdt_StdImp|Product Description: AutoCAD Mechanical|Company: Autodesk, Inc."
 90
     1024
 91
        0
280
     0
281
     0
  0
CLASS
  1
ACMFCFSTANDARDBSI
  2
AcmFCFStdBSI
  3
"Amdt_StdImp|Product Description: AutoCAD Mechanical|Company: Autodesk, Inc."
 90
     1024
 91
        0
280
     0
281
     0
  0
CLASS
  1
ACMWELDSTANDARDBSI
  2
AcmWeldingStdBSI
  3
"Amdt_StdImp|Product Description: AutoCAD Mechanical|Company: Autodesk, Inc."
 90
     1024
 91
        0
280
     0
281
     0
  0
CLASS
  1
ACMIDSTANDARDBSI
  2
AcmIdStdBSI
  3
"Amdt_StdImp|Product Description: AutoCAD Mechanical|Company: Autodesk, Inc."
 90
     1024
 91
        0
280
     0
281
     0
  0
CLASS
  1
ACMDATUMSTANDARDBSI
  2
AcmDatumStdBSI
  3
"Amdt_StdImp|Product Description: AutoCAD Mechanical|Company: Autodesk, Inc."
 90
     1024
 91
        0
280
     0
281
     0
  0
CLASS
  1
ACMBOMSTANDARDBSI
  2
AcmBOMStdBSI
  3
"Amdt_StdImp|Product Description: AutoCAD Mechanical|Company: Autodesk, Inc."
 90
     1024
 91
        0
280
     0
281
     0
  0
CLASS
  1
ACMDETAILSTANDARDBSI
  2
AmdtDetailSymStdBSI
  3
"Amdt_StdImp|Product Description: AutoCAD Mechanical|Company: Autodesk, Inc."
 90
     1024
 91
        0
280
     0
281
     0
  0
CLASS
  1
ACMSECTIONSTANDARDBSI2001
  2
AmdtSectionSymStdBSI2001
  3
"Amdt_StdImp|Product Description: AutoCAD Mechanical|Company: Autodesk, Inc."
 90
     1024
 91
        0
280
     0
281
     0
  0
CLASS
  1
ACMCENTERLINESTANDARDBSI
  2
AmdtCenterLineStdBSI
  3
"Amdt_StdImp|Product Description: AutoCAD Mechanical|Company: Autodesk, Inc."
 90
     1024
 91
        0
280
     0
281
     0
  0
CLASS
  1
ACMTHREADLINESTANDARDBSI
  2
AmdtThreadLineStdBSI
  3
"Amdt_StdImp|Product Description: AutoCAD Mechanical|Company: Autodesk, Inc."
 90
     1024
 91
        0
280
     0
281
     0
  0
CLASS
  1
ACMNOTESTANDARDBSI
  2
AmdtNoteStdBSI
  3
"Amdt_StdImp|Product Description: AutoCAD Mechanical|Company: Autodesk, Inc."
 90
     1024
 91
        0
280
     0
281
     0
  0
CLASS
  1
ACMTAPERSTANDARDBSI
  2
AcmTaperStdBSI
  3
"Amdt_StdImp|Product Description: AutoCAD Mechanical|Company: Autodesk, Inc."
 90
     1024
 91
        0
280
     0
281
     0
  0
CLASS
  1
ACMANOOTATIONVIEWSTANDARDBSI
  2
AmdtAnViewStdBSI
  3
"Amdt_StdImp|Product Description: AutoCAD Mechanical|Company: Autodesk, Inc."
 90
     1024
 91
        0
280
     0
281
     0
  0
CLASS
  1
ACAMGHOLECHARTSTDBSI
  2
AcAmgHoleChartStdBSI
  3
AmgDim|Product Description: AutoCAD Mechanical|Company: Autodesk, Inc.
 90
     1024
 91
        0
280
     0
281
     0
  0
CLASS
  1
AMDTEDGESTANDARDJIS
  2
AmdtEdgeStdJIS
  3
"Amdt_StdImp|Product Description: AutoCAD Mechanical|Company: Autodesk, Inc."
 90
     1024
 91
        0
280
     0
281
     0
  0
CLASS
  1
ACDB_BLKREFOBJECTCONTEXTDATA_CLASS
  2
AcDbBlkRefObjectContextData
  3
ObjectDBX Classes
 90
     1153
 91
        0
280
     0
281
     0
  0
CLASS
  1
ACMSURFSYM
  2
AcmSurfaceTexture
  3
"AcmSymBB|Product Description: AutoCAD Mechanical|Company: Autodesk, Inc."
 90
     4095
 91
        0
280
     0
281
     1
  0
CLASS
  1
ACDBDIMENSIONRES
  2
AcDbDimensionRes
  3
AcmSymBB|Product Description: AutoCAD Mechanical|Company: Autodesk, Inc.
 90
     1024
 91
        0
280
     0
281
     0
  0
CLASS
  1
ACDBCIRCARCRES
  2
AcDbCircArcRes
  3
AcGrefServices
 90
     1024
 91
        0
280
     0
281
     0
  0
CLASS
  1
AMDTACMWBLOCKBOMENTITY
  2
AmdtAcmWblockBomEntity
  3
"AcmSymBB|Product Description: AutoCAD Mechanical|Company: Autodesk, Inc."
 90
     4095
 91
        0
280
     0
281
     1
  0
CLASS
  1
ACDBOPPOLYLINERES
  2
AcDbOpPolylineRes
  3
AcGrefServices
 90
     1024
 91
        0
280
     0
281
     0
  0
CLASS
  1
ACMPICKOBJ
  2
AcmPickEnt
  3
"AcmSymBB|Product Description: AutoCAD Mechanical|Company: Autodesk, Inc."
 90
     1024
 91
        0
280
     0
281
     1
  0
CLASS
  1
ACMBALLOON
  2
AcmBalloon
  3
"AcmSymBB|Product Description: AutoCAD Mechanical|Company: Autodesk, Inc."
 90
     4095
 91
        0
280
     0
281
     1
  0
ENDSEC
  0
SECTION
  2
TABLES
  0
TABLE
  2
VPORT
  5
8
330
0
100
AcDbSymbolTable
 70
     1
  0
VPORT
  5
27A
330
8
100
AcDbSymbolTableRecord
100
AcDbViewportTableRecord
  2
*Active
 70
     0
 10
0.0
 20
0.0
 11
1.0
 21
1.0
 12
1307.969062247559
 22
1203.01859193365
 13
0.0
 23
0.0
 14
15.0
 24
15.0
 15
60.0
 25
60.0
 16
0.0
 26
0.0
 36
1.0
 17
0.0
 27
0.0
 37
0.0
 40
755.9382059421941
 41
1.571428571428571
 42
50.0
 43
0.0
 44
0.0
 50
0.0
 51
0.0
 71
    16
 72
 20000
 73
     1
 74
     3
 75
     0
 76
     0
 77
     0
 78
     0
281
     0
 65
     0
110
0.0
120
0.0
130
0.0
111
1.0
121
0.0
131
0.0
112
0.0
122
1.0
132
0.0
 79
     0
146
0.0
348
285
 60
     3
 61
     5
292
     1
282
     0
141
0.0
142
0.0
 63
   250
421
  3355443
  0
ENDTAB
  0
TABLE
  2
LTYPE
  5
5
330
0
100
AcDbSymbolTable
 70
    22
  0
LTYPE
  5
14
330
5
100
AcDbSymbolTableRecord
100
AcDbLinetypeTableRecord
  2
ByBlock
 70
     0
  3

 72
    65
 73
     0
 40
0.0
  0
LTYPE
  5
15
330
5
100
AcDbSymbolTableRecord
100
AcDbLinetypeTableRecord
  2
ByLayer
 70
     0
  3

 72
    65
 73
     0
 40
0.0
  0
LTYPE
  5
16
330
5
100
AcDbSymbolTableRecord
100
AcDbLinetypeTableRecord
  2
Continuous
 70
     0
  3
Solid line
 72
    65
 73
     0
 40
0.0
  0
LTYPE
  5
4D
330
5
100
AcDbSymbolTableRecord
100
AcDbLinetypeTableRecord
  2
AM_ISO02W050
 70
     0
  3
__ __ __ __ __ __ __ __ __ __ __ __ __ __ __
 72
    65
 73
     2
 40
7.5
 49
6.0
 74
     0
 49
-1.5
 74
     0
  0
LTYPE
  5
4E
330
5
100
AcDbSymbolTableRecord
100
AcDbLinetypeTableRecord
  2
AM_ISO08W050
 70
     0
  3
____ . ____ . ____ . ____ . ____ . ____ . ____
 72
    65
 73
     4
 40
18.0
 49
12.0
 74
     0
 49
-1.5
 74
     0
 49
3.0
 74
     0
 49
-1.5
 74
     0
  0
LTYPE
  5
4F
330
5
100
AcDbSymbolTableRecord
100
AcDbLinetypeTableRecord
  2
AM_ISO09W050
 70
     0
  3
_____ . . _____ . . _____ . . ____ .. ____
 72
    65
 73
     6
 40
22.5
 49
12.0
 74
     0
 49
-1.5
 74
     0
 49
3.0
 74
     0
 49
-1.5
 74
     0
 49
3.0
 74
     0
 49
-1.5
 74
     0
  0
LTYPE
  5
50
330
5
100
AcDbSymbolTableRecord
100
AcDbLinetypeTableRecord
  2
Amconstr
 70
     0
  3
_______________________
 72
    65
 73
     2
 40
9999.0
 49
9999.0
 74
     0
 49
0.0
 74
     0
  0
LTYPE
  5
51
330
5
100
AcDbSymbolTableRecord
100
AcDbLinetypeTableRecord
  2
AM_ISO08W050x2
 70
     0
  3
__ . __ . __ . __ . __ . __
 72
    65
 73
     4
 40
9.0
 49
6.0
 74
     0
 49
-0.75
 74
     0
 49
1.5
 74
     0
 49
-0.75
 74
     0
  0
LTYPE
  5
52
330
5
100
AcDbSymbolTableRecord
100
AcDbLinetypeTableRecord
  2
AM_ISO02W050x2
 70
     0
  3
 _ _ _ _ _ _ _ _ _ _ _ _
 72
    65
 73
     2
 40
3.75
 49
3.0
 74
     0
 49
-0.75
 74
     0
  0
LTYPE
  5
55
330
5
100
AcDbSymbolTableRecord
100
AcDbLinetypeTableRecord
  2
Amzigzag
 70
     0
  3
/\/-/\/-/\/-/\/-/\/-/\/
 72
    65
 73
     2
 40
11.0001
 49
0.0001
 74
     4
 75
   136
340
23D
 46
0.04
 50
0.0
 44
0.0
 45
0.0
 49
-11.0
 74
     0
  0
LTYPE
  5
65
330
5
100
AcDbSymbolTableRecord
100
AcDbLinetypeTableRecord
  2
CENTER
 70
     0
  3
__ . __
 72
    65
 73
     4
 40
7.0
 49
4.0
 74
     0
 49
-1.0
 74
     0
 49
1.0
 74
     0
 49
-1.0
 74
     0
  0
LTYPE
  5
E0
330
5
100
AcDbSymbolTableRecord
100
AcDbLinetypeTableRecord
  2
HIDDEN
 70
     0
  3
Hidden __ __ __ __ __ __ __ __ __ __ __ __ __ _
 72
    65
 73
     2
 40
9.524999999999996
 49
6.349999999999998
 74
     0
 49
-3.174999999999998
 74
     0
  0
LTYPE
  5
E1
330
5
100
AcDbSymbolTableRecord
100
AcDbLinetypeTableRecord
  2
PHANTOM2
 70
     0
  3
Phantom (.5x) ___ _ _ ___ _ _ ___ _ _ ___ _ _
 72
    65
 73
     6
 40
31.75
 49
15.875
 74
     0
 49
-3.174999999999998
 74
     0
 49
3.174999999999998
 74
     0
 49
-3.174999999999998
 74
     0
 49
3.174999999999998
 74
     0
 49
-3.174999999999998
 74
     0
  0
LTYPE
  5
5A2
330
5
100
AcDbSymbolTableRecord
100
AcDbLinetypeTableRecord
  2
ACJISWELD
 70
     0
  3
_ _ _ _ _
 72
    65
 73
     2
 40
2.0
 49
2.0
 74
     0
 49
-1.0
 74
     0
  0
LTYPE
  5
73C0
330
5
100
AcDbSymbolTableRecord
100
AcDbLinetypeTableRecord
  2
ACISOWELD
 70
     0
  3
_ _ _ _ _
 72
    65
 73
     2
 40
2.0
 49
2.0
 74
     0
 49
-1.0
 74
     0
  0
LTYPE
  5
73C1
330
5
100
AcDbSymbolTableRecord
100
AcDbLinetypeTableRecord
  2
ACISOTGB
 70
     0
  3
__ . . __ . .
 72
    65
 73
     6
 40
9.0
 49
4.0
 74
     0
 49
-1.0
 74
     0
 49
1.0
 74
     0
 49
-1.0
 74
     0
 49
1.0
 74
     0
 49
-1.0
 74
     0
  0
LTYPE
  5
73C2
330
5
100
AcDbSymbolTableRecord
100
AcDbLinetypeTableRecord
  2
ACISOTGL
 70
     0
  3
_ _ _ _ _
 72
    65
 73
     2
 40
3.0
 49
2.0
 74
     0
 49
-1.0
 74
     0
  0
ENDTAB
  0
TABLE
  2
LAYER
  5
2
102
{ACAD_XDICTIONARY
360
BF
102
}
330
0
100
AcDbSymbolTable
 70
    10
  0
LAYER
  5
10
102
{ACAD_XDICTIONARY
360
29F7
102
}
330
2
100
AcDbSymbolTableRecord
100
AcDbLayerTableRecord
  2
0
 70
     0
 62
     7
  6
Continuous
370
    -3
390
F
347
27E
  0
LAYER
  5
81
102
{ACAD_XDICTIONARY
360
29F9
102
}
330
2
100
AcDbSymbolTableRecord
100
AcDbLayerTableRecord
  2
AM_0 外形線1
 70
     0
 62
     7
  6
Continuous
370
    25
390
F
347
27E
  0
LAYER
  5
427
330
2
100
AcDbSymbolTableRecord
100
AcDbLayerTableRecord
  2
Defpoints
 70
     0
 62
     7
  6
Continuous
290
     0
370
    -3
390
F
347
27E
  0
LAYER
  5
2DED
330
2
100
AcDbSymbolTableRecord
100
AcDbLayerTableRecord
  2
002
 70
     0
 62
     7
  6
Continuous
370
    -3
390
F
347
27E
  0
LAYER
  5
3C24
330
2
100
AcDbSymbolTableRecord
100
AcDbLayerTableRecord
  2
AM_5 寸法線
 70
     0
 62
     3
  6
Continuous
370
    13
390
F
347
27E
1001
AcAecLayerStandard
1000

1000

  0
LAYER
  5
3C25
330
2
100
AcDbSymbolTableRecord
100
AcDbLayerTableRecord
  2
AM_4 細線
 70
     0
 62
     4
  6
Continuous
370
    13
390
F
347
27E
1001
AcAecLayerStandard
1000

1000

  0
LAYER
  5
3C26
330
2
100
AcDbSymbolTableRecord
100
AcDbLayerTableRecord
  2
AM_7 中心線
 70
     0
 62
     1
  6
AM_ISO08W050
370
    13
390
F
347
27E
1001
AcAecLayerStandard
1000

1000

  0
LAYER
  5
3C27
330
2
100
AcDbSymbolTableRecord
100
AcDbLayerTableRecord
  2
AM_3 隠れ線
 70
     0
 62
     8
  6
ACJISWELD
370
    13
390
F
347
27E
1001
AcAecLayerStandard
1000

1000

  0
LAYER
  5
3C2A
330
2
100
AcDbSymbolTableRecord
100
AcDbLayerTableRecord
  2
AM_6 文字
 70
     0
 62
     2
  6
Continuous
370
    13
390
F
347
27E
1001
AcAecLayerStandard
1000

1000

  0
ENDTAB
  0
TABLE
  2
STYLE
  5
3
330
0
100
AcDbSymbolTable
 70
    10
  0
STYLE
  5
11
330
3
100
AcDbSymbolTableRecord
100
AcDbTextStyleTableRecord
  2
STANDARD
 70
     0
 40
0.0
 41
1.0
 50
0.0
 71
     0
 42
25.0
  3
ISOCP.SHX
  4
EXTFONT.SHX
  0
STYLE
  5
23D
330
3
100
AcDbSymbolTableRecord
100
AcDbTextStyleTableRecord
  2

 70
     1
 40
0.0
 41
1.0
 50
0.0
 71
     0
 42
2.5
  3
genltshp.shx
  4

  0
STYLE
  5
5D5
330
3
100
AcDbSymbolTableRecord
100
AcDbTextStyleTableRecord
  2
SEISA
 70
     0
 40
0.0
 41
0.9
 50
0.0
 71
     0
 42
25.0
  3
romans.shx
  4
extfont2.shx
  0
STYLE
  5
73B0
330
3
100
AcDbSymbolTableRecord
100
AcDbTextStyleTableRecord
  2
ACISOTS
 70
     0
 40
1.0
 41
1.0
 50
0.0
 71
     0
 42
25.0
  3
isocp.shx
  4
extfont.shx
  0
STYLE
  5
73BF
330
3
100
AcDbSymbolTableRecord
100
AcDbTextStyleTableRecord
  2
ACISOGDT
 70
     0
 40
0.0
 41
1.0
 50
0.0
 71
     0
 42
25.0
  3
amgdt.shx
  4

  0
ENDTAB
  0
TABLE
  2
VIEW
  5
6
330
0
100
AcDbSymbolTable
 70
     6
  0
VIEW
  5
91B
330
6
100
AcDbSymbolTableRecord
100
AcDbViewTableRecord
  2
AM_VIEW1
 70
     0
 40
891.0000000000001
 10
861.373153857963
 20
1336.500002216292
 41
1722.746305418719
 11
0.0
 21
0.0
 31
1.0
 12
0.0
 22
0.0
 32
0.0
 42
50.0
 43
0.0
 44
0.0
 50
0.0
 71
    16
281
     0
 72
     0
 73
     0
  0
VIEW
  5
91C
330
6
100
AcDbSymbolTableRecord
100
AcDbViewTableRecord
  2
AM_VIEW2
 70
     0
 40
891.0000000000001
 10
1658.626848439243
 20
1336.500002216292
 41
1722.746305418719
 11
0.0
 21
0.0
 31
1.0
 12
0.0
 22
0.0
 32
0.0
 42
50.0
 43
0.0
 44
0.0
 50
0.0
 71
    16
281
     0
 72
     0
 73
     0
  0
VIEW
  5
91D
330
6
100
AcDbSymbolTableRecord
100
AcDbViewTableRecord
  2
AM_VIEW3
 70
     0
 40
891.0000000000001
 10
861.373153857963
 20
445.5000022162923
 41
1722.746305418719
 11
0.0
 21
0.0
 31
1.0
 12
0.0
 22
0.0
 32
0.0
 42
50.0
 43
0.0
 44
0.0
 50
0.0
 71
    16
281
     0
 72
     0
 73
     0
  0
VIEW
  5
91E
330
6
100
AcDbSymbolTableRecord
100
AcDbViewTableRecord
  2
AM_VIEW4
 70
     0
 40
891.0000000000001
 10
1658.626848439243
 20
445.5000022162923
 41
1722.746305418719
 11
0.0
 21
0.0
 31
1.0
 12
0.0
 22
0.0
 32
0.0
 42
50.0
 43
0.0
 44
0.0
 50
0.0
 71
    16
281
     0
 72
     0
 73
     0
  0
VIEW
  5
91F
330
6
100
AcDbSymbolTableRecord
100
AcDbViewTableRecord
  2
AM_VIEW5
 70
     0
 40
891.0000000000001
 10
1260.000001148603
 20
891.0000022162925
 41
1722.74630541872
 11
0.0
 21
0.0
 31
1.0
 12
0.0
 22
0.0
 32
0.0
 42
50.0
 43
0.0
 44
0.0
 50
0.0
 71
    16
281
     0
 72
     0
 73
     0
  0
VIEW
  5
920
330
6
100
AcDbSymbolTableRecord
100
AcDbViewTableRecord
  2
AM_VIEW6
 70
     0
 40
1781.98218
 10
1260.000001148603
 20
891.0000022162925
 41
3445.458155911332
 11
0.0
 21
0.0
 31
1.0
 12
0.0
 22
0.0
 32
0.0
 42
50.0
 43
0.0
 44
0.0
 50
0.0
 71
    16
281
     0
 72
     0
 73
     0
  0
ENDTAB
  0
TABLE
  2
UCS
  5
7
330
0
100
AcDbSymbolTable
 70
     0
  0
ENDTAB
  0
TABLE
  2
APPID
  5
9
330
0
100
AcDbSymbolTable
 70
   396
  0
APPID
  5
12
330
9
100
AcDbSymbolTableRecord
100
AcDbRegAppTableRecord
  2
ACAD
 70
     0
  0
APPID
  5
30
330
9
100
AcDbSymbolTableRecord
100
AcDbRegAppTableRecord
  2
MCAD_NO_VIS
 70
     0
  0
APPID
  5
31
330
9
100
AcDbSymbolTableRecord
100
AcDbRegAppTableRecord
  2
ACAD_TEMP_GRAPHIC
 70
     0
  0
APPID
  5
44
330
9
100
AcDbSymbolTableRecord
100
AcDbRegAppTableRecord
  2
ACATTRIBSERVICES
 70
     0
  0
APPID
  5
F6
330
9
100
AcDbSymbolTableRecord
100
AcDbRegAppTableRecord
  2
AD_DRAW
 70
     0
  0
APPID
  5
114
330
9
100
AcDbSymbolTableRecord
100
AcDbRegAppTableRecord
  2
DESIGNERASSEMBLIES
 70
     0
  0
APPID
  5
118
330
9
100
AcDbSymbolTableRecord
100
AcDbRegAppTableRecord
  2
ACADM_DIM_EDIT
 70
     0
  0
APPID
  5
119
330
9
100
AcDbSymbolTableRecord
100
AcDbRegAppTableRecord
  2
AMDT_DM_ADJ
 70
     0
  0
APPID
  5
1AF
330
9
100
AcDbSymbolTableRecord
100
AcDbRegAppTableRecord
  2
ACAD_DSTYLE_DIMARC_LENGTH_SYMBOL
 70
     0
  0
APPID
  5
1B0
330
9
100
AcDbSymbolTableRecord
100
AcDbRegAppTableRecord
  2
ACAD_DSTYLE_DIMJOGGED_JOGANGLE_SYMBOL
 70
     0
  0
APPID
  5
2D7
330
9
100
AcDbSymbolTableRecord
100
AcDbRegAppTableRecord
  2
ACAD_MLEADERVER
 70
     0
  0
APPID
  5
355
330
9
100
AcDbSymbolTableRecord
100
AcDbRegAppTableRecord
  2
AcadAnnoPO
 70
     0
  0
APPID
  5
428
330
9
100
AcDbSymbolTableRecord
100
AcDbRegAppTableRecord
  2
ACAD_DSTYLE_DIMTEXT_FILL
 70
     0
  0
APPID
  5
429
330
9
100
AcDbSymbolTableRecord
100
AcDbRegAppTableRecord
  2
GENIUS_GENSCREG_15
 70
     0
  0
APPID
  5
42A
330
9
100
AcDbSymbolTableRecord
100
AcDbRegAppTableRecord
  2
GENIUS_GENOBJ-N-SDF_13
 70
     0
  0
APPID
  5
42B
330
9
100
AcDbSymbolTableRecord
100
AcDbRegAppTableRecord
  2
GENIUS_GENODEF_13
 70
     0
  0
APPID
  5
42C
330
9
100
AcDbSymbolTableRecord
100
AcDbRegAppTableRecord
  2
ACAD_EXEMPT_FROM_CAD_STANDARDS
 70
     0
  0
APPID
  5
42D
330
9
100
AcDbSymbolTableRecord
100
AcDbRegAppTableRecord
  2
AcAecLayerStandard
 70
     0
  0
APPID
  5
42E
330
9
100
AcDbSymbolTableRecord
100
AcDbRegAppTableRecord
  2
GENIUS_GENOBJ-N-CEN_13
 70
     0
  0
APPID
  5
42F
330
9
100
AcDbSymbolTableRecord
100
AcDbRegAppTableRecord
  2
GENIUS_GENCEN_19
 70
     0
  0
APPID
  5
430
330
9
100
AcDbSymbolTableRecord
100
AcDbRegAppTableRecord
  2
ACAD_DSTYLE_DIMINSPECT
 70
     0
  0
APPID
  5
431
330
9
100
AcDbSymbolTableRecord
100
AcDbRegAppTableRecord
  2
GENIUS_AMGTXT_16
 70
     0
  0
APPID
  5
432
330
9
100
AcDbSymbolTableRecord
100
AcDbRegAppTableRecord
  2
GENIUS_GENFIL_13
 70
     0
  0
APPID
  5
433
330
9
100
AcDbSymbolTableRecord
100
AcDbRegAppTableRecord
  2
GENIUS_GENOLIS_13
 70
     0
  0
APPID
  5
434
330
9
100
AcDbSymbolTableRecord
100
AcDbRegAppTableRecord
  2
GENIUS_GENOBJ-N-CHA_13
 70
     0
  0
APPID
  5
435
330
9
100
AcDbSymbolTableRecord
100
AcDbRegAppTableRecord
  2
GENIUS_GENOENT_13
 70
     0
  0
APPID
  5
436
330
9
100
AcDbSymbolTableRecord
100
AcDbRegAppTableRecord
  2
GENIUS_GENOREF_13
 70
     0
  0
APPID
  5
437
330
9
100
AcDbSymbolTableRecord
100
AcDbRegAppTableRecord
  2
GENIUS_GENOBJ-N-FIL_13
 70
     0
  0
APPID
  5
438
330
9
100
AcDbSymbolTableRecord
100
AcDbRegAppTableRecord
  2
GEVID1208829536
 70
     0
  0
APPID
  5
439
330
9
100
AcDbSymbolTableRecord
100
AcDbRegAppTableRecord
  2
GEVDC
 70
     0
  0
APPID
  5
43A
330
9
100
AcDbSymbolTableRecord
100
AcDbRegAppTableRecord
  2
GEVRADREF
 70
     0
  0
APPID
  5
43B
330
9
100
AcDbSymbolTableRecord
100
AcDbRegAppTableRecord
  2
GENIUS_GENBH_13
 70
     0
  0
APPID
  5
43C
330
9
100
AcDbSymbolTableRecord
100
AcDbRegAppTableRecord
  2
GENIUS_GENOBJ-NBEHI-BHF_13
 70
     0
  0
APPID
  5
43D
330
9
100
AcDbSymbolTableRecord
100
AcDbRegAppTableRecord
  2
GENIUS_GENOBJ-NBEHI-BHB_13
 70
     0
  0
APPID
  5
43E
330
9
100
AcDbSymbolTableRecord
100
AcDbRegAppTableRecord
  2
GEVID1208829537
 70
     0
  0
APPID
  5
43F
330
9
100
AcDbSymbolTableRecord
100
AcDbRegAppTableRecord
  2
ACAD_DSTYLE_DIMJAG
 70
     0
  0
APPID
  5
440
330
9
100
AcDbSymbolTableRecord
100
AcDbRegAppTableRecord
  2
ACAD_DSTYLE_DIMTALN
 70
     0
  0
APPID
  5
441
330
9
100
AcDbSymbolTableRecord
100
AcDbRegAppTableRecord
  2
AMG_2DHIDE
 70
     0
  0
APPID
  5
442
330
9
100
AcDbSymbolTableRecord
100
AcDbRegAppTableRecord
  2
AMG_2DSTRUCT_BTR
 70
     0
  0
APPID
  5
443
330
9
100
AcDbSymbolTableRecord
100
AcDbRegAppTableRecord
  2
GEVID1208845772
 70
     0
  0
APPID
  5
444
330
9
100
AcDbSymbolTableRecord
100
AcDbRegAppTableRecord
  2
GEVID1208845773
 70
     0
  0
APPID
  5
445
330
9
100
AcDbSymbolTableRecord
100
AcDbRegAppTableRecord
  2
ACADM_2DVIEW_IGN_NOTIFY
 70
     0
  0
APPID
  5
446
330
9
100
AcDbSymbolTableRecord
100
AcDbRegAppTableRecord
  2
GEVID1208845774
 70
     0
  0
APPID
  5
447
330
9
100
AcDbSymbolTableRecord
100
AcDbRegAppTableRecord
  2
GEVID1208845775
 70
     0
  0
APPID
  5
448
330
9
100
AcDbSymbolTableRecord
100
AcDbRegAppTableRecord
  2
GEVID1208845776
 70
     0
  0
APPID
  5
449
330
9
100
AcDbSymbolTableRecord
100
AcDbRegAppTableRecord
  2
GEVID1208845777
 70
     0
  0
APPID
  5
44A
330
9
100
AcDbSymbolTableRecord
100
AcDbRegAppTableRecord
  2
GEVCON
 70
     0
  0
APPID
  5
44B
330
9
100
AcDbSymbolTableRecord
100
AcDbRegAppTableRecord
  2
GENIUS_GENOBJ-F-SCPASSM_13
 70
     0
  0
APPID
  5
44C
330
9
100
AcDbSymbolTableRecord
100
AcDbRegAppTableRecord
  2
GEVID1208845778
 70
     0
  0
APPID
  5
44D
330
9
100
AcDbSymbolTableRecord
100
AcDbRegAppTableRecord
  2
GEVID1208845779
 70
     0
  0
APPID
  5
44E
330
9
100
AcDbSymbolTableRecord
100
AcDbRegAppTableRecord
  2
GEVID1208845780
 70
     0
  0
APPID
  5
44F
330
9
100
AcDbSymbolTableRecord
100
AcDbRegAppTableRecord
  2
GEVID1208845781
 70
     0
  0
APPID
  5
450
330
9
100
AcDbSymbolTableRecord
100
AcDbRegAppTableRecord
  2
GEVID1208845782
 70
     0
  0
APPID
  5
451
330
9
100
AcDbSymbolTableRecord
100
AcDbRegAppTableRecord
  2
GEVID1208845783
 70
     0
  0
APPID
  5
452
330
9
100
AcDbSymbolTableRecord
100
AcDbRegAppTableRecord
  2
GEVID1208845784
 70
     0
  0
APPID
  5
453
330
9
100
AcDbSymbolTableRecord
100
AcDbRegAppTableRecord
  2
GEVID1208845785
 70
     0
  0
APPID
  5
454
330
9
100
AcDbSymbolTableRecord
100
AcDbRegAppTableRecord
  2
GEVID1208845787
 70
     0
  0
APPID
  5
455
330
9
100
AcDbSymbolTableRecord
100
AcDbRegAppTableRecord
  2
GEVID1208845788
 70
     0
  0
APPID
  5
456
330
9
100
AcDbSymbolTableRecord
100
AcDbRegAppTableRecord
  2
GEVID1208845789
 70
     0
  0
APPID
  5
457
330
9
100
AcDbSymbolTableRecord
100
AcDbRegAppTableRecord
  2
GEVID1208845790
 70
     0
  0
APPID
  5
458
330
9
100
AcDbSymbolTableRecord
100
AcDbRegAppTableRecord
  2
GEVID1208845791
 70
     0
  0
APPID
  5
459
330
9
100
AcDbSymbolTableRecord
100
AcDbRegAppTableRecord
  2
GEVID1208845792
 70
     0
  0
APPID
  5
45A
330
9
100
AcDbSymbolTableRecord
100
AcDbRegAppTableRecord
  2
GEVID1208845793
 70
     0
  0
APPID
  5
45B
330
9
100
AcDbSymbolTableRecord
100
AcDbRegAppTableRecord
  2
GEVID1208845794
 70
     0
  0
APPID
  5
45C
330
9
100
AcDbSymbolTableRecord
100
AcDbRegAppTableRecord
  2
GEVID1208845795
 70
     0
  0
APPID
  5
45D
330
9
100
AcDbSymbolTableRecord
100
AcDbRegAppTableRecord
  2
GEVID1208845796
 70
     0
  0
APPID
  5
45E
330
9
100
AcDbSymbolTableRecord
100
AcDbRegAppTableRecord
  2
GEVID1208845797
 70
     0
  0
APPID
  5
45F
330
9
100
AcDbSymbolTableRecord
100
AcDbRegAppTableRecord
  2
GEVID1208845798
 70
     0
  0
APPID
  5
460
330
9
100
AcDbSymbolTableRecord
100
AcDbRegAppTableRecord
  2
GEVID1208845799
 70
     0
  0
APPID
  5
461
330
9
100
AcDbSymbolTableRecord
100
AcDbRegAppTableRecord
  2
GEVID1208845800
 70
     0
  0
APPID
  5
462
330
9
100
AcDbSymbolTableRecord
100
AcDbRegAppTableRecord
  2
GEVID1208845801
 70
     0
  0
APPID
  5
463
330
9
100
AcDbSymbolTableRecord
100
AcDbRegAppTableRecord
  2
GEVID1208845802
 70
     0
  0
APPID
  5
464
330
9
100
AcDbSymbolTableRecord
100
AcDbRegAppTableRecord
  2
GENIUS_GENOBJ-N-DIM_13
 70
     0
  0
APPID
  5
465
330
9
100
AcDbSymbolTableRecord
100
AcDbRegAppTableRecord
  2
GENIUS_GENDIM_13
 70
     0
  0
APPID
  5
466
330
9
100
AcDbSymbolTableRecord
100
AcDbRegAppTableRecord
  2
GENIUS_GENDIMSH_14
 70
     0
  0
APPID
  5
467
330
9
100
AcDbSymbolTableRecord
100
AcDbRegAppTableRecord
  2
GEVID1208845803
 70
     0
  0
APPID
  5
468
330
9
100
AcDbSymbolTableRecord
100
AcDbRegAppTableRecord
  2
GEVID1208845804
 70
     0
  0
APPID
  5
469
330
9
100
AcDbSymbolTableRecord
100
AcDbRegAppTableRecord
  2
GEVID1208845805
 70
     0
  0
APPID
  5
46A
330
9
100
AcDbSymbolTableRecord
100
AcDbRegAppTableRecord
  2
GEVID1208845806
 70
     0
  0
APPID
  5
46B
330
9
100
AcDbSymbolTableRecord
100
AcDbRegAppTableRecord
  2
GEVID1208845807
 70
     0
  0
APPID
  5
46C
330
9
100
AcDbSymbolTableRecord
100
AcDbRegAppTableRecord
  2
GEVID1208845808
 70
     0
  0
APPID
  5
46D
330
9
100
AcDbSymbolTableRecord
100
AcDbRegAppTableRecord
  2
GEVID1208845809
 70
     0
  0
APPID
  5
46E
330
9
100
AcDbSymbolTableRecord
100
AcDbRegAppTableRecord
  2
GEVID1208845810
 70
     0
  0
APPID
  5
46F
330
9
100
AcDbSymbolTableRecord
100
AcDbRegAppTableRecord
  2
GEVID1208845811
 70
     0
  0
APPID
  5
470
330
9
100
AcDbSymbolTableRecord
100
AcDbRegAppTableRecord
  2
GEVID1208845813
 70
     0
  0
APPID
  5
471
330
9
100
AcDbSymbolTableRecord
100
AcDbRegAppTableRecord
  2
GEVID1208845814
 70
     0
  0
APPID
  5
472
330
9
100
AcDbSymbolTableRecord
100
AcDbRegAppTableRecord
  2
GEVID1208845815
 70
     0
  0
APPID
  5
473
330
9
100
AcDbSymbolTableRecord
100
AcDbRegAppTableRecord
  2
GEVID1208845816
 70
     0
  0
APPID
  5
474
330
9
100
AcDbSymbolTableRecord
100
AcDbRegAppTableRecord
  2
GEVID1208845817
 70
     0
  0
APPID
  5
475
330
9
100
AcDbSymbolTableRecord
100
AcDbRegAppTableRecord
  2
GEVID1208845818
 70
     0
  0
APPID
  5
476
330
9
100
AcDbSymbolTableRecord
100
AcDbRegAppTableRecord
  2
GEVID1208845819
 70
     0
  0
APPID
  5
477
330
9
100
AcDbSymbolTableRecord
100
AcDbRegAppTableRecord
  2
GEVID1208845820
 70
     0
  0
APPID
  5
478
330
9
100
AcDbSymbolTableRecord
100
AcDbRegAppTableRecord
  2
GENIUS_GENOBJ-F-SHCL_13
 70
     0
  0
APPID
  5
479
330
9
100
AcDbSymbolTableRecord
100
AcDbRegAppTableRecord
  2
GENIUS_GEFMSH_13
 70
     0
  0
APPID
  5
47A
330
9
100
AcDbSymbolTableRecord
100
AcDbRegAppTableRecord
  2
GENIUS_GENOBJ-F-SHCA_13
 70
     0
  0
APPID
  5
47B
330
9
100
AcDbSymbolTableRecord
100
AcDbRegAppTableRecord
  2
GENIUS_GEFSH_13
 70
     0
  0
APPID
  5
47C
330
9
100
AcDbSymbolTableRecord
100
AcDbRegAppTableRecord
  2
GENIUS_GEFSHP_13
 70
     0
  0
APPID
  5
47D
330
9
100
AcDbSymbolTableRecord
100
AcDbRegAppTableRecord
  2
GENIUS_GEFSHP0_13
 70
     0
  0
APPID
  5
47E
330
9
100
AcDbSymbolTableRecord
100
AcDbRegAppTableRecord
  2
GENIUS_GEFSH0_13
 70
     0
  0
APPID
  5
47F
330
9
100
AcDbSymbolTableRecord
100
AcDbRegAppTableRecord
  2
GENIUS_GEFSHP1_13
 70
     0
  0
APPID
  5
480
330
9
100
AcDbSymbolTableRecord
100
AcDbRegAppTableRecord
  2
GENIUS_GEFSH1_13
 70
     0
  0
APPID
  5
481
330
9
100
AcDbSymbolTableRecord
100
AcDbRegAppTableRecord
  2
GEVID1208866337
 70
     0
  0
APPID
  5
482
330
9
100
AcDbSymbolTableRecord
100
AcDbRegAppTableRecord
  2
GEVID1208866338
 70
     0
  0
APPID
  5
483
330
9
100
AcDbSymbolTableRecord
100
AcDbRegAppTableRecord
  2
GEVID1208866339
 70
     0
  0
APPID
  5
484
330
9
100
AcDbSymbolTableRecord
100
AcDbRegAppTableRecord
  2
GEVID1208866340
 70
     0
  0
APPID
  5
485
330
9
100
AcDbSymbolTableRecord
100
AcDbRegAppTableRecord
  2
GEVID1208866341
 70
     0
  0
APPID
  5
486
330
9
100
AcDbSymbolTableRecord
100
AcDbRegAppTableRecord
  2
ACAD_PSEXT
 70
     0
  0
APPID
  5
487
330
9
100
AcDbSymbolTableRecord
100
AcDbRegAppTableRecord
  2
GEVID1208866342
 70
     0
  0
APPID
  5
488
330
9
100
AcDbSymbolTableRecord
100
AcDbRegAppTableRecord
  2
GEVID1208913836
 70
     0
  0
APPID
  5
489
330
9
100
AcDbSymbolTableRecord
100
AcDbRegAppTableRecord
  2
GEVID1208913837
 70
     0
  0
APPID
  5
48A
330
9
100
AcDbSymbolTableRecord
100
AcDbRegAppTableRecord
  2
GEVID1208913838
 70
     0
  0
APPID
  5
48B
330
9
100
AcDbSymbolTableRecord
100
AcDbRegAppTableRecord
  2
GEVID1208913839
 70
     0
  0
APPID
  5
48C
330
9
100
AcDbSymbolTableRecord
100
AcDbRegAppTableRecord
  2
GENIUS_GENDTOL_13
 70
     0
  0
APPID
  5
48D
330
9
100
AcDbSymbolTableRecord
100
AcDbRegAppTableRecord
  2
GEVID1208928889
 70
     0
  0
APPID
  5
48E
330
9
100
AcDbSymbolTableRecord
100
AcDbRegAppTableRecord
  2
GEVID1208928890
 70
     0
  0
APPID
  5
48F
330
9
100
AcDbSymbolTableRecord
100
AcDbRegAppTableRecord
  2
GEVID1208928891
 70
     0
  0
APPID
  5
490
330
9
100
AcDbSymbolTableRecord
100
AcDbRegAppTableRecord
  2
GEVID1208928892
 70
     0
  0
APPID
  5
491
330
9
100
AcDbSymbolTableRecord
100
AcDbRegAppTableRecord
  2
GEVID1208933827
 70
     0
  0
APPID
  5
492
330
9
100
AcDbSymbolTableRecord
100
AcDbRegAppTableRecord
  2
GEVID1208933829
 70
     0
  0
APPID
  5
493
330
9
100
AcDbSymbolTableRecord
100
AcDbRegAppTableRecord
  2
GEVID1208933830
 70
     0
  0
APPID
  5
494
330
9
100
AcDbSymbolTableRecord
100
AcDbRegAppTableRecord
  2
GEVID1208933831
 70
     0
  0
APPID
  5
495
330
9
100
AcDbSymbolTableRecord
100
AcDbRegAppTableRecord
  2
GEVID1208933832
 70
     0
  0
APPID
  5
496
330
9
100
AcDbSymbolTableRecord
100
AcDbRegAppTableRecord
  2
GEVID1208933833
 70
     0
  0
APPID
  5
497
330
9
100
AcDbSymbolTableRecord
100
AcDbRegAppTableRecord
  2
GEVID1208933834
 70
     0
  0
APPID
  5
498
330
9
100
AcDbSymbolTableRecord
100
AcDbRegAppTableRecord
  2
GEVID1208933835
 70
     0
  0
APPID
  5
499
330
9
100
AcDbSymbolTableRecord
100
AcDbRegAppTableRecord
  2
GEVID1208933836
 70
     0
  0
APPID
  5
49A
330
9
100
AcDbSymbolTableRecord
100
AcDbRegAppTableRecord
  2
GEVID1208933837
 70
     0
  0
APPID
  5
49B
330
9
100
AcDbSymbolTableRecord
100
AcDbRegAppTableRecord
  2
GEVID1208933838
 70
     0
  0
APPID
  5
49C
330
9
100
AcDbSymbolTableRecord
100
AcDbRegAppTableRecord
  2
GEVID1208933840
 70
     0
  0
APPID
  5
49D
330
9
100
AcDbSymbolTableRecord
100
AcDbRegAppTableRecord
  2
GEVID1208933842
 70
     0
  0
APPID
  5
49E
330
9
100
AcDbSymbolTableRecord
100
AcDbRegAppTableRecord
  2
GEVID1208933843
 70
     0
  0
APPID
  5
49F
330
9
100
AcDbSymbolTableRecord
100
AcDbRegAppTableRecord
  2
GEVID1208933844
 70
     0
  0
APPID
  5
4A0
330
9
100
AcDbSymbolTableRecord
100
AcDbRegAppTableRecord
  2
GEVID1208933845
 70
     0
  0
APPID
  5
4A1
330
9
100
AcDbSymbolTableRecord
100
AcDbRegAppTableRecord
  2
GEVID1208933846
 70
     0
  0
APPID
  5
4A2
330
9
100
AcDbSymbolTableRecord
100
AcDbRegAppTableRecord
  2
GEVID1208933847
 70
     0
  0
APPID
  5
4A3
330
9
100
AcDbSymbolTableRecord
100
AcDbRegAppTableRecord
  2
GEVID1208933848
 70
     0
  0
APPID
  5
4A4
330
9
100
AcDbSymbolTableRecord
100
AcDbRegAppTableRecord
  2
GEVID1208933849
 70
     0
  0
APPID
  5
4A5
330
9
100
AcDbSymbolTableRecord
100
AcDbRegAppTableRecord
  2
GEVID1208933850
 70
     0
  0
APPID
  5
4A6
330
9
100
AcDbSymbolTableRecord
100
AcDbRegAppTableRecord
  2
GEVID1208933851
 70
     0
  0
APPID
  5
4A7
330
9
100
AcDbSymbolTableRecord
100
AcDbRegAppTableRecord
  2
GEVID1208933852
 70
     0
  0
APPID
  5
4A8
330
9
100
AcDbSymbolTableRecord
100
AcDbRegAppTableRecord
  2
GEVID1208933853
 70
     0
  0
APPID
  5
4A9
330
9
100
AcDbSymbolTableRecord
100
AcDbRegAppTableRecord
  2
GEVID1208933854
 70
     0
  0
APPID
  5
4AA
330
9
100
AcDbSymbolTableRecord
100
AcDbRegAppTableRecord
  2
GEVID1208933855
 70
     0
  0
APPID
  5
4AB
330
9
100
AcDbSymbolTableRecord
100
AcDbRegAppTableRecord
  2
GEVID1208933856
 70
     0
  0
APPID
  5
4AC
330
9
100
AcDbSymbolTableRecord
100
AcDbRegAppTableRecord
  2
GEVID1208933857
 70
     0
  0
APPID
  5
4AD
330
9
100
AcDbSymbolTableRecord
100
AcDbRegAppTableRecord
  2
GEVID1208933858
 70
     0
  0
APPID
  5
4AE
330
9
100
AcDbSymbolTableRecord
100
AcDbRegAppTableRecord
  2
GEVID1208933859
 70
     0
  0
APPID
  5
4AF
330
9
100
AcDbSymbolTableRecord
100
AcDbRegAppTableRecord
  2
GEVID1208933860
 70
     0
  0
APPID
  5
4B0
330
9
100
AcDbSymbolTableRecord
100
AcDbRegAppTableRecord
  2
GEVID1208933861
 70
     0
  0
APPID
  5
4B1
330
9
100
AcDbSymbolTableRecord
100
AcDbRegAppTableRecord
  2
GEVID1208933862
 70
     0
  0
APPID
  5
4B2
330
9
100
AcDbSymbolTableRecord
100
AcDbRegAppTableRecord
  2
GEVID1208933863
 70
     0
  0
APPID
  5
4B3
330
9
100
AcDbSymbolTableRecord
100
AcDbRegAppTableRecord
  2
GEVID1208933864
 70
     0
  0
APPID
  5
4B4
330
9
100
AcDbSymbolTableRecord
100
AcDbRegAppTableRecord
  2
GEVID1208933865
 70
     0
  0
APPID
  5
4B5
330
9
100
AcDbSymbolTableRecord
100
AcDbRegAppTableRecord
  2
GEVID1208933866
 70
     0
  0
APPID
  5
4B6
330
9
100
AcDbSymbolTableRecord
100
AcDbRegAppTableRecord
  2
GEVID1208933867
 70
     0
  0
APPID
  5
4B7
330
9
100
AcDbSymbolTableRecord
100
AcDbRegAppTableRecord
  2
GEVID1208933868
 70
     0
  0
APPID
  5
4B8
330
9
100
AcDbSymbolTableRecord
100
AcDbRegAppTableRecord
  2
GEVID1208933869
 70
     0
  0
APPID
  5
4B9
330
9
100
AcDbSymbolTableRecord
100
AcDbRegAppTableRecord
  2
GEVID1208933870
 70
     0
  0
APPID
  5
4BA
330
9
100
AcDbSymbolTableRecord
100
AcDbRegAppTableRecord
  2
GEVID1208933871
 70
     0
  0
APPID
  5
4BB
330
9
100
AcDbSymbolTableRecord
100
AcDbRegAppTableRecord
  2
GEVID1208933872
 70
     0
  0
APPID
  5
4BC
330
9
100
AcDbSymbolTableRecord
100
AcDbRegAppTableRecord
  2
GEVID1208933873
 70
     0
  0
APPID
  5
4BD
330
9
100
AcDbSymbolTableRecord
100
AcDbRegAppTableRecord
  2
GEVID1208933874
 70
     0
  0
APPID
  5
4BE
330
9
100
AcDbSymbolTableRecord
100
AcDbRegAppTableRecord
  2
GEVID1208933875
 70
     0
  0
APPID
  5
4BF
330
9
100
AcDbSymbolTableRecord
100
AcDbRegAppTableRecord
  2
GEVID1208933876
 70
     0
  0
APPID
  5
4C0
330
9
100
AcDbSymbolTableRecord
100
AcDbRegAppTableRecord
  2
ACAD_DSTYLE_DIMRADIAL_EXTENSION
 70
     0
  0
APPID
  5
4C1
330
9
100
AcDbSymbolTableRecord
100
AcDbRegAppTableRecord
  2
GEVID1208999100
 70
     0
  0
APPID
  5
4C2
330
9
100
AcDbSymbolTableRecord
100
AcDbRegAppTableRecord
  2
GEVID1208999101
 70
     0
  0
APPID
  5
4C3
330
9
100
AcDbSymbolTableRecord
100
AcDbRegAppTableRecord
  2
GEVID1208999102
 70
     0
  0
APPID
  5
4C4
330
9
100
AcDbSymbolTableRecord
100
AcDbRegAppTableRecord
  2
GEVID1208999103
 70
     0
  0
APPID
  5
4C5
330
9
100
AcDbSymbolTableRecord
100
AcDbRegAppTableRecord
  2
GEVID1208999105
 70
     0
  0
APPID
  5
4C6
330
9
100
AcDbSymbolTableRecord
100
AcDbRegAppTableRecord
  2
GEVID1208999106
 70
     0
  0
APPID
  5
4C7
330
9
100
AcDbSymbolTableRecord
100
AcDbRegAppTableRecord
  2
GEVID1208999108
 70
     0
  0
APPID
  5
4C8
330
9
100
AcDbSymbolTableRecord
100
AcDbRegAppTableRecord
  2
GEVID1208999109
 70
     0
  0
APPID
  5
4C9
330
9
100
AcDbSymbolTableRecord
100
AcDbRegAppTableRecord
  2
GEVID1208999110
 70
     0
  0
APPID
  5
4CA
330
9
100
AcDbSymbolTableRecord
100
AcDbRegAppTableRecord
  2
GEVID1208999111
 70
     0
  0
APPID
  5
4CB
330
9
100
AcDbSymbolTableRecord
100
AcDbRegAppTableRecord
  2
GEVID1208999112
 70
     0
  0
APPID
  5
4CC
330
9
100
AcDbSymbolTableRecord
100
AcDbRegAppTableRecord
  2
GEVID1208999113
 70
     0
  0
APPID
  5
4CD
330
9
100
AcDbSymbolTableRecord
100
AcDbRegAppTableRecord
  2
GEVID1208999114
 70
     0
  0
APPID
  5
4CE
330
9
100
AcDbSymbolTableRecord
100
AcDbRegAppTableRecord
  2
GEVID1210218799
 70
     0
  0
APPID
  5
4CF
330
9
100
AcDbSymbolTableRecord
100
AcDbRegAppTableRecord
  2
GEVID1210218800
 70
     0
  0
APPID
  5
4D0
330
9
100
AcDbSymbolTableRecord
100
AcDbRegAppTableRecord
  2
GENIUS_GEFWELD_13
 70
     0
  0
APPID
  5
4D1
330
9
100
AcDbSymbolTableRecord
100
AcDbRegAppTableRecord
  2
GENIUS_GENOBJ-F-WELS_13
 70
     0
  0
APPID
  5
4D2
330
9
100
AcDbSymbolTableRecord
100
AcDbRegAppTableRecord
  2
AcadAnnotative
 70
     0
  0
APPID
  5
4D3
330
9
100
AcDbSymbolTableRecord
100
AcDbRegAppTableRecord
  2
GEVID1210145339
 70
     0
  0
APPID
  5
4D4
330
9
100
AcDbSymbolTableRecord
100
AcDbRegAppTableRecord
  2
ACAD_DSTYLE_DIMBREAK
 70
     0
  0
APPID
  5
4D5
330
9
100
AcDbSymbolTableRecord
100
AcDbRegAppTableRecord
  2
GEVID1210145340
 70
     0
  0
APPID
  5
4D6
330
9
100
AcDbSymbolTableRecord
100
AcDbRegAppTableRecord
  2
GEVID1210145341
 70
     0
  0
APPID
  5
4D7
330
9
100
AcDbSymbolTableRecord
100
AcDbRegAppTableRecord
  2
GEVID1210145342
 70
     0
  0
APPID
  5
4D8
330
9
100
AcDbSymbolTableRecord
100
AcDbRegAppTableRecord
  2
GEVID1210145343
 70
     0
  0
APPID
  5
4D9
330
9
100
AcDbSymbolTableRecord
100
AcDbRegAppTableRecord
  2
GEVID1210145344
 70
     0
  0
APPID
  5
4DA
330
9
100
AcDbSymbolTableRecord
100
AcDbRegAppTableRecord
  2
GEVID1210145345
 70
     0
  0
APPID
  5
4DB
330
9
100
AcDbSymbolTableRecord
100
AcDbRegAppTableRecord
  2
GEVID1210152816
 70
     0
  0
APPID
  5
4DC
330
9
100
AcDbSymbolTableRecord
100
AcDbRegAppTableRecord
  2
GEVID1210153850
 70
     0
  0
APPID
  5
4DD
330
9
100
AcDbSymbolTableRecord
100
AcDbRegAppTableRecord
  2
GEVID1210153851
 70
     0
  0
APPID
  5
4DE
330
9
100
AcDbSymbolTableRecord
100
AcDbRegAppTableRecord
  2
GEVID1210153852
 70
     0
  0
APPID
  5
4DF
330
9
100
AcDbSymbolTableRecord
100
AcDbRegAppTableRecord
  2
GEVID1210549898
 70
     0
  0
APPID
  5
4E0
330
9
100
AcDbSymbolTableRecord
100
AcDbRegAppTableRecord
  2
GEVID1210549899
 70
     0
  0
APPID
  5
4E1
330
9
100
AcDbSymbolTableRecord
100
AcDbRegAppTableRecord
  2
GEVID1210549900
 70
     0
  0
APPID
  5
4E2
330
9
100
AcDbSymbolTableRecord
100
AcDbRegAppTableRecord
  2
GEVID1210549901
 70
     0
  0
APPID
  5
4E3
330
9
100
AcDbSymbolTableRecord
100
AcDbRegAppTableRecord
  2
GEVID1210549902
 70
     0
  0
APPID
  5
4E4
330
9
100
AcDbSymbolTableRecord
100
AcDbRegAppTableRecord
  2
GEVID1210549903
 70
     0
  0
APPID
  5
4E5
330
9
100
AcDbSymbolTableRecord
100
AcDbRegAppTableRecord
  2
GEVID1210549904
 70
     0
  0
APPID
  5
4E6
330
9
100
AcDbSymbolTableRecord
100
AcDbRegAppTableRecord
  2
GEVID1210549905
 70
     0
  0
APPID
  5
4E7
330
9
100
AcDbSymbolTableRecord
100
AcDbRegAppTableRecord
  2
GEVID1210549906
 70
     0
  0
APPID
  5
4E8
330
9
100
AcDbSymbolTableRecord
100
AcDbRegAppTableRecord
  2
GEVID1210549907
 70
     0
  0
APPID
  5
4E9
330
9
100
AcDbSymbolTableRecord
100
AcDbRegAppTableRecord
  2
GEVID1210549908
 70
     0
  0
APPID
  5
4EA
330
9
100
AcDbSymbolTableRecord
100
AcDbRegAppTableRecord
  2
GEVID1210549909
 70
     0
  0
APPID
  5
4EB
330
9
100
AcDbSymbolTableRecord
100
AcDbRegAppTableRecord
  2
GEVID1210549910
 70
     0
  0
APPID
  5
4EC
330
9
100
AcDbSymbolTableRecord
100
AcDbRegAppTableRecord
  2
GEVID1210549911
 70
     0
  0
APPID
  5
4ED
330
9
100
AcDbSymbolTableRecord
100
AcDbRegAppTableRecord
  2
GEVID1210549912
 70
     0
  0
APPID
  5
4EE
330
9
100
AcDbSymbolTableRecord
100
AcDbRegAppTableRecord
  2
GEVID1210549913
 70
     0
  0
APPID
  5
4EF
330
9
100
AcDbSymbolTableRecord
100
AcDbRegAppTableRecord
  2
GEVID1210549914
 70
     0
  0
APPID
  5
4F0
330
9
100
AcDbSymbolTableRecord
100
AcDbRegAppTableRecord
  2
GEVID1210549915
 70
     0
  0
APPID
  5
4F1
330
9
100
AcDbSymbolTableRecord
100
AcDbRegAppTableRecord
  2
GEVID1210549916
 70
     0
  0
APPID
  5
4F2
330
9
100
AcDbSymbolTableRecord
100
AcDbRegAppTableRecord
  2
GEVID1210549917
 70
     0
  0
APPID
  5
4F3
330
9
100
AcDbSymbolTableRecord
100
AcDbRegAppTableRecord
  2
GENIUS_GENOBJ-N-CRS_13
 70
     0
  0
APPID
  5
4F4
330
9
100
AcDbSymbolTableRecord
100
AcDbRegAppTableRecord
  2
GEVID1210549918
 70
     0
  0
APPID
  5
4F5
330
9
100
AcDbSymbolTableRecord
100
AcDbRegAppTableRecord
  2
GENIUS_GENOBJ-N-CRC_13
 70
     0
  0
APPID
  5
4F6
330
9
100
AcDbSymbolTableRecord
100
AcDbRegAppTableRecord
  2
GENIUS_GENCRC_14
 70
     0
  0
APPID
  5
4F7
330
9
100
AcDbSymbolTableRecord
100
AcDbRegAppTableRecord
  2
GEVID1210549919
 70
     0
  0
APPID
  5
4F8
330
9
100
AcDbSymbolTableRecord
100
AcDbRegAppTableRecord
  2
GEVID1210549921
 70
     0
  0
APPID
  5
4F9
330
9
100
AcDbSymbolTableRecord
100
AcDbRegAppTableRecord
  2
GEVID1210549922
 70
     0
  0
APPID
  5
4FA
330
9
100
AcDbSymbolTableRecord
100
AcDbRegAppTableRecord
  2
GEVID1210635173
 70
     0
  0
APPID
  5
4FB
330
9
100
AcDbSymbolTableRecord
100
AcDbRegAppTableRecord
  2
GEVID1210635174
 70
     0
  0
APPID
  5
4FC
330
9
100
AcDbSymbolTableRecord
100
AcDbRegAppTableRecord
  2
GEVID1210635175
 70
     0
  0
APPID
  5
4FD
330
9
100
AcDbSymbolTableRecord
100
AcDbRegAppTableRecord
  2
GEVID1210635176
 70
     0
  0
APPID
  5
4FE
330
9
100
AcDbSymbolTableRecord
100
AcDbRegAppTableRecord
  2
GEVID1210635177
 70
     0
  0
APPID
  5
4FF
330
9
100
AcDbSymbolTableRecord
100
AcDbRegAppTableRecord
  2
GEVID1210635178
 70
     0
  0
APPID
  5
500
330
9
100
AcDbSymbolTableRecord
100
AcDbRegAppTableRecord
  2
GENIUS_GENIUS_GENBHEDTMP_13
 70
     0
  0
APPID
  5
501
330
9
100
AcDbSymbolTableRecord
100
AcDbRegAppTableRecord
  2
GEVID1210635179
 70
     0
  0
APPID
  5
502
330
9
100
AcDbSymbolTableRecord
100
AcDbRegAppTableRecord
  2
GEVID1210635180
 70
     0
  0
APPID
  5
503
330
9
100
AcDbSymbolTableRecord
100
AcDbRegAppTableRecord
  2
GEVID1210635181
 70
     0
  0
APPID
  5
504
330
9
100
AcDbSymbolTableRecord
100
AcDbRegAppTableRecord
  2
GEVID1210635182
 70
     0
  0
APPID
  5
505
330
9
100
AcDbSymbolTableRecord
100
AcDbRegAppTableRecord
  2
GEVID1210635184
 70
     0
  0
APPID
  5
506
330
9
100
AcDbSymbolTableRecord
100
AcDbRegAppTableRecord
  2
GEVID1210635185
 70
     0
  0
APPID
  5
507
330
9
100
AcDbSymbolTableRecord
100
AcDbRegAppTableRecord
  2
GEVID1210635186
 70
     0
  0
APPID
  5
508
330
9
100
AcDbSymbolTableRecord
100
AcDbRegAppTableRecord
  2
GEVID1210635187
 70
     0
  0
APPID
  5
509
330
9
100
AcDbSymbolTableRecord
100
AcDbRegAppTableRecord
  2
GEVID1210635188
 70
     0
  0
APPID
  5
50A
330
9
100
AcDbSymbolTableRecord
100
AcDbRegAppTableRecord
  2
GEVID1210635189
 70
     0
  0
APPID
  5
50B
330
9
100
AcDbSymbolTableRecord
100
AcDbRegAppTableRecord
  2
GEVID1210635190
 70
     0
  0
APPID
  5
50C
330
9
100
AcDbSymbolTableRecord
100
AcDbRegAppTableRecord
  2
GENIUS_GENREC_14
 70
     0
  0
APPID
  5
50D
330
9
100
AcDbSymbolTableRecord
100
AcDbRegAppTableRecord
  2
GENIUS_GENOBJ-N-REC_13
 70
     0
  0
APPID
  5
50E
330
9
100
AcDbSymbolTableRecord
100
AcDbRegAppTableRecord
  2
GEVID1210676655
 70
     0
  0
APPID
  5
50F
330
9
100
AcDbSymbolTableRecord
100
AcDbRegAppTableRecord
  2
GEVID1210676656
 70
     0
  0
APPID
  5
510
330
9
100
AcDbSymbolTableRecord
100
AcDbRegAppTableRecord
  2
GEVID1210676657
 70
     0
  0
APPID
  5
511
330
9
100
AcDbSymbolTableRecord
100
AcDbRegAppTableRecord
  2
GEVID1210676659
 70
     0
  0
APPID
  5
512
330
9
100
AcDbSymbolTableRecord
100
AcDbRegAppTableRecord
  2
GEVID1210676660
 70
     0
  0
APPID
  5
513
330
9
100
AcDbSymbolTableRecord
100
AcDbRegAppTableRecord
  2
GEVID1210676661
 70
     0
  0
APPID
  5
514
330
9
100
AcDbSymbolTableRecord
100
AcDbRegAppTableRecord
  2
GEVID1210676662
 70
     0
  0
APPID
  5
515
330
9
100
AcDbSymbolTableRecord
100
AcDbRegAppTableRecord
  2
GEVID1210721646
 70
     0
  0
APPID
  5
516
330
9
100
AcDbSymbolTableRecord
100
AcDbRegAppTableRecord
  2
GEVID1210721647
 70
     0
  0
APPID
  5
517
330
9
100
AcDbSymbolTableRecord
100
AcDbRegAppTableRecord
  2
GEVID1210721648
 70
     0
  0
APPID
  5
518
330
9
100
AcDbSymbolTableRecord
100
AcDbRegAppTableRecord
  2
GEVID1210721649
 70
     0
  0
APPID
  5
519
330
9
100
AcDbSymbolTableRecord
100
AcDbRegAppTableRecord
  2
GEVID1210721650
 70
     0
  0
APPID
  5
51A
330
9
100
AcDbSymbolTableRecord
100
AcDbRegAppTableRecord
  2
GEVID1210721651
 70
     0
  0
APPID
  5
51B
330
9
100
AcDbSymbolTableRecord
100
AcDbRegAppTableRecord
  2
GEVID1210721652
 70
     0
  0
APPID
  5
51C
330
9
100
AcDbSymbolTableRecord
100
AcDbRegAppTableRecord
  2
GEVID1210721653
 70
     0
  0
APPID
  5
51D
330
9
100
AcDbSymbolTableRecord
100
AcDbRegAppTableRecord
  2
PE_URL
 70
     0
  0
APPID
  5
51E
330
9
100
AcDbSymbolTableRecord
100
AcDbRegAppTableRecord
  2
GEVID1210825555
 70
     0
  0
APPID
  5
51F
330
9
100
AcDbSymbolTableRecord
100
AcDbRegAppTableRecord
  2
GEVID1210825556
 70
     0
  0
APPID
  5
520
330
9
100
AcDbSymbolTableRecord
100
AcDbRegAppTableRecord
  2
GEVID1210825557
 70
     0
  0
APPID
  5
521
330
9
100
AcDbSymbolTableRecord
100
AcDbRegAppTableRecord
  2
GEVID1210825558
 70
     0
  0
APPID
  5
522
330
9
100
AcDbSymbolTableRecord
100
AcDbRegAppTableRecord
  2
GEVID1210825559
 70
     0
  0
APPID
  5
523
330
9
100
AcDbSymbolTableRecord
100
AcDbRegAppTableRecord
  2
GEVID1210825560
 70
     0
  0
APPID
  5
524
330
9
100
AcDbSymbolTableRecord
100
AcDbRegAppTableRecord
  2
GEVID1210825561
 70
     0
  0
APPID
  5
525
330
9
100
AcDbSymbolTableRecord
100
AcDbRegAppTableRecord
  2
GEVID1210825562
 70
     0
  0
APPID
  5
526
330
9
100
AcDbSymbolTableRecord
100
AcDbRegAppTableRecord
  2
GEVID1210825563
 70
     0
  0
APPID
  5
527
330
9
100
AcDbSymbolTableRecord
100
AcDbRegAppTableRecord
  2
GEVID1210825564
 70
     0
  0
APPID
  5
528
330
9
100
AcDbSymbolTableRecord
100
AcDbRegAppTableRecord
  2
GEVID1210825565
 70
     0
  0
APPID
  5
529
330
9
100
AcDbSymbolTableRecord
100
AcDbRegAppTableRecord
  2
GEVID1210825566
 70
     0
  0
APPID
  5
52A
330
9
100
AcDbSymbolTableRecord
100
AcDbRegAppTableRecord
  2
GEVID1210825567
 70
     0
  0
APPID
  5
52B
330
9
100
AcDbSymbolTableRecord
100
AcDbRegAppTableRecord
  2
GENIUS_GENOBJ-N-ZOO_13
 70
     0
  0
APPID
  5
52C
330
9
100
AcDbSymbolTableRecord
100
AcDbRegAppTableRecord
  2
GENIUS_GENZOO_17
 70
     0
  0
APPID
  5
52D
330
9
100
AcDbSymbolTableRecord
100
AcDbRegAppTableRecord
  2
ACADANNOTATIVEDECOMPOSITION
 70
     0
  0
APPID
  5
52E
330
9
100
AcDbSymbolTableRecord
100
AcDbRegAppTableRecord
  2
GENIUS_GENOBJ-N-HTC_13
 70
     0
  0
APPID
  5
52F
330
9
100
AcDbSymbolTableRecord
100
AcDbRegAppTableRecord
  2
GENIUS_GENHATCH_13
 70
     0
  0
APPID
  5
530
330
9
100
AcDbSymbolTableRecord
100
AcDbRegAppTableRecord
  2
GEVID1210896020
 70
     0
  0
APPID
  5
531
330
9
100
AcDbSymbolTableRecord
100
AcDbRegAppTableRecord
  2
GEVID1210896021
 70
     0
  0
APPID
  5
532
330
9
100
AcDbSymbolTableRecord
100
AcDbRegAppTableRecord
  2
GEVID1209083540
 70
     0
  0
APPID
  5
533
330
9
100
AcDbSymbolTableRecord
100
AcDbRegAppTableRecord
  2
GEVMK
 70
     0
  0
APPID
  5
534
330
9
100
AcDbSymbolTableRecord
100
AcDbRegAppTableRecord
  2
GEVID1209083542
 70
     0
  0
APPID
  5
535
330
9
100
AcDbSymbolTableRecord
100
AcDbRegAppTableRecord
  2
GEVID1209083543
 70
     0
  0
APPID
  5
536
330
9
100
AcDbSymbolTableRecord
100
AcDbRegAppTableRecord
  2
GEVID1209083544
 70
     0
  0
APPID
  5
537
330
9
100
AcDbSymbolTableRecord
100
AcDbRegAppTableRecord
  2
GEVID1209083545
 70
     0
  0
APPID
  5
538
330
9
100
AcDbSymbolTableRecord
100
AcDbRegAppTableRecord
  2
GEVID1209083546
 70
     0
  0
APPID
  5
539
330
9
100
AcDbSymbolTableRecord
100
AcDbRegAppTableRecord
  2
GEVID1209083547
 70
     0
  0
APPID
  5
53A
330
9
100
AcDbSymbolTableRecord
100
AcDbRegAppTableRecord
  2
GEVID1209083548
 70
     0
  0
APPID
  5
53B
330
9
100
AcDbSymbolTableRecord
100
AcDbRegAppTableRecord
  2
GEVID1209083549
 70
     0
  0
APPID
  5
53C
330
9
100
AcDbSymbolTableRecord
100
AcDbRegAppTableRecord
  2
GEVID1209083550
 70
     0
  0
APPID
  5
53D
330
9
100
AcDbSymbolTableRecord
100
AcDbRegAppTableRecord
  2
GEVID1209083551
 70
     0
  0
APPID
  5
53E
330
9
100
AcDbSymbolTableRecord
100
AcDbRegAppTableRecord
  2
GEVID1209083552
 70
     0
  0
APPID
  5
53F
330
9
100
AcDbSymbolTableRecord
100
AcDbRegAppTableRecord
  2
GEVID1209083553
 70
     0
  0
APPID
  5
540
330
9
100
AcDbSymbolTableRecord
100
AcDbRegAppTableRecord
  2
GEVID1210896022
 70
     0
  0
APPID
  5
541
330
9
100
AcDbSymbolTableRecord
100
AcDbRegAppTableRecord
  2
GEVID1211508364
 70
     0
  0
APPID
  5
542
330
9
100
AcDbSymbolTableRecord
100
AcDbRegAppTableRecord
  2
GEVID1211414908
 70
     0
  0
APPID
  5
543
330
9
100
AcDbSymbolTableRecord
100
AcDbRegAppTableRecord
  2
GEVID1211414909
 70
     0
  0
APPID
  5
544
330
9
100
AcDbSymbolTableRecord
100
AcDbRegAppTableRecord
  2
GEVID1211508359
 70
     0
  0
APPID
  5
545
330
9
100
AcDbSymbolTableRecord
100
AcDbRegAppTableRecord
  2
GEVID1211508360
 70
     0
  0
APPID
  5
546
330
9
100
AcDbSymbolTableRecord
100
AcDbRegAppTableRecord
  2
GEVID1211508361
 70
     0
  0
APPID
  5
547
330
9
100
AcDbSymbolTableRecord
100
AcDbRegAppTableRecord
  2
GEVID1211508362
 70
     0
  0
APPID
  5
548
330
9
100
AcDbSymbolTableRecord
100
AcDbRegAppTableRecord
  2
GEVID1211508363
 70
     0
  0
APPID
  5
549
330
9
100
AcDbSymbolTableRecord
100
AcDbRegAppTableRecord
  2
GEVID1211878469
 70
     0
  0
APPID
  5
54A
330
9
100
AcDbSymbolTableRecord
100
AcDbRegAppTableRecord
  2
GEVID1212642819
 70
     0
  0
APPID
  5
54B
330
9
100
AcDbSymbolTableRecord
100
AcDbRegAppTableRecord
  2
GEVID1212642820
 70
     0
  0
APPID
  5
54C
330
9
100
AcDbSymbolTableRecord
100
AcDbRegAppTableRecord
  2
GEVID1212642821
 70
     0
  0
APPID
  5
54D
330
9
100
AcDbSymbolTableRecord
100
AcDbRegAppTableRecord
  2
GEVID1212642822
 70
     0
  0
APPID
  5
54E
330
9
100
AcDbSymbolTableRecord
100
AcDbRegAppTableRecord
  2
GEVID1212642823
 70
     0
  0
APPID
  5
54F
330
9
100
AcDbSymbolTableRecord
100
AcDbRegAppTableRecord
  2
GEVID1212642825
 70
     0
  0
APPID
  5
550
330
9
100
AcDbSymbolTableRecord
100
AcDbRegAppTableRecord
  2
GEVID1212642826
 70
     0
  0
APPID
  5
551
330
9
100
AcDbSymbolTableRecord
100
AcDbRegAppTableRecord
  2
GEVID1212642827
 70
     0
  0
APPID
  5
552
330
9
100
AcDbSymbolTableRecord
100
AcDbRegAppTableRecord
  2
GEVID1212642828
 70
     0
  0
APPID
  5
553
330
9
100
AcDbSymbolTableRecord
100
AcDbRegAppTableRecord
  2
GEVID1212642831
 70
     0
  0
APPID
  5
554
330
9
100
AcDbSymbolTableRecord
100
AcDbRegAppTableRecord
  2
GEVID1212642834
 70
     0
  0
APPID
  5
555
330
9
100
AcDbSymbolTableRecord
100
AcDbRegAppTableRecord
  2
GEVID1212642835
 70
     0
  0
APPID
  5
556
330
9
100
AcDbSymbolTableRecord
100
AcDbRegAppTableRecord
  2
GEVID1212642836
 70
     0
  0
APPID
  5
557
330
9
100
AcDbSymbolTableRecord
100
AcDbRegAppTableRecord
  2
GEVID1212642837
 70
     0
  0
APPID
  5
558
330
9
100
AcDbSymbolTableRecord
100
AcDbRegAppTableRecord
  2
GEVID1212642839
 70
     0
  0
APPID
  5
559
330
9
100
AcDbSymbolTableRecord
100
AcDbRegAppTableRecord
  2
GEVID1212642840
 70
     0
  0
APPID
  5
55A
330
9
100
AcDbSymbolTableRecord
100
AcDbRegAppTableRecord
  2
GEVID1212642841
 70
     0
  0
APPID
  5
55B
330
9
100
AcDbSymbolTableRecord
100
AcDbRegAppTableRecord
  2
GEVID1212655312
 70
     0
  0
APPID
  5
55C
330
9
100
AcDbSymbolTableRecord
100
AcDbRegAppTableRecord
  2
GEVID1212655313
 70
     0
  0
APPID
  5
55D
330
9
100
AcDbSymbolTableRecord
100
AcDbRegAppTableRecord
  2
GEVID1212656533
 70
     0
  0
APPID
  5
55E
330
9
100
AcDbSymbolTableRecord
100
AcDbRegAppTableRecord
  2
GEVID1212656534
 70
     0
  0
APPID
  5
55F
330
9
100
AcDbSymbolTableRecord
100
AcDbRegAppTableRecord
  2
GEVID1212656535
 70
     0
  0
APPID
  5
560
330
9
100
AcDbSymbolTableRecord
100
AcDbRegAppTableRecord
  2
GEVID1212656536
 70
     0
  0
APPID
  5
561
330
9
100
AcDbSymbolTableRecord
100
AcDbRegAppTableRecord
  2
GEVID1212656538
 70
     0
  0
APPID
  5
562
330
9
100
AcDbSymbolTableRecord
100
AcDbRegAppTableRecord
  2
GEVID1212656541
 70
     0
  0
APPID
  5
563
330
9
100
AcDbSymbolTableRecord
100
AcDbRegAppTableRecord
  2
GEVID1212656543
 70
     0
  0
APPID
  5
564
330
9
100
AcDbSymbolTableRecord
100
AcDbRegAppTableRecord
  2
GENIUS_GENOBJ-F-PFASSM_13
 70
     0
  0
APPID
  5
565
330
9
100
AcDbSymbolTableRecord
100
AcDbRegAppTableRecord
  2
GEVID1212656544
 70
     0
  0
APPID
  5
566
330
9
100
AcDbSymbolTableRecord
100
AcDbRegAppTableRecord
  2
GEVID1212656545
 70
     0
  0
APPID
  5
567
330
9
100
AcDbSymbolTableRecord
100
AcDbRegAppTableRecord
  2
GEVID1212656546
 70
     0
  0
APPID
  5
568
330
9
100
AcDbSymbolTableRecord
100
AcDbRegAppTableRecord
  2
GEVID1212656547
 70
     0
  0
APPID
  5
569
330
9
100
AcDbSymbolTableRecord
100
AcDbRegAppTableRecord
  2
GEVID1212656548
 70
     0
  0
APPID
  5
56A
330
9
100
AcDbSymbolTableRecord
100
AcDbRegAppTableRecord
  2
GEVID1212656549
 70
     0
  0
APPID
  5
56B
330
9
100
AcDbSymbolTableRecord
100
AcDbRegAppTableRecord
  2
GEVID1212656550
 70
     0
  0
APPID
  5
56C
330
9
100
AcDbSymbolTableRecord
100
AcDbRegAppTableRecord
  2
GEVID1212656552
 70
     0
  0
APPID
  5
56D
330
9
100
AcDbSymbolTableRecord
100
AcDbRegAppTableRecord
  2
GEVID1212656553
 70
     0
  0
APPID
  5
56E
330
9
100
AcDbSymbolTableRecord
100
AcDbRegAppTableRecord
  2
GEVID1212656554
 70
     0
  0
APPID
  5
56F
330
9
100
AcDbSymbolTableRecord
100
AcDbRegAppTableRecord
  2
GEVID1212656555
 70
     0
  0
APPID
  5
570
330
9
100
AcDbSymbolTableRecord
100
AcDbRegAppTableRecord
  2
GEVID1212656556
 70
     0
  0
APPID
  5
571
330
9
100
AcDbSymbolTableRecord
100
AcDbRegAppTableRecord
  2
GEVID1212656557
 70
     0
  0
APPID
  5
572
330
9
100
AcDbSymbolTableRecord
100
AcDbRegAppTableRecord
  2
GEVID1212656559
 70
     0
  0
APPID
  5
573
330
9
100
AcDbSymbolTableRecord
100
AcDbRegAppTableRecord
  2
GEVID1212656560
 70
     0
  0
APPID
  5
574
330
9
100
AcDbSymbolTableRecord
100
AcDbRegAppTableRecord
  2
GEVID1212656561
 70
     0
  0
APPID
  5
575
330
9
100
AcDbSymbolTableRecord
100
AcDbRegAppTableRecord
  2
GEVID1212656562
 70
     0
  0
APPID
  5
576
330
9
100
AcDbSymbolTableRecord
100
AcDbRegAppTableRecord
  2
GEVID1212656563
 70
     0
  0
APPID
  5
577
330
9
100
AcDbSymbolTableRecord
100
AcDbRegAppTableRecord
  2
GEVID1212711781
 70
     0
  0
APPID
  5
578
330
9
100
AcDbSymbolTableRecord
100
AcDbRegAppTableRecord
  2
GEVID1212711782
 70
     0
  0
APPID
  5
579
330
9
100
AcDbSymbolTableRecord
100
AcDbRegAppTableRecord
  2
GEVID1212711783
 70
     0
  0
APPID
  5
57A
330
9
100
AcDbSymbolTableRecord
100
AcDbRegAppTableRecord
  2
GEVID1212711784
 70
     0
  0
APPID
  5
57B
330
9
100
AcDbSymbolTableRecord
100
AcDbRegAppTableRecord
  2
GEVID1212711788
 70
     0
  0
APPID
  5
57C
330
9
100
AcDbSymbolTableRecord
100
AcDbRegAppTableRecord
  2
GEVID1212711789
 70
     0
  0
APPID
  5
57D
330
9
100
AcDbSymbolTableRecord
100
AcDbRegAppTableRecord
  2
GEVID1212711790
 70
     0
  0
APPID
  5
57E
330
9
100
AcDbSymbolTableRecord
100
AcDbRegAppTableRecord
  2
GEVID1212711791
 70
     0
  0
APPID
  5
57F
330
9
100
AcDbSymbolTableRecord
100
AcDbRegAppTableRecord
  2
GEVID1212711792
 70
     0
  0
APPID
  5
580
330
9
100
AcDbSymbolTableRecord
100
AcDbRegAppTableRecord
  2
GEVID1212711793
 70
     0
  0
APPID
  5
581
330
9
100
AcDbSymbolTableRecord
100
AcDbRegAppTableRecord
  2
GEVID1212711794
 70
     0
  0
APPID
  5
582
330
9
100
AcDbSymbolTableRecord
100
AcDbRegAppTableRecord
  2
GEVID1212711795
 70
     0
  0
APPID
  5
583
330
9
100
AcDbSymbolTableRecord
100
AcDbRegAppTableRecord
  2
GEVID1212711797
 70
     0
  0
APPID
  5
584
330
9
100
AcDbSymbolTableRecord
100
AcDbRegAppTableRecord
  2
GEVID1212711798
 70
     0
  0
APPID
  5
585
330
9
100
AcDbSymbolTableRecord
100
AcDbRegAppTableRecord
  2
GEVID1212711799
 70
     0
  0
APPID
  5
586
330
9
100
AcDbSymbolTableRecord
100
AcDbRegAppTableRecord
  2
GEVID1212711800
 70
     0
  0
APPID
  5
587
330
9
100
AcDbSymbolTableRecord
100
AcDbRegAppTableRecord
  2
GEVID1212711801
 70
     0
  0
APPID
  5
588
330
9
100
AcDbSymbolTableRecord
100
AcDbRegAppTableRecord
  2
GEVID1212711802
 70
     0
  0
APPID
  5
589
330
9
100
AcDbSymbolTableRecord
100
AcDbRegAppTableRecord
  2
GEVID1212711803
 70
     0
  0
APPID
  5
58A
330
9
100
AcDbSymbolTableRecord
100
AcDbRegAppTableRecord
  2
GEVID1212711804
 70
     0
  0
APPID
  5
58B
330
9
100
AcDbSymbolTableRecord
100
AcDbRegAppTableRecord
  2
GEVID1212711805
 70
     0
  0
APPID
  5
58C
330
9
100
AcDbSymbolTableRecord
100
AcDbRegAppTableRecord
  2
GEVID1212711806
 70
     0
  0
APPID
  5
58D
330
9
100
AcDbSymbolTableRecord
100
AcDbRegAppTableRecord
  2
GEVID1212711807
 70
     0
  0
APPID
  5
58E
330
9
100
AcDbSymbolTableRecord
100
AcDbRegAppTableRecord
  2
GEVID1212711808
 70
     0
  0
APPID
  5
58F
330
9
100
AcDbSymbolTableRecord
100
AcDbRegAppTableRecord
  2
GEVID1212711809
 70
     0
  0
APPID
  5
590
330
9
100
AcDbSymbolTableRecord
100
AcDbRegAppTableRecord
  2
GEVID1212711810
 70
     0
  0
APPID
  5
591
330
9
100
AcDbSymbolTableRecord
100
AcDbRegAppTableRecord
  2
GEVID1212711811
 70
     0
  0
APPID
  5
90A
330
9
100
AcDbSymbolTableRecord
100
AcDbRegAppTableRecord
  2
GENIUS_GENTRA_14
 70
     0
  0
APPID
  5
919
330
9
100
AcDbSymbolTableRecord
100
AcDbRegAppTableRecord
  2
GENIUS_GENOBJ-N-TIT_13
 70
     0
  0
APPID
  5
91A
330
9
100
AcDbSymbolTableRecord
100
AcDbRegAppTableRecord
  2
GENIUS_GENTITLE_13
 70
     0
  0
APPID
  5
949
330
9
100
AcDbSymbolTableRecord
100
AcDbRegAppTableRecord
  2
GENIUS_GENBLLY_14
 70
     0
  0
APPID
  5
DDD
330
9
100
AcDbSymbolTableRecord
100
AcDbRegAppTableRecord
  2
GEVID1213165152
 70
     0
  0
APPID
  5
12F9
330
9
100
AcDbSymbolTableRecord
100
AcDbRegAppTableRecord
  2
AcDbDynamicBlockTrueName
 70
     0
  0
APPID
  5
12FA
330
9
100
AcDbSymbolTableRecord
100
AcDbRegAppTableRecord
  2
ACDBBLOCKREPETAG
 70
     0
  0
APPID
  5
1C15
330
9
100
AcDbSymbolTableRecord
100
AcDbRegAppTableRecord
  2
GEVID1214872427
 70
     0
  0
APPID
  5
1C2A
330
9
100
AcDbSymbolTableRecord
100
AcDbRegAppTableRecord
  2
GEVID1214872428
 70
     0
  0
APPID
  5
1C2F
330
9
100
AcDbSymbolTableRecord
100
AcDbRegAppTableRecord
  2
GEVID1214872429
 70
     0
  0
APPID
  5
1C33
330
9
100
AcDbSymbolTableRecord
100
AcDbRegAppTableRecord
  2
GEVID1214872430
 70
     0
  0
APPID
  5
1C3F
330
9
100
AcDbSymbolTableRecord
100
AcDbRegAppTableRecord
  2
GEVID1214872432
 70
     0
  0
APPID
  5
1C4E
330
9
100
AcDbSymbolTableRecord
100
AcDbRegAppTableRecord
  2
GEVID1214872433
 70
     0
  0
APPID
  5
20DC
330
9
100
AcDbSymbolTableRecord
100
AcDbRegAppTableRecord
  2
AcDbDynamicBlockGUID
 70
     0
  0
APPID
  5
20FD
330
9
100
AcDbSymbolTableRecord
100
AcDbRegAppTableRecord
  2
GENIUS_GENOBJ-N-REV_13
 70
     0
  0
APPID
  5
20FE
330
9
100
AcDbSymbolTableRecord
100
AcDbRegAppTableRecord
  2
GENIUS_GENOBJ-N-RSSYM_13
 70
     0
  0
APPID
  5
20FF
330
9
100
AcDbSymbolTableRecord
100
AcDbRegAppTableRecord
  2
GENIUS_GENSYMENT_13
 70
     0
  0
APPID
  5
2100
330
9
100
AcDbSymbolTableRecord
100
AcDbRegAppTableRecord
  2
GENIUS_GENSCSYM_13
 70
     0
  0
APPID
  5
572A
330
9
100
AcDbSymbolTableRecord
100
AcDbRegAppTableRecord
  2
GEVID1239761840
 70
     0
  0
APPID
  5
5737
330
9
100
AcDbSymbolTableRecord
100
AcDbRegAppTableRecord
  2
GEVID1239761841
 70
     0
  0
APPID
  5
607E
330
9
100
AcDbSymbolTableRecord
100
AcDbRegAppTableRecord
  2
GEVID1239761842
 70
     0
  0
APPID
  5
6082
330
9
100
AcDbSymbolTableRecord
100
AcDbRegAppTableRecord
  2
GEVID1239761843
 70
     0
  0
ENDTAB
  0
TABLE
  2
DIMSTYLE
  5
A
330
0
100
AcDbSymbolTable
 70
    29
100
AcDbDimStyleTable
 71
     1
340
5AB
  0
DIMSTYLE
105
5AB
330
A
100
AcDbSymbolTableRecord
100
AcDbDimStyleTableRecord
  2
SEISA
 70
     0
  4
"
 40
6.0
 41
2.5
 42
0.625
 43
10.0
 44
0.625
 47
0.1
 48
0.1
 73
     0
 74
     0
 77
     3
 78
     8
 79
     2
 90
     1
140
3.5
141
0.0
143
0.0393701
146
0.71
147
1.5
172
     1
176
     3
177
     3
178
     3
271
     2
272
     2
283
     0
286
     8
340
5D5
341
69
342
69
371
    -1
372
    -1
1001
ACAD_DSTYLE_DIMJAG
1070
   388
1040
1.5
1001
ACAD_DSTYLE_DIMTALN
1070
   392
1070
     1
  0
DIMSTYLE
105
5E9
102
{ACAD_REACTORS
330
57D2
330
5821
330
5886
330
589E
330
58BA
330
5957
330
59EE
330
5A06
330
5AA4
330
5AC0
330
5ADF
330
5BBF
330
7108
330
7132
102
}
330
A
100
AcDbSymbolTableRecord
100
AcDbDimStyleTableRecord
  2
SEISA$0
 70
     0
  4
"
 40
6.0
 41
2.5
 42
0.625
 43
10.0
 44
0.625
 47
0.1
 48
0.1
 73
     0
 74
     0
 77
     3
 78
     8
 79
     2
 90
     1
140
3.5
141
0.0
143
0.0393701
146
0.71
147
1.5
172
     1
176
     3
177
     3
178
     3
271
     2
272
     2
283
     0
286
     8
340
5D5
341
69
342
69
371
    -1
372
    -1
  0
DIMSTYLE
105
73CB
330
A
100
AcDbSymbolTableRecord
100
AcDbDimStyleTableRecord
  2
AM_ISO
 70
     0
  4
"
 41
2.5
 42
1.0
 43
10.0
 44
1.0
 47
0.1
 48
0.1
 73
     0
 74
     0
 77
     1
 78
     8
 79
     2
 90
     1
140
3.5
141
0.0
143
0.0393701
146
0.71
147
1.5
172
     1
176
   256
177
   256
178
     2
271
     2
272
     3
274
     4
283
     0
284
     8
340
11
371
    -1
372
    -1
  0
DIMSTYLE
105
73CC
330
A
100
AcDbSymbolTableRecord
100
AcDbDimStyleTableRecord
  2
AM_ISO$3
 70
     0
  4
"
 41
2.5
 42
1.0
 43
10.0
 44
1.0
 47
0.1
 48
0.1
 73
     0
 77
     1
 78
     8
 79
     2
 90
     1
140
3.5
141
0.0
143
0.0393701
146
0.71
147
1.5
176
   256
177
   256
178
     2
271
     2
272
     3
274
     4
283
     0
284
     8
288
     1
289
     0
340
11
371
    -1
372
    -1
  0
DIMSTYLE
105
73CD
330
A
100
AcDbSymbolTableRecord
100
AcDbDimStyleTableRecord
  2
AM_ISO$4
 70
     0
  4
"
 41
2.5
 42
1.0
 43
10.0
 44
1.0
 47
0.1
 48
0.1
 73
     0
 77
     1
 78
     8
 79
     2
 90
     1
140
3.5
141
0.0
143
0.0393701
146
0.71
147
1.5
176
   256
177
   256
178
     2
271
     2
272
     3
274
     4
283
     0
284
     8
288
     1
289
     0
340
11
371
    -1
372
    -1
  0
DIMSTYLE
105
73CE
330
A
100
AcDbSymbolTableRecord
100
AcDbDimStyleTableRecord
  2
AM_ISO$6
 70
     0
  4
"
 41
2.5
 42
1.0
 43
10.0
 44
1.0
 47
0.1
 48
0.1
 73
     0
 74
     0
 78
     8
 79
     2
 90
     1
140
3.5
141
0.0
143
0.0393701
146
0.71
147
1.5
172
     1
176
   256
177
   256
178
     2
271
     2
272
     3
274
     4
283
     0
284
     8
340
11
371
    -1
372
    -1
  0
DIMSTYLE
105
73CF
330
A
100
AcDbSymbolTableRecord
100
AcDbDimStyleTableRecord
  2
AM_ISO$7
 70
     0
  4
"
 41
2.5
 42
1.0
 43
10.0
 44
1.0
 47
0.1
 48
0.1
 73
     0
 74
     0
 77
     1
 78
     8
 79
     2
 90
     1
140
5.0
141
0.0
143
0.0393701
146
0.71
147
1.5
172
     1
176
   256
177
   256
178
     2
271
     2
272
     3
274
     4
283
     0
284
     8
340
11
371
    -1
372
    -1
  0
DIMSTYLE
105
73D0
330
A
100
AcDbSymbolTableRecord
100
AcDbDimStyleTableRecord
  2
AM_ISO$SF
 70
     0
  4
"
 41
2.5
 42
1.0
 43
10.0
 44
1.0
 47
0.1
 48
0.1
 73
     0
 74
     0
 75
     1
 76
     1
 77
     1
 78
     8
 79
     2
 90
     1
140
3.5
141
0.0
143
0.0393701
146
0.71
147
1.5
172
     1
176
   256
177
   256
178
     2
271
     2
272
     3
274
     4
283
     0
284
     8
340
11
371
    -1
372
    -1
  0
DIMSTYLE
105
73D1
330
A
100
AcDbSymbolTableRecord
100
AcDbDimStyleTableRecord
  2
AM_ISO$SH
 70
     0
  4
"
 41
2.5
 42
1.0
 43
10.0
 44
1.0
 47
0.1
 48
0.1
 73
     0
 74
     0
 75
     1
 76
     1
 77
     1
 78
     8
 79
     2
 90
     1
140
3.5
141
0.0
143
0.0393701
144
2.0
146
0.71
147
1.5
172
     1
173
     1
176
   256
177
   256
178
     2
271
     2
272
     3
274
     4
283
     0
284
     8
340
11
343
74
371
    -1
372
    -1
  0
ENDTAB
  0
TABLE
  2
BLOCK_RECORD
  5
1
330
0
100
AcDbSymbolTable
 70
    31
  0
BLOCK_RECORD
  5
1F
102
{ACAD_XDICTIONARY
360
82
102
}
330
1
100
AcDbSymbolTableRecord
100
AcDbBlockTableRecord
  2
*Model_Space
340
22
 70
     0
280
     1
281
     0
  0
BLOCK_RECORD
  5
1B
330
1
100
AcDbSymbolTableRecord
100
AcDbBlockTableRecord
  2
*Paper_Space
340
1E
 70
     0
280
     1
281
     0
  0
BLOCK_RECORD
  5
23
330
1
100
AcDbSymbolTableRecord
100
AcDbBlockTableRecord
  2
*Paper_Space0
340
26
 70
     0
280
     1
281
     0
  0
BLOCK_RECORD
  5
69
330
1
100
AcDbSymbolTableRecord
100
AcDbBlockTableRecord
  2
_Open30
340
0
102
{BLKREFS
331
6394
331
6395
331
639F
331
63A0
331
63B3
331
63B4
331
63BF
331
63C0
331
63C7
331
63C8
331
63D7
331
63D8
331
63E0
331
63E1
331
63E9
331
63EA
331
63F5
331
6400
331
642C
331
642D
331
712C
331
712D
331
716E
331
716F
331
72DA
331
72DB
102
}
 70
     0
280
     1
281
     0
  0
BLOCK_RECORD
  5
74
330
1
100
AcDbSymbolTableRecord
100
AcDbBlockTableRecord
  2
GENAXEH
340
0
 70
     0
280
     1
281
     0
  0
BLOCK_RECORD
  5
38DF
102
{ACAD_XDICTIONARY
360
38E0
102
}
330
1
100
AcDbSymbolTableRecord
100
AcDbBlockTableRecord
  2
ロッカクアナツキプラグA R1／2
340
0
310
2800000020000000200000000100080000000000000400000000000000000000000000000000000000000000000080000080000000808000800000008000800080800000C0C0C000C0DCC000F0CAA6000020400000206000002080000020A0000020C0000020E00000400000004020000040400000406000004080000040A0
310
000040C0000040E00000600000006020000060400000606000006080000060A0000060C0000060E00000800000008020000080400000806000008080000080A0000080C0000080E00000A0000000A0200000A0400000A0600000A0800000A0A00000A0C00000A0E00000C0000000C0200000C0400000C0600000C0800000C0
310
A00000C0C00000C0E00000E0000000E0200000E0400000E0600000E0800000E0A00000E0C00000E0E00040000000400020004000400040006000400080004000A0004000C0004000E00040200000402020004020400040206000402080004020A0004020C0004020E000404000004040200040404000404060004040800040
310
40A0004040C0004040E00040600000406020004060400040606000406080004060A0004060C0004060E00040800000408020004080400040806000408080004080A0004080C0004080E00040A0000040A0200040A0400040A0600040A0800040A0A00040A0C00040A0E00040C0000040C0200040C0400040C0600040C08000
310
40C0A00040C0C00040C0E00040E0000040E0200040E0400040E0600040E0800040E0A00040E0C00040E0E00080000000800020008000400080006000800080008000A0008000C0008000E00080200000802020008020400080206000802080008020A0008020C0008020E00080400000804020008040400080406000804080
310
008040A0008040C0008040E00080600000806020008060400080606000806080008060A0008060C0008060E00080800000808020008080400080806000808080008080A0008080C0008080E00080A0000080A0200080A0400080A0600080A0800080A0A00080A0C00080A0E00080C0000080C0200080C0400080C0600080C0
310
800080C0A00080C0C00080C0E00080E0000080E0200080E0400080E0600080E0800080E0A00080E0C00080E0E000C0000000C0002000C0004000C0006000C0008000C000A000C000C000C000E000C0200000C0202000C0204000C0206000C0208000C020A000C020C000C020E000C0400000C0402000C0404000C0406000C0
310
408000C040A000C040C000C040E000C0600000C0602000C0604000C0606000C0608000C060A000C060C000C060E000C0800000C0802000C0804000C0806000C0808000C080A000C080C000C080E000C0A00000C0A02000C0A04000C0A06000C0A08000C0A0A000C0A0C000C0A0E000C0C00000C0C02000C0C04000C0C06000
310
C0C08000C0C0A000F0FBFF00A4A0A000808080000000FF0000FF000000FFFF00FF000000FF00FF00FFFF0000FFFFFF000000000000000000000000000000000000000000000000000000000000000000000000000000000000000000000000F900000000000000000000000000000000000000000000000000000000000000
310
F900000000000000000000000000000000000000000000000000000000000000F900000000000000000000000000000000000000000000000000000000000000F900000000000000000000000000000000000000000000000000000000000000F9000000000000000000000000000000000000000000000000000000000000
310
00F900000000000000000000000000000000000000000000000000000000000000F900000000000000000000000000000000000000000000000000000000000000F900000000000000000000000000000000000000000000000000000000000000F9000000000000000000000000000000000000000000000000FFFFFFFFFF
310
FFFFFFFFFFFFFFFFFFFFFF0000000000000000000000000000FEFF00000000000000F90000000000000000FFFE0000000000000000000000FFFEFFFFFFFFFFFFFFFFFFFFFFFFFFFFFFFFFFFFFEFF00000000000000000000FFFE0000000000000000F9000000000000000000FEFF00000000000000000000FFFE0000000000
310
000000F9000000000000000000FEFF00000000000000000000FFFE0000000000000000F9000000000000000000FEFF00000000000000000000FFFE0000000000000000F9000000000000000000FEFF00000000000000000000FFFE0000000000000000F9000000000000000000FEFF00000000000000000000FFFE00000000
310
00000000F9000000000000000000FEFF000000000000000000FF00FE0000000000000000F9000000000000000000FE00FF0000000000000000FF00FE0000000000000000F9000000000000000000FE00FF0000000000000000FF00FE0000000000000000F9000000000000000000FE00FF0000000000000000FF00FE000000
310
0000000000F9000000000000000000FE00FF0000000000000000FF00FE0000000000000000F9000000000000000000FE00FF0000000000000000FFFFFEFFFFFFFFFFFFFFFFFFFFFFFFFFFFFFFFFFFFFEFFFF000000000000000000FFFE0000000000000000F9000000000000000000FEFF0000000000000000000000000000
310
000000000000F900000000000000000000000000000000000000000000000000000000000000F900000000000000000000000000000000000000000000000000000000000000F900000000000000000000000000000000000000000000000000000000000000F9000000000000000000000000000000000000000000000000
310
00000000000000F9000000000000000000000000000000000000000000000000000000000000000000000000000000000000000000000000
102
{BLKREFS
331
4EEE
102
}
 70
     4
280
     1
281
     0
  0
BLOCK_RECORD
  5
3B58
330
1
100
AcDbSymbolTableRecord
100
AcDbBlockTableRecord
  2
GENDOT
340
0
102
{BLKREFS
331
63F4
331
63FF
102
}
 70
     0
280
     1
281
     0
  0
BLOCK_RECORD
  5
4EB3
102
{ACAD_XDICTIONARY
360
4F6C
102
}
330
1
100
AcDbSymbolTableRecord
100
AcDbBlockTableRecord
  2
ケースＡ CCMH560
340
0
310
2800000020000000200000000100080000000000000400000000000000000000000000000000000000000000000080000080000000808000800000008000800080800000C0C0C000C0DCC000F0CAA6000020400000206000002080000020A0000020C0000020E00000400000004020000040400000406000004080000040A0
310
000040C0000040E00000600000006020000060400000606000006080000060A0000060C0000060E00000800000008020000080400000806000008080000080A0000080C0000080E00000A0000000A0200000A0400000A0600000A0800000A0A00000A0C00000A0E00000C0000000C0200000C0400000C0600000C0800000C0
310
A00000C0C00000C0E00000E0000000E0200000E0400000E0600000E0800000E0A00000E0C00000E0E00040000000400020004000400040006000400080004000A0004000C0004000E00040200000402020004020400040206000402080004020A0004020C0004020E000404000004040200040404000404060004040800040
310
40A0004040C0004040E00040600000406020004060400040606000406080004060A0004060C0004060E00040800000408020004080400040806000408080004080A0004080C0004080E00040A0000040A0200040A0400040A0600040A0800040A0A00040A0C00040A0E00040C0000040C0200040C0400040C0600040C08000
310
40C0A00040C0C00040C0E00040E0000040E0200040E0400040E0600040E0800040E0A00040E0C00040E0E00080000000800020008000400080006000800080008000A0008000C0008000E00080200000802020008020400080206000802080008020A0008020C0008020E00080400000804020008040400080406000804080
310
008040A0008040C0008040E00080600000806020008060400080606000806080008060A0008060C0008060E00080800000808020008080400080806000808080008080A0008080C0008080E00080A0000080A0200080A0400080A0600080A0800080A0A00080A0C00080A0E00080C0000080C0200080C0400080C0600080C0
310
800080C0A00080C0C00080C0E00080E0000080E0200080E0400080E0600080E0800080E0A00080E0C00080E0E000C0000000C0002000C0004000C0006000C0008000C000A000C000C000C000E000C0200000C0202000C0204000C0206000C0208000C020A000C020C000C020E000C0400000C0402000C0404000C0406000C0
310
408000C040A000C040C000C040E000C0600000C0602000C0604000C0606000C0608000C060A000C060C000C060E000C0800000C0802000C0804000C0806000C0808000C080A000C080C000C080E000C0A00000C0A02000C0A04000C0A06000C0A08000C0A0A000C0A0C000C0A0E000C0C00000C0C02000C0C04000C0C06000
310
C0C08000C0C0A000F0FBFF00A4A0A000808080000000FF0000FF000000FFFF00FF000000FF00FF00FFFF0000FFFFFF00000000000000000000000000000000000000000000000000000000000000000000000000000000000000000000FFFF000000000000000000000000000000000000000000000000000000000000FFFF
310
000000000000000000000000000000000000000000000000000000000000FFFF000000000000000000000000000000000000000000000000000000000000FFFFFFFFFFFFFFFFFFFF00000000000000000000000000000000000000000000FFFF0000000000FFFF0000000000000000000000000000000000000000000000FF
310
FF0000000000FFFF0000000000000000000000000000000000000000000000FFFF0000000000FFFF0000000000000000000000000000000000000000000000FFFF0000000000FFFF0000000000000000000000000000000000000000000000FFFF0000000000FFFF0000000000000000000000000000000000000000000000
310
FFFF0000000000FFFF0000000000000000000000000000000000000000000000FFFF0000000000FFFF0000000000000000000000000000000000000000000000FFFF0000000000FFFF0000000000000000000000000000000000000000000000FFFF0000000000FFFF00000000000000000000000000000000000000000000
310
00FFFF0000000000FFFF0000000000000000000000000000000000000000000000FFFF0000000000FFFF0000000000000000000000000000000000000000000000FFFF0000000000FFFF0000000000000000000000000000000000000000000000000000000000000000000000000000000000000000000000000000000000
310
00000000000000000000000000000000000000000000000000000000000000000000000000000000000000000000000000000000000000000000000000000000000000000000000000000000000000000000000000000000000000000000000000000000000000000000000000000000000000000000000000000000000000
310
00000000000000000000000000000000000000000000000000000000000000000000000000000000000000000000000000000000000000000000000000000000000000000000000000000000000000000000000000000000000000000000000000000000000000000000000000000000000000000000000000000000000000
310
000000FFFFFFFFFFFFA4A4A4FF00000000000000000000000000000000000000000000FFFFFFFFFFFFFFFFFFFF00000000000000000000000000000000000000F9F9F9F9FFFFF9000000000000000000000000000000000000000000000000000000FFFFFFFF00000000000000000000000000000000000000000000000000
310
0000000000FFFF00000000000000000000000000000000000000000000000000000000000000000000000000000000000000000000000000
102
{BLKREFS
331
5090
102
}
 70
     4
280
     1
281
     0
  0
BLOCK_RECORD
  5
5039
102
{ACAD_XDICTIONARY
360
50CB
102
}
330
1
100
AcDbSymbolTableRecord
100
AcDbBlockTableRecord
  2
ケースＢ CCMH560
340
0
310
2800000020000000200000000100080000000000000400000000000000000000000000000000000000000000000080000080000000808000800000008000800080800000C0C0C000C0DCC000F0CAA6000020400000206000002080000020A0000020C0000020E00000400000004020000040400000406000004080000040A0
310
000040C0000040E00000600000006020000060400000606000006080000060A0000060C0000060E00000800000008020000080400000806000008080000080A0000080C0000080E00000A0000000A0200000A0400000A0600000A0800000A0A00000A0C00000A0E00000C0000000C0200000C0400000C0600000C0800000C0
310
A00000C0C00000C0E00000E0000000E0200000E0400000E0600000E0800000E0A00000E0C00000E0E00040000000400020004000400040006000400080004000A0004000C0004000E00040200000402020004020400040206000402080004020A0004020C0004020E000404000004040200040404000404060004040800040
310
40A0004040C0004040E00040600000406020004060400040606000406080004060A0004060C0004060E00040800000408020004080400040806000408080004080A0004080C0004080E00040A0000040A0200040A0400040A0600040A0800040A0A00040A0C00040A0E00040C0000040C0200040C0400040C0600040C08000
310
40C0A00040C0C00040C0E00040E0000040E0200040E0400040E0600040E0800040E0A00040E0C00040E0E00080000000800020008000400080006000800080008000A0008000C0008000E00080200000802020008020400080206000802080008020A0008020C0008020E00080400000804020008040400080406000804080
310
008040A0008040C0008040E00080600000806020008060400080606000806080008060A0008060C0008060E00080800000808020008080400080806000808080008080A0008080C0008080E00080A0000080A0200080A0400080A0600080A0800080A0A00080A0C00080A0E00080C0000080C0200080C0400080C0600080C0
310
800080C0A00080C0C00080C0E00080E0000080E0200080E0400080E0600080E0800080E0A00080E0C00080E0E000C0000000C0002000C0004000C0006000C0008000C000A000C000C000C000E000C0200000C0202000C0204000C0206000C0208000C020A000C020C000C020E000C0400000C0402000C0404000C0406000C0
310
408000C040A000C040C000C040E000C0600000C0602000C0604000C0606000C0608000C060A000C060C000C060E000C0800000C0802000C0804000C0806000C0808000C080A000C080C000C080E000C0A00000C0A02000C0A04000C0A06000C0A08000C0A0A000C0A0C000C0A0E000C0C00000C0C02000C0C04000C0C06000
310
C0C08000C0C0A000F0FBFF00A4A0A000808080000000FF0000FF000000FFFF00FF000000FF00FF00FFFF0000FFFFFF0000000000000000000000000000000000000000000000000000000000000000000000000000000000000000000000FFFFFFFF00000000000000000000000000000000000000000000000000000000FF
310
00FFFF00000000000000000000000000000000000000000000000000000000F9F9FFFFF900000000000000000000000000000000000000FFFFFFFFFFFFFFFFFF00FFFFFFFFFFFFFFFFFFFF000000000000000000000000000000FF00000000FF00FFFF0000000000FF00FF000000000000000000000000000000FF00000000
310
FF00FFFF0000000000FF00FF000000000000000000000000000000FF00000000FF00FFFF0000000000FF00FF000000000000000000000000000000FF00000000FF00FFFF0000000000FF00FF000000000000000000000000000000FF00000000FF00FFFF0000000000FF00FF000000000000000000000000000000FF000000
310
00FF00FFFF0000000000FF00FF000000000000000000000000000000FF00000000FF00FFFF0000000000FF00FF000000000000000000000000000000FF00000000FF00FFFF0000000000FF00FF000000000000000000000000000000FF00000000FF00FFFF0000000000FF00FF000000000000000000000000000000FF0000
310
0000FF00FFFF0000000000FF00FF000000000000000000000000000000FF00000000FF00FFFF0000000000FF00FF000000000000000000000000000000FF00000000FF00FFFF0000000000FF00FF00000000000000000000000000000000000000000000000000000000000000000000000000000000000000000000000000
310
00000000000000000000000000000000000000000000000000000000000000000000000000000000000000000000000000000000000000000000000000000000000000000000000000000000000000000000000000000000000000000000000000000000000000000000000000000000000000000000000000000000000000
310
0000000000000000000000000000000000000000000000000000000000000000000000000000000000000000000000000000000000000000000000000000000000000000000000000000000000000000000000000000000000000000000000000000000000000000000000000000000000000000000000000000000000FFFF
310
A4A4A4FFFFFFFFFFFFFEFEFFA4A4A4FFFF00000000000000000000000000FFFFFFFFFFFFF9FF00FFFFFFFFFFFFFFFFFFFF000000000000000000000000000000000000F9F9F9F9FFFFF9000000000000000000000000000000000000000000000000000000FF00FFFF00000000000000000000000000000000000000000000
310
000000000000FFFFFFFF00000000000000000000000000000000000000000000000000000000000000000000000000000000000000000000
102
{BLKREFS
331
5066
102
}
 70
     4
280
     1
281
     0
  0
BLOCK_RECORD
  5
5122
102
{ACAD_XDICTIONARY
360
676A
102
}
330
1
100
AcDbSymbolTableRecord
100
AcDbBlockTableRecord
  2
センタＡ CCMH560
340
0
310
2800000020000000200000000100080000000000000400000000000000000000000000000000000000000000000080000080000000808000800000008000800080800000C0C0C000C0DCC000F0CAA6000020400000206000002080000020A0000020C0000020E00000400000004020000040400000406000004080000040A0
310
000040C0000040E00000600000006020000060400000606000006080000060A0000060C0000060E00000800000008020000080400000806000008080000080A0000080C0000080E00000A0000000A0200000A0400000A0600000A0800000A0A00000A0C00000A0E00000C0000000C0200000C0400000C0600000C0800000C0
310
A00000C0C00000C0E00000E0000000E0200000E0400000E0600000E0800000E0A00000E0C00000E0E00040000000400020004000400040006000400080004000A0004000C0004000E00040200000402020004020400040206000402080004020A0004020C0004020E000404000004040200040404000404060004040800040
310
40A0004040C0004040E00040600000406020004060400040606000406080004060A0004060C0004060E00040800000408020004080400040806000408080004080A0004080C0004080E00040A0000040A0200040A0400040A0600040A0800040A0A00040A0C00040A0E00040C0000040C0200040C0400040C0600040C08000
310
40C0A00040C0C00040C0E00040E0000040E0200040E0400040E0600040E0800040E0A00040E0C00040E0E00080000000800020008000400080006000800080008000A0008000C0008000E00080200000802020008020400080206000802080008020A0008020C0008020E00080400000804020008040400080406000804080
310
008040A0008040C0008040E00080600000806020008060400080606000806080008060A0008060C0008060E00080800000808020008080400080806000808080008080A0008080C0008080E00080A0000080A0200080A0400080A0600080A0800080A0A00080A0C00080A0E00080C0000080C0200080C0400080C0600080C0
310
800080C0A00080C0C00080C0E00080E0000080E0200080E0400080E0600080E0800080E0A00080E0C00080E0E000C0000000C0002000C0004000C0006000C0008000C000A000C000C000C000E000C0200000C0202000C0204000C0206000C0208000C020A000C020C000C020E000C0400000C0402000C0404000C0406000C0
310
408000C040A000C040C000C040E000C0600000C0602000C0604000C0606000C0608000C060A000C060C000C060E000C0800000C0802000C0804000C0806000C0808000C080A000C080C000C080E000C0A00000C0A02000C0A04000C0A06000C0A08000C0A0A000C0A0C000C0A0E000C0C00000C0C02000C0C04000C0C06000
310
C0C08000C0C0A000F0FBFF00A4A0A000808080000000FF0000FF000000FFFF00FF000000FF00FF00FFFF0000FFFFFF00000000000000000000000000000000000000000000000000000000000000000000000000000000000000000000000000000000FFFFFFFFFFFF00000000000000000000000000000000000000000000
310
0000000000FF00000000FF0000000000000000000000000000000000000000000000000000FF00000000FF0000000000000000000000000000000000000000000000000000FF00000000FF0000000000000000000000000000000000000000000000000000FF00000000FF0000000000000000000000000000000000000000
310
000000000000FF00000000FF0000000000000000000000000000000000000000000000000000FF00000000FF0000000000000000000000000000000000000000000000000000FF00000000FF0000000000000000000000000000000000000000000000000000FF00000000FF00000000000000000000000000000000000000
310
00000000000000FF00000000FF0000000000000000000000000000000000000000000000000000FF00000000FF0000000000000000000000000000000000000000000000000000FF00000000FF0000000000000000000000000000000000000000000000000000FF00000000FF000000000000000000000000000000000000
310
0000000000000000FF00000000FF000000000000000000000000FFA4A4A4A4A40000000000000000FF000000FFFF000000000000000000000000FFA4A4A4A400000000000000000000000000FFFF000000000000000000000000FF0000000000000000000000000000000000FFFF000000000000000000000000FF00000000
310
00000000000000000000000000FFFF000000000000000000000000FF0000000000000000000000000000000000FFFF000000000000000000000000FF0000000000000000000000000000000000FFFF000000000000000000000000FF0000000000000000000000000000000000FFFF000000000000000000000000FF000000
310
0000000000000000000000000000FFFF000000000000000000000000FFFFFFFFFFFFFFFFFFFFFFFFFFFFFFFFFFFFFFFF000000000000000000000000FFFFFFFFFFFFFFFFFFFFFFFFFFFFFFFFFFFFFFFF000000000000000000000000FF000000000000000000000000000000000000FF000000000000000000000000FF0000
310
00000000000000000000000000000000FF000000000000000000000000FF000000000000000000000000000000000000FF000000000000000000000000FFFFFFFFFFFFFFFFF9FFFFFFFFFFFFFFFFFFFFFF0000000000000000000000000000000000FFFFF9F9F9F9FF00000000000000000000000000000000000000000000
310
000000000000F900000000000000000000000000000000000000000000000000000000000000000000000000000000000000000000000000
102
{BLKREFS
331
5149
102
}
 70
     4
280
     1
281
     0
  0
BLOCK_RECORD
  5
5199
102
{ACAD_XDICTIONARY
360
5218
102
}
330
1
100
AcDbSymbolTableRecord
100
AcDbBlockTableRecord
  2
センタＢ CCMH560
340
0
310
2800000020000000200000000100080000000000000400000000000000000000000000000000000000000000000080000080000000808000800000008000800080800000C0C0C000C0DCC000F0CAA6000020400000206000002080000020A0000020C0000020E00000400000004020000040400000406000004080000040A0
310
000040C0000040E00000600000006020000060400000606000006080000060A0000060C0000060E00000800000008020000080400000806000008080000080A0000080C0000080E00000A0000000A0200000A0400000A0600000A0800000A0A00000A0C00000A0E00000C0000000C0200000C0400000C0600000C0800000C0
310
A00000C0C00000C0E00000E0000000E0200000E0400000E0600000E0800000E0A00000E0C00000E0E00040000000400020004000400040006000400080004000A0004000C0004000E00040200000402020004020400040206000402080004020A0004020C0004020E000404000004040200040404000404060004040800040
310
40A0004040C0004040E00040600000406020004060400040606000406080004060A0004060C0004060E00040800000408020004080400040806000408080004080A0004080C0004080E00040A0000040A0200040A0400040A0600040A0800040A0A00040A0C00040A0E00040C0000040C0200040C0400040C0600040C08000
310
40C0A00040C0C00040C0E00040E0000040E0200040E0400040E0600040E0800040E0A00040E0C00040E0E00080000000800020008000400080006000800080008000A0008000C0008000E00080200000802020008020400080206000802080008020A0008020C0008020E00080400000804020008040400080406000804080
310
008040A0008040C0008040E00080600000806020008060400080606000806080008060A0008060C0008060E00080800000808020008080400080806000808080008080A0008080C0008080E00080A0000080A0200080A0400080A0600080A0800080A0A00080A0C00080A0E00080C0000080C0200080C0400080C0600080C0
310
800080C0A00080C0C00080C0E00080E0000080E0200080E0400080E0600080E0800080E0A00080E0C00080E0E000C0000000C0002000C0004000C0006000C0008000C000A000C000C000C000E000C0200000C0202000C0204000C0206000C0208000C020A000C020C000C020E000C0400000C0402000C0404000C0406000C0
310
408000C040A000C040C000C040E000C0600000C0602000C0604000C0606000C0608000C060A000C060C000C060E000C0800000C0802000C0804000C0806000C0808000C080A000C080C000C080E000C0A00000C0A02000C0A04000C0A06000C0A08000C0A0A000C0A0C000C0A0E000C0C00000C0C02000C0C04000C0C06000
310
C0C08000C0C0A000F0FBFF00A4A0A000808080000000FF0000FF000000FFFF00FF000000FF00FF00FFFF0000FFFFFF00000000000000000000000000000000000000000000000000000000000000000000000000000000FFFFFFFFFFFF00000000000000000000000000000000000000000000000000FF00000000FF000000
310
0000000000000000000000000000000000000000000000FF00000000FF0000000000000000000000000000000000000000000000000000FF00000000FF0000000000000000000000000000000000000000000000000000FF00000000FF0000000000000000000000000000000000000000000000000000FF00000000FF0000
310
000000000000000000000000000000000000000000000000FF00000000FF0000000000000000000000000000000000000000000000000000FF00000000FF0000000000000000000000000000000000000000000000000000FF00000000FF0000000000000000000000000000000000000000000000000000FF00000000FF00
310
00000000000000000000000000000000000000000000000000FF00000000FF0000000000000000000000000000000000000000000000000000FF00000000FF0000000000000000000000000000000000000000000000000000FF00000000FF0000000000000000000000000000000000000000000000000000FF00000000FF
310
0000000000000000000000000000000000000000000000000000FFFF000000FF0000000000000000A4A4A4A4A4A4000000000000000000000000FFFF00000000000000000000000000A4A4A4A4A4000000000000000000000000FFFF0000000000000000000000000000000000FF000000000000000000000000FFFF000000
310
0000000000000000000000000000FF000000000000000000000000FFFF0000000000000000000000000000000000FF000000000000000000000000FFFF0000000000000000000000000000000000FF000000000000000000000000FFFF0000000000000000000000000000000000FF000000000000000000000000FFFF0000
310
000000000000000000000000000000FF000000000000000000000000FFFFFFFFFFFFFFFFFFFFFFFFFFFFFFFFFFFFFFFF000000000000000000000000FFFFFFFFFFFFFFFFFFFFFFFFFFFFFFFFFFFFFFFF000000000000000000000000FF000000000000000000000000000000000000FF000000000000000000000000FF0000
310
00000000000000000000000000000000FF000000000000000000000000FF000000000000000000000000000000000000FF000000000000000000000000FFFFFFFFFFFFFFFFFFFFFFF9FFFFFFFFFFFFFFFF0000000000000000000000000000000000000000FFF9F9F9F9FFFF00000000000000000000000000000000000000
310
000000000000000000F900000000000000000000000000000000000000000000000000000000000000000000000000000000000000000000
102
{BLKREFS
331
51C1
102
}
 70
     4
280
     1
281
     0
  0
BLOCK_RECORD
  5
5327
102
{ACAD_XDICTIONARY
360
53C7
102
}
330
1
100
AcDbSymbolTableRecord
100
AcDbBlockTableRecord
  2
リーマボルト CCMH560 M24
340
0
310
2800000020000000200000000100080000000000000400000000000000000000000000000000000000000000000080000080000000808000800000008000800080800000C0C0C000C0DCC000F0CAA6000020400000206000002080000020A0000020C0000020E00000400000004020000040400000406000004080000040A0
310
000040C0000040E00000600000006020000060400000606000006080000060A0000060C0000060E00000800000008020000080400000806000008080000080A0000080C0000080E00000A0000000A0200000A0400000A0600000A0800000A0A00000A0C00000A0E00000C0000000C0200000C0400000C0600000C0800000C0
310
A00000C0C00000C0E00000E0000000E0200000E0400000E0600000E0800000E0A00000E0C00000E0E00040000000400020004000400040006000400080004000A0004000C0004000E00040200000402020004020400040206000402080004020A0004020C0004020E000404000004040200040404000404060004040800040
310
40A0004040C0004040E00040600000406020004060400040606000406080004060A0004060C0004060E00040800000408020004080400040806000408080004080A0004080C0004080E00040A0000040A0200040A0400040A0600040A0800040A0A00040A0C00040A0E00040C0000040C0200040C0400040C0600040C08000
310
40C0A00040C0C00040C0E00040E0000040E0200040E0400040E0600040E0800040E0A00040E0C00040E0E00080000000800020008000400080006000800080008000A0008000C0008000E00080200000802020008020400080206000802080008020A0008020C0008020E00080400000804020008040400080406000804080
310
008040A0008040C0008040E00080600000806020008060400080606000806080008060A0008060C0008060E00080800000808020008080400080806000808080008080A0008080C0008080E00080A0000080A0200080A0400080A0600080A0800080A0A00080A0C00080A0E00080C0000080C0200080C0400080C0600080C0
310
800080C0A00080C0C00080C0E00080E0000080E0200080E0400080E0600080E0800080E0A00080E0C00080E0E000C0000000C0002000C0004000C0006000C0008000C000A000C000C000C000E000C0200000C0202000C0204000C0206000C0208000C020A000C020C000C020E000C0400000C0402000C0404000C0406000C0
310
408000C040A000C040C000C040E000C0600000C0602000C0604000C0606000C0608000C060A000C060C000C060E000C0800000C0802000C0804000C0806000C0808000C080A000C080C000C080E000C0A00000C0A02000C0A04000C0A06000C0A08000C0A0A000C0A0C000C0A0E000C0C00000C0C02000C0C04000C0C06000
310
C0C08000C0C0A000F0FBFF00A4A0A000808080000000FF0000FF000000FFFF00FF000000FF00FF00FFFF0000FFFFFF0000000000000000000000000000000000000000000000000000000000000000000000000000000000000000000000000000000000000000000000000000000000000000000000000000000000000000
310
00000000000000000000000000000000000000000000000000000000000000000000000000000000000000000000000000000000000000000000000000000000000000000000000000000000000000000000000000000000000000000000000000000000000000000000000000000000000000000000000000000000000000
310
00000000000000000000000000000000000000000000000000000000000000000000000000000000000000000000000000000000000000000000000000000000000000000000000000000000000000000000000000000000000000000000000000000000000000000000000000000000000000000000FFFFFFFFFF00000000
310
00000000000000000000000000FFFFFFFF000000000000FF000000FFFFFF000000000000000000000000000000000000FFFF000000FFFFFF000000FF00FFFF00000000000000000000000000FFFF0000FFFF0000FFFEFEFFFFFFFFFF00FFFF00000000000000000000000000FFFFFFFFFFFF0000FFFF00FF000000FF00FFFF
310
00000000000000000000000000FF000000FFFF0000FFFF00FF000000FFFFFFFF00000000000000000000000000FF000000FFFF0000FFFF00FF000000FFFFFFFF00000000000000000000000000FF000000FFFF0000FFFF00FF000000FF00FFFF00000000000000000000000000FF000000FFFF0000FFFEFEFFFFFFFFFF00FF
310
FF00000000000000000000000000FFFFFFFFFFFF000000FFFFFF000000FF00FFFF00000000000000000000000000FFFF0000FFFF0000000000FF000000FFFFFF000000000000000000000000000000000000FFFF0000000000FFFFFFFFFF0000000000000000000000000000000000FFFFFFFF000000000000000000000000
310
00000000000000000000000000000000000000000000000000000000000000000000000000000000000000000000000000000000000000000000000000000000000000000000000000000000000000000000000000000000000000000000000000000000000000000000000000000000000000000000000000000000000000
310
00000000000000000000000000000000000000000000000000000000000000000000000000000000000000000000000000000000000000000000000000000000000000000000000000000000000000000000000000000000000000000000000000000000000000000000000000000000000000000000000000000000000000
310
0000000000000000000000000000000000000000000000000000000000000000000000000000000000000000000000000000000000000000
102
{BLKREFS
331
535A
102
}
 70
     4
280
     1
281
     0
  0
BLOCK_RECORD
  5
5470
102
{ACAD_XDICTIONARY
360
552A
102
}
330
1
100
AcDbSymbolTableRecord
100
AcDbBlockTableRecord
  2
ＧＣサイドカバ－A CCMH560
340
0
310
2800000020000000200000000100080000000000000400000000000000000000000000000000000000000000000080000080000000808000800000008000800080800000C0C0C000C0DCC000F0CAA6000020400000206000002080000020A0000020C0000020E00000400000004020000040400000406000004080000040A0
310
000040C0000040E00000600000006020000060400000606000006080000060A0000060C0000060E00000800000008020000080400000806000008080000080A0000080C0000080E00000A0000000A0200000A0400000A0600000A0800000A0A00000A0C00000A0E00000C0000000C0200000C0400000C0600000C0800000C0
310
A00000C0C00000C0E00000E0000000E0200000E0400000E0600000E0800000E0A00000E0C00000E0E00040000000400020004000400040006000400080004000A0004000C0004000E00040200000402020004020400040206000402080004020A0004020C0004020E000404000004040200040404000404060004040800040
310
40A0004040C0004040E00040600000406020004060400040606000406080004060A0004060C0004060E00040800000408020004080400040806000408080004080A0004080C0004080E00040A0000040A0200040A0400040A0600040A0800040A0A00040A0C00040A0E00040C0000040C0200040C0400040C0600040C08000
310
40C0A00040C0C00040C0E00040E0000040E0200040E0400040E0600040E0800040E0A00040E0C00040E0E00080000000800020008000400080006000800080008000A0008000C0008000E00080200000802020008020400080206000802080008020A0008020C0008020E00080400000804020008040400080406000804080
310
008040A0008040C0008040E00080600000806020008060400080606000806080008060A0008060C0008060E00080800000808020008080400080806000808080008080A0008080C0008080E00080A0000080A0200080A0400080A0600080A0800080A0A00080A0C00080A0E00080C0000080C0200080C0400080C0600080C0
310
800080C0A00080C0C00080C0E00080E0000080E0200080E0400080E0600080E0800080E0A00080E0C00080E0E000C0000000C0002000C0004000C0006000C0008000C000A000C000C000C000E000C0200000C0202000C0204000C0206000C0208000C020A000C020C000C020E000C0400000C0402000C0404000C0406000C0
310
408000C040A000C040C000C040E000C0600000C0602000C0604000C0606000C0608000C060A000C060C000C060E000C0800000C0802000C0804000C0806000C0808000C080A000C080C000C080E000C0A00000C0A02000C0A04000C0A06000C0A08000C0A0A000C0A0C000C0A0E000C0C00000C0C02000C0C04000C0C06000
310
C0C08000C0C0A000F0FBFF00A4A0A000808080000000FF0000FF000000FFFF00FF000000FF00FF00FFFF0000FFFFFF00000000000000000000000000000000000000000000000000000000000000000000000000000000000000000000000000FF0000000000000000000000000000000000000000000000000000000000F9
310
F9FFF9000000000000000000000000000000000000000000000000000000000000FF00000000000000000000000000000000000000000000000000000000000000FF00000000000000000000000000000000000000000000000000000000000000FF0000000000000000000000000000000000000000000000000000000000
310
0000FF00000000000000000000000000000000000000000000000000000000000000FF00000000000000000000000000000000000000000000000000000000000000FF00000000000000000000000000000000000000000000000000000000000000FF00000000000000000000000000000000000000000000000000000000
310
000000FF00000000000000000000000000000000000000000000000000000000000000FF00000000000000000000000000000000000000000000000000000000000000FF00000000000000000000000000000000000000000000000000000000000000FF000000000000000000000000000000000000000000000000000000
310
00000000FF00000000000000000000000000000000000000000000000000000000000000FF00000000000000000000000000000000000000000000000000000000000000FF00000000000000000000000000000000000000000000000000000000000000000000000000000000000000000000000000000000000000000000
310
00000000000000000000000000000000000000000000000000000000000000000000000000000000000000000000000000000000000000000000000000000000000000000000000000000000000000000000000000000000000000000000000000000000000000000000000000000000000000000000000000000000000000
310
00000000000000000000000000000000000000000000000000000000000000000000000000000000000000000000000000000000000000000000000000000000000000000000000000000000000000000000000000000000000000000000000000000000000000000000000000000000000000000000000000000000000000
310
0000000000000000000000000000000000000000000000000000000000000000000000000000FFFF000000000000000000000000000000000000000000000000000000000000FFFFFF00000000000000000000000000000000000000000000000000000000FFFFFFFF00000000000000000000000000000000000000000000
310
00000000000000FFFFFF00000000000000000000000000000000000000000000000000000000000000000000000000000000000000000000
102
{BLKREFS
331
54AC
102
}
 70
     4
280
     1
281
     0
  0
BLOCK_RECORD
  5
55A1
102
{ACAD_XDICTIONARY
360
5647
102
}
330
1
100
AcDbSymbolTableRecord
100
AcDbBlockTableRecord
  2
ＧＣサイドカバ－Ｂ CCMH560
340
0
310
2800000020000000200000000100080000000000000400000000000000000000000000000000000000000000000080000080000000808000800000008000800080800000C0C0C000C0DCC000F0CAA6000020400000206000002080000020A0000020C0000020E00000400000004020000040400000406000004080000040A0
310
000040C0000040E00000600000006020000060400000606000006080000060A0000060C0000060E00000800000008020000080400000806000008080000080A0000080C0000080E00000A0000000A0200000A0400000A0600000A0800000A0A00000A0C00000A0E00000C0000000C0200000C0400000C0600000C0800000C0
310
A00000C0C00000C0E00000E0000000E0200000E0400000E0600000E0800000E0A00000E0C00000E0E00040000000400020004000400040006000400080004000A0004000C0004000E00040200000402020004020400040206000402080004020A0004020C0004020E000404000004040200040404000404060004040800040
310
40A0004040C0004040E00040600000406020004060400040606000406080004060A0004060C0004060E00040800000408020004080400040806000408080004080A0004080C0004080E00040A0000040A0200040A0400040A0600040A0800040A0A00040A0C00040A0E00040C0000040C0200040C0400040C0600040C08000
310
40C0A00040C0C00040C0E00040E0000040E0200040E0400040E0600040E0800040E0A00040E0C00040E0E00080000000800020008000400080006000800080008000A0008000C0008000E00080200000802020008020400080206000802080008020A0008020C0008020E00080400000804020008040400080406000804080
310
008040A0008040C0008040E00080600000806020008060400080606000806080008060A0008060C0008060E00080800000808020008080400080806000808080008080A0008080C0008080E00080A0000080A0200080A0400080A0600080A0800080A0A00080A0C00080A0E00080C0000080C0200080C0400080C0600080C0
310
800080C0A00080C0C00080C0E00080E0000080E0200080E0400080E0600080E0800080E0A00080E0C00080E0E000C0000000C0002000C0004000C0006000C0008000C000A000C000C000C000E000C0200000C0202000C0204000C0206000C0208000C020A000C020C000C020E000C0400000C0402000C0404000C0406000C0
310
408000C040A000C040C000C040E000C0600000C0602000C0604000C0606000C0608000C060A000C060C000C060E000C0800000C0802000C0804000C0806000C0808000C080A000C080C000C080E000C0A00000C0A02000C0A04000C0A06000C0A08000C0A0A000C0A0C000C0A0E000C0C00000C0C02000C0C04000C0C06000
310
C0C08000C0C0A000F0FBFF00A4A0A000808080000000FF0000FF000000FFFF00FF000000FF00FF00FFFF0000FFFFFF000000000000000000000000000000000000000000000000000000000000000000000000000000000000000000000000FF000000000000000000000000000000000000000000000000000000000000F9
310
FFF9F90000000000000000000000000000000000000000000000000000000000FF00000000000000000000000000000000000000000000000000000000000000FF00000000000000000000000000000000000000000000000000000000000000FF000000000000000000000000000000000000000000000000000000000000
310
00FF00000000000000000000000000000000000000000000000000000000000000FF00000000000000000000000000000000000000000000000000000000000000FF00000000000000000000000000000000000000000000000000000000000000FF0000000000000000000000000000000000000000000000000000000000
310
0000FF00000000000000000000000000000000000000000000000000000000000000FF00000000000000000000000000000000000000000000000000000000000000FF00000000000000000000000000000000000000000000000000000000000000FF00000000000000000000000000000000000000000000000000000000
310
000000FF00000000000000000000000000000000000000000000000000000000000000FF00000000000000000000000000000000000000000000000000000000000000FF0000000000000000000000000000000000000000000000000000000000000000000000000000000000000000000000000000000000000000000000
310
00000000000000000000000000000000000000000000000000000000000000000000000000000000000000000000000000000000000000000000000000000000000000000000000000000000000000000000000000000000000000000000000000000000000000000000000000000000000000000000000000000000000000
310
00000000000000000000000000000000000000000000000000000000000000000000000000000000000000000000000000000000000000000000000000000000000000000000000000000000000000000000000000000000000000000000000000000000000000000000000000000000000000000000000000000000000000
310
0000000000000000000000000000000000000000000000000000000000000000000000000000FFFF0000000000000000000000000000000000000000000000000000000000FFFFFF0000000000000000000000000000000000000000000000000000000000FFFFF9FF00000000000000000000000000000000000000000000
310
000000000000FFFFFF0000000000000000000000000000000000000000000000000000000000000000000000000000000000000000000000
102
{BLKREFS
331
55D6
102
}
 70
     4
280
     1
281
     0
  0
BLOCK_RECORD
  5
57D3
330
1
100
AcDbSymbolTableRecord
100
AcDbBlockTableRecord
  2
*D15
340
0
 70
     0
280
     1
281
     0
  0
BLOCK_RECORD
  5
5822
330
1
100
AcDbSymbolTableRecord
100
AcDbBlockTableRecord
  2
*D16
340
0
 70
     0
280
     1
281
     0
  0
BLOCK_RECORD
  5
5887
330
1
100
AcDbSymbolTableRecord
100
AcDbBlockTableRecord
  2
*D17
340
0
 70
     0
280
     1
281
     0
  0
BLOCK_RECORD
  5
589F
330
1
100
AcDbSymbolTableRecord
100
AcDbBlockTableRecord
  2
*D18
340
0
 70
     0
280
     1
281
     0
  0
BLOCK_RECORD
  5
58BB
330
1
100
AcDbSymbolTableRecord
100
AcDbBlockTableRecord
  2
*D19
340
0
 70
     0
280
     1
281
     0
  0
BLOCK_RECORD
  5
5958
330
1
100
AcDbSymbolTableRecord
100
AcDbBlockTableRecord
  2
*D20
340
0
 70
     0
280
     1
281
     0
  0
BLOCK_RECORD
  5
59EF
330
1
100
AcDbSymbolTableRecord
100
AcDbBlockTableRecord
  2
*D21
340
0
 70
     0
280
     1
281
     0
  0
BLOCK_RECORD
  5
5A07
330
1
100
AcDbSymbolTableRecord
100
AcDbBlockTableRecord
  2
*D22
340
0
 70
     0
280
     1
281
     0
  0
BLOCK_RECORD
  5
5AA5
330
1
100
AcDbSymbolTableRecord
100
AcDbBlockTableRecord
  2
*D23
340
0
 70
     0
280
     1
281
     0
  0
BLOCK_RECORD
  5
5AC1
330
1
100
AcDbSymbolTableRecord
100
AcDbBlockTableRecord
  2
*D24
340
0
 70
     0
280
     1
281
     0
  0
BLOCK_RECORD
  5
5AE0
330
1
100
AcDbSymbolTableRecord
100
AcDbBlockTableRecord
  2
*D25
340
0
 70
     0
280
     1
281
     0
  0
BLOCK_RECORD
  5
5BC0
330
1
100
AcDbSymbolTableRecord
100
AcDbBlockTableRecord
  2
*D26
340
0
 70
     0
280
     1
281
     0
  0
BLOCK_RECORD
  5
6A78
102
{ACAD_XDICTIONARY
360
6AC4
102
}
330
1
100
AcDbSymbolTableRecord
100
AcDbBlockTableRecord
  2
ロッカクアナツキプラグB R1／2
340
0
102
{BLKREFS
331
5065
102
}
 70
     0
280
     1
281
     0
  0
BLOCK_RECORD
  5
7109
330
1
100
AcDbSymbolTableRecord
100
AcDbBlockTableRecord
  2
*D28
340
0
 70
     0
280
     1
281
     0
  0
BLOCK_RECORD
  5
7133
330
1
100
AcDbSymbolTableRecord
100
AcDbBlockTableRecord
  2
*D29
340
0
 70
     0
280
     1
281
     0
  0
ENDTAB
  0
ENDSEC
  0
SECTION
  2
BLOCKS
  0
BLOCK
  5
20
330
1F
100
AcDbEntity
  8
0
100
AcDbBlockBegin
  2
*Model_Space
 70
     0
 10
0.0
 20
0.0
 30
0.0
  3
*Model_Space
  1

  0
ENDBLK
  5
21
330
1F
100
AcDbEntity
  8
0
100
AcDbBlockEnd
  0
BLOCK
  5
1C
330
1B
100
AcDbEntity
 67
     1
  8
0
100
AcDbBlockBegin
  2
*Paper_Space
 70
     0
 10
0.0
 20
0.0
 30
0.0
  3
*Paper_Space
  1

  0
ENDBLK
  5
1D
330
1B
100
AcDbEntity
 67
     1
  8
0
100
AcDbBlockEnd
  0
BLOCK
  5
24
330
23
100
AcDbEntity
 67
     1
  8
0
100
AcDbBlockBegin
  2
*Paper_Space0
 70
     0
 10
0.0
 20
0.0
 30
0.0
  3
*Paper_Space0
  1

  0
ENDBLK
  5
25
330
23
100
AcDbEntity
 67
     1
  8
0
100
AcDbBlockEnd
  0
BLOCK
  5
6D
330
69
100
AcDbEntity
  8
0
100
AcDbBlockBegin
  2
_Open30
 70
     0
 10
0.0
 20
0.0
 30
0.0
  3
_Open30
  1

  0
LINE
  5
6A
330
69
100
AcDbEntity
  8
0
  6
ByBlock
 62
     0
370
    -2
100
AcDbLine
 10
-1.0
 20
0.26794919
 30
0.0
 11
0.0
 21
0.0
 31
0.0
  0
LINE
  5
6B
330
69
100
AcDbEntity
  8
0
  6
ByBlock
 62
     0
370
    -2
100
AcDbLine
 10
0.0
 20
0.0
 30
0.0
 11
-1.0
 21
-0.26794919
 31
0.0
  0
LINE
  5
6C
330
69
100
AcDbEntity
  8
0
  6
ByBlock
 62
     0
370
    -2
100
AcDbLine
 10
0.0
 20
0.0
 30
0.0
 11
-1.0
 21
0.0
 31
0.0
  0
ENDBLK
  5
6E
330
69
100
AcDbEntity
  8
0
100
AcDbBlockEnd
  0
BLOCK
  5
76
330
74
100
AcDbEntity
  8
0
100
AcDbBlockBegin
  2
GENAXEH
 70
     0
 10
0.0
 20
0.0
 30
0.0
  3
GENAXEH
  1

  0
LINE
  5
75
330
74
100
AcDbEntity
  8
0
100
AcDbLine
 10
-1.0
 20
0.0
 30
0.0
 11
1.0
 21
0.0
 31
0.0
  0
ENDBLK
  5
77
330
74
100
AcDbEntity
  8
0
100
AcDbBlockEnd
  0
BLOCK
  5
38E2
330
38DF
100
AcDbEntity
  8
0
100
AcDbBlockBegin
  2
ロッカクアナツキプラグA R1／2
 70
     0
 10
0.0
 20
0.0
 30
0.0
  3
ロッカクアナツキプラグA R1／2
  1

  0
LINE
  5
4F96
330
38DF
100
AcDbEntity
  8
AM_7 中心線
 48
0.5
100
AcDbLine
 10
0.0
 20
4.289023000000041
 30
0.0
 11
0.0
 21
-22.94512800000007
 31
0.0
  0
LINE
  5
4F97
330
38DF
100
AcDbEntity
  8
AM_0 外形線1
100
AcDbLine
 10
10.66397700000016
 20
-1.5
 30
0.0
 11
-10.66397700000016
 21
-1.5
 31
0.0
  0
LINE
  5
4F98
330
38DF
100
AcDbEntity
  8
AM_0 外形線1
100
AcDbLine
 10
6.798286999999617
 20
-15.0
 30
0.0
 11
-6.798286000000188
 21
-15.0
 31
0.0
  0
LINE
  5
4F99
330
38DF
100
AcDbEntity
  8
AM_0 外形線1
100
AcDbLine
 10
-10.2623880000001
 20
-13.0
 30
0.0
 11
10.2623880000001
 21
-13.0
 31
0.0
  0
LINE
  5
4F9A
330
38DF
100
AcDbEntity
  8
AM_0 外形線1
100
AcDbLine
 10
-6.798286000000188
 20
-15.0
 30
0.0
 11
-10.2623880000001
 21
-13.0
 31
0.0
  0
LINE
  5
4F9B
330
38DF
100
AcDbEntity
  8
AM_0 外形線1
100
AcDbLine
 10
-10.2623880000001
 20
-13.0
 30
0.0
 11
-10.66397700000016
 21
-1.5
 31
0.0
  0
LINE
  5
4F9C
330
38DF
100
AcDbEntity
  8
AM_0 外形線1
100
AcDbLine
 10
-10.66397700000016
 20
-1.5
 30
0.0
 11
-9.163977000000159
 21
0.0
 31
0.0
  0
LINE
  5
4F9D
330
38DF
100
AcDbEntity
  8
AM_4 細線
100
AcDbLine
 10
-9.541185000000039
 20
-0.3772089999999935
 30
0.0
 11
-9.076477999999953
 21
-13.68468600000005
 31
0.0
  0
LINE
  5
4F9E
330
38DF
100
AcDbEntity
  8
AM_0 外形線1
100
AcDbLine
 10
9.163977000000159
 20
0.0
 30
0.0
 11
10.66397700000016
 21
-1.5
 31
0.0
  0
LINE
  5
4F9F
330
38DF
100
AcDbEntity
  8
AM_0 外形線1
100
AcDbLine
 10
10.66397700000016
 20
-1.5
 30
0.0
 11
10.2623880000001
 21
-13.0
 31
0.0
  0
LINE
  5
4FA0
330
38DF
100
AcDbEntity
  8
AM_0 外形線1
100
AcDbLine
 10
10.2623880000001
 20
-13.0
 30
0.0
 11
6.798286999999617
 21
-15.0
 31
0.0
  0
LINE
  5
4FA1
330
38DF
100
AcDbEntity
  8
AM_4 細線
100
AcDbLine
 10
9.076478999999835
 20
-13.68468600000005
 30
0.0
 11
9.541185999999923
 21
-0.3772089999999935
 31
0.0
  0
LINE
  5
4FC0
330
38DF
100
AcDbEntity
  8
AM_0 外形線1
100
AcDbLine
 10
-9.163977000000159
 20
0.0
 30
0.0
 11
9.163977000000159
 21
0.0
 31
0.0
  0
ENDBLK
  5
38F1
330
38DF
100
AcDbEntity
  8
0
100
AcDbBlockEnd
  0
BLOCK
  5
3B59
330
3B58
100
AcDbEntity
  8
0
100
AcDbBlockBegin
  2
GENDOT
 70
     0
 10
0.0
 20
0.0
 30
0.0
  3
GENDOT
  1

  0
LINE
  5
3B5A
330
3B58
100
AcDbEntity
  8
0
100
AcDbLine
 10
0.0
 20
0.0
 30
0.0
 11
-1.0
 21
0.0
 31
0.0
  0
LWPOLYLINE
  5
3B5B
330
3B58
100
AcDbEntity
  8
0
100
AcDbPolyline
 90
        2
 70
     1
 43
0.25
 10
-0.125
 20
0.0
 42
1.0
 10
0.125
 20
0.0
 42
1.0
  0
ENDBLK
  5
3B5C
330
3B58
100
AcDbEntity
  8
0
100
AcDbBlockEnd
  0
BLOCK
  5
4EB4
330
4EB3
100
AcDbEntity
  8
0
100
AcDbBlockBegin
  2
ケースＡ CCMH560
 70
     0
 10
0.0
 20
0.0
 30
0.0
  3
ケースＡ CCMH560
  1

  0
LINE
  5
4EB6
330
4EB3
100
AcDbEntity
  8
AM_0 外形線1
100
AcDbLine
 10
171.0
 20
-236.0
 30
0.0
 11
171.0
 21
0.0
 31
0.0
  0
LINE
  5
4EB7
330
4EB3
100
AcDbEntity
  8
AM_0 外形線1
100
AcDbLine
 10
146.0
 20
-236.0
 30
0.0
 11
146.0
 21
0.0
 31
0.0
  0
LINE
  5
4EB8
330
4EB3
100
AcDbEntity
  8
AM_0 外形線1
100
AcDbLine
 10
139.0
 20
0.0
 30
0.0
 11
139.0
 21
-229.0
 31
0.0
  0
LINE
  5
4EB9
330
4EB3
100
AcDbEntity
  8
AM_0 外形線1
100
AcDbLine
 10
30.0
 20
-279.0
 30
0.0
 11
30.0
 21
0.0
 31
0.0
  0
LINE
  5
4EBA
330
4EB3
100
AcDbEntity
  8
AM_0 外形線1
100
AcDbLine
 10
0.0
 20
0.0
 30
0.0
 11
0.0
 21
-279.0
 31
0.0
  0
LINE
  5
4EBB
330
4EB3
100
AcDbEntity
  8
AM_0 外形線1
100
AcDbLine
 10
1.0
 20
-280.0
 30
0.0
 11
29.0
 21
-280.0
 31
0.0
  0
LINE
  5
4EBC
330
4EB3
100
AcDbEntity
  8
AM_0 外形線1
100
AcDbLine
 10
0.0
 20
-279.0
 30
0.0
 11
1.0
 21
-280.0
 31
0.0
  0
LINE
  5
4EBD
330
4EB3
100
AcDbEntity
  8
AM_0 外形線1
100
AcDbLine
 10
29.0
 20
-280.0
 30
0.0
 11
30.0
 21
-279.0
 31
0.0
  0
LINE
  5
4EBE
330
4EB3
100
AcDbEntity
  8
AM_0 外形線1
100
AcDbLine
 10
36.0
 20
-229.0
 30
0.0
 11
139.0
 21
-229.0
 31
0.0
  0
ARC
  5
4EBF
330
4EB3
100
AcDbEntity
  8
AM_0 外形線1
100
AcDbCircle
 10
36.0
 20
-235.0
 30
0.0
 40
6.0
100
AcDbArc
 50
90.0
 51
180.0
  0
LINE
  5
4EC0
330
4EB3
100
AcDbEntity
  8
AM_0 外形線1
100
AcDbLine
 10
146.0
 20
-236.0
 30
0.0
 11
171.0
 21
-236.0
 31
0.0
  0
LINE
  5
4EC1
330
4EB3
100
AcDbEntity
  8
AM_0 外形線1
100
AcDbLine
 10
139.0
 20
-229.0
 30
0.0
 11
146.0
 21
-236.0
 31
0.0
  0
LINE
  5
4EC2
330
4EB3
100
AcDbEntity
  8
AM_0 外形線1
100
AcDbLine
 10
1.0
 20
280.0
 30
0.0
 11
29.0
 21
280.0
 31
0.0
  0
LINE
  5
4EC3
330
4EB3
100
AcDbEntity
  8
AM_0 外形線1
100
AcDbLine
 10
0.0
 20
270.5
 30
0.0
 11
30.0
 21
270.5
 31
0.0
  0
LINE
  5
4EC4
330
4EB3
100
AcDbEntity
  8
AM_0 外形線1
100
AcDbLine
 10
0.0
 20
244.5
 30
0.0
 11
30.0
 21
244.5
 31
0.0
  0
LINE
  5
4EC5
330
4EB3
100
AcDbEntity
  8
AM_0 外形線1
100
AcDbLine
 10
78.5
 20
211.5
 30
0.0
 11
-7.0
 21
211.5
 31
0.0
  0
LINE
  5
4EC6
330
4EB3
100
AcDbEntity
  8
AM_7 中心線
100
AcDbLine
 10
50.0
 20
257.5
 30
0.0
 11
-68.0
 21
257.5
 31
0.0
  0
LINE
  5
4EC7
330
4EB3
100
AcDbEntity
  8
AM_0 外形線1
100
AcDbLine
 10
4.5
 20
225.5
 30
0.0
 11
4.5
 21
231.7000000000001
 31
0.0
  0
LINE
  5
4EC8
330
4EB3
100
AcDbEntity
  8
AM_0 外形線1
100
AcDbLine
 10
0.0
 20
232.2
 30
0.0
 11
0.0
 21
244.5
 31
0.0
  0
LINE
  5
4EC9
330
4EB3
100
AcDbEntity
  8
AM_0 外形線1
100
AcDbLine
 10
-7.0
 20
224.0
 30
0.0
 11
-6.0
 21
225.0
 31
0.0
  0
LINE
  5
4ECA
330
4EB3
100
AcDbEntity
  8
AM_0 外形線1
100
AcDbLine
 10
-6.0
 20
225.0
 30
0.0
 11
4.0
 21
225.0
 31
0.0
  0
LINE
  5
4ECB
330
4EB3
100
AcDbEntity
  8
AM_0 外形線1
100
AcDbLine
 10
-7.0
 20
211.5
 30
0.0
 11
-7.0
 21
224.0
 31
0.0
  0
ARC
  5
4ECC
330
4EB3
100
AcDbEntity
  8
AM_0 外形線1
100
AcDbCircle
 10
4.0
 20
225.5
 30
0.0
 40
0.5
100
AcDbArc
 50
270.0
 51
0.0
  0
ARC
  5
4ECD
330
4EB3
100
AcDbEntity
  8
AM_0 外形線1
100
AcDbCircle
 10
4.0
 20
231.7000000000001
 30
0.0
 40
0.5
100
AcDbArc
 50
0.0
 51
90.0
  0
LINE
  5
4ECE
330
4EB3
100
AcDbEntity
  8
AM_0 外形線1
100
AcDbLine
 10
4.0
 20
232.2
 30
0.0
 11
0.0
 21
232.2
 31
0.0
  0
LINE
  5
4ECF
330
4EB3
100
AcDbEntity
  8
AM_0 外形線1
100
AcDbLine
 10
0.0
 20
279.0
 30
0.0
 11
1.0
 21
280.0
 31
0.0
  0
LINE
  5
4ED0
330
4EB3
100
AcDbEntity
  8
AM_0 外形線1
100
AcDbLine
 10
0.0
 20
270.5
 30
0.0
 11
0.0
 21
279.0
 31
0.0
  0
LINE
  5
4ED1
330
4EB3
100
AcDbEntity
  8
AM_0 外形線1
100
AcDbLine
 10
36.0
 20
229.0
 30
0.0
 11
139.0
 21
229.0
 31
0.0
  0
LINE
  5
4ED2
330
4EB3
100
AcDbEntity
  8
AM_0 外形線1
100
AcDbLine
 10
79.0
 20
210.0
 30
0.0
 11
166.0
 21
210.0
 31
0.0
  0
LINE
  5
4ED3
330
4EB3
100
AcDbEntity
  8
AM_7 中心線
 48
0.5
100
AcDbLine
 10
77.0
 20
204.0
 30
0.0
 11
168.0
 21
204.0
 31
0.0
  0
LINE
  5
4ED4
330
4EB3
100
AcDbEntity
  8
AM_3 隠れ線
100
AcDbLine
 10
160.5
 20
199.2
 30
0.0
 11
85.5
 21
199.2
 31
0.0
  0
ARC
  5
4ED5
330
4EB3
100
AcDbEntity
  8
AM_0 外形線1
100
AcDbCircle
 10
36.0
 20
235.0
 30
0.0
 40
6.0
100
AcDbArc
 50
180.0
 51
270.0
  0
LINE
  5
4ED6
330
4EB3
100
AcDbEntity
  8
AM_0 外形線1
100
AcDbLine
 10
45.45881499999995
 20
228.622791
 30
0.0
 11
45.44564199999967
 21
229.0
 31
0.0
  0
LINE
  5
4ED7
330
4EB3
100
AcDbEntity
  8
AM_0 外形線1
100
AcDbLine
 10
45.92352200000004
 20
215.315314
 30
0.0
 11
46.05675599999995
 21
211.5
 31
0.0
  0
LINE
  5
4ED8
330
4EB3
100
AcDbEntity
  8
AM_0 外形線1
100
AcDbLine
 10
63.94324499999993
 20
211.5
 30
0.0
 11
64.07647899999982
 21
215.315314
 31
0.0
  0
LINE
  5
4ED9
330
4EB3
100
AcDbEntity
  8
AM_0 外形線1
100
AcDbLine
 10
65.66397700000016
 20
227.5
 30
0.0
 11
65.71635799999967
 21
229.0
 31
0.0
  0
LINE
  5
4EDA
330
4EB3
100
AcDbEntity
  8
AM_0 外形線1
100
AcDbLine
 10
65.2623880000001
 20
216.0
 30
0.0
 11
65.10524499999974
 21
211.5
 31
0.0
  0
LINE
  5
4EDB
330
4EB3
100
AcDbEntity
  8
AM_0 外形線1
100
AcDbLine
 10
44.33602299999985
 20
227.5
 30
0.0
 11
44.28364199999986
 21
229.0
 31
0.0
  0
LINE
  5
4EDC
330
4EB3
100
AcDbEntity
  8
AM_0 外形線1
100
AcDbLine
 10
44.73761199999989
 20
216.0
 30
0.0
 11
44.89475599999969
 21
211.5
 31
0.0
  0
ARC
  5
4EDD
330
4EB3
100
AcDbEntity
  8
AM_0 外形線1
100
AcDbCircle
 10
78.5
 20
211.0
 30
0.0
 40
0.5
100
AcDbArc
 50
0.0
 51
90.0
  0
LINE
  5
4EDE
330
4EB3
100
AcDbEntity
  8
AM_0 外形線1
100
AcDbLine
 10
79.5
 20
199.2
 30
0.0
 11
79.0
 21
199.7
 31
0.0
  0
LINE
  5
4EDF
330
4EB3
100
AcDbEntity
  8
AM_0 外形線1
100
AcDbLine
 10
85.5
 20
199.2
 30
0.0
 11
79.5
 21
199.2
 31
0.0
  0
LINE
  5
4EE0
330
4EB3
100
AcDbEntity
  8
AM_0 外形線1
100
AcDbLine
 10
79.0
 20
199.7
 30
0.0
 11
79.0
 21
211.0
 31
0.0
  0
LINE
  5
4EE1
330
4EB3
100
AcDbEntity
  8
AM_0 外形線1
100
AcDbLine
 10
30.0
 20
236.7
 30
0.0
 11
30.0
 21
279.0
 31
0.0
  0
LINE
  5
4EE2
330
4EB3
100
AcDbEntity
  8
AM_0 外形線1
100
AcDbLine
 10
30.0
 20
244.5
 30
0.0
 11
30.0
 21
235.0
 31
0.0
  0
LINE
  5
4EE3
330
4EB3
100
AcDbEntity
  8
AM_0 外形線1
100
AcDbLine
 10
29.0
 20
280.0
 30
0.0
 11
30.0
 21
279.0
 31
0.0
  0
LINE
  5
4EE4
330
4EB3
100
AcDbEntity
  8
AM_0 外形線1
100
AcDbLine
 10
146.0
 20
236.0
 30
0.0
 11
139.0
 21
229.0
 31
0.0
  0
LINE
  5
4EE5
330
4EB3
100
AcDbEntity
  8
AM_0 外形線1
100
AcDbLine
 10
166.0
 20
199.7
 30
0.0
 11
165.5
 21
199.2
 31
0.0
  0
LINE
  5
4EE6
330
4EB3
100
AcDbEntity
  8
AM_0 外形線1
100
AcDbLine
 10
160.5
 20
199.2
 30
0.0
 11
165.5
 21
199.2
 31
0.0
  0
LINE
  5
4EE7
330
4EB3
100
AcDbEntity
  8
AM_0 外形線1
100
AcDbLine
 10
171.0
 20
220.0
 30
0.0
 11
171.0
 21
216.8
 31
0.0
  0
LINE
  5
4EE8
330
4EB3
100
AcDbEntity
  8
AM_0 外形線1
100
AcDbLine
 10
171.0
 20
216.8
 30
0.0
 11
171.0
 21
211.5
 31
0.0
  0
ARC
  5
4EE9
330
4EB3
100
AcDbEntity
  8
AM_0 外形線1
100
AcDbCircle
 10
166.5
 20
211.0
 30
0.0
 40
0.5
100
AcDbArc
 50
90.0
 51
180.0
  0
LINE
  5
4EEA
330
4EB3
100
AcDbEntity
  8
AM_0 外形線1
100
AcDbLine
 10
171.0
 20
211.5
 30
0.0
 11
166.5
 21
211.5
 31
0.0
  0
LINE
  5
4EEB
330
4EB3
100
AcDbEntity
  8
AM_0 外形線1
100
AcDbLine
 10
166.0
 20
211.0
 30
0.0
 11
166.0
 21
199.7
 31
0.0
  0
LINE
  5
4EEC
330
4EB3
100
AcDbEntity
  8
AM_0 外形線1
100
AcDbLine
 10
171.0
 20
236.0
 30
0.0
 11
146.0
 21
236.0
 31
0.0
  0
LINE
  5
4EED
330
4EB3
100
AcDbEntity
  8
AM_0 外形線1
100
AcDbLine
 10
171.0
 20
236.0
 30
0.0
 11
171.0
 21
230.0
 31
0.0
  0
INSERT
  5
4EEE
330
4EB3
100
AcDbEntity
  8
AM_0 外形線1
100
AcDbBlockReference
  2
ロッカクアナツキプラグA R1／2
 10
55.0
 20
229.0
 30
0.0
  0
LWPOLYLINE
  5
61DE
330
4EB3
100
AcDbEntity
  8
AM_0 外形線1
100
AcDbPolyline
 90
       73
 70
     0
 43
0.0
 10
2.25
 20
225.0
 10
2.446100999999544
 20
225.0136990000001
 10
2.640708999999787
 20
225.0546919999999
 10
2.832343000000037
 20
225.1226669999998
 10
3.019545999999991
 20
225.2171060000001
 10
3.200890999999955
 20
225.3372919999999
 10
3.375
 20
225.4823079999999
 10
3.540546999999604
 20
225.6510519999999
 10
3.696272000000134
 20
225.84224
 10
3.84099100000003
 20
226.0544150000001
 10
3.973599999999805
 20
226.2859639999999
 10
4.093092000000068
 20
226.535124
 10
4.198556999999708
 20
226.8
 10
4.289192999999612
 20
227.0785739999999
 10
4.364308999999593
 20
227.3687269999998
 10
4.423332999999728
 20
227.6682509999998
 10
4.46581799999967
 20
227.974866
 10
4.491438000000016
 20
228.286239
 10
4.5
 20
228.6
 10
4.491438000000016
 20
228.9137599999999
 10
4.46581799999967
 20
229.2251329999999
 10
4.423332999999728
 20
229.5317480000001
 10
4.364308999999593
 20
229.8312720000001
 10
4.289192999999612
 20
230.1214250000001
 10
4.198556999999708
 20
230.3999999999998
 10
4.093092000000068
 20
230.6648749999999
 10
3.973599999999805
 20
230.914035
 10
3.84099100000003
 20
231.1455839999999
 10
3.696272000000134
 20
231.3577599999999
 10
3.540546999999604
 20
231.548947
 10
3.375
 20
231.7176910000001
 10
3.200890999999955
 20
231.8627079999999
 10
3.019545999999991
 20
231.9828929999999
 10
2.832343000000037
 20
232.077333
 10
2.640708999999787
 20
232.1453079999999
 10
2.446100999999544
 20
232.1863009999999
 10
2.25
 20
232.2
 10
2.053899999999885
 20
232.1863009999999
 10
1.859292000000094
 20
232.1453079999999
 10
1.667656999999961
 20
232.077333
 10
1.480454999999891
 20
231.9828929999999
 10
1.299108999999589
 20
231.8627079999999
 10
1.125
 20
231.7176910000001
 10
0.9594529999999393
 20
231.548947
 10
0.8037279999998645
 20
231.3577599999999
 10
0.6590100000003078
 20
231.1455839999999
 10
0.5263999999997396
 20
230.914035
 10
0.4069079999999305
 20
230.6648749999999
 10
0.3014429999998356
 20
230.3999999999998
 10
0.2108079999998154
 20
230.1214250000001
 10
0.1356919999998354
 20
229.8312720000001
 10
0.0766669999998158
 20
229.5317480000001
 10
0.0341829999997572
 20
229.2251329999999
 10
0.0085619999999835
 20
228.9137599999999
 10
0.0
 20
228.6
 10
0.0085619999999835
 20
228.286239
 10
0.0341829999997572
 20
227.974866
 10
0.0766669999998158
 20
227.6682509999998
 10
0.1356919999998354
 20
227.3687269999998
 10
0.2108079999998154
 20
227.0785739999999
 10
0.3014429999998356
 20
226.8
 10
0.4069079999999305
 20
226.535124
 10
0.5263999999997396
 20
226.2859639999999
 10
0.6590100000003078
 20
226.0544150000001
 10
0.8037279999998645
 20
225.84224
 10
0.9594529999999393
 20
225.6510519999999
 10
1.125
 20
225.4823079999999
 10
1.299108999999589
 20
225.3372919999999
 10
1.480454999999891
 20
225.2171060000001
 10
1.667656999999961
 20
225.1226669999998
 10
1.859292000000094
 20
225.0546919999999
 10
2.053899999999885
 20
225.0136990000001
 10
2.25
 20
225.0
  0
ENDBLK
  5
4EB5
330
4EB3
100
AcDbEntity
  8
0
100
AcDbBlockEnd
  0
BLOCK
  5
503A
330
5039
100
AcDbEntity
  8
0
100
AcDbBlockBegin
  2
ケースＢ CCMH560
 70
     0
 10
0.0
 20
0.0
 30
0.0
  3
ケースＢ CCMH560
  1

  0
LINE
  5
503C
330
5039
100
AcDbEntity
  8
AM_0 外形線1
100
AcDbLine
 10
-30.0
 20
-279.0
 30
0.0
 11
-30.0
 21
0.0
 31
0.0
  0
LINE
  5
503D
330
5039
100
AcDbEntity
  8
AM_0 外形線1
100
AcDbLine
 10
-139.0
 20
0.0
 30
0.0
 11
-139.0
 21
-229.0
 31
0.0
  0
LINE
  5
503E
330
5039
100
AcDbEntity
  8
AM_0 外形線1
100
AcDbLine
 10
-146.0
 20
-236.0
 30
0.0
 11
-146.0
 21
0.0
 31
0.0
  0
LINE
  5
503F
330
5039
100
AcDbEntity
  8
AM_0 外形線1
100
AcDbLine
 10
-146.0
 20
-236.0
 30
0.0
 11
-171.0
 21
-236.0
 31
0.0
  0
LINE
  5
5040
330
5039
100
AcDbEntity
  8
AM_0 外形線1
100
AcDbLine
 10
-1.0
 20
-280.0
 30
0.0
 11
-29.0
 21
-280.0
 31
0.0
  0
LINE
  5
5041
330
5039
100
AcDbEntity
  8
AM_0 外形線1
100
AcDbLine
 10
-29.0
 20
-280.0
 30
0.0
 11
-30.0
 21
-279.0
 31
0.0
  0
LINE
  5
5042
330
5039
100
AcDbEntity
  8
AM_0 外形線1
100
AcDbLine
 10
0.0
 20
-279.0
 30
0.0
 11
-1.0
 21
-280.0
 31
0.0
  0
LINE
  5
5043
330
5039
100
AcDbEntity
  8
AM_0 外形線1
100
AcDbLine
 10
-36.0
 20
-229.0
 30
0.0
 11
-139.0
 21
-229.0
 31
0.0
  0
LINE
  5
5044
330
5039
100
AcDbEntity
  8
AM_0 外形線1
100
AcDbLine
 10
-139.0
 20
-229.0
 30
0.0
 11
-146.0
 21
-236.0
 31
0.0
  0
ARC
  5
5045
330
5039
100
AcDbEntity
  8
AM_0 外形線1
100
AcDbCircle
 10
-36.0
 20
-235.0
 30
0.0
 40
6.0
100
AcDbArc
 50
0.0
 51
90.0
  0
LINE
  5
5046
330
5039
100
AcDbEntity
  8
AM_7 中心線
100
AcDbLine
 10
38.17285762860592
 20
-257.5
 30
0.0
 11
-38.17285762860592
 21
-257.5
 31
0.0
  0
LINE
  5
5047
330
5039
100
AcDbEntity
  8
AM_0 外形線1
100
AcDbLine
 10
-85.5
 20
199.2
 30
0.0
 11
-79.5
 21
199.2
 31
0.0
  0
LINE
  5
5048
330
5039
100
AcDbEntity
  8
AM_0 外形線1
100
AcDbLine
 10
-79.0
 20
210.0
 30
0.0
 11
-166.0
 21
210.0
 31
0.0
  0
LINE
  5
5049
330
5039
100
AcDbEntity
  8
AM_7 中心線
 48
0.5
100
AcDbLine
 10
-77.0
 20
204.0
 30
0.0
 11
-168.0
 21
204.0
 31
0.0
  0
LINE
  5
504A
330
5039
100
AcDbEntity
  8
AM_0 外形線1
100
AcDbLine
 10
-36.0
 20
229.0
 30
0.0
 11
-139.0
 21
229.0
 31
0.0
  0
LINE
  5
504B
330
5039
100
AcDbEntity
  8
AM_0 外形線1
100
AcDbLine
 10
-146.0
 20
236.0
 30
0.0
 11
-139.0
 21
229.0
 31
0.0
  0
LINE
  5
504C
330
5039
100
AcDbEntity
  8
AM_3 隠れ線
100
AcDbLine
 10
-160.5
 20
199.2
 30
0.0
 11
-85.5
 21
199.2
 31
0.0
  0
ARC
  5
504D
330
5039
100
AcDbEntity
  8
AM_0 外形線1
100
AcDbCircle
 10
-166.5
 20
211.0
 30
0.0
 40
0.5
100
AcDbArc
 50
0.0
 51
90.0
  0
LINE
  5
504E
330
5039
100
AcDbEntity
  8
AM_0 外形線1
100
AcDbLine
 10
-171.0
 20
211.5
 30
0.0
 11
-166.5
 21
211.5
 31
0.0
  0
LINE
  5
504F
330
5039
100
AcDbEntity
  8
AM_0 外形線1
100
AcDbLine
 10
-171.0
 20
220.0
 30
0.0
 11
-171.0
 21
216.8
 31
0.0
  0
LINE
  5
5050
330
5039
100
AcDbEntity
  8
AM_0 外形線1
100
AcDbLine
 10
-171.0
 20
216.8
 30
0.0
 11
-171.0
 21
211.5
 31
0.0
  0
LINE
  5
5051
330
5039
100
AcDbEntity
  8
AM_0 外形線1
100
AcDbLine
 10
-166.0
 20
199.7
 30
0.0
 11
-165.5
 21
199.2
 31
0.0
  0
LINE
  5
5052
330
5039
100
AcDbEntity
  8
AM_0 外形線1
100
AcDbLine
 10
-160.5
 20
199.2
 30
0.0
 11
-165.5
 21
199.2
 31
0.0
  0
LINE
  5
5053
330
5039
100
AcDbEntity
  8
AM_0 外形線1
100
AcDbLine
 10
-166.0
 20
211.0
 30
0.0
 11
-166.0
 21
199.7
 31
0.0
  0
LINE
  5
5054
330
5039
100
AcDbEntity
  8
AM_0 外形線1
100
AcDbLine
 10
-171.0
 20
236.0
 30
0.0
 11
-146.0
 21
236.0
 31
0.0
  0
LINE
  5
5055
330
5039
100
AcDbEntity
  8
AM_0 外形線1
100
AcDbLine
 10
-171.0
 20
236.0
 30
0.0
 11
-171.0
 21
230.0
 31
0.0
  0
ARC
  5
5056
330
5039
100
AcDbEntity
  8
AM_0 外形線1
100
AcDbCircle
 10
-36.0
 20
235.0
 30
0.0
 40
6.0
100
AcDbArc
 50
270.0
 51
0.0
  0
LINE
  5
5057
330
5039
100
AcDbEntity
  8
AM_0 外形線1
100
AcDbLine
 10
-78.5
 20
211.5
 30
0.0
 11
-8.0
 21
211.5
 31
0.0
  0
ARC
  5
5058
330
5039
100
AcDbEntity
  8
AM_0 外形線1
100
AcDbCircle
 10
-78.5
 20
211.0
 30
0.0
 40
0.5
100
AcDbArc
 50
90.0
 51
180.0
  0
LINE
  5
5059
330
5039
100
AcDbEntity
  8
AM_0 外形線1
100
AcDbLine
 10
-79.5
 20
199.2
 30
0.0
 11
-79.0
 21
199.7
 31
0.0
  0
LINE
  5
505A
330
5039
100
AcDbEntity
  8
AM_0 外形線1
100
AcDbLine
 10
-79.0
 20
199.7
 30
0.0
 11
-79.0
 21
211.0
 31
0.0
  0
LINE
  5
505B
330
5039
100
AcDbEntity
  8
AM_0 外形線1
100
AcDbLine
 10
-45.45881400000006
 20
228.622791
 30
0.0
 11
-45.44564200000013
 21
229.0
 31
0.0
  0
LINE
  5
505C
330
5039
100
AcDbEntity
  8
AM_0 外形線1
100
AcDbLine
 10
-44.33602299999985
 20
227.5
 30
0.0
 11
-44.28364200000032
 21
229.0
 31
0.0
  0
LINE
  5
505D
330
5039
100
AcDbEntity
  8
AM_0 外形線1
100
AcDbLine
 10
-8.0
 20
211.5
 30
0.0
 11
-8.0
 21
225.0
 31
0.0
  0
LINE
  5
505E
330
5039
100
AcDbEntity
  8
AM_0 外形線1
100
AcDbLine
 10
-1.0
 20
225.0
 30
0.0
 11
0.0
 21
226.0
 31
0.0
  0
LINE
  5
505F
330
5039
100
AcDbEntity
  8
AM_0 外形線1
100
AcDbLine
 10
-30.0
 20
235.0
 30
0.0
 11
-30.0
 21
279.0
 31
0.0
  0
LINE
  5
5060
330
5039
100
AcDbEntity
  8
AM_0 外形線1
100
AcDbLine
 10
0.0
 20
244.5
 30
0.0
 11
-30.0
 21
244.5
 31
0.0
  0
LINE
  5
5061
330
5039
100
AcDbEntity
  8
AM_0 外形線1
100
AcDbLine
 10
-1.0
 20
280.0
 30
0.0
 11
-29.0
 21
280.0
 31
0.0
  0
LINE
  5
5062
330
5039
100
AcDbEntity
  8
AM_0 外形線1
100
AcDbLine
 10
-29.0
 20
280.0
 30
0.0
 11
-30.0
 21
279.0
 31
0.0
  0
LINE
  5
5063
330
5039
100
AcDbEntity
  8
AM_0 外形線1
100
AcDbLine
 10
0.0
 20
279.0
 30
0.0
 11
-1.0
 21
280.0
 31
0.0
  0
INSERT
  5
5065
330
5039
100
AcDbEntity
  8
AM_0 外形線1
100
AcDbBlockReference
  2
ロッカクアナツキプラグB R1／2
 10
-55.0
 20
229.0
 30
0.0
  0
LINE
  5
50A5
330
5039
100
AcDbEntity
  8
AM_0 外形線1
100
AcDbLine
 10
-171.0
 20
-236.0
 30
0.0
 11
-171.0
 21
0.0
 31
0.0
  0
LINE
  5
50A6
330
5039
100
AcDbEntity
  8
AM_0 外形線1
100
AcDbLine
 10
0.0
 20
-279.0
 30
0.0
 11
0.0
 21
0.0
 31
0.0
  0
LINE
  5
50A7
330
5039
100
AcDbEntity
  8
AM_0 外形線1
100
AcDbLine
 10
0.0
 20
270.5
 30
0.0
 11
-30.0
 21
270.5
 31
0.0
  0
LINE
  5
50A8
330
5039
100
AcDbEntity
  8
AM_0 外形線1
100
AcDbLine
 10
-1.0
 20
225.0
 30
0.0
 11
-8.0
 21
225.0
 31
0.0
  0
LINE
  5
50A9
330
5039
100
AcDbEntity
  8
AM_0 外形線1
100
AcDbLine
 10
0.0
 20
226.0
 30
0.0
 11
0.0
 21
244.5
 31
0.0
  0
LINE
  5
50AA
330
5039
100
AcDbEntity
  8
AM_0 外形線1
100
AcDbLine
 10
0.0
 20
279.0
 30
0.0
 11
0.0
 21
270.5
 31
0.0
  0
LINE
  5
6709
330
5039
100
AcDbEntity
  8
AM_0 外形線1
100
AcDbLine
 10
-64.55435800000032
 20
229.0
 30
0.0
 11
-64.54118500000004
 21
228.622791
 31
0.0
  0
LINE
  5
670A
330
5039
100
AcDbEntity
  8
AM_0 外形線1
100
AcDbLine
 10
-64.07647799999995
 20
215.315314
 30
0.0
 11
-63.94324400000005
 21
211.5
 31
0.0
  0
LINE
  5
670B
330
5039
100
AcDbEntity
  8
AM_0 外形線1
100
AcDbLine
 10
-65.2623880000001
 20
216.0
 30
0.0
 11
-65.10524400000031
 21
211.5
 31
0.0
  0
LINE
  5
670C
330
5039
100
AcDbEntity
  8
AM_0 外形線1
100
AcDbLine
 10
-65.66397700000016
 20
227.5
 30
0.0
 11
-65.71635800000013
 21
229.0
 31
0.0
  0
LINE
  5
670D
330
5039
100
AcDbEntity
  8
AM_0 外形線1
100
AcDbLine
 10
-45.92352100000015
 20
215.315314
 30
0.0
 11
-46.05675500000006
 21
211.5
 31
0.0
  0
LINE
  5
670E
330
5039
100
AcDbEntity
  8
AM_0 外形線1
100
AcDbLine
 10
-44.73761199999989
 20
216.0
 30
0.0
 11
-44.89475500000025
 21
211.5
 31
0.0
  0
ENDBLK
  5
503B
330
5039
100
AcDbEntity
  8
0
100
AcDbBlockEnd
  0
BLOCK
  5
5123
330
5122
100
AcDbEntity
  8
0
100
AcDbBlockBegin
  2
センタＡ CCMH560
 70
     0
 10
0.0
 20
0.0
 30
0.0
  3
センタＡ CCMH560
  1

  0
LINE
  5
5125
330
5122
100
AcDbEntity
  8
AM_0 外形線1
100
AcDbLine
 10
198.0
 20
-192.5
 30
0.0
 11
198.0
 21
0.0
 31
0.0
  0
LINE
  5
5126
330
5122
100
AcDbEntity
  8
AM_0 外形線1
100
AcDbLine
 10
201.0
 20
-191.5
 30
0.0
 11
201.0
 21
0.0
 31
0.0
  0
LINE
  5
5127
330
5122
100
AcDbEntity
  8
AM_0 外形線1
100
AcDbLine
 10
265.0
 20
-185.5
 30
0.0
 11
265.0
 21
185.5
 31
0.0
  0
LINE
  5
5128
330
5122
100
AcDbEntity
  8
AM_0 外形線1
100
AcDbLine
 10
201.0
 20
-191.5
 30
0.0
 11
259.0
 21
-191.5
 31
0.0
  0
LINE
  5
5129
330
5122
100
AcDbEntity
  8
AM_0 外形線1
100
AcDbLine
 10
176.0
 20
-192.5
 30
0.0
 11
198.0
 21
-192.5
 31
0.0
  0
LINE
  5
512A
330
5122
100
AcDbEntity
  8
AM_0 外形線1
100
AcDbLine
 10
198.0
 20
-192.5
 30
0.0
 11
201.0
 21
-191.5
 31
0.0
  0
ARC
  5
512B
330
5122
100
AcDbEntity
  8
AM_0 外形線1
100
AcDbCircle
 10
259.0
 20
-185.5
 30
0.0
 40
6.0
100
AcDbArc
 50
270.0
 51
0.0
  0
LINE
  5
512C
330
5122
100
AcDbEntity
  8
AM_0 外形線1
100
AcDbLine
 10
74.0
 20
190.5
 30
0.0
 11
1.0
 21
190.5
 31
0.0
  0
LINE
  5
512D
330
5122
100
AcDbEntity
  8
AM_3 隠れ線
100
AcDbLine
 10
0.0
 20
12.0
 30
0.0
 11
46.0
 21
12.0
 31
0.0
  0
LINE
  5
512E
330
5122
100
AcDbEntity
  8
AM_3 隠れ線
100
AcDbLine
 10
0.0
 20
10.5
 30
0.0
 11
62.0
 21
10.5
 31
0.0
  0
LINE
  5
512F
330
5122
100
AcDbEntity
  8
AM_0 外形線1
100
AcDbLine
 10
0.0
 20
163.25
 30
0.0
 11
0.0
 21
0.0
 31
0.0
  0
LINE
  5
5130
330
5122
100
AcDbEntity
  8
AM_0 外形線1
100
AcDbLine
 10
1.0
 20
190.5
 30
0.0
 11
0.0
 21
189.5
 31
0.0
  0
LINE
  5
5131
330
5122
100
AcDbEntity
  8
AM_0 外形線1
100
AcDbLine
 10
0.0
 20
189.5
 30
0.0
 11
0.0
 21
163.25
 31
0.0
  0
LINE
  5
5132
330
5122
100
AcDbEntity
  8
AM_3 隠れ線
100
AcDbLine
 10
46.86602599999968
 20
10.5
 30
0.0
 11
46.86602599999968
 21
0.0
 31
0.0
  0
LINE
  5
5133
330
5122
100
AcDbEntity
  8
AM_3 隠れ線
100
AcDbLine
 10
46.0
 20
12.0
 30
0.0
 11
46.86602599999968
 21
10.5
 31
0.0
  0
LINE
  5
5134
330
5122
100
AcDbEntity
  8
AM_3 隠れ線
100
AcDbLine
 10
46.0
 20
12.0
 30
0.0
 11
46.0
 21
0.0
 31
0.0
  0
LINE
  5
5135
330
5122
100
AcDbEntity
  8
AM_3 隠れ線
100
AcDbLine
 10
62.0
 20
10.5
 30
0.0
 11
68.06217800000013
 21
0.0
 31
0.0
  0
LINE
  5
5136
330
5122
100
AcDbEntity
  8
AM_3 隠れ線
100
AcDbLine
 10
62.0
 20
10.5
 30
0.0
 11
62.0
 21
0.0
 31
0.0
  0
LINE
  5
5137
330
5122
100
AcDbEntity
  8
AM_0 外形線1
100
AcDbLine
 10
259.0
 20
191.5
 30
0.0
 11
201.0
 21
191.5
 31
0.0
  0
ARC
  5
5139
330
5122
100
AcDbEntity
  8
AM_0 外形線1
100
AcDbCircle
 10
112.0
 20
0.0
 30
0.0
 40
209.75
100
AcDbArc
 50
79.83983199998615
 51
100.1601680000138
  0
LINE
  5
513B
330
5122
100
AcDbEntity
  8
AM_0 外形線1
100
AcDbLine
 10
74.5
 20
205.87057
 30
0.0
 11
74.5
 21
191.0
 31
0.0
  0
ARC
  5
513C
330
5122
100
AcDbEntity
  8
AM_0 外形線1
100
AcDbCircle
 10
74.0
 20
191.0
 30
0.0
 40
0.5
100
AcDbArc
 50
270.0
 51
0.0
  0
LINE
  5
513D
330
5122
100
AcDbEntity
  8
AM_0 外形線1
100
AcDbLine
 10
75.0
 20
206.460801
 30
0.0
 11
74.5
 21
205.87057
 31
0.0
  0
LINE
  5
513E
330
5122
100
AcDbEntity
  8
AM_0 外形線1
100
AcDbLine
 10
198.0
 20
192.5
 30
0.0
 11
150.0
 21
192.5
 31
0.0
  0
LINE
  5
513F
330
5122
100
AcDbEntity
  8
AM_0 外形線1
100
AcDbLine
 10
149.5
 20
193.0
 30
0.0
 11
149.5
 21
205.87057
 31
0.0
  0
LINE
  5
5140
330
5122
100
AcDbEntity
  8
AM_7 中心線
 48
0.5
100
AcDbLine
 10
112.0
 20
214.75
 30
0.0
 11
112.0
 21
193.0
 31
0.0
  0
ARC
  5
5141
330
5122
100
AcDbEntity
  8
AM_0 外形線1
100
AcDbCircle
 10
150.0
 20
193.0
 30
0.0
 40
0.5
100
AcDbArc
 50
180.0
 51
270.0
  0
LINE
  5
5142
330
5122
100
AcDbEntity
  8
AM_0 外形線1
100
AcDbLine
 10
149.5
 20
205.87057
 30
0.0
 11
149.0
 21
206.460801
 31
0.0
  0
LINE
  5
5143
330
5122
100
AcDbEntity
  8
AM_0 外形線1
100
AcDbLine
 10
201.0
 20
191.5
 30
0.0
 11
198.0
 21
192.5
 31
0.0
  0
ARC
  5
5144
330
5122
100
AcDbEntity
  8
AM_0 外形線1
100
AcDbCircle
 10
259.0
 20
185.5
 30
0.0
 40
6.0
100
AcDbArc
 50
0.0
 51
90.0
  0
LINE
  5
5145
330
5122
100
AcDbEntity
  8
002
100
AcDbLine
 10
265.0
 20
117.5
 30
0.0
 11
0.0
 21
117.5000000000002
 31
0.0
  0
ARC
  5
70B6
330
5122
100
AcDbEntity
  8
AM_0 外形線1
100
AcDbCircle
 10
112.0000000000002
 20
0.0
 30
0.0
 40
198.0
100
AcDbArc
 50
79.08258268418404
 51
100.9174173158159
  0
ARC
  5
728E
330
5122
100
AcDbEntity
  8
AM_7 中心線
100
AcDbCircle
 10
112.0000000000029
 20
0.0000000000015916
 30
0.0
 40
203.875
100
AcDbArc
 50
78.77481172166787
 51
101.6364338651748
  0
ENDBLK
  5
5124
330
5122
100
AcDbEntity
  8
0
100
AcDbBlockEnd
  0
BLOCK
  5
519A
330
5199
100
AcDbEntity
  8
0
100
AcDbBlockBegin
  2
センタＢ CCMH560
 70
     0
 10
0.0
 20
0.0
 30
0.0
  3
センタＢ CCMH560
  1

  0
LINE
  5
519C
330
5199
100
AcDbEntity
  8
AM_0 外形線1
100
AcDbLine
 10
-198.0
 20
-192.5
 30
0.0
 11
-198.0
 21
0.0
 31
0.0
  0
LINE
  5
519D
330
5199
100
AcDbEntity
  8
AM_0 外形線1
100
AcDbLine
 10
-201.0
 20
-191.5
 30
0.0
 11
-201.0
 21
0.0
 31
0.0
  0
LINE
  5
519E
330
5199
100
AcDbEntity
  8
AM_0 外形線1
100
AcDbLine
 10
-265.0
 20
-185.5
 30
0.0
 11
-265.0
 21
185.5
 31
0.0
  0
ARC
  5
519F
330
5199
100
AcDbEntity
  8
AM_0 外形線1
100
AcDbCircle
 10
-259.0
 20
-185.5
 30
0.0
 40
6.0
100
AcDbArc
 50
180.0
 51
270.0
  0
LINE
  5
51A0
330
5199
100
AcDbEntity
  8
AM_0 外形線1
100
AcDbLine
 10
-201.0
 20
-191.5
 30
0.0
 11
-259.0
 21
-191.5
 31
0.0
  0
LINE
  5
51A1
330
5199
100
AcDbEntity
  8
AM_0 外形線1
100
AcDbLine
 10
-176.0
 20
-192.5
 30
0.0
 11
-198.0
 21
-192.5
 31
0.0
  0
LINE
  5
51A2
330
5199
100
AcDbEntity
  8
AM_0 外形線1
100
AcDbLine
 10
-198.0
 20
-192.5
 30
0.0
 11
-201.0
 21
-191.5
 31
0.0
  0
LINE
  5
51A3
330
5199
100
AcDbEntity
  8
AM_0 外形線1
100
AcDbLine
 10
0.0
 20
162.5
 30
0.0
 11
0.0
 21
0.0
 31
0.0
  0
LINE
  5
51A4
330
5199
100
AcDbEntity
  8
AM_3 隠れ線
100
AcDbLine
 10
0.0
 20
12.0
 30
0.0
 11
-46.0
 21
12.0
 31
0.0
  0
LINE
  5
51A5
330
5199
100
AcDbEntity
  8
AM_3 隠れ線
100
AcDbLine
 10
0.0
 20
10.5
 30
0.0
 11
-62.0
 21
10.5
 31
0.0
  0
LINE
  5
51A6
330
5199
100
AcDbEntity
  8
AM_3 隠れ線
100
AcDbLine
 10
-62.0
 20
10.5
 30
0.0
 11
-62.0
 21
0.0
 31
0.0
  0
LINE
  5
51A7
330
5199
100
AcDbEntity
  8
AM_3 隠れ線
100
AcDbLine
 10
-46.0
 20
12.0
 30
0.0
 11
-46.0
 21
0.0
 31
0.0
  0
LINE
  5
51A8
330
5199
100
AcDbEntity
  8
AM_3 隠れ線
100
AcDbLine
 10
-46.86602500000025
 20
10.5
 30
0.0
 11
-46.86602500000025
 21
0.0
 31
0.0
  0
LINE
  5
51A9
330
5199
100
AcDbEntity
  8
AM_3 隠れ線
100
AcDbLine
 10
-46.0
 20
12.0
 30
0.0
 11
-46.86602500000025
 21
10.5
 31
0.0
  0
LINE
  5
51AA
330
5199
100
AcDbEntity
  8
AM_3 隠れ線
100
AcDbLine
 10
-62.0
 20
10.5
 30
0.0
 11
-68.06217699999979
 21
0.0
 31
0.0
  0
LINE
  5
51AB
330
5199
100
AcDbEntity
  8
AM_0 外形線1
100
AcDbLine
 10
-198.0
 20
192.5
 30
0.0
 11
-150.0
 21
192.5
 31
0.0
  0
LINE
  5
51AC
330
5199
100
AcDbEntity
  8
AM_0 外形線1
100
AcDbLine
 10
-259.0
 20
191.5
 30
0.0
 11
-201.0
 21
191.5
 31
0.0
  0
ARC
  5
51AD
330
5199
100
AcDbEntity
  8
AM_0 外形線1
100
AcDbCircle
 10
-259.0
 20
185.5
 30
0.0
 40
6.0
100
AcDbArc
 50
90.0
 51
180.0
  0
LINE
  5
51AE
330
5199
100
AcDbEntity
  8
AM_0 外形線1
100
AcDbLine
 10
-201.0
 20
191.5
 30
0.0
 11
-198.0
 21
192.5
 31
0.0
  0
LINE
  5
51AF
330
5199
100
AcDbEntity
  8
AM_0 外形線1
100
AcDbLine
 10
-74.0
 20
190.5
 30
0.0
 11
-1.0
 21
190.5
 31
0.0
  0
ARC
  5
51B0
330
5199
100
AcDbEntity
  8
AM_0 外形線1
100
AcDbCircle
 10
-112.0
 20
0.0
 30
0.0
 40
209.75
100
AcDbArc
 50
79.83983199998615
 51
100.1601680000138
  0
LINE
  5
51B3
330
5199
100
AcDbEntity
  8
AM_0 外形線1
100
AcDbLine
 10
-149.5
 20
193.0
 30
0.0
 11
-149.5
 21
205.87057
 31
0.0
  0
ARC
  5
51B4
330
5199
100
AcDbEntity
  8
AM_0 外形線1
100
AcDbCircle
 10
-150.0
 20
193.0
 30
0.0
 40
0.5
100
AcDbArc
 50
270.0
 51
0.0
  0
LINE
  5
51B5
330
5199
100
AcDbEntity
  8
AM_0 外形線1
100
AcDbLine
 10
-149.5
 20
205.87057
 30
0.0
 11
-149.0
 21
206.460801
 31
0.0
  0
LINE
  5
51B6
330
5199
100
AcDbEntity
  8
AM_0 外形線1
100
AcDbLine
 10
-74.5
 20
205.87057
 30
0.0
 11
-74.5
 21
191.0
 31
0.0
  0
LINE
  5
51B7
330
5199
100
AcDbEntity
  8
AM_7 中心線
 48
0.5
100
AcDbLine
 10
-112.0
 20
214.75
 30
0.0
 11
-112.0
 21
193.0
 31
0.0
  0
ARC
  5
51B8
330
5199
100
AcDbEntity
  8
AM_0 外形線1
100
AcDbCircle
 10
-74.0
 20
191.0
 30
0.0
 40
0.5
100
AcDbArc
 50
180.0
 51
270.0
  0
LINE
  5
51B9
330
5199
100
AcDbEntity
  8
AM_0 外形線1
100
AcDbLine
 10
-75.0
 20
206.460801
 30
0.0
 11
-74.5
 21
205.87057
 31
0.0
  0
LINE
  5
51BA
330
5199
100
AcDbEntity
  8
AM_0 外形線1
100
AcDbLine
 10
-1.0
 20
190.5
 30
0.0
 11
0.0
 21
189.5
 31
0.0
  0
LINE
  5
51BB
330
5199
100
AcDbEntity
  8
AM_0 外形線1
100
AcDbLine
 10
0.0
 20
189.5
 30
0.0
 11
0.0
 21
180.0
 31
0.0
  0
LINE
  5
51BC
330
5199
100
AcDbEntity
  8
AM_0 外形線1
100
AcDbLine
 10
0.0
 20
180.0
 30
0.0
 11
0.0
 21
172.5
 31
0.0
  0
LINE
  5
51BD
330
5199
100
AcDbEntity
  8
002
100
AcDbLine
 10
0.0
 20
117.5
 30
0.0
 11
-265.0
 21
117.5000000000002
 31
0.0
  0
ARC
  5
7014
330
5199
100
AcDbEntity
  8
AM_7 中心線
100
AcDbCircle
 10
-112.0
 20
0.0
 30
0.0
 40
203.875
100
AcDbArc
 50
78.36356613482514
 51
101.2251882783321
  0
ARC
  5
7015
330
5199
100
AcDbEntity
  8
AM_0 外形線1
100
AcDbCircle
 10
-112.0
 20
0.0
 30
0.0
 40
198.0
100
AcDbArc
 50
79.08258268418404
 51
100.9174173158159
  0
ENDBLK
  5
519B
330
5199
100
AcDbEntity
  8
0
100
AcDbBlockEnd
  0
BLOCK
  5
5328
330
5327
100
AcDbEntity
  8
0
100
AcDbBlockBegin
  2
リーマボルト CCMH560 M24
 70
     0
 10
0.0
 20
0.0
 30
0.0
  3
リーマボルト CCMH560 M24
  1

  0
LINE
  5
532A
330
5327
100
AcDbEntity
  8
AM_0 外形線1
100
AcDbLine
 10
-65.89999999999986
 20
17.00000000000023
 30
0.0
 11
-59.99999999999977
 21
17.00000000000023
 31
0.0
  0
LINE
  5
532B
330
5327
100
AcDbEntity
  8
AM_0 外形線1
100
AcDbLine
 10
-65.89999999999986
 20
-3.933333999999831
 30
0.0
 11
-59.99999999999977
 21
1.966666000000259
 31
0.0
  0
LINE
  5
532C
330
5327
100
AcDbEntity
  8
AM_0 外形線1
100
AcDbLine
 10
-65.89999999999986
 20
-1.966666999999688
 30
0.0
 11
-59.99999999999977
 21
3.933333000000174
 31
0.0
  0
LINE
  5
532D
330
5327
100
AcDbEntity
  8
AM_0 外形線1
100
AcDbLine
 10
-59.99999999999977
 20
-16.99999999999977
 30
0.0
 11
-65.89999999999986
 21
-16.99999999999977
 31
0.0
  0
LINE
  5
532E
330
5327
100
AcDbEntity
  8
AM_0 外形線1
100
AcDbLine
 10
-65.89999999999986
 20
-20.79999999999973
 30
0.0
 11
-65.89999999999986
 21
20.80000000000018
 31
0.0
  0
LINE
  5
532F
330
5327
100
AcDbEntity
  8
AM_0 外形線1
100
AcDbLine
 10
-92.99999999999977
 20
10.00000000000023
 30
0.0
 11
-92.99999999999977
 21
-9.999999999999772
 31
0.0
  0
LINE
  5
5330
330
5327
100
AcDbEntity
  8
AM_0 外形線1
100
AcDbLine
 10
-90.99999999999978
 20
12.00000000000023
 30
0.0
 11
-90.99999999999978
 21
-11.99999999999977
 31
0.0
  0
LINE
  5
5331
330
5327
100
AcDbEntity
  8
AM_0 外形線1
100
AcDbLine
 10
-84.89999999999986
 20
18.00000000000023
 30
0.0
 11
-84.89999999999986
 21
-17.99999999999977
 31
0.0
  0
ARC
  5
5332
330
5327
100
AcDbEntity
  8
AM_0 外形線1
100
AcDbCircle
 10
-50.68787199999974
 20
0.0000000000002274
 30
0.0
 40
34.212127
100
AcDbArc
 50
162.3163709999824
 51
197.6836290000175
  0
LINE
  5
5333
330
5327
100
AcDbEntity
  8
AM_0 外形線1
100
AcDbLine
 10
-90.99999999999978
 20
-11.99999999999977
 30
0.0
 11
-84.89999999999986
 21
-11.99999999999977
 31
0.0
  0
LINE
  5
5334
330
5327
100
AcDbEntity
  8
AM_4 細線
100
AcDbLine
 10
-84.89999999999986
 20
-9.999999999999772
 30
0.0
 11
-92.99999999999977
 21
-9.999999999999772
 31
0.0
  0
LINE
  5
5335
330
5327
100
AcDbEntity
  8
AM_0 外形線1
100
AcDbLine
 10
-92.99999999999977
 20
-9.999999999999772
 30
0.0
 11
-90.99999999999978
 21
-11.99999999999977
 31
0.0
  0
LINE
  5
5336
330
5327
100
AcDbEntity
  8
AM_0 外形線1
100
AcDbLine
 10
-65.89999999999986
 20
-10.39230499999962
 30
0.0
 11
-83.2834190000001
 21
-10.39230499999962
 31
0.0
  0
LINE
  5
5337
330
5327
100
AcDbEntity
  8
AM_0 外形線1
100
AcDbLine
 10
-83.2834190000001
 20
-20.79999999999973
 30
0.0
 11
-65.89999999999986
 21
-20.79999999999973
 31
0.0
  0
LINE
  5
5338
330
5327
100
AcDbEntity
  8
AM_0 外形線1
100
AcDbLine
 10
-84.89999999999986
 20
-17.99999999999977
 30
0.0
 11
-83.2834190000001
 21
-20.79999999999973
 31
0.0
  0
ARC
  5
5339
330
5327
100
AcDbEntity
  8
AM_0 外形線1
100
AcDbCircle
 10
-75.71599700000001
 20
-15.59615299999973
 30
0.0
 40
9.184001999999999
100
AcDbArc
 50
145.4850750000159
 51
214.5149249999841
  0
LINE
  5
533A
330
5327
100
AcDbEntity
  8
AM_0 外形線1
100
AcDbLine
 10
-84.89999999999986
 20
12.00000000000023
 30
0.0
 11
-90.99999999999978
 21
12.00000000000023
 31
0.0
  0
LINE
  5
533B
330
5327
100
AcDbEntity
  8
AM_4 細線
100
AcDbLine
 10
-84.89999999999986
 20
10.00000000000023
 30
0.0
 11
-92.99999999999977
 21
10.00000000000023
 31
0.0
  0
LINE
  5
533C
330
5327
100
AcDbEntity
  8
AM_0 外形線1
100
AcDbLine
 10
-90.99999999999978
 20
12.00000000000023
 30
0.0
 11
-92.99999999999977
 21
10.00000000000023
 31
0.0
  0
LINE
  5
533D
330
5327
100
AcDbEntity
  8
AM_0 外形線1
100
AcDbLine
 10
-65.89999999999986
 20
20.80000000000018
 30
0.0
 11
-83.2834190000001
 21
20.80000000000018
 31
0.0
  0
LINE
  5
533E
330
5327
100
AcDbEntity
  8
AM_0 外形線1
100
AcDbLine
 10
-65.89999999999986
 20
10.39230400000019
 30
0.0
 11
-83.2834190000001
 21
10.39230400000019
 31
0.0
  0
LINE
  5
533F
330
5327
100
AcDbEntity
  8
AM_0 外形線1
100
AcDbLine
 10
-83.2834190000001
 20
20.80000000000018
 30
0.0
 11
-84.89999999999986
 21
18.00000000000023
 31
0.0
  0
ARC
  5
5340
330
5327
100
AcDbEntity
  8
AM_0 外形線1
100
AcDbCircle
 10
-75.71599700000001
 20
15.59615200000007
 30
0.0
 40
9.184001999999999
100
AcDbArc
 50
145.4850750000159
 51
214.5149249999841
  0
LINE
  5
5341
330
5327
100
AcDbEntity
  8
AM_0 外形線1
100
AcDbLine
 10
-56.99999999999977
 20
13.00000000000023
 30
0.0
 11
-56.99999999999977
 21
-12.99999999999977
 31
0.0
  0
LINE
  5
5342
330
5327
100
AcDbEntity
  8
AM_0 外形線1
100
AcDbLine
 10
-58.99999999999977
 20
11.84529900000029
 30
0.0
 11
-58.99999999999977
 21
-11.84529999999972
 31
0.0
  0
LINE
  5
5343
330
5327
100
AcDbEntity
  8
AM_0 外形線1
100
AcDbLine
 10
-58.99999999999977
 20
-11.84529999999972
 30
0.0
 11
-56.99999999999977
 21
-12.99999999999977
 31
0.0
  0
LINE
  5
5344
330
5327
100
AcDbEntity
  8
AM_0 外形線1
100
AcDbLine
 10
-58.73204999999984
 20
-11.99999999999977
 30
0.0
 11
-59.99999999999977
 21
-11.99999999999977
 31
0.0
  0
LINE
  5
5345
330
5327
100
AcDbEntity
  8
AM_0 外形線1
100
AcDbLine
 10
-58.99999999999977
 20
-9.999999999999772
 30
0.0
 11
-59.99999999999977
 21
-9.999999999999772
 31
0.0
  0
LINE
  5
5346
330
5327
100
AcDbEntity
  8
AM_0 外形線1
100
AcDbLine
 10
-56.99999999999977
 20
13.00000000000023
 30
0.0
 11
-58.99999999999977
 21
11.84529900000029
 31
0.0
  0
LINE
  5
5347
330
5327
100
AcDbEntity
  8
AM_0 外形線1
100
AcDbLine
 10
-58.73204999999984
 20
12.00000000000023
 30
0.0
 11
-59.99999999999977
 21
12.00000000000023
 31
0.0
  0
LINE
  5
5348
330
5327
100
AcDbEntity
  8
AM_0 外形線1
100
AcDbLine
 10
-59.99999999999977
 20
10.00000000000023
 30
0.0
 11
-58.99999999999977
 21
10.00000000000023
 31
0.0
  0
LINE
  5
5349
330
5327
100
AcDbEntity
  8
AM_0 外形線1
100
AcDbLine
 10
15.00000000000023
 20
18.00000000000023
 30
0.0
 11
15.00000000000023
 21
-17.99999999999977
 31
0.0
  0
LINE
  5
534A
330
5327
100
AcDbEntity
  8
AM_0 外形線1
100
AcDbLine
 10
-2.499999999999772
 20
-12.99999999999977
 30
0.0
 11
-2.499999999999772
 21
13.00000000000023
 31
0.0
  0
ARC
  5
534B
330
5327
100
AcDbEntity
  8
AM_0 外形線1
100
AcDbCircle
 10
-19.21212699999955
 20
0.0000000000002274
 30
0.0
 40
34.212127
100
AcDbArc
 50
342.3163709999824
 51
17.68362900001755
  0
LINE
  5
534C
330
5327
100
AcDbEntity
  8
AM_0 外形線1
100
AcDbLine
 10
0.0000000000002274
 20
-10.39230499999962
 30
0.0
 11
13.38342000000034
 21
-10.39230499999962
 31
0.0
  0
LINE
  5
534D
330
5327
100
AcDbEntity
  8
AM_0 外形線1
100
AcDbLine
 10
13.38342000000034
 20
-20.79999999999973
 30
0.0
 11
0.0000000000002274
 21
-20.79999999999973
 31
0.0
  0
ARC
  5
534E
330
5327
100
AcDbEntity
  8
AM_0 外形線1
100
AcDbCircle
 10
-0.9999999999997726
 20
-12.99999999999977
 30
0.0
 40
1.0
100
AcDbArc
 50
0.0
 51
90.0
  0
LINE
  5
534F
330
5327
100
AcDbEntity
  8
AM_0 外形線1
100
AcDbLine
 10
-0.9999999999997726
 20
-11.99999999999977
 30
0.0
 11
-1.499999999999771
 21
-11.99999999999977
 31
0.0
  0
ARC
  5
5350
330
5327
100
AcDbEntity
  8
AM_0 外形線1
100
AcDbCircle
 10
-1.499999999999771
 20
-12.99999999999977
 30
0.0
 40
1.0
100
AcDbArc
 50
90.0
 51
180.0
  0
LINE
  5
5351
330
5327
100
AcDbEntity
  8
AM_0 外形線1
100
AcDbLine
 10
15.00000000000023
 20
-17.99999999999977
 30
0.0
 11
13.38342000000034
 21
-20.79999999999973
 31
0.0
  0
ARC
  5
5352
330
5327
100
AcDbEntity
  8
AM_0 外形線1
100
AcDbCircle
 10
5.815998000000262
 20
-15.59615299999973
 30
0.0
 40
9.184001999999999
100
AcDbArc
 50
325.4850750000159
 51
34.51492499998407
  0
LINE
  5
5353
330
5327
100
AcDbEntity
  8
AM_0 外形線1
100
AcDbLine
 10
0.0000000000002274
 20
20.80000000000018
 30
0.0
 11
13.38342000000034
 21
20.80000000000018
 31
0.0
  0
LINE
  5
5354
330
5327
100
AcDbEntity
  8
AM_0 外形線1
100
AcDbLine
 10
0.0000000000002274
 20
10.39230400000019
 30
0.0
 11
13.38342000000034
 21
10.39230400000019
 31
0.0
  0
ARC
  5
5355
330
5327
100
AcDbEntity
  8
AM_0 外形線1
100
AcDbCircle
 10
-0.9999999999997726
 20
13.00000000000023
 30
0.0
 40
1.0
100
AcDbArc
 50
270.0
 51
0.0
  0
LINE
  5
5356
330
5327
100
AcDbEntity
  8
AM_0 外形線1
100
AcDbLine
 10
-0.9999999999997726
 20
12.00000000000023
 30
0.0
 11
-1.499999999999771
 21
12.00000000000023
 31
0.0
  0
ARC
  5
5357
330
5327
100
AcDbEntity
  8
AM_0 外形線1
100
AcDbCircle
 10
-1.499999999999771
 20
13.00000000000023
 30
0.0
 40
1.0
100
AcDbArc
 50
180.0
 51
270.0
  0
LINE
  5
5358
330
5327
100
AcDbEntity
  8
AM_0 外形線1
100
AcDbLine
 10
13.38342000000034
 20
20.80000000000018
 30
0.0
 11
15.00000000000023
 21
18.00000000000023
 31
0.0
  0
ARC
  5
5359
330
5327
100
AcDbEntity
  8
AM_0 外形線1
100
AcDbCircle
 10
5.815998000000262
 20
15.59615200000007
 30
0.0
 40
9.184001999999999
100
AcDbArc
 50
325.4850750000159
 51
34.51492499998407
  0
LINE
  5
53C3
330
5327
100
AcDbEntity
  8
AM_0 外形線1
100
AcDbLine
 10
-59.99999999999977
 20
17.00000000000023
 30
0.0
 11
-59.99999999999977
 21
-16.99999999999977
 31
0.0
  0
LINE
  5
53C4
330
5327
100
AcDbEntity
  8
AM_0 外形線1
100
AcDbLine
 10
-56.99999999999977
 20
13.00000000000023
 30
0.0
 11
-2.499999999999772
 21
13.00000000000023
 31
0.0
  0
LINE
  5
53C5
330
5327
100
AcDbEntity
  8
AM_0 外形線1
100
AcDbLine
 10
-56.99999999999977
 20
-12.99999999999977
 30
0.0
 11
-2.499999999999772
 21
-12.99999999999977
 31
0.0
  0
LINE
  5
53C6
330
5327
100
AcDbEntity
  8
AM_0 外形線1
100
AcDbLine
 10
0.0000000000002274
 20
20.80000000000018
 30
0.0
 11
0.0000000000002274
 21
-20.7999999999995
 31
0.0
  0
ENDBLK
  5
5329
330
5327
100
AcDbEntity
  8
0
100
AcDbBlockEnd
  0
BLOCK
  5
5471
330
5470
100
AcDbEntity
  8
0
100
AcDbBlockBegin
  2
ＧＣサイドカバ－A CCMH560
 70
     0
 10
0.0
 20
0.0
 30
0.0
  3
ＧＣサイドカバ－A CCMH560
  1

  0
LINE
  5
5473
330
5470
100
AcDbEntity
  8
AM_0 外形線1
100
AcDbLine
 10
16.0
 20
-225.0
 30
0.0
 11
16.0
 21
0.0
 31
0.0
  0
LINE
  5
5474
330
5470
100
AcDbEntity
  8
AM_7 中心線
 48
0.5
100
AcDbLine
 10
32.03741799999989
 20
-225.0
 30
0.0
 11
-24.59055499999977
 21
-225.0
 31
0.0
  0
LINE
  5
5475
330
5470
100
AcDbEntity
  8
AM_0 外形線1
100
AcDbLine
 10
0.0
 20
-236.0
 30
0.0
 11
15.00000000000023
 21
-236.0
 31
0.0
  0
LINE
  5
5476
330
5470
100
AcDbEntity
  8
AM_0 外形線1
100
AcDbLine
 10
16.00000000000022
 20
-235.0
 30
0.0
 11
16.0
 21
-229.0
 31
0.0
  0
LINE
  5
5477
330
5470
100
AcDbEntity
  8
AM_0 外形線1
100
AcDbLine
 10
16.0
 20
-229.0
 30
0.0
 11
16.0
 21
-225.0
 31
0.0
  0
ARC
  5
5478
330
5470
100
AcDbEntity
  8
AM_0 外形線1
100
AcDbCircle
 10
10.79999999999972
 20
225.0
 30
0.0
 40
14.7
100
AcDbArc
 50
340.5596879999958
 51
19.44031200000416
  0
LINE
  5
5479
330
5470
100
AcDbEntity
  8
AM_0 外形線1
100
AcDbLine
 10
25.5
 20
232.3425219999999
 30
0.0
 11
25.5
 21
217.6499999999998
 31
0.0
  0
LINE
  5
547A
330
5470
100
AcDbEntity
  8
AM_0 外形線1
100
AcDbLine
 10
16.0
 20
216.8
 30
0.0
 11
16.0
 21
235.0
 31
0.0
  0
LINE
  5
547B
330
5470
100
AcDbEntity
  8
AM_0 外形線1
100
AcDbLine
 10
18.5
 20
215.2000000000001
 30
0.0
 11
18.5
 21
234.7999999999999
 31
0.0
  0
LINE
  5
547C
330
5470
100
AcDbEntity
  8
AM_0 外形線1
100
AcDbLine
 10
-20.0
 20
229.25
 30
0.0
 11
-22.45373800000016
 21
225.0
 31
0.0
  0
LINE
  5
547D
330
5470
100
AcDbEntity
  8
AM_0 外形線1
100
AcDbLine
 10
-20.0
 20
220.75
 30
0.0
 11
-20.0
 21
229.25
 31
0.0
  0
LINE
  5
547E
330
5470
100
AcDbEntity
  8
AM_0 外形線1
100
AcDbLine
 10
-16.5
 20
220.0
 30
0.0
 11
-16.5
 21
230.0
 31
0.0
  0
LINE
  5
547F
330
5470
100
AcDbEntity
  8
AM_4 細線
100
AcDbLine
 10
-16.5
 20
220.0
 30
0.0
 11
16.0
 21
220.0
 31
0.0
  0
LINE
  5
5480
330
5470
100
AcDbEntity
  8
AM_0 外形線1
100
AcDbLine
 10
16.0
 20
220.75
 30
0.0
 11
-16.5
 21
220.75
 31
0.0
  0
LINE
  5
5481
330
5470
100
AcDbEntity
  8
AM_7 中心線
 48
0.5
100
AcDbLine
 10
32.03741799999989
 20
225.0
 30
0.0
 11
-24.59055499999977
 21
225.0
 31
0.0
  0
LINE
  5
5482
330
5470
100
AcDbEntity
  8
AM_0 外形線1
100
AcDbLine
 10
-22.45373800000016
 20
225.0
 30
0.0
 11
-20.0
 21
220.75
 31
0.0
  0
LINE
  5
5483
330
5470
100
AcDbEntity
  8
AM_0 外形線1
100
AcDbLine
 10
-20.0
 20
220.75
 30
0.0
 11
-16.5
 21
220.75
 31
0.0
  0
LINE
  5
5484
330
5470
100
AcDbEntity
  8
AM_0 外形線1
100
AcDbLine
 10
16.0
 20
194.5
 30
0.0
 11
16.0
 21
194.0
 31
0.0
  0
LINE
  5
5485
330
5470
100
AcDbEntity
  8
AM_0 外形線1
100
AcDbLine
 10
11.59999999999991
 20
194.0
 30
0.0
 11
11.59999999999991
 21
199.0999999999999
 31
0.0
  0
LINE
  5
5486
330
5470
100
AcDbEntity
  8
AM_0 外形線1
100
AcDbLine
 10
0.3999999999996362
 20
194.5
 30
0.0
 11
0.3999999999996362
 21
194.0
 31
0.0
  0
LWPOLYLINE
  5
5487
330
5470
100
AcDbEntity
  8
AM_0 外形線1
100
AcDbPolyline
 90
       73
 70
     0
 43
0.0
 10
0.3999999999996362
 20
196.0499999999999
 10
0.4213099999997212
 20
195.740597
 10
0.4850769999998194
 20
195.4335490000001
 10
0.5908159999999043
 20
195.131192
 10
0.7377219999998488
 20
194.835828
 10
0.9246769999999742
 20
194.5497050000001
 10
1.150257999999666
 20
194.2749999999998
 10
1.412749000000076
 20
194.013803
 10
1.710150999999768
 20
193.768104
 10
2.040202000000134
 20
193.5397709999999
 10
2.400389999999787
 20
193.3305419999999
 10
2.787972000000081
 20
193.14201
 10
3.199999999999818
 20
192.9756089999998
 10
3.633338000000093
 20
192.832607
 10
4.084687999999913
 20
192.714091
 10
4.550613999999768
 20
192.6209630000001
 10
5.027571000000079
 20
192.553932
 10
5.511927999999898
 20
192.513508
 10
6.0
 20
192.5
 10
6.488072000000101
 20
192.513508
 10
6.972429999999802
 20
192.553932
 10
7.449387000000115
 20
192.6209630000001
 10
7.915312999999969
 20
192.714091
 10
8.366662999999789
 20
192.832607
 10
8.799999999999727
 20
192.9756089999998
 10
9.212027999999918
 20
193.14201
 10
9.599611000000095
 20
193.3305419999999
 10
9.959797999999862
 20
193.5397709999999
 10
10.28984899999977
 20
193.768104
 10
10.58725200000026
 20
194.013803
 10
10.84974299999976
 20
194.2749999999998
 10
11.07532399999991
 20
194.5497050000001
 10
11.26227900000003
 20
194.835828
 10
11.40918499999998
 20
195.131192
 10
11.51492400000006
 20
195.4335490000001
 10
11.57869099999971
 20
195.740597
 10
11.59999999999991
 20
196.0499999999999
 10
11.57869099999971
 20
196.3594030000001
 10
11.51492400000006
 20
196.666451
 10
11.40918499999998
 20
196.9688069999999
 10
11.26227900000003
 20
197.264171
 10
11.07532399999991
 20
197.550294
 10
10.84974299999976
 20
197.825
 10
10.58725200000026
 20
198.086196
 10
10.28984899999977
 20
198.3318960000001
 10
9.959797999999862
 20
198.560229
 10
9.599611000000095
 20
198.7694570000001
 10
9.212027999999918
 20
198.957989
 10
8.799999999999727
 20
199.1243899999999
 10
8.366662999999789
 20
199.267392
 10
7.915312999999969
 20
199.385908
 10
7.449387000000115
 20
199.4790360000002
 10
6.972429999999802
 20
199.546067
 10
6.488072000000101
 20
199.586491
 10
6.0
 20
199.5999999999999
 10
5.511927999999898
 20
199.586491
 10
5.027571000000079
 20
199.546067
 10
4.550613999999768
 20
199.4790360000002
 10
4.084687999999913
 20
199.385908
 10
3.633338000000093
 20
199.267392
 10
3.199999999999818
 20
199.1243899999999
 10
2.787972000000081
 20
198.957989
 10
2.400389999999787
 20
198.7694570000001
 10
2.040202000000134
 20
198.560229
 10
1.710150999999768
 20
198.3318960000001
 10
1.412749000000076
 20
198.086196
 10
1.150257999999666
 20
197.825
 10
0.9246769999999742
 20
197.550294
 10
0.7377219999998488
 20
197.264171
 10
0.5908159999999043
 20
196.9688069999999
 10
0.4850769999998194
 20
196.666451
 10
0.4213099999997212
 20
196.3594030000001
 10
0.3999999999996362
 20
196.0499999999999
  0
LINE
  5
5488
330
5470
100
AcDbEntity
  8
AM_0 外形線1
100
AcDbLine
 10
-4.0
 20
194.0
 30
0.0
 11
-4.0
 21
194.5
 31
0.0
  0
LINE
  5
5489
330
5470
100
AcDbEntity
  8
AM_0 外形線1
100
AcDbLine
 10
16.0
 20
194.0
 30
0.0
 11
16.0
 21
192.5
 31
0.0
  0
LINE
  5
548A
330
5470
100
AcDbEntity
  8
AM_0 外形線1
100
AcDbLine
 10
11.59999999999991
 20
194.0
 30
0.0
 11
11.59999999999991
 21
192.5
 31
0.0
  0
LINE
  5
548B
330
5470
100
AcDbEntity
  8
AM_0 外形線1
100
AcDbLine
 10
0.3999999999996362
 20
194.0
 30
0.0
 11
0.3999999999996362
 21
192.5
 31
0.0
  0
LINE
  5
548C
330
5470
100
AcDbEntity
  8
AM_0 外形線1
100
AcDbLine
 10
16.0
 20
194.0
 30
0.0
 11
12.09999999999991
 21
194.0
 31
0.0
  0
LINE
  5
548D
330
5470
100
AcDbEntity
  8
AM_0 外形線1
100
AcDbLine
 10
12.09999999999991
 20
194.0
 30
0.0
 11
11.59999999999991
 21
194.0
 31
0.0
  0
LINE
  5
548E
330
5470
100
AcDbEntity
  8
AM_0 外形線1
100
AcDbLine
 10
-4.0
 20
194.0
 30
0.0
 11
-4.0
 21
192.5
 31
0.0
  0
LINE
  5
548F
330
5470
100
AcDbEntity
  8
AM_0 外形線1
100
AcDbLine
 10
0.3999999999996362
 20
194.0
 30
0.0
 11
-4.0
 21
194.0
 31
0.0
  0
LINE
  5
5490
330
5470
100
AcDbEntity
  8
AM_0 外形線1
100
AcDbLine
 10
18.5
 20
220.107477
 30
0.0
 11
24.66193500000009
 21
220.107477
 31
0.0
  0
LINE
  5
5491
330
5470
100
AcDbEntity
  8
AM_0 外形線1
100
AcDbLine
 10
24.66193500000009
 20
215.2000000000001
 30
0.0
 11
18.5
 21
215.2000000000001
 31
0.0
  0
LINE
  5
5492
330
5470
100
AcDbEntity
  8
AM_0 外形線1
100
AcDbLine
 10
3.099999999999908
 20
211.5
 30
0.0
 11
-3.5
 21
211.5000000000002
 31
0.0
  0
LINE
  5
5493
330
5470
100
AcDbEntity
  8
AM_0 外形線1
100
AcDbLine
 10
3.099999999999908
 20
211.5
 30
0.0
 11
3.099999999999908
 21
216.8
 31
0.0
  0
LINE
  5
5494
330
5470
100
AcDbEntity
  8
AM_0 外形線1
100
AcDbLine
 10
18.5
 20
217.0999999999999
 30
0.0
 11
16.0
 21
217.0999999999999
 31
0.0
  0
LINE
  5
5495
330
5470
100
AcDbEntity
  8
AM_0 外形線1
100
AcDbLine
 10
16.0
 20
219.5
 30
0.0
 11
0.0
 21
219.5
 31
0.0
  0
LINE
  5
5496
330
5470
100
AcDbEntity
  8
AM_0 外形線1
100
AcDbLine
 10
0.0
 20
216.8
 30
0.0
 11
3.099999999999908
 21
216.8
 31
0.0
  0
LINE
  5
5497
330
5470
100
AcDbEntity
  8
AM_0 外形線1
100
AcDbLine
 10
18.5
 20
226.75
 30
0.0
 11
16.0
 21
224.25
 31
0.0
  0
LINE
  5
5498
330
5470
100
AcDbEntity
  8
AM_0 外形線1
100
AcDbLine
 10
16.0
 20
223.25
 30
0.0
 11
18.5
 21
225.75
 31
0.0
  0
LWPOLYLINE
  5
5499
330
5470
100
AcDbEntity
  8
AM_0 外形線1
100
AcDbPolyline
 90
       73
 70
     0
 43
0.0
 10
1.549999999999726
 20
211.5
 10
1.685091999999712
 20
211.510084
 10
1.819155000000137
 20
211.5402589999999
 10
1.951169999999819
 20
211.5902960000001
 10
2.080132000000047
 20
211.6598140000001
 10
2.205058999999891
 20
211.748284
 10
2.324999999999818
 20
211.8550319999999
 10
2.439043999999739
 20
211.979247
 10
2.546320999999806
 20
212.1199819999999
 10
2.646015999999689
 20
212.276167
 10
2.737368999999943
 20
212.446612
 10
2.819685999999818
 20
212.630022
 10
2.892339999999876
 20
212.825
 10
2.954776999999921
 20
213.0300610000002
 10
3.006523999999898
 20
213.243646
 10
3.047184999999898
 20
213.464129
 10
3.076452000000243
 20
213.689832
 10
3.09410200000002
 20
213.9190370000001
 10
3.099999999999908
 20
214.1499999999999
 10
3.09410200000002
 20
214.3809619999999
 10
3.076452000000243
 20
214.6101670000001
 10
3.047184999999898
 20
214.8358700000001
 10
3.006523999999898
 20
215.0563530000002
 10
2.954776999999921
 20
215.2699380000001
 10
2.892339999999876
 20
215.4749999999999
 10
2.819685999999818
 20
215.669977
 10
2.737368999999943
 20
215.8533870000001
 10
2.646015999999689
 20
216.023833
 10
2.546320999999806
 20
216.1800169999999
 10
2.439043999999739
 20
216.3207530000002
 10
2.324999999999818
 20
216.4449669999999
 10
2.205058999999891
 20
216.5517150000001
 10
2.080132000000047
 20
216.640185
 10
1.951169999999819
 20
216.709703
 10
1.819155000000137
 20
216.75974
 10
1.685091999999712
 20
216.789916
 10
1.549999999999726
 20
216.8
 10
1.414909000000078
 20
216.789916
 10
1.280845999999655
 20
216.75974
 10
1.148830999999971
 20
216.709703
 10
1.019868999999743
 20
216.640185
 10
0.8949419999999006
 20
216.5517150000001
 10
0.7749999999996362
 20
216.4449669999999
 10
0.6609570000000531
 20
216.3207530000002
 10
0.5536799999999859
 20
216.1800169999999
 10
0.4539850000001026
 20
216.023833
 10
0.3626309999999648
 20
215.8533870000001
 10
0.2803149999999732
 20
215.669977
 10
0.2076609999999164
 20
215.4749999999999
 10
0.1452229999999872
 20
215.2699380000001
 10
0.0934769999998935
 20
215.0563530000002
 10
0.0528150000000096
 20
214.8358700000001
 10
0.0235480000001189
 20
214.6101670000001
 10
0.0058989999997721
 20
214.3809619999999
 10
0.0
 20
214.1499999999999
 10
0.0058989999997721
 20
213.9190370000001
 10
0.0235480000001189
 20
213.689832
 10
0.0528150000000096
 20
213.464129
 10
0.0934769999998935
 20
213.243646
 10
0.1452229999999872
 20
213.0300610000002
 10
0.2076609999999164
 20
212.825
 10
0.2803149999999732
 20
212.630022
 10
0.3626309999999648
 20
212.446612
 10
0.4539850000001026
 20
212.276167
 10
0.5536799999999859
 20
212.1199819999999
 10
0.6609570000000531
 20
211.979247
 10
0.7749999999996362
 20
211.8550319999999
 10
0.8949419999999006
 20
211.748284
 10
1.019868999999743
 20
211.6598140000001
 10
1.148830999999971
 20
211.5902960000001
 10
1.280845999999655
 20
211.5402589999999
 10
1.414909000000078
 20
211.510084
 10
1.549999999999726
 20
211.5
  0
ARC
  5
549B
330
5470
100
AcDbEntity
  8
AM_0 外形線1
100
AcDbCircle
 10
11.09999999999991
 20
199.0999999999999
 30
0.0
 40
0.5
100
AcDbArc
 50
0.0
 51
90.0
  0
LINE
  5
549C
330
5470
100
AcDbEntity
  8
AM_0 外形線1
100
AcDbLine
 10
11.09999999999991
 20
199.5999999999999
 30
0.0
 11
0.8999999999996362
 21
199.5999999999999
 31
0.0
  0
ARC
  5
549D
330
5470
100
AcDbEntity
  8
AM_0 外形線1
100
AcDbCircle
 10
0.8999999999996362
 20
199.0999999999999
 30
0.0
 40
0.5
100
AcDbArc
 50
90.0
 51
180.0
  0
LINE
  5
549E
330
5470
100
AcDbEntity
  8
AM_0 外形線1
100
AcDbLine
 10
0.3999999999996362
 20
199.0999999999999
 30
0.0
 11
0.3999999999996362
 21
194.5
 31
0.0
  0
LINE
  5
549F
330
5470
100
AcDbEntity
  8
AM_0 外形線1
100
AcDbLine
 10
16.0
 20
216.8
 30
0.0
 11
16.0
 21
194.5
 31
0.0
  0
LINE
  5
54A0
330
5470
100
AcDbEntity
  8
AM_0 外形線1
100
AcDbLine
 10
-4.0
 20
194.5
 30
0.0
 11
-4.0
 21
211.0000000000002
 31
0.0
  0
ARC
  5
54A1
330
5470
100
AcDbEntity
  8
AM_0 外形線1
100
AcDbCircle
 10
21.48887500000001
 20
217.653738
 30
0.0
 40
4.011127
100
AcDbArc
 50
322.2850879999938
 51
37.71491200000614
  0
LINE
  5
54A2
330
5470
100
AcDbEntity
  8
AM_4 細線
100
AcDbLine
 10
-16.5
 20
230.0
 30
0.0
 11
16.0
 21
230.0
 31
0.0
  0
LINE
  5
54A3
330
5470
100
AcDbEntity
  8
AM_0 外形線1
100
AcDbLine
 10
16.0
 20
229.25
 30
0.0
 11
-16.5
 21
229.25
 31
0.0
  0
LINE
  5
54A4
330
5470
100
AcDbEntity
  8
AM_0 外形線1
100
AcDbLine
 10
-16.5
 20
229.25
 30
0.0
 11
-20.0
 21
229.25
 31
0.0
  0
LINE
  5
54A5
330
5470
100
AcDbEntity
  8
AM_0 外形線1
100
AcDbLine
 10
24.66193500000009
 20
229.892522
 30
0.0
 11
18.5
 21
229.892522
 31
0.0
  0
LINE
  5
54A6
330
5470
100
AcDbEntity
  8
AM_0 外形線1
100
AcDbLine
 10
18.5
 20
234.7999999999999
 30
0.0
 11
24.66193500000009
 21
234.7999999999999
 31
0.0
  0
LINE
  5
54A7
330
5470
100
AcDbEntity
  8
AM_0 外形線1
100
AcDbLine
 10
18.5
 20
232.8999999999999
 30
0.0
 11
16.0
 21
232.8999999999999
 31
0.0
  0
LINE
  5
54A8
330
5470
100
AcDbEntity
  8
AM_0 外形線1
100
AcDbLine
 10
16.0
 20
230.5
 30
0.0
 11
0.0
 21
230.5
 31
0.0
  0
LINE
  5
54A9
330
5470
100
AcDbEntity
  8
AM_0 外形線1
100
AcDbLine
 10
16.0
 20
235.0
 30
0.0
 11
15.0
 21
236.0
 31
0.0
  0
LINE
  5
54AA
330
5470
100
AcDbEntity
  8
AM_0 外形線1
100
AcDbLine
 10
15.0
 20
236.0
 30
0.0
 11
0.0
 21
236.0
 31
0.0
  0
ARC
  5
54AB
330
5470
100
AcDbEntity
  8
AM_0 外形線1
100
AcDbCircle
 10
21.48887500000001
 20
232.3462610000001
 30
0.0
 40
4.011127
100
AcDbArc
 50
322.2850879999938
 51
37.71491200000614
  0
LINE
  5
5526
330
5470
100
AcDbEntity
  8
AM_0 外形線1
100
AcDbLine
 10
0.0
 20
-236.0
 30
0.0
 11
0.0
 21
0.0
 31
0.0
  0
LINE
  5
5527
330
5470
100
AcDbEntity
  8
AM_0 外形線1
100
AcDbLine
 10
-4.0
 20
211.0000000000002
 30
0.0
 11
-3.5
 21
211.5000000000002
 31
0.0
1001
GENIUS_GENFIL_13
1070
     0
1040
0.5
1040
0.5
1040
20.0
1040
0.0
1002
{
1002
}
1001
GENIUS_GENODEF_13
1002
{
1000
HIER
1070
     0
1002
}
1002
{
1000
MANEDIT
1070
     0
1002
}
1002
{
1000
NOSEL
1070
     0
1002
}
1002
{
1000
BEHIND
1070
     0
1002
}
1002
{
1000
OTHER
1070
     0
1002
}
1002
{
1000
REACTOR
1002
}
1001
GENIUS_GENOBJ-N-CHA_13
1002
{
1000
OWNER
1000
GEN
1002
}
  0
LINE
  5
5528
330
5470
100
AcDbEntity
  8
AM_0 外形線1
100
AcDbLine
 10
0.0
 20
216.8
 30
0.0
 11
0.0
 21
220.0
 31
0.0
  0
LINE
  5
5529
330
5470
100
AcDbEntity
  8
AM_0 外形線1
100
AcDbLine
 10
0.0
 20
236.0
 30
0.0
 11
0.0
 21
230.0
 31
0.0
  0
LINE
  5
59EC
330
5470
100
AcDbEntity
  8
AM_0 外形線1
100
AcDbLine
 10
15.00000000000023
 20
-236.0
 30
0.0
 11
16.00000000000022
 21
-235.0
 31
0.0
1001
GENIUS_GENFIL_13
1070
     0
1040
1.0
1040
1.0
1040
7.999999999999772
1040
45.0000000000008
1002
{
1002
}
1001
GENIUS_GENODEF_13
1002
{
1000
HIER
1070
     0
1002
}
1002
{
1000
MANEDIT
1070
     0
1002
}
1002
{
1000
NOSEL
1070
     0
1002
}
1002
{
1000
BEHIND
1070
     0
1002
}
1002
{
1000
OTHER
1070
     0
1002
}
1002
{
1000
REACTOR
1002
}
1001
GENIUS_GENOBJ-N-CHA_13
1002
{
1000
OWNER
1000
GEN
1002
}
  0
ENDBLK
  5
5472
330
5470
100
AcDbEntity
  8
0
100
AcDbBlockEnd
  0
BLOCK
  5
55A2
330
55A1
100
AcDbEntity
  8
0
100
AcDbBlockBegin
  2
ＧＣサイドカバ－Ｂ CCMH560
 70
     0
 10
0.0
 20
0.0
 30
0.0
  3
ＧＣサイドカバ－Ｂ CCMH560
  1

  0
LINE
  5
55A5
330
55A1
100
AcDbEntity
  8
AM_7 中心線
 48
0.5
100
AcDbLine
 10
-27.44299799999999
 20
-225.0
 30
0.0
 11
24.55720999999995
 21
-225.0
 31
0.0
  0
LINE
  5
55A6
330
55A1
100
AcDbEntity
  8
AM_0 外形線1
100
AcDbLine
 10
-16.0
 20
-235.0
 30
0.0
 11
-16.0
 21
0.0
 31
0.0
  0
LINE
  5
55A8
330
55A1
100
AcDbEntity
  8
AM_4 細線
100
AcDbLine
 10
16.5
 20
230.0
 30
0.0
 11
-16.0
 21
230.0
 31
0.0
  0
LINE
  5
55A9
330
55A1
100
AcDbEntity
  8
AM_4 細線
100
AcDbLine
 10
16.5
 20
220.0
 30
0.0
 11
-16.0
 21
220.0
 31
0.0
  0
LINE
  5
55AA
330
55A1
100
AcDbEntity
  8
AM_0 外形線1
100
AcDbLine
 10
-16.0
 20
230.5
 30
0.0
 11
0.0
 21
230.5
 31
0.0
  0
LINE
  5
55AB
330
55A1
100
AcDbEntity
  8
AM_0 外形線1
100
AcDbLine
 10
-16.0
 20
219.5
 30
0.0
 11
0.0
 21
219.5
 31
0.0
  0
LINE
  5
55AC
330
55A1
100
AcDbEntity
  8
AM_0 外形線1
100
AcDbLine
 10
-15.0
 20
236.0
 30
0.0
 11
0.0
 21
236.0
 31
0.0
  0
LINE
  5
55AD
330
55A1
100
AcDbEntity
  8
AM_0 外形線1
100
AcDbLine
 10
-16.0
 20
220.75
 30
0.0
 11
16.5
 21
220.75
 31
0.0
  0
LINE
  5
55AE
330
55A1
100
AcDbEntity
  8
AM_0 外形線1
100
AcDbLine
 10
-16.0
 20
229.25
 30
0.0
 11
16.5
 21
229.25
 31
0.0
  0
LINE
  5
55AF
330
55A1
100
AcDbEntity
  8
AM_0 外形線1
100
AcDbLine
 10
-11.60000000000036
 20
199.5999999999999
 30
0.0
 11
-0.400000000000091
 21
199.5999999999999
 31
0.0
  0
LWPOLYLINE
  5
55B0
330
55A1
100
AcDbEntity
  8
AM_0 外形線1
100
AcDbPolyline
 90
       73
 70
     0
 43
0.0
 10
-0.400000000000091
 20
196.0499999999999
 10
-0.4213090000002923
 20
196.3594030000001
 10
-0.4850759999999356
 20
196.666451
 10
-0.5908150000000206
 20
196.9688069999999
 10
-0.737720999999965
 20
197.264171
 10
-0.9246760000000904
 20
197.550294
 10
-1.150257000000237
 20
197.825
 10
-1.412747999999736
 20
198.086196
 10
-1.710151000000223
 20
198.3318960000001
 10
-2.040202000000134
 20
198.560229
 10
-2.400389000000358
 20
198.7694570000001
 10
-2.787972000000081
 20
198.957989
 10
-3.199999999999818
 20
199.1243899999999
 10
-3.633337000000209
 20
199.267392
 10
-4.084687000000029
 20
199.385908
 10
-4.550613000000339
 20
199.4790360000002
 10
-5.027570000000196
 20
199.546067
 10
-5.511927999999898
 20
199.586491
 10
-6.0
 20
199.5999999999999
 10
-6.488072000000101
 20
199.586491
 10
-6.972429000000373
 20
199.546067
 10
-7.449386000000231
 20
199.4790360000002
 10
-7.915312000000084
 20
199.385908
 10
-8.36666200000036
 20
199.267392
 10
-8.800000000000181
 20
199.1243899999999
 10
-9.212027999999918
 20
198.957989
 10
-9.599610000000213
 20
198.7694570000001
 10
-9.959797999999862
 20
198.560229
 10
-10.28984900000023
 20
198.3318960000001
 10
-10.58725099999992
 20
198.086196
 10
-10.84974200000033
 20
197.825
 10
-11.07532300000002
 20
197.550294
 10
-11.26227800000015
 20
197.264171
 10
-11.40918400000009
 20
196.9688069999999
 10
-11.51492299999972
 20
196.666451
 10
-11.57869000000028
 20
196.3594030000001
 10
-11.60000000000036
 20
196.0499999999999
 10
-11.57869000000028
 20
195.740597
 10
-11.51492299999972
 20
195.4335490000001
 10
-11.40918400000009
 20
195.131192
 10
-11.26227800000015
 20
194.835828
 10
-11.07532300000002
 20
194.5497050000001
 10
-10.84974200000033
 20
194.2749999999998
 10
-10.58725099999992
 20
194.013803
 10
-10.28984900000023
 20
193.768104
 10
-9.959797999999862
 20
193.5397709999999
 10
-9.599610000000213
 20
193.3305419999999
 10
-9.212027999999918
 20
193.14201
 10
-8.800000000000181
 20
192.9756089999998
 10
-8.36666200000036
 20
192.832607
 10
-7.915312000000084
 20
192.714091
 10
-7.449386000000231
 20
192.6209630000001
 10
-6.972429000000373
 20
192.553932
 10
-6.488072000000101
 20
192.513508
 10
-6.0
 20
192.5
 10
-5.511927999999898
 20
192.513508
 10
-5.027570000000196
 20
192.553932
 10
-4.550613000000339
 20
192.6209630000001
 10
-4.084687000000029
 20
192.714091
 10
-3.633337000000209
 20
192.832607
 10
-3.199999999999818
 20
192.9756089999998
 10
-2.787972000000081
 20
193.14201
 10
-2.400389000000358
 20
193.3305419999999
 10
-2.040202000000134
 20
193.5397709999999
 10
-1.710151000000223
 20
193.768104
 10
-1.412747999999736
 20
194.013803
 10
-1.150257000000237
 20
194.2749999999998
 10
-0.9246760000000904
 20
194.5497050000001
 10
-0.737720999999965
 20
194.835828
 10
-0.5908150000000206
 20
195.131192
 10
-0.4850759999999356
 20
195.4335490000001
 10
-0.4213090000002923
 20
195.740597
 10
-0.400000000000091
 20
196.0499999999999
  0
LINE
  5
55B1
330
55A1
100
AcDbEntity
  8
AM_7 中心線
100
AcDbLine
 10
-27.44299799999999
 20
225.0
 30
0.0
 11
24.55720999999995
 21
225.0
 31
0.0
  0
LINE
  5
55B2
330
55A1
100
AcDbEntity
  8
AM_0 外形線1
100
AcDbLine
 10
-16.0
 20
216.8
 30
0.0
 11
-16.0
 21
235.0
 31
0.0
  0
ARC
  5
55B3
330
55A1
100
AcDbEntity
  8
AM_0 外形線1
100
AcDbCircle
 10
-10.80000000000018
 20
225.0
 30
0.0
 40
14.7
100
AcDbArc
 50
160.5596879999958
 51
199.440312000004
  0
LINE
  5
55B4
330
55A1
100
AcDbEntity
  8
AM_0 外形線1
100
AcDbLine
 10
-25.5
 20
232.3425219999999
 30
0.0
 11
-25.5
 21
217.6499999999998
 31
0.0
  0
LINE
  5
55B5
330
55A1
100
AcDbEntity
  8
AM_0 外形線1
100
AcDbLine
 10
-18.5
 20
215.2000000000001
 30
0.0
 11
-18.5
 21
234.7999999999999
 31
0.0
  0
LINE
  5
55B6
330
55A1
100
AcDbEntity
  8
AM_0 外形線1
100
AcDbLine
 10
-11.60000000000036
 20
194.0
 30
0.0
 11
-11.60000000000036
 21
199.5999999999999
 31
0.0
  0
LINE
  5
55B7
330
55A1
100
AcDbEntity
  8
AM_0 外形線1
100
AcDbLine
 10
-16.0
 20
216.8
 30
0.0
 11
-16.0
 21
194.0
 31
0.0
  0
LINE
  5
55B8
330
55A1
100
AcDbEntity
  8
AM_0 外形線1
100
AcDbLine
 10
-16.0
 20
194.0
 30
0.0
 11
-16.0
 21
192.5
 31
0.0
  0
LINE
  5
55B9
330
55A1
100
AcDbEntity
  8
AM_0 外形線1
100
AcDbLine
 10
-11.60000000000036
 20
194.0
 30
0.0
 11
-11.60000000000036
 21
192.5
 31
0.0
  0
LINE
  5
55BA
330
55A1
100
AcDbEntity
  8
AM_0 外形線1
100
AcDbLine
 10
-16.0
 20
194.0
 30
0.0
 11
-11.60000000000036
 21
194.0
 31
0.0
  0
LINE
  5
55BB
330
55A1
100
AcDbEntity
  8
AM_0 外形線1
100
AcDbLine
 10
-18.5
 20
220.107477
 30
0.0
 11
-24.6619340000002
 21
220.107477
 31
0.0
  0
LINE
  5
55BC
330
55A1
100
AcDbEntity
  8
AM_0 外形線1
100
AcDbLine
 10
-18.5
 20
217.0999999999999
 30
0.0
 11
-16.0
 21
217.0999999999999
 31
0.0
  0
ARC
  5
55BD
330
55A1
100
AcDbEntity
  8
AM_0 外形線1
100
AcDbCircle
 10
-21.48887400000012
 20
217.653738
 30
0.0
 40
4.011127
100
AcDbArc
 50
142.2850879999938
 51
217.7149120000061
  0
LINE
  5
55BE
330
55A1
100
AcDbEntity
  8
AM_0 外形線1
100
AcDbLine
 10
-24.6619340000002
 20
215.2000000000001
 30
0.0
 11
-18.5
 21
215.2000000000001
 31
0.0
  0
LINE
  5
55BF
330
55A1
100
AcDbEntity
  8
AM_0 外形線1
100
AcDbLine
 10
-16.0
 20
226.75
 30
0.0
 11
-18.5
 21
224.25
 31
0.0
  0
LINE
  5
55C0
330
55A1
100
AcDbEntity
  8
AM_0 外形線1
100
AcDbLine
 10
-18.5
 20
223.25
 30
0.0
 11
-16.0
 21
225.75
 31
0.0
  0
LINE
  5
55C1
330
55A1
100
AcDbEntity
  8
AM_0 外形線1
100
AcDbLine
 10
-24.6619340000002
 20
229.892522
 30
0.0
 11
-18.5
 21
229.892522
 31
0.0
  0
LINE
  5
55C2
330
55A1
100
AcDbEntity
  8
AM_0 外形線1
100
AcDbLine
 10
-18.5
 20
232.8999999999999
 30
0.0
 11
-16.0
 21
232.8999999999999
 31
0.0
  0
LINE
  5
55C3
330
55A1
100
AcDbEntity
  8
AM_0 外形線1
100
AcDbLine
 10
-16.0
 20
235.0
 30
0.0
 11
-15.0
 21
236.0
 31
0.0
  0
ARC
  5
55C4
330
55A1
100
AcDbEntity
  8
AM_0 外形線1
100
AcDbCircle
 10
-21.48887400000012
 20
232.3462610000001
 30
0.0
 40
4.011127
100
AcDbArc
 50
142.2850879999938
 51
217.7149120000061
  0
LINE
  5
55C5
330
55A1
100
AcDbEntity
  8
AM_0 外形線1
100
AcDbLine
 10
-18.5
 20
234.7999999999999
 30
0.0
 11
-24.6619340000002
 21
234.7999999999999
 31
0.0
  0
LINE
  5
55C6
330
55A1
100
AcDbEntity
  8
AM_0 外形線1
100
AcDbLine
 10
20.0
 20
229.25
 30
0.0
 11
22.45373899999959
 21
225.0
 31
0.0
  0
LINE
  5
55C7
330
55A1
100
AcDbEntity
  8
AM_0 外形線1
100
AcDbLine
 10
20.0
 20
220.75
 30
0.0
 11
20.0
 21
229.25
 31
0.0
  0
LINE
  5
55C8
330
55A1
100
AcDbEntity
  8
AM_0 外形線1
100
AcDbLine
 10
16.5
 20
220.0
 30
0.0
 11
16.5
 21
230.0
 31
0.0
  0
LINE
  5
55C9
330
55A1
100
AcDbEntity
  8
AM_0 外形線1
100
AcDbLine
 10
-0.400000000000091
 20
199.5999999999999
 30
0.0
 11
-0.400000000000091
 21
194.0
 31
0.0
  0
LINE
  5
55CA
330
55A1
100
AcDbEntity
  8
AM_0 外形線1
100
AcDbLine
 10
4.0
 20
194.0
 30
0.0
 11
4.0
 21
211.0
 31
0.0
  0
LINE
  5
55CB
330
55A1
100
AcDbEntity
  8
AM_0 外形線1
100
AcDbLine
 10
-0.400000000000091
 20
194.0
 30
0.0
 11
-0.400000000000091
 21
192.5
 31
0.0
  0
LINE
  5
55CC
330
55A1
100
AcDbEntity
  8
AM_0 外形線1
100
AcDbLine
 10
4.0
 20
194.0
 30
0.0
 11
4.0
 21
192.5
 31
0.0
  0
LINE
  5
55CD
330
55A1
100
AcDbEntity
  8
AM_0 外形線1
100
AcDbLine
 10
-0.400000000000091
 20
194.0
 30
0.0
 11
4.0
 21
194.0
 31
0.0
  0
LINE
  5
55CE
330
55A1
100
AcDbEntity
  8
AM_0 外形線1
100
AcDbLine
 10
20.0
 20
220.75
 30
0.0
 11
16.5
 21
220.75
 31
0.0
  0
LINE
  5
55D0
330
55A1
100
AcDbEntity
  8
AM_0 外形線1
100
AcDbLine
 10
-3.100000000000362
 20
211.5
 30
0.0
 11
3.5
 21
211.5
 31
0.0
  0
LINE
  5
55D1
330
55A1
100
AcDbEntity
  8
AM_0 外形線1
100
AcDbLine
 10
-3.100000000000362
 20
211.5
 30
0.0
 11
-3.100000000000362
 21
216.8
 31
0.0
  0
LINE
  5
55D2
330
55A1
100
AcDbEntity
  8
AM_0 外形線1
100
AcDbLine
 10
0.0
 20
216.8
 30
0.0
 11
-3.100000000000362
 21
216.8
 31
0.0
  0
LWPOLYLINE
  5
55D3
330
55A1
100
AcDbEntity
  8
AM_0 外形線1
100
AcDbPolyline
 90
       73
 70
     0
 43
0.0
 10
-1.550000000000181
 20
211.5
 10
-1.414908000000195
 20
211.510084
 10
-1.280845000000225
 20
211.5402589999999
 10
-1.148830000000089
 20
211.5902960000001
 10
-1.019868000000315
 20
211.6598140000001
 10
-0.8949410000004718
 20
211.748284
 10
-0.775000000000091
 20
211.8550319999999
 10
-0.6609559999997146
 20
211.979247
 10
-0.5536790000001021
 20
212.1199819999999
 10
-0.4539840000002188
 20
212.276167
 10
-0.3626309999999648
 20
212.446612
 10
-0.2803140000000894
 20
212.630022
 10
-0.2076600000000326
 20
212.825
 10
-0.1452229999999872
 20
213.0300610000002
 10
-0.0934760000000097
 20
213.243646
 10
-0.0528150000000096
 20
213.464129
 10
-0.0235480000001189
 20
213.689832
 10
-0.005898000000343
 20
213.9190370000001
 10
0.0
 20
214.1499999999999
 10
-0.005898000000343
 20
214.3809619999999
 10
-0.0235480000001189
 20
214.6101670000001
 10
-0.0528150000000096
 20
214.8358700000001
 10
-0.0934760000000097
 20
215.0563530000002
 10
-0.1452229999999872
 20
215.2699380000001
 10
-0.2076600000000326
 20
215.4749999999999
 10
-0.2803140000000894
 20
215.669977
 10
-0.3626309999999648
 20
215.8533870000001
 10
-0.4539840000002188
 20
216.023833
 10
-0.5536790000001021
 20
216.1800169999999
 10
-0.6609559999997146
 20
216.3207530000002
 10
-0.775000000000091
 20
216.4449669999999
 10
-0.8949410000004718
 20
216.5517150000001
 10
-1.019868000000315
 20
216.640185
 10
-1.148830000000089
 20
216.709703
 10
-1.280845000000225
 20
216.75974
 10
-1.414908000000195
 20
216.789916
 10
-1.550000000000181
 20
216.8
 10
-1.685091000000284
 20
216.789916
 10
-1.819153999999798
 20
216.75974
 10
-1.951168999999936
 20
216.709703
 10
-2.08013099999971
 20
216.640185
 10
-2.205058000000462
 20
216.5517150000001
 10
-2.324999999999818
 20
216.4449669999999
 10
-2.439043000000309
 20
216.3207530000002
 10
-2.546320000000378
 20
216.1800169999999
 10
-2.64601500000026
 20
216.023833
 10
-2.737369000000398
 20
215.8533870000001
 10
-2.81968500000039
 20
215.669977
 10
-2.892338999999991
 20
215.4749999999999
 10
-2.954776999999921
 20
215.2699380000001
 10
-3.006523000000014
 20
215.0563530000002
 10
-3.047185000000353
 20
214.8358700000001
 10
-3.076452000000243
 20
214.6101670000001
 10
-3.094101000000136
 20
214.3809619999999
 10
-3.100000000000362
 20
214.1499999999999
 10
-3.094101000000136
 20
213.9190370000001
 10
-3.076452000000243
 20
213.689832
 10
-3.047185000000353
 20
213.464129
 10
-3.006523000000014
 20
213.243646
 10
-2.954776999999921
 20
213.0300610000002
 10
-2.892338999999991
 20
212.825
 10
-2.81968500000039
 20
212.630022
 10
-2.737369000000398
 20
212.446612
 10
-2.64601500000026
 20
212.276167
 10
-2.546320000000378
 20
212.1199819999999
 10
-2.439043000000309
 20
211.979247
 10
-2.324999999999818
 20
211.8550319999999
 10
-2.205058000000462
 20
211.748284
 10
-2.08013099999971
 20
211.6598140000001
 10
-1.951168999999936
 20
211.5902960000001
 10
-1.819153999999798
 20
211.5402589999999
 10
-1.685091000000284
 20
211.510084
 10
-1.550000000000181
 20
211.5
  0
LINE
  5
55D4
330
55A1
100
AcDbEntity
  8
AM_0 外形線1
100
AcDbLine
 10
22.45373899999959
 20
225.0
 30
0.0
 11
20.0
 21
220.75
 31
0.0
  0
LINE
  5
55D5
330
55A1
100
AcDbEntity
  8
AM_0 外形線1
100
AcDbLine
 10
16.5
 20
229.25
 30
0.0
 11
20.0
 21
229.25
 31
0.0
  0
LINE
  5
5642
330
55A1
100
AcDbEntity
  8
AM_0 外形線1
100
AcDbLine
 10
3.5
 20
211.5
 30
0.0
 11
4.0
 21
211.0
 31
0.0
1001
GENIUS_GENFIL_13
1070
     0
1040
0.5
1040
0.5
1040
20.0
1040
0.0
1002
{
1002
}
1001
GENIUS_GENODEF_13
1002
{
1000
HIER
1070
     0
1002
}
1002
{
1000
MANEDIT
1070
     0
1002
}
1002
{
1000
NOSEL
1070
     0
1002
}
1002
{
1000
BEHIND
1070
     0
1002
}
1002
{
1000
OTHER
1070
     0
1002
}
1002
{
1000
REACTOR
1002
}
1001
GENIUS_GENOBJ-N-CHA_13
1002
{
1000
OWNER
1000
GEN
1002
}
  0
LINE
  5
5643
330
55A1
100
AcDbEntity
  8
AM_0 外形線1
100
AcDbLine
 10
0.0
 20
236.0
 30
0.0
 11
0.0
 21
230.0
 31
0.0
  0
LINE
  5
5644
330
55A1
100
AcDbEntity
  8
AM_0 外形線1
100
AcDbLine
 10
0.0
 20
220.0
 30
0.0
 11
0.0
 21
216.8
 31
0.0
  0
LINE
  5
5645
330
55A1
100
AcDbEntity
  8
AM_0 外形線1
100
AcDbLine
 10
-15.0
 20
-236.0
 30
0.0
 11
0.0
 21
-236.0
 31
0.0
  0
LINE
  5
5646
330
55A1
100
AcDbEntity
  8
AM_0 外形線1
100
AcDbLine
 10
0.0
 20
-236.0
 30
0.0
 11
0.0
 21
0.0
 31
0.0
  0
LINE
  5
5B7C
330
55A1
100
AcDbEntity
  8
AM_0 外形線1
100
AcDbLine
 10
-16.0
 20
-235.0
 30
0.0
 11
-15.0
 21
-236.0
 31
0.0
1001
GENIUS_GENFIL_13
1070
     0
1040
1.0
1040
1.0
1040
7.999999999999772
1040
45.0000000000008
1002
{
1002
}
1001
GENIUS_GENODEF_13
1002
{
1000
HIER
1070
     0
1002
}
1002
{
1000
MANEDIT
1070
     0
1002
}
1002
{
1000
NOSEL
1070
     0
1002
}
1002
{
1000
BEHIND
1070
     0
1002
}
1002
{
1000
OTHER
1070
     0
1002
}
1002
{
1000
REACTOR
1002
}
1001
GENIUS_GENOBJ-N-CHA_13
1002
{
1000
OWNER
1000
GEN
1002
}
  0
ENDBLK
  5
55A3
330
55A1
100
AcDbEntity
  8
0
100
AcDbBlockEnd
  0
BLOCK
  5
57D4
330
57D3
100
AcDbEntity
  8
0
100
AcDbBlockBegin
  2
*D15
 70
     1
 10
0.0
 20
0.0
 30
0.0
  3
*D15
  1

  0
LINE
  5
6391
330
57D3
100
AcDbEntity
  8
AM_5 寸法線
 62
     3
100
AcDbLine
 10
997.0329617648433
 20
1490.499104848485
 30
0.0
 11
813.3114437286311
 21
1490.499104848485
 31
0.0
  0
LINE
  5
6392
330
57D3
100
AcDbEntity
  8
AM_5 寸法線
 62
     3
100
AcDbLine
 10
997.0329617648433
 20
1105.499104848485
 30
0.0
 11
813.3114437286307
 21
1105.499104848485
 31
0.0
  0
LINE
  5
6393
330
57D3
100
AcDbEntity
  8
AM_5 寸法線
 62
     3
100
AcDbLine
 10
817.0614437286308
 20
1475.499104848485
 30
0.0
 11
817.0614437286307
 21
1120.499104848485
 31
0.0
  0
INSERT
  5
6394
330
57D3
100
AcDbEntity
  8
AM_5 寸法線
 62
     3
100
AcDbBlockReference
  2
_Open30
 10
817.0614437286308
 20
1490.499104848485
 30
0.0
 41
15.0
 42
15.0
 43
15.0
 50
90.0
  0
INSERT
  5
6395
330
57D3
100
AcDbEntity
  8
AM_5 寸法線
 62
     3
100
AcDbBlockReference
  2
_Open30
 10
817.0614437286307
 20
1105.499104848485
 30
0.0
 41
15.0
 42
15.0
 43
15.0
 50
270.0
  0
MTEXT
  5
6396
330
57D3
100
AcDbEntity
  8
AM_5 寸法線
 62
     3
100
AcDbMText
 10
797.5614437286306
 20
1326.375332705662
 30
0.0
 40
21.0
 41
0.0
 46
0.0
 71
     5
 72
     1
  1
%%c385
  7
SEISA
 11
0.0000000000000001
 21
1.0
 31
0.0
 73
     1
 44
1.0
  0
POINT
  5
6397
330
57D3
100
AcDbEntity
  8
Defpoints
 62
     0
100
AcDbPoint
 10
1000.782961764843
 20
1490.499104848485
 30
0.0
  0
POINT
  5
6398
330
57D3
100
AcDbEntity
  8
Defpoints
 62
     0
100
AcDbPoint
 10
1000.782961764843
 20
1105.499104848485
 30
0.0
  0
POINT
  5
6399
330
57D3
100
AcDbEntity
  8
Defpoints
 62
     0
100
AcDbPoint
 10
817.0614437286307
 20
1105.499104848485
 30
0.0
  0
ENDBLK
  5
57D5
330
57D3
100
AcDbEntity
  8
0
100
AcDbBlockEnd
  0
BLOCK
  5
5823
330
5822
100
AcDbEntity
  8
0
100
AcDbBlockBegin
  2
*D16
 70
     1
 10
0.0
 20
0.0
 30
0.0
  3
*D16
  1

  0
LINE
  5
639A
330
5822
100
AcDbEntity
  8
AM_5 寸法線
 62
     3
100
AcDbLine
 10
1042.782961764843
 20
1486.749104848485
 30
0.0
 11
1042.782961764843
 21
1442.859117848485
 31
0.0
  0
LINE
  5
639B
330
5822
100
AcDbEntity
  8
AM_5 寸法線
 62
     3
100
AcDbLine
 10
1049.282961764843
 20
1487.249104848485
 30
0.0
 11
1049.282961764843
 21
1442.859117848485
 31
0.0
  0
LINE
  5
639C
330
5822
100
AcDbEntity
  8
AM_5 寸法線
 62
     3
100
AcDbLine
 10
1064.282961764843
 20
1446.609117848485
 30
0.0
 11
1079.282961764843
 21
1446.609117848485
 31
0.0
  0
LINE
  5
639D
330
5822
100
AcDbEntity
  8
AM_5 寸法線
 62
     3
100
AcDbLine
 10
1027.782961764843
 20
1446.609117848485
 30
0.0
 11
956.082961764843
 21
1446.609117848485
 31
0.0
  0
LINE
  5
639E
330
5822
100
AcDbEntity
  8
AM_5 寸法線
 62
     3
100
AcDbLine
 10
1049.282961764843
 20
1446.609117848485
 30
0.0
 11
1042.782961764843
 21
1446.609117848485
 31
0.0
  0
INSERT
  5
639F
330
5822
100
AcDbEntity
  8
AM_5 寸法線
 62
     3
100
AcDbBlockReference
  2
_Open30
 10
1049.282961764843
 20
1446.609117848485
 30
0.0
 41
15.0
 42
15.0
 43
15.0
 50
180.0
  0
INSERT
  5
63A0
330
5822
100
AcDbEntity
  8
AM_5 寸法線
 62
     3
100
AcDbBlockReference
  2
_Open30
 10
1042.782961764843
 20
1446.609117848485
 30
0.0
 41
15.0
 42
15.0
 43
15.0
  0
MTEXT
  5
63A1
330
5822
100
AcDbEntity
  8
AM_5 寸法線
 62
     3
100
AcDbMText
 10
984.432961764843
 20
1466.109117848485
 30
0.0
 40
21.0
 41
0.0
 46
0.0
 71
     5
 72
     1
  1
6.5
  7
SEISA
 73
     1
 44
1.0
  0
POINT
  5
63A2
330
5822
100
AcDbEntity
  8
Defpoints
 62
     0
100
AcDbPoint
 10
1042.782961764843
 20
1490.499104848485
 30
0.0
  0
POINT
  5
63A3
102
{ACAD_REACTORS
330
7116
102
}
330
5822
100
AcDbEntity
  8
Defpoints
 62
     0
100
AcDbPoint
 10
1049.282961764843
 20
1490.999104848485
 30
0.0
  0
POINT
  5
63A4
330
5822
100
AcDbEntity
  8
Defpoints
 62
     0
100
AcDbPoint
 10
1049.282961764843
 20
1446.609117848485
 30
0.0
  0
ENDBLK
  5
5824
330
5822
100
AcDbEntity
  8
0
100
AcDbBlockEnd
  0
BLOCK
  5
5888
330
5887
100
AcDbEntity
  8
0
100
AcDbBlockBegin
  2
*D17
 70
     1
 10
0.0
 20
0.0
 30
0.0
  3
*D17
  1

  0
LINE
  5
63B0
330
5887
100
AcDbEntity
  8
AM_5 寸法線
 62
     3
100
AcDbLine
 10
1198.782961764843
 20
1301.749104848485
 30
0.0
 11
1198.782961764843
 21
1340.680620848485
 31
0.0
  0
LINE
  5
63B1
330
5887
100
AcDbEntity
  8
AM_5 寸法線
 62
     3
100
AcDbLine
 10
933.7829617648433
 20
1301.749104848485
 30
0.0
 11
933.7829617648433
 21
1340.680620848485
 31
0.0
  0
LINE
  5
63B2
330
5887
100
AcDbEntity
  8
AM_5 寸法線
 62
     3
100
AcDbLine
 10
1183.782961764843
 20
1336.930620848485
 30
0.0
 11
948.7829617648433
 21
1336.930620848485
 31
0.0
  0
INSERT
  5
63B3
330
5887
100
AcDbEntity
  8
AM_5 寸法線
 62
     3
100
AcDbBlockReference
  2
_Open30
 10
1198.782961764843
 20
1336.930620848485
 30
0.0
 41
15.0
 42
15.0
 43
15.0
  0
INSERT
  5
63B4
330
5887
100
AcDbEntity
  8
AM_5 寸法線
 62
     3
100
AcDbBlockReference
  2
_Open30
 10
933.7829617648433
 20
1336.930620848485
 30
0.0
 41
15.0
 42
15.0
 43
15.0
 50
180.0
  0
MTEXT
  5
63B5
330
5887
100
AcDbEntity
  8
AM_5 寸法線
 62
     3
100
AcDbMText
 10
1066.282961764843
 20
1356.430620848485
 30
0.0
 40
21.0
 41
0.0
 46
0.0
 71
     5
 72
     1
  1
265
  7
SEISA
 73
     1
 44
1.0
  0
POINT
  5
63B6
330
5887
100
AcDbEntity
  8
Defpoints
 62
     0
100
AcDbPoint
 10
1198.782961764843
 20
1297.999104848485
 30
0.0
  0
POINT
  5
63B7
330
5887
100
AcDbEntity
  8
Defpoints
 62
     0
100
AcDbPoint
 10
933.7829617648433
 20
1297.999104848485
 30
0.0
  0
POINT
  5
63B8
330
5887
100
AcDbEntity
  8
Defpoints
 62
     0
100
AcDbPoint
 10
933.7829617648433
 20
1336.930620848485
 30
0.0
  0
ENDBLK
  5
5889
330
5887
100
AcDbEntity
  8
0
100
AcDbBlockEnd
  0
BLOCK
  5
58A0
330
589F
100
AcDbEntity
  8
0
100
AcDbBlockBegin
  2
*D18
 70
     1
 10
0.0
 20
0.0
 30
0.0
  3
*D18
  1

  0
LINE
  5
63B9
330
589F
100
AcDbEntity
  8
AM_5 寸法線
 62
     3
100
AcDbLine
 10
1220.782961764843
 20
1301.749104848485
 30
0.0
 11
1220.782961764843
 21
1340.680620848485
 31
0.0
  0
LINE
  5
63BA
330
589F
100
AcDbEntity
  8
AM_5 寸法線
 62
     3
100
AcDbLine
 10
1198.782961764843
 20
1301.749104848485
 30
0.0
 11
1198.782961764843
 21
1340.680620848485
 31
0.0
  0
LINE
  5
63BB
330
589F
100
AcDbEntity
  8
AM_5 寸法線
 62
     3
100
AcDbLine
 10
1235.782961764843
 20
1336.930620848485
 30
0.0
 11
1250.782961764843
 21
1336.930620848485
 31
0.0
  0
LINE
  5
63BC
330
589F
100
AcDbEntity
  8
AM_5 寸法線
 62
     3
100
AcDbLine
 10
1183.782961764843
 20
1336.930620848485
 30
0.0
 11
1168.782961764843
 21
1336.930620848485
 31
0.0
  0
MTEXT
  5
63BD
330
589F
100
AcDbEntity
  8
AM_5 寸法線
 62
     3
100
AcDbMText
 10
1254.22658958318
 20
1356.484539761259
 30
0.0
 40
21.0
 41
0.0
 46
0.0
 71
     5
 72
     1
  1
22
  7
SEISA
 73
     1
 44
1.0
  0
LINE
  5
63BE
330
589F
100
AcDbEntity
  8
AM_5 寸法線
 62
     3
100
AcDbLine
 10
1220.782961764843
 20
1336.930620848485
 30
0.0
 11
1198.782961764843
 21
1336.930620848485
 31
0.0
  0
INSERT
  5
63BF
330
589F
100
AcDbEntity
  8
AM_5 寸法線
 62
     3
100
AcDbBlockReference
  2
_Open30
 10
1220.782961764843
 20
1336.930620848485
 30
0.0
 41
15.0
 42
15.0
 43
15.0
 50
180.0
  0
INSERT
  5
63C0
330
589F
100
AcDbEntity
  8
AM_5 寸法線
 62
     3
100
AcDbBlockReference
  2
_Open30
 10
1198.782961764843
 20
1336.930620848485
 30
0.0
 41
15.0
 42
15.0
 43
15.0
  0
POINT
  5
63C1
330
589F
100
AcDbEntity
  8
Defpoints
 62
     0
100
AcDbPoint
 10
1220.782961764843
 20
1297.999104848485
 30
0.0
  0
POINT
  5
63C2
330
589F
100
AcDbEntity
  8
Defpoints
 62
     0
100
AcDbPoint
 10
1198.782961764843
 20
1297.999104848485
 30
0.0
  0
POINT
  5
63C3
330
589F
100
AcDbEntity
  8
Defpoints
 62
     0
100
AcDbPoint
 10
1198.782961764843
 20
1336.930620848485
 30
0.0
  0
ENDBLK
  5
58A1
330
589F
100
AcDbEntity
  8
0
100
AcDbBlockEnd
  0
BLOCK
  5
58BC
330
58BB
100
AcDbEntity
  8
0
100
AcDbBlockBegin
  2
*D19
 70
     1
 10
0.0
 20
0.0
 30
0.0
  3
*D19
  1

  0
LINE
  5
63C4
330
58BB
100
AcDbEntity
  8
AM_5 寸法線
 62
     3
100
AcDbLine
 10
1485.782961764843
 20
1301.749104848485
 30
0.0
 11
1485.782961764843
 21
1340.680620848485
 31
0.0
  0
LINE
  5
63C5
330
58BB
100
AcDbEntity
  8
AM_5 寸法線
 62
     3
100
AcDbLine
 10
1220.782961764843
 20
1301.749104848485
 30
0.0
 11
1220.782961764843
 21
1340.680620848485
 31
0.0
  0
LINE
  5
63C6
330
58BB
100
AcDbEntity
  8
AM_5 寸法線
 62
     3
100
AcDbLine
 10
1470.782961764843
 20
1336.930620848485
 30
0.0
 11
1235.782961764843
 21
1336.930620848485
 31
0.0
  0
INSERT
  5
63C7
330
58BB
100
AcDbEntity
  8
AM_5 寸法線
 62
     3
100
AcDbBlockReference
  2
_Open30
 10
1485.782961764843
 20
1336.930620848485
 30
0.0
 41
15.0
 42
15.0
 43
15.0
  0
INSERT
  5
63C8
330
58BB
100
AcDbEntity
  8
AM_5 寸法線
 62
     3
100
AcDbBlockReference
  2
_Open30
 10
1220.782961764843
 20
1336.930620848485
 30
0.0
 41
15.0
 42
15.0
 43
15.0
 50
180.0
  0
MTEXT
  5
63C9
330
58BB
100
AcDbEntity
  8
AM_5 寸法線
 62
     3
100
AcDbMText
 10
1353.282961764843
 20
1356.430620848485
 30
0.0
 40
21.0
 41
0.0
 46
0.0
 71
     5
 72
     1
  1
265
  7
SEISA
 73
     1
 44
1.0
  0
POINT
  5
63CA
330
58BB
100
AcDbEntity
  8
Defpoints
 62
     0
100
AcDbPoint
 10
1485.782961764843
 20
1297.999104848485
 30
0.0
  0
POINT
  5
63CB
330
58BB
100
AcDbEntity
  8
Defpoints
 62
     0
100
AcDbPoint
 10
1220.782961764843
 20
1297.999104848485
 30
0.0
  0
POINT
  5
63CC
330
58BB
100
AcDbEntity
  8
Defpoints
 62
     0
100
AcDbPoint
 10
1220.782961764843
 20
1336.930620848485
 30
0.0
  0
ENDBLK
  5
58BD
330
58BB
100
AcDbEntity
  8
0
100
AcDbBlockEnd
  0
BLOCK
  5
5959
330
5958
100
AcDbEntity
  8
0
100
AcDbBlockBegin
  2
*D20
 70
     1
 10
0.0
 20
0.0
 30
0.0
  3
*D20
  1

  0
LINE
  5
63D4
330
5958
100
AcDbEntity
  8
AM_5 寸法線
 62
     3
100
AcDbLine
 10
1422.532961764843
 20
1490.499104848485
 30
0.0
 11
1609.508966764843
 21
1490.499104848485
 31
0.0
  0
LINE
  5
63D5
330
5958
100
AcDbEntity
  8
AM_5 寸法線
 62
     3
100
AcDbLine
 10
1422.532961764843
 20
1105.499104848485
 30
0.0
 11
1609.508966764843
 21
1105.499104848485
 31
0.0
  0
LINE
  5
63D6
330
5958
100
AcDbEntity
  8
AM_5 寸法線
 62
     3
100
AcDbLine
 10
1605.758966764843
 20
1475.499104848485
 30
0.0
 11
1605.758966764843
 21
1120.499104848485
 31
0.0
  0
INSERT
  5
63D7
330
5958
100
AcDbEntity
  8
AM_5 寸法線
 62
     3
100
AcDbBlockReference
  2
_Open30
 10
1605.758966764843
 20
1490.499104848485
 30
0.0
 41
15.0
 42
15.0
 43
15.0
 50
90.0
  0
INSERT
  5
63D8
330
5958
100
AcDbEntity
  8
AM_5 寸法線
 62
     3
100
AcDbBlockReference
  2
_Open30
 10
1605.758966764843
 20
1105.499104848485
 30
0.0
 41
15.0
 42
15.0
 43
15.0
 50
270.0
  0
MTEXT
  5
63D9
330
5958
100
AcDbEntity
  8
AM_5 寸法線
 62
     3
100
AcDbMText
 10
1586.258966764843
 20
1297.999104848485
 30
0.0
 40
21.0
 41
0.0
 46
0.0
 71
     5
 72
     1
  1
%%c385
  7
SEISA
 11
0.0000000000000001
 21
1.0
 31
0.0
 73
     1
 44
1.0
  0
POINT
  5
63DA
330
5958
100
AcDbEntity
  8
Defpoints
 62
     0
100
AcDbPoint
 10
1418.782961764843
 20
1490.499104848485
 30
0.0
  0
POINT
  5
63DB
330
5958
100
AcDbEntity
  8
Defpoints
 62
     0
100
AcDbPoint
 10
1418.782961764843
 20
1105.499104848485
 30
0.0
  0
POINT
  5
63DC
330
5958
100
AcDbEntity
  8
Defpoints
 62
     0
100
AcDbPoint
 10
1605.758966764843
 20
1105.499104848485
 30
0.0
  0
ENDBLK
  5
595A
330
5958
100
AcDbEntity
  8
0
100
AcDbBlockEnd
  0
BLOCK
  5
59F0
330
59EF
100
AcDbEntity
  8
0
100
AcDbBlockBegin
  2
*D21
 70
     1
 10
0.0
 20
0.0
 30
0.0
  3
*D21
  1

  0
LINE
  5
63DD
330
59EF
100
AcDbEntity
  8
AM_5 寸法線
 62
     3
100
AcDbLine
 10
1399.532961764843
 20
1533.999104848485
 30
0.0
 11
1669.508966764843
 21
1533.999104848485
 31
0.0
  0
LINE
  5
63DE
330
59EF
100
AcDbEntity
  8
AM_5 寸法線
 62
     3
100
AcDbLine
 10
1399.532961764843
 20
1061.999104848485
 30
0.0
 11
1669.508966764843
 21
1061.999104848485
 31
0.0
  0
LINE
  5
63DF
330
59EF
100
AcDbEntity
  8
AM_5 寸法線
 62
     3
100
AcDbLine
 10
1665.758966764843
 20
1518.999104848485
 30
0.0
 11
1665.758966764843
 21
1076.999104848485
 31
0.0
  0
INSERT
  5
63E0
330
59EF
100
AcDbEntity
  8
AM_5 寸法線
 62
     3
100
AcDbBlockReference
  2
_Open30
 10
1665.758966764843
 20
1533.999104848485
 30
0.0
 41
15.0
 42
15.0
 43
15.0
 50
90.0
  0
INSERT
  5
63E1
330
59EF
100
AcDbEntity
  8
AM_5 寸法線
 62
     3
100
AcDbBlockReference
  2
_Open30
 10
1665.758966764843
 20
1061.999104848485
 30
0.0
 41
15.0
 42
15.0
 43
15.0
 50
270.0
  0
MTEXT
  5
63E2
330
59EF
100
AcDbEntity
  8
AM_5 寸法線
 62
     3
100
AcDbMText
 10
1646.258966764843
 20
1297.999104848486
 30
0.0
 40
21.0
 41
0.0
 46
0.0
 71
     5
 72
     1
  1
%%c472
  7
SEISA
 11
0.0000000000000001
 21
1.0
 31
0.0
 73
     1
 44
1.0
  0
POINT
  5
63E3
330
59EF
100
AcDbEntity
  8
Defpoints
 62
     0
100
AcDbPoint
 10
1395.782961764843
 20
1533.999104848485
 30
0.0
  0
POINT
  5
63E4
330
59EF
100
AcDbEntity
  8
Defpoints
 62
     0
100
AcDbPoint
 10
1395.782961764843
 20
1061.999104848485
 30
0.0
  0
POINT
  5
63E5
330
59EF
100
AcDbEntity
  8
Defpoints
 62
     0
100
AcDbPoint
 10
1665.758966764843
 20
1061.999104848485
 30
0.0
  0
ENDBLK
  5
59F1
330
59EF
100
AcDbEntity
  8
0
100
AcDbBlockEnd
  0
BLOCK
  5
5A08
330
5A07
100
AcDbEntity
  8
0
100
AcDbBlockBegin
  2
*D22
 70
     1
 10
0.0
 20
0.0
 30
0.0
  3
*D22
  1

  0
LINE
  5
63E6
330
5A07
100
AcDbEntity
  8
AM_5 寸法線
 62
     3
100
AcDbLine
 10
1242.532961764843
 20
1577.999104848485
 30
0.0
 11
1729.508966764844
 21
1577.999104848485
 31
0.0
  0
LINE
  5
63E7
330
5A07
100
AcDbEntity
  8
AM_5 寸法線
 62
     3
100
AcDbLine
 10
1242.532961764843
 20
1017.999104848485
 30
0.0
 11
1729.508966764843
 21
1017.999104848485
 31
0.0
  0
LINE
  5
63E8
330
5A07
100
AcDbEntity
  8
AM_5 寸法線
 62
     3
100
AcDbLine
 10
1725.758966764843
 20
1562.999104848485
 30
0.0
 11
1725.758966764843
 21
1032.999104848485
 31
0.0
  0
INSERT
  5
63E9
330
5A07
100
AcDbEntity
  8
AM_5 寸法線
 62
     3
100
AcDbBlockReference
  2
_Open30
 10
1725.758966764843
 20
1577.999104848485
 30
0.0
 41
15.0
 42
15.0
 43
15.0
 50
90.0
  0
INSERT
  5
63EA
330
5A07
100
AcDbEntity
  8
AM_5 寸法線
 62
     3
100
AcDbBlockReference
  2
_Open30
 10
1725.758966764843
 20
1017.999104848485
 30
0.0
 41
15.0
 42
15.0
 43
15.0
 50
270.0
  0
MTEXT
  5
63EB
330
5A07
100
AcDbEntity
  8
AM_5 寸法線
 62
     3
100
AcDbMText
 10
1706.258966764843
 20
1297.999104848485
 30
0.0
 40
21.0
 41
0.0
 46
0.0
 71
     5
 72
     1
  1
%%c560
  7
SEISA
 11
0.0000000000000001
 21
1.0
 31
0.0
 73
     1
 44
1.0
  0
POINT
  5
63EC
330
5A07
100
AcDbEntity
  8
Defpoints
 62
     0
100
AcDbPoint
 10
1238.782961764843
 20
1577.999104848485
 30
0.0
  0
POINT
  5
63ED
330
5A07
100
AcDbEntity
  8
Defpoints
 62
     0
100
AcDbPoint
 10
1238.782961764843
 20
1017.999104848485
 30
0.0
  0
POINT
  5
63EE
330
5A07
100
AcDbEntity
  8
Defpoints
 62
     0
100
AcDbPoint
 10
1725.758966764843
 20
1017.999104848485
 30
0.0
  0
ENDBLK
  5
5A09
330
5A07
100
AcDbEntity
  8
0
100
AcDbBlockEnd
  0
BLOCK
  5
5AA6
330
5AA5
100
AcDbEntity
  8
0
100
AcDbBlockBegin
  2
*D23
 70
     1
 10
0.0
 20
0.0
 30
0.0
  3
*D23
  1

  0
LINE
  5
63EF
330
5AA5
100
AcDbEntity
  8
AM_5 寸法線
 62
     3
100
AcDbLine
 10
1209.782961764843
 20
1015.249104848485
 30
0.0
 11
1209.782961764843
 21
924.2491048484852
 31
0.0
  0
LINE
  5
63F0
330
5AA5
100
AcDbEntity
  8
AM_5 寸法線
 62
     3
100
AcDbLine
 10
1179.782961764843
 20
1015.249104848485
 30
0.0
 11
1179.782961764843
 21
924.2491048484852
 31
0.0
  0
LINE
  5
63F1
330
5AA5
100
AcDbEntity
  8
AM_5 寸法線
 62
     3
100
AcDbLine
 10
1224.782961764843
 20
927.9991048484854
 30
0.0
 11
1239.782961764843
 21
927.9991048484854
 31
0.0
  0
LINE
  5
63F2
330
5AA5
100
AcDbEntity
  8
AM_5 寸法線
 62
     3
100
AcDbLine
 10
1164.782961764843
 20
927.9991048484854
 30
0.0
 11
1101.182961764843
 21
927.9991048484854
 31
0.0
  0
LINE
  5
63F3
330
5AA5
100
AcDbEntity
  8
AM_5 寸法線
 62
     3
100
AcDbLine
 10
1209.782961764843
 20
927.9991048484854
 30
0.0
 11
1179.782961764843
 21
927.9991048484854
 31
0.0
  0
INSERT
  5
63F4
330
5AA5
100
AcDbEntity
  8
AM_5 寸法線
 62
     3
100
AcDbBlockReference
  2
GENDOT
 10
1209.782961764843
 20
927.9991048484854
 30
0.0
 41
15.0
 42
15.0
 43
15.0
 50
180.0
  0
INSERT
  5
63F5
330
5AA5
100
AcDbEntity
  8
AM_5 寸法線
 62
     3
100
AcDbBlockReference
  2
_Open30
 10
1179.782961764843
 20
927.9991048484854
 30
0.0
 41
15.0
 42
15.0
 43
15.0
  0
MTEXT
  5
63F6
330
5AA5
100
AcDbEntity
  8
AM_5 寸法線
 62
     3
100
AcDbMText
 10
1125.482961764843
 20
947.4991048484852
 30
0.0
 40
21.0
 41
0.0
 46
0.0
 71
     5
 72
     1
  1
30
  7
SEISA
 73
     1
 44
1.0
  0
POINT
  5
63F7
330
5AA5
100
AcDbEntity
  8
Defpoints
 62
     0
100
AcDbPoint
 10
1209.782961764843
 20
1018.999104848485
 30
0.0
  0
POINT
  5
63F8
330
5AA5
100
AcDbEntity
  8
Defpoints
 62
     0
100
AcDbPoint
 10
1179.782961764843
 20
1018.999104848485
 30
0.0
  0
POINT
  5
63F9
330
5AA5
100
AcDbEntity
  8
Defpoints
 62
     0
100
AcDbPoint
 10
1179.782961764843
 20
927.9991048484854
 30
0.0
  0
ENDBLK
  5
5AA7
330
5AA5
100
AcDbEntity
  8
0
100
AcDbBlockEnd
  0
BLOCK
  5
5AC2
330
5AC1
100
AcDbEntity
  8
0
100
AcDbBlockBegin
  2
*D24
 70
     1
 10
0.0
 20
0.0
 30
0.0
  3
*D24
  1

  0
LINE
  5
63FA
330
5AC1
100
AcDbEntity
  8
AM_5 寸法線
 62
     3
100
AcDbLine
 10
1209.782961764843
 20
1015.249104848485
 30
0.0
 11
1209.782961764843
 21
924.2491048484852
 31
0.0
  0
LINE
  5
63FB
330
5AC1
100
AcDbEntity
  8
AM_5 寸法線
 62
     3
100
AcDbLine
 10
1239.782961764843
 20
1015.249104848485
 30
0.0
 11
1239.782961764843
 21
924.2491048484852
 31
0.0
  0
LINE
  5
63FC
330
5AC1
100
AcDbEntity
  8
AM_5 寸法線
 62
     3
100
AcDbLine
 10
1194.782961764843
 20
927.9991048484854
 30
0.0
 11
1179.782961764843
 21
927.9991048484854
 31
0.0
  0
LINE
  5
63FD
330
5AC1
100
AcDbEntity
  8
AM_5 寸法線
 62
     3
100
AcDbLine
 10
1254.782961764843
 20
927.9991048484854
 30
0.0
 11
1318.382961764843
 21
927.9991048484854
 31
0.0
  0
LINE
  5
63FE
330
5AC1
100
AcDbEntity
  8
AM_5 寸法線
 62
     3
100
AcDbLine
 10
1209.782961764843
 20
927.9991048484854
 30
0.0
 11
1239.782961764843
 21
927.9991048484854
 31
0.0
  0
INSERT
  5
63FF
330
5AC1
100
AcDbEntity
  8
AM_5 寸法線
 62
     3
100
AcDbBlockReference
  2
GENDOT
 10
1209.782961764843
 20
927.9991048484854
 30
0.0
 41
15.0
 42
15.0
 43
15.0
  0
INSERT
  5
6400
330
5AC1
100
AcDbEntity
  8
AM_5 寸法線
 62
     3
100
AcDbBlockReference
  2
_Open30
 10
1239.782961764843
 20
927.9991048484854
 30
0.0
 41
15.0
 42
15.0
 43
15.0
 50
180.0
  0
MTEXT
  5
6401
330
5AC1
100
AcDbEntity
  8
AM_5 寸法線
 62
     3
100
AcDbMText
 10
1294.082961764843
 20
947.4991048484852
 30
0.0
 40
21.0
 41
0.0
 46
0.0
 71
     5
 72
     1
  1
30
  7
SEISA
 73
     1
 44
1.0
  0
POINT
  5
6402
330
5AC1
100
AcDbEntity
  8
Defpoints
 62
     0
100
AcDbPoint
 10
1209.782961764843
 20
1018.999104848485
 30
0.0
  0
POINT
  5
6403
330
5AC1
100
AcDbEntity
  8
Defpoints
 62
     0
100
AcDbPoint
 10
1239.782961764843
 20
1018.999104848485
 30
0.0
  0
POINT
  5
6404
330
5AC1
100
AcDbEntity
  8
Defpoints
 62
     0
100
AcDbPoint
 10
1239.782961764843
 20
927.9991048484854
 30
0.0
  0
ENDBLK
  5
5AC3
330
5AC1
100
AcDbEntity
  8
0
100
AcDbBlockEnd
  0
BLOCK
  5
5AE1
330
5AE0
100
AcDbEntity
  8
0
100
AcDbBlockBegin
  2
*D25
 70
     1
 10
0.0
 20
0.0
 30
0.0
  3
*D25
  1

  0
LINE
  5
72D7
330
5AE0
100
AcDbEntity
  8
AM_5 寸法線
 62
     3
100
AcDbLine
 10
1396.782961764843
 20
1059.249104848485
 30
0.0
 11
1396.782961764843
 21
876.2491048484854
 31
0.0
  0
LINE
  5
72D8
330
5AE0
100
AcDbEntity
  8
AM_5 寸法線
 62
     3
100
AcDbLine
 10
1022.782961764843
 20
1059.249104848485
 30
0.0
 11
1022.782961764843
 21
876.2491048484854
 31
0.0
  0
LINE
  5
72D9
330
5AE0
100
AcDbEntity
  8
AM_5 寸法線
 62
     3
100
AcDbLine
 10
1381.782961764843
 20
879.9991048484852
 30
0.0
 11
1037.782961764843
 21
879.9991048484852
 31
0.0
  0
INSERT
  5
72DA
330
5AE0
100
AcDbEntity
  8
AM_5 寸法線
 62
     3
100
AcDbBlockReference
  2
_Open30
 10
1396.782961764843
 20
879.9991048484852
 30
0.0
 41
15.0
 42
15.0
 43
15.0
  0
INSERT
  5
72DB
330
5AE0
100
AcDbEntity
  8
AM_5 寸法線
 62
     3
100
AcDbBlockReference
  2
_Open30
 10
1022.782961764843
 20
879.9991048484852
 30
0.0
 41
15.0
 42
15.0
 43
15.0
 50
180.0
  0
MTEXT
  5
72DC
330
5AE0
100
AcDbEntity
  8
AM_5 寸法線
 62
     3
100
AcDbMText
 10
1209.782961764843
 20
899.4991048484854
 30
0.0
 40
21.0
 41
0.0
 46
0.0
 71
     5
 72
     1
  1
374
  7
SEISA
 73
     1
 44
1.0
  0
POINT
  5
72DD
330
5AE0
100
AcDbEntity
  8
Defpoints
 62
     0
100
AcDbPoint
 10
1396.782961764843
 20
1062.999104848485
 30
0.0
  0
POINT
  5
72DE
330
5AE0
100
AcDbEntity
  8
Defpoints
 62
     0
100
AcDbPoint
 10
1022.782961764843
 20
1062.999104848485
 30
0.0
  0
POINT
  5
72DF
330
5AE0
100
AcDbEntity
  8
Defpoints
 62
     0
100
AcDbPoint
 10
1022.782961764843
 20
879.9991048484852
 30
0.0
  0
ENDBLK
  5
5AE2
330
5AE0
100
AcDbEntity
  8
0
100
AcDbBlockEnd
  0
BLOCK
  5
5BC1
330
5BC0
100
AcDbEntity
  8
0
100
AcDbBlockBegin
  2
*D26
 70
     1
 10
0.0
 20
0.0
 30
0.0
  3
*D26
  1

  0
LINE
  5
6429
330
5BC0
100
AcDbEntity
  8
AM_5 寸法線
 62
     3
100
AcDbLine
 10
1485.782961764843
 20
1108.749104848484
 30
0.0
 11
1485.782961764843
 21
828.2491048484851
 31
0.0
  0
LINE
  5
642A
330
5BC0
100
AcDbEntity
  8
AM_5 寸法線
 62
     3
100
AcDbLine
 10
933.7829617648433
 20
1108.749104848484
 30
0.0
 11
933.7829617648433
 21
828.2491048484851
 31
0.0
  0
LINE
  5
642B
330
5BC0
100
AcDbEntity
  8
AM_5 寸法線
 62
     3
100
AcDbLine
 10
1470.782961764843
 20
831.9991048484851
 30
0.0
 11
948.7829617648433
 21
831.9991048484851
 31
0.0
  0
INSERT
  5
642C
330
5BC0
100
AcDbEntity
  8
AM_5 寸法線
 62
     3
100
AcDbBlockReference
  2
_Open30
 10
1485.782961764843
 20
831.9991048484851
 30
0.0
 41
15.0
 42
15.0
 43
15.0
  0
INSERT
  5
642D
330
5BC0
100
AcDbEntity
  8
AM_5 寸法線
 62
     3
100
AcDbBlockReference
  2
_Open30
 10
933.7829617648433
 20
831.9991048484851
 30
0.0
 41
15.0
 42
15.0
 43
15.0
 50
180.0
  0
MTEXT
  5
642E
330
5BC0
100
AcDbEntity
  8
AM_5 寸法線
 62
     3
100
AcDbMText
 10
1209.782961764843
 20
851.4991048484851
 30
0.0
 40
21.0
 41
0.0
 46
0.0
 71
     5
 72
     1
  1
552
  7
SEISA
 73
     1
 44
1.0
  0
POINT
  5
642F
330
5BC0
100
AcDbEntity
  8
Defpoints
 62
     0
100
AcDbPoint
 10
1485.782961764843
 20
1112.499104848485
 30
0.0
  0
POINT
  5
6430
330
5BC0
100
AcDbEntity
  8
Defpoints
 62
     0
100
AcDbPoint
 10
933.7829617648433
 20
1112.499104848485
 30
0.0
  0
POINT
  5
6431
330
5BC0
100
AcDbEntity
  8
Defpoints
 62
     0
100
AcDbPoint
 10
933.7829617648433
 20
831.9991048484851
 30
0.0
  0
ENDBLK
  5
5BC2
330
5BC0
100
AcDbEntity
  8
0
100
AcDbBlockEnd
  0
BLOCK
  5
6A79
330
6A78
100
AcDbEntity
  8
0
100
AcDbBlockBegin
  2
ロッカクアナツキプラグB R1／2
 70
     0
 10
0.0
 20
0.0
 30
0.0
  3
ロッカクアナツキプラグB R1／2
  1

  0
LINE
  5
6A7B
330
6A78
100
AcDbEntity
  8
AM_7 中心線
 48
0.5
100
AcDbLine
 10
0.0
 20
4.289023000000041
 30
0.0
 11
0.0
 21
-22.94512800000007
 31
0.0
  0
LINE
  5
6A7C
330
6A78
100
AcDbEntity
  8
AM_0 外形線1
100
AcDbLine
 10
10.66397700000016
 20
-1.5
 30
0.0
 11
-10.66397700000016
 21
-1.5
 31
0.0
  0
LINE
  5
6A7D
330
6A78
100
AcDbEntity
  8
AM_0 外形線1
100
AcDbLine
 10
6.798286999999617
 20
-15.0
 30
0.0
 11
-6.798286000000188
 21
-15.0
 31
0.0
  0
LINE
  5
6A7E
330
6A78
100
AcDbEntity
  8
AM_0 外形線1
100
AcDbLine
 10
-10.2623880000001
 20
-13.0
 30
0.0
 11
10.2623880000001
 21
-13.0
 31
0.0
  0
LINE
  5
6A7F
330
6A78
100
AcDbEntity
  8
AM_0 外形線1
100
AcDbLine
 10
-6.798286000000188
 20
-15.0
 30
0.0
 11
-10.2623880000001
 21
-13.0
 31
0.0
  0
LINE
  5
6A80
330
6A78
100
AcDbEntity
  8
AM_0 外形線1
100
AcDbLine
 10
-10.2623880000001
 20
-13.0
 30
0.0
 11
-10.66397700000016
 21
-1.5
 31
0.0
  0
LINE
  5
6A81
330
6A78
100
AcDbEntity
  8
AM_0 外形線1
100
AcDbLine
 10
-10.66397700000016
 20
-1.5
 30
0.0
 11
-9.163977000000159
 21
0.0
 31
0.0
  0
LINE
  5
6A82
330
6A78
100
AcDbEntity
  8
AM_4 細線
100
AcDbLine
 10
-9.541185000000039
 20
-0.3772089999999935
 30
0.0
 11
-9.076477999999953
 21
-13.68468600000005
 31
0.0
  0
LINE
  5
6A83
330
6A78
100
AcDbEntity
  8
AM_0 外形線1
100
AcDbLine
 10
9.163977000000159
 20
0.0
 30
0.0
 11
10.66397700000016
 21
-1.5
 31
0.0
  0
LINE
  5
6A84
330
6A78
100
AcDbEntity
  8
AM_0 外形線1
100
AcDbLine
 10
10.66397700000016
 20
-1.5
 30
0.0
 11
10.2623880000001
 21
-13.0
 31
0.0
  0
LINE
  5
6A85
330
6A78
100
AcDbEntity
  8
AM_0 外形線1
100
AcDbLine
 10
10.2623880000001
 20
-13.0
 30
0.0
 11
6.798286999999617
 21
-15.0
 31
0.0
  0
LINE
  5
6A86
330
6A78
100
AcDbEntity
  8
AM_4 細線
100
AcDbLine
 10
9.076478999999835
 20
-13.68468600000005
 30
0.0
 11
9.541185999999923
 21
-0.3772089999999935
 31
0.0
  0
LINE
  5
6A87
330
6A78
100
AcDbEntity
  8
AM_0 外形線1
100
AcDbLine
 10
-9.163977000000159
 20
0.0
 30
0.0
 11
9.163977000000159
 21
0.0
 31
0.0
  0
ENDBLK
  5
6A7A
330
6A78
100
AcDbEntity
  8
0
100
AcDbBlockEnd
  0
BLOCK
  5
710A
330
7109
100
AcDbEntity
  8
0
100
AcDbBlockBegin
  2
*D28
 70
     1
 10
0.0
 20
0.0
 30
0.0
  3
*D28
  1

  0
LINE
  5
7129
330
7109
100
AcDbEntity
  8
AM_5 寸法線
 62
     3
100
AcDbLine
 10
1049.282961764843
 20
1487.249104848485
 30
0.0
 11
1049.282961764843
 21
1442.859117848487
 31
0.0
  0
LINE
  5
712A
330
7109
100
AcDbEntity
  8
AM_5 寸法線
 62
     3
100
AcDbLine
 10
1124.282961764843
 20
1485.249104848485
 30
0.0
 11
1124.282961764843
 21
1442.859117848487
 31
0.0
  0
LINE
  5
712B
330
7109
100
AcDbEntity
  8
AM_5 寸法線
 62
     3
100
AcDbLine
 10
1064.282961764843
 20
1446.609117848487
 30
0.0
 11
1109.282961764843
 21
1446.609117848487
 31
0.0
  0
INSERT
  5
712C
330
7109
100
AcDbEntity
  8
AM_5 寸法線
 62
     3
100
AcDbBlockReference
  2
_Open30
 10
1049.282961764843
 20
1446.609117848487
 30
0.0
 41
15.0
 42
15.0
 43
15.0
 50
180.0
  0
INSERT
  5
712D
330
7109
100
AcDbEntity
  8
AM_5 寸法線
 62
     3
100
AcDbBlockReference
  2
_Open30
 10
1124.282961764843
 20
1446.609117848487
 30
0.0
 41
15.0
 42
15.0
 43
15.0
  0
MTEXT
  5
712E
330
7109
100
AcDbEntity
  8
AM_5 寸法線
 62
     3
100
AcDbMText
 10
1086.782961764843
 20
1466.109117848487
 30
0.0
 40
21.0
 41
0.0
 46
0.0
 71
     5
 72
     1
  1
75
  7
SEISA
 73
     1
 44
1.0
  0
POINT
  5
712F
330
7109
100
AcDbEntity
  8
Defpoints
 62
     0
100
AcDbPoint
 10
1049.282961764843
 20
1490.999104848485
 30
0.0
  0
POINT
  5
7130
102
{ACAD_REACTORS
330
7141
102
}
330
7109
100
AcDbEntity
  8
Defpoints
 62
     0
100
AcDbPoint
 10
1124.282961764843
 20
1488.999104848485
 30
0.0
  0
POINT
  5
7131
330
7109
100
AcDbEntity
  8
Defpoints
 62
     0
100
AcDbPoint
 10
1124.282961764843
 20
1446.609117848487
 30
0.0
  0
ENDBLK
  5
710B
330
7109
100
AcDbEntity
  8
0
100
AcDbBlockEnd
  0
BLOCK
  5
7134
330
7133
100
AcDbEntity
  8
0
100
AcDbBlockBegin
  2
*D29
 70
     1
 10
0.0
 20
0.0
 30
0.0
  3
*D29
  1

  0
LINE
  5
716A
330
7133
100
AcDbEntity
  8
AM_5 寸法線
 62
     3
100
AcDbLine
 10
1124.282961764843
 20
1485.249104848485
 30
0.0
 11
1124.282961764843
 21
1442.859117848487
 31
0.0
  0
LINE
  5
716B
330
7133
100
AcDbEntity
  8
AM_5 寸法線
 62
     3
100
AcDbLine
 10
1198.782961764843
 20
1483.749104848485
 30
0.0
 11
1198.782961764843
 21
1442.859117848487
 31
0.0
  0
LINE
  5
716C
330
7133
100
AcDbEntity
  8
AM_5 寸法線
 62
     3
100
AcDbLine
 10
1139.282961764843
 20
1446.609117848487
 30
0.0
 11
1183.782961764843
 21
1446.609117848487
 31
0.0
  0
MTEXT
  5
716D
330
7133
100
AcDbEntity
  8
AM_5 寸法線
 62
     3
100
AcDbMText
 10
1162.009980538758
 20
1465.609684978191
 30
0.0
 40
21.0
 41
0.0
 46
0.0
 71
     5
 72
     1
  1
74.5
  7
SEISA
 73
     1
 44
1.0
  0
INSERT
  5
716E
330
7133
100
AcDbEntity
  8
AM_5 寸法線
 62
     3
100
AcDbBlockReference
  2
_Open30
 10
1124.282961764843
 20
1446.609117848487
 30
0.0
 41
15.0
 42
15.0
 43
15.0
 50
180.0
  0
INSERT
  5
716F
330
7133
100
AcDbEntity
  8
AM_5 寸法線
 62
     3
100
AcDbBlockReference
  2
_Open30
 10
1198.782961764843
 20
1446.609117848487
 30
0.0
 41
15.0
 42
15.0
 43
15.0
  0
POINT
  5
7170
330
7133
100
AcDbEntity
  8
Defpoints
 62
     0
100
AcDbPoint
 10
1124.282961764843
 20
1488.999104848485
 30
0.0
  0
POINT
  5
7171
330
7133
100
AcDbEntity
  8
Defpoints
 62
     0
100
AcDbPoint
 10
1198.782961764843
 20
1487.499104848485
 30
0.0
  0
POINT
  5
7172
330
7133
100
AcDbEntity
  8
Defpoints
 62
     0
100
AcDbPoint
 10
1198.782961764843
 20
1446.609117848487
 30
0.0
  0
ENDBLK
  5
7135
330
7133
100
AcDbEntity
  8
0
100
AcDbBlockEnd
  0
ENDSEC
  0
SECTION
  2
ENTITIES
  0
LINE
  5
462F
330
1F
100
AcDbEntity
  8
AM_0 外形線1
100
AcDbLine
 10
1209.782961764843
 20
1297.999104848485
 30
0.0
 11
1209.782961764843
 21
1029.199104848485
 31
0.0
  0
LINE
  5
46D5
330
1F
100
AcDbEntity
  8
AM_0 外形線1
100
AcDbLine
 10
1038.782961764843
 20
1061.999104848485
 30
0.0
 11
1038.782961764843
 21
1297.999104848485
 31
0.0
  0
LINE
  5
470F
330
1F
100
AcDbEntity
  8
AM_7 中心線
100
AcDbLine
 10
1209.782961764843
 20
1297.999104848485
 30
0.0
 11
1506.674728764843
 21
1297.999104848485
 31
0.0
  0
LINE
  5
4714
330
1F
100
AcDbEntity
  8
AM_0 外形線1
100
AcDbLine
 10
1198.782961764843
 20
1461.249104848485
 30
0.0
 11
1198.782961764843
 21
1297.999104848485
 31
0.0
  0
LINE
  5
4715
330
1F
100
AcDbEntity
  8
AM_0 外形線1
100
AcDbLine
 10
1220.782961764843
 20
1461.249104848485
 30
0.0
 11
1220.782961764843
 21
1297.999104848485
 31
0.0
  0
LINE
  5
471E
330
1F
100
AcDbEntity
  8
AM_7 中心線
100
AcDbLine
 10
1209.782961764843
 20
1297.999104848485
 30
0.0
 11
916.0152287648427
 21
1297.999104848485
 31
0.0
  0
LINE
  5
47A1
330
1F
100
AcDbEntity
  8
AM_0 外形線1
100
AcDbLine
 10
1198.782961764843
 20
1477.999104848485
 30
0.0
 11
1198.782961764843
 21
1470.499104848485
 31
0.0
  0
LINE
  5
47B2
330
1F
100
AcDbEntity
  8
AM_0 外形線1
100
AcDbLine
 10
1198.782961764843
 20
1460.499104848485
 30
0.0
 11
1198.782961764843
 21
1470.499104848485
 31
0.0
  0
LINE
  5
47FC
330
1F
100
AcDbEntity
  8
AM_0 外形線1
100
AcDbLine
 10
1274.337319764843
 20
1526.999104848485
 30
0.0
 11
1274.324147764843
 21
1526.621895848485
 31
0.0
  0
INSERT
  5
5066
102
{ACAD_REACTORS
330
5ABF
102
}
330
1F
100
AcDbEntity
  8
AM_0 外形線1
100
AcDbBlockReference
  2
ケースＢ CCMH560
 10
1209.782961764843
 20
1297.999104848485
 30
0.0
  0
INSERT
  5
5090
102
{ACAD_REACTORS
330
5A1D
330
5ABF
330
5ADB
102
}
330
1F
100
AcDbEntity
  8
AM_0 外形線1
100
AcDbBlockReference
  2
ケースＡ CCMH560
 10
1209.782961764843
 20
1297.999104848485
 30
0.0
  0
INSERT
  5
5149
102
{ACAD_REACTORS
330
58B9
330
58D1
330
596E
330
5BD6
102
}
330
1F
100
AcDbEntity
  8
AM_0 外形線1
100
AcDbBlockReference
  2
センタＡ CCMH560
 10
1220.782961764843
 20
1297.999104848485
 30
0.0
  0
INSERT
  5
51C1
102
{ACAD_REACTORS
330
57E9
330
583C
330
589D
330
58B9
330
5BD6
330
7116
330
7141
102
}
330
1F
100
AcDbEntity
  8
AM_0 外形線1
100
AcDbBlockReference
  2
センタＢ CCMH560
 10
1198.782961764843
 20
1297.999104848485
 30
0.0
  0
INSERT
  5
535A
330
1F
100
AcDbEntity
  8
AM_0 外形線1
100
AcDbBlockReference
  2
リーマボルト CCMH560 M24
 10
1239.782961764843
 20
1555.499104848485
 30
0.0
  0
INSERT
  5
54AC
102
{ACAD_REACTORS
330
5A05
102
}
330
1F
100
AcDbEntity
  8
AM_0 外形線1
100
AcDbBlockReference
  2
ＧＣサイドカバ－A CCMH560
 10
1380.782961764843
 20
1297.999104848485
 30
0.0
  0
INSERT
  5
55D6
102
{ACAD_REACTORS
330
583C
330
5AF6
102
}
330
1F
100
AcDbEntity
  8
AM_0 外形線1
100
AcDbBlockReference
  2
ＧＣサイドカバ－Ｂ CCMH560
 10
1038.782961764843
 20
1297.999104848485
 30
0.0
  0
DIMENSION
  5
57D2
102
{ACAD_XDICTIONARY
360
57DF
102
}
102
{ACAD_REACTORS
330
57E9
102
}
330
1F
100
AcDbEntity
  8
AM_5 寸法線
100
AcDbDimension
  2
*D15
 10
817.0614437286307
 20
1105.499104848485
 30
0.0
 11
817.0614437286307
 21
1326.375332705662
 31
0.0
 70
   160
  1
%%c<>
 71
     5
 42
385.0
 73
     0
 74
     0
 75
     0
  3
SEISA$0
100
AcDbAlignedDimension
 13
1000.782961764843
 23
1490.499104848485
 33
0.0
 14
1000.782961764843
 24
1105.499104848485
 34
0.0
 50
90.0
100
AcDbRotatedDimension
1001
ACAD_DSTYLE_DIMINSPECT
1070
   396
1000
100%
1070
   395
1000

1070
   394
1070
    33
1070
   393
1070
     0
  0
DIMENSION
  5
5821
102
{ACAD_XDICTIONARY
360
5830
102
}
102
{ACAD_REACTORS
330
583C
330
7116
102
}
330
1F
100
AcDbEntity
  8
AM_5 寸法線
100
AcDbDimension
  2
*D16
 10
1049.282961764843
 20
1446.609117848485
 30
0.0
 11
984.432961764843
 21
1446.609117848485
 31
0.0
 70
   160
 71
     5
 42
6.5
 73
     0
 74
     0
 75
     0
  3
SEISA$0
100
AcDbAlignedDimension
 13
1042.782961764843
 23
1490.499104848485
 33
0.0
 14
1049.282961764843
 24
1490.999104848485
 34
0.0
100
AcDbRotatedDimension
  0
DIMENSION
  5
5886
102
{ACAD_XDICTIONARY
360
5893
102
}
102
{ACAD_REACTORS
330
589D
102
}
330
1F
100
AcDbEntity
  8
AM_5 寸法線
100
AcDbDimension
  2
*D17
 10
933.7829617648433
 20
1336.930620848485
 30
0.0
 11
1066.282961764843
 21
1356.430620848485
 31
0.0
 70
    32
 71
     5
 42
265.0
 73
     0
 74
     0
 75
     0
  3
SEISA$0
100
AcDbAlignedDimension
 13
1198.782961764843
 23
1297.999104848485
 33
0.0
 14
933.7829617648433
 24
1297.999104848485
 34
0.0
100
AcDbRotatedDimension
  0
DIMENSION
  5
589E
102
{ACAD_XDICTIONARY
360
58AD
102
}
102
{ACAD_REACTORS
330
58B9
102
}
330
1F
100
AcDbEntity
  8
AM_5 寸法線
100
AcDbDimension
  2
*D18
 10
1198.782961764843
 20
1336.930620848485
 30
0.0
 11
1254.22658958318
 21
1356.484539761259
 31
0.0
 70
   160
 71
     5
 42
22.0
 73
     0
 74
     0
 75
     0
  3
SEISA$0
100
AcDbAlignedDimension
 13
1220.782961764843
 23
1297.999104848485
 33
0.0
 14
1198.782961764843
 24
1297.999104848485
 34
0.0
100
AcDbRotatedDimension
1001
ACAD
1000
DSTYLE
1002
{
1070
   279
1070
     2
1002
}
  0
DIMENSION
  5
58BA
102
{ACAD_XDICTIONARY
360
58C7
102
}
102
{ACAD_REACTORS
330
58D1
102
}
330
1F
100
AcDbEntity
  8
AM_5 寸法線
100
AcDbDimension
  2
*D19
 10
1220.782961764843
 20
1336.930620848485
 30
0.0
 11
1353.282961764843
 21
1356.430620848485
 31
0.0
 70
    32
 71
     5
 42
265.0
 73
     0
 74
     0
 75
     0
  3
SEISA$0
100
AcDbAlignedDimension
 13
1485.782961764843
 23
1297.999104848485
 33
0.0
 14
1220.782961764843
 24
1297.999104848485
 34
0.0
100
AcDbRotatedDimension
  0
DIMENSION
  5
5957
102
{ACAD_XDICTIONARY
360
5964
102
}
102
{ACAD_REACTORS
330
596E
102
}
330
1F
100
AcDbEntity
  8
AM_5 寸法線
100
AcDbDimension
  2
*D20
 10
1605.758966764843
 20
1105.499104848485
 30
0.0
 11
1586.258966764843
 21
1297.999104848485
 31
0.0
 70
    32
  1
%%c<>
 71
     5
 42
385.0
 73
     0
 74
     0
 75
     0
  3
SEISA$0
100
AcDbAlignedDimension
 13
1418.782961764843
 23
1490.499104848485
 33
0.0
 14
1418.782961764843
 24
1105.499104848485
 34
0.0
 50
90.0
100
AcDbRotatedDimension
1001
ACAD
1000
DSTYLE
1002
{
1070
   279
1070
     0
1002
}
1001
ACAD_DSTYLE_DIMINSPECT
1070
   396
1000
100%
1070
   395
1000

1070
   394
1070
    33
1070
   393
1070
     0
  0
DIMENSION
  5
59EE
102
{ACAD_XDICTIONARY
360
59FB
102
}
102
{ACAD_REACTORS
330
5A05
102
}
330
1F
100
AcDbEntity
  8
AM_5 寸法線
100
AcDbDimension
  2
*D21
 10
1665.758966764843
 20
1061.999104848485
 30
0.0
 11
1665.758966764843
 21
1297.999104848486
 31
0.0
 70
   160
  1
%%c<>
 71
     5
 42
472.0
 73
     0
 74
     0
 75
     0
  3
SEISA$0
100
AcDbAlignedDimension
 13
1395.782961764843
 23
1533.999104848485
 33
0.0
 14
1395.782961764843
 24
1061.999104848485
 34
0.0
 50
90.0
100
AcDbRotatedDimension
1001
ACAD
1000
DSTYLE
1002
{
1070
   279
1070
     0
1002
}
1001
ACAD_DSTYLE_DIMINSPECT
1070
   396
1000
100%
1070
   395
1000

1070
   394
1070
    33
1070
   393
1070
     0
  0
DIMENSION
  5
5A06
102
{ACAD_XDICTIONARY
360
5A13
102
}
102
{ACAD_REACTORS
330
5A1D
102
}
330
1F
100
AcDbEntity
  8
AM_5 寸法線
100
AcDbDimension
  2
*D22
 10
1725.758966764843
 20
1017.999104848485
 30
0.0
 11
1725.758966764843
 21
1297.999104848485
 31
0.0
 70
   160
  1
%%c<>
 71
     5
 42
559.9999999999998
 73
     0
 74
     0
 75
     0
  3
SEISA$0
100
AcDbAlignedDimension
 13
1238.782961764843
 23
1577.999104848485
 33
0.0
 14
1238.782961764843
 24
1017.999104848485
 34
0.0
 50
90.0
100
AcDbRotatedDimension
1001
ACAD
1000
DSTYLE
1002
{
1070
   279
1070
     0
1002
}
1001
ACAD_DSTYLE_DIMINSPECT
1070
   396
1000
100%
1070
   395
1000

1070
   394
1070
    33
1070
   393
1070
     0
  0
DIMENSION
  5
5AA4
102
{ACAD_XDICTIONARY
360
5AB3
102
}
102
{ACAD_REACTORS
330
5ABF
102
}
330
1F
100
AcDbEntity
  8
AM_5 寸法線
100
AcDbDimension
  2
*D23
 10
1179.782961764843
 20
927.9991048484854
 30
0.0
 11
1125.482961764843
 21
947.4991048484852
 31
0.0
 70
    32
 71
     5
 42
30.0
 73
     0
 74
     0
 75
     0
  3
SEISA$0
100
AcDbAlignedDimension
 13
1209.782961764843
 23
1018.999104848485
 33
0.0
 14
1179.782961764843
 24
1018.999104848485
 34
0.0
100
AcDbRotatedDimension
1001
ACAD_DSTYLE_DIMINSPECT
1070
   396
1000
100%
1070
   395
1000

1070
   394
1070
    33
1070
   393
1070
     0
1001
ACAD
1000
DSTYLE
1002
{
1070
   173
1070
     1
1070
   342
1005
0
1070
   343
1005
3B58
1070
   344
1005
69
1002
}
  0
DIMENSION
  5
5AC0
102
{ACAD_XDICTIONARY
360
5ACF
102
}
102
{ACAD_REACTORS
330
5ADB
102
}
330
1F
100
AcDbEntity
  8
AM_5 寸法線
100
AcDbDimension
  2
*D24
 10
1239.782961764843
 20
927.9991048484854
 30
0.0
 11
1294.082961764843
 21
947.4991048484852
 31
0.0
 70
    32
 71
     5
 42
30.0
 73
     0
 74
     0
 75
     0
  3
SEISA$0
100
AcDbAlignedDimension
 13
1209.782961764843
 23
1018.999104848485
 33
0.0
 14
1239.782961764843
 24
1018.999104848485
 34
0.0
100
AcDbRotatedDimension
1001
ACAD_DSTYLE_DIMINSPECT
1070
   396
1000
100%
1070
   395
1000

1070
   394
1070
    33
1070
   393
1070
     0
1001
ACAD
1000
DSTYLE
1002
{
1070
   173
1070
     1
1070
   342
1005
0
1070
   343
1005
3B58
1070
   344
1005
69
1002
}
  0
DIMENSION
  5
5ADF
102
{ACAD_XDICTIONARY
360
5AEC
102
}
102
{ACAD_REACTORS
330
5AF6
102
}
330
1F
100
AcDbEntity
  8
AM_5 寸法線
100
AcDbDimension
  2
*D25
 10
1022.782961764843
 20
879.9991048484852
 30
0.0
 11
1209.782961764843
 21
899.4991048484854
 31
0.0
 70
    32
 71
     5
 42
374.0000000000002
 73
     0
 74
     0
 75
     0
  3
SEISA$0
100
AcDbAlignedDimension
 13
1396.782961764843
 23
1062.999104848485
 33
0.0
 14
1022.782961764843
 24
1062.999104848485
 34
0.0
100
AcDbRotatedDimension
  0
DIMENSION
  5
5BBF
102
{ACAD_XDICTIONARY
360
5BCC
102
}
102
{ACAD_REACTORS
330
5BD6
102
}
330
1F
100
AcDbEntity
  8
AM_5 寸法線
100
AcDbDimension
  2
*D26
 10
933.7829617648433
 20
831.9991048484851
 30
0.0
 11
1209.782961764843
 21
851.4991048484851
 31
0.0
 70
    32
 71
     5
 42
552.0
 73
     0
 74
     0
 75
     0
  3
SEISA$0
100
AcDbAlignedDimension
 13
1485.782961764843
 23
1112.499104848485
 33
0.0
 14
933.7829617648433
 24
1112.499104848485
 34
0.0
100
AcDbRotatedDimension
  0
TEXT
  5
6E5D
330
1F
100
AcDbEntity
  8
AM_6 文字
100
AcDbText
 10
1624.021384009169
 20
803.3736564967309
 30
0.0
 40
11.15616
  1
　
 41
0.9
  7
SEISA
100
AcDbText
  0
TEXT
  5
6E5E
330
1F
100
AcDbEntity
  8
AM_6 文字
100
AcDbText
 10
1634.826921837741
 20
793.2328929927307
 30
0.0
 40
24.000247008
  1
 
 41
0.1
  7
SEISA
100
AcDbText
  0
TEXT
  5
6E61
330
1F
100
AcDbEntity
  8
AM_6 文字
100
AcDbText
 10
1864.746946538541
 20
803.3808564967307
 30
0.0
 40
11.11296
  1
 
 41
0.9
  7
SEISA
100
AcDbText
  0
TEXT
  5
6E64
330
1F
100
AcDbEntity
  8
AM_6 文字
100
AcDbText
 10
1632.661384009169
 20
753.2328106567307
 30
0.0
 40
24.0
  1
 
 41
0.2
  7
SEISA
100
AcDbText
  0
TEXT
  5
6E66
330
1F
100
AcDbEntity
  8
AM_6 文字
100
AcDbText
 10
1776.935669723455
 20
753.2328106567307
 30
0.0
 40
24.0
  1
　
 41
0.7
  7
SEISA
100
AcDbText
  0
TEXT
  5
6E67
330
1F
100
AcDbEntity
  8
AM_6 文字
100
AcDbText
 10
1797.095669723455
 20
753.2328106567307
 30
0.0
 40
24.0
  1
　　
 41
0.9
  7
SEISA
100
AcDbText
  0
TEXT
  5
6E68
330
1F
100
AcDbEntity
  8
AM_6 文字
100
AcDbText
 10
1848.935669723455
 20
753.2328106567307
 30
0.0
 40
24.0
  1
 
 41
0.6
  7
SEISA
100
AcDbText
  0
MTEXT
  5
6FB3
330
1F
100
AcDbEntity
  8
AM_6 文字
100
AcDbMText
 10
1518.297073524093
 20
982.4895538205394
 30
0.0
 40
21.0
 41
486.4308411762613
 46
78.58143603386221
 71
     1
 72
     5
  1
{\W0.6;TYPE:CCM560/CCMH560\PSHAFT DIA:MAX/MIN φ280/φ190}
  7
SEISA
 73
     1
 44
1.0
  0
DIMENSION
  5
7108
102
{ACAD_XDICTIONARY
360
7115
102
}
102
{ACAD_REACTORS
330
7116
330
7141
102
}
330
1F
100
AcDbEntity
  8
AM_5 寸法線
100
AcDbDimension
  2
*D28
 10
1124.282961764843
 20
1446.609117848487
 30
0.0
 11
1086.782961764843
 21
1466.109117848487
 31
0.0
 70
    32
 71
     5
 42
75.0
 73
     0
 74
     0
 75
     0
  3
SEISA$0
100
AcDbAlignedDimension
 13
1049.282961764843
 23
1490.999104848485
 33
0.0
 14
1124.282961764843
 24
1488.999104848485
 34
0.0
 50
0.0000000000001132
100
AcDbRotatedDimension
1001
ACAD_DSTYLE_DIMINSPECT
1070
   396
1000
100%
1070
   395
1000

1070
   394
1070
    33
1070
   393
1070
     0
  0
DIMENSION
  5
7132
102
{ACAD_XDICTIONARY
360
7140
102
}
102
{ACAD_REACTORS
330
7141
102
}
330
1F
100
AcDbEntity
  8
AM_5 寸法線
100
AcDbDimension
  2
*D29
 10
1198.782961764843
 20
1446.609117848487
 30
0.0
 11
1162.009980538758
 21
1465.609684978191
 31
0.0
 70
   160
 71
     5
 42
74.5
 73
     0
 74
     0
 75
     0
  3
SEISA$0
100
AcDbAlignedDimension
 13
1124.282961764843
 23
1488.999104848485
 33
0.0
 14
1198.782961764843
 24
1487.499104848485
 34
0.0
 50
0.0000000000001132
100
AcDbRotatedDimension
1001
ACAD_DSTYLE_DIMINSPECT
1070
   396
1000
100%
1070
   395
1000

1070
   394
1070
    33
1070
   393
1070
     0
1001
ACAD
1000
DSTYLE
1002
{
1070
   279
1070
     2
1002
}
  0
ENDSEC
  0
SECTION
  2
OBJECTS
  0
DICTIONARY
  5
C
330
0
100
AcDbDictionary
281
     1
  3
ACAD_COLOR
350
C5
  3
ACAD_GROUP
350
D
  3
ACAD_LAYOUT
350
1A
  3
ACAD_MATERIAL
350
C4
  3
ACAD_MLEADERSTYLE
350
2D5
  3
ACAD_MLINESTYLE
350
17
  3
ACAD_PLOTSETTINGS
350
19
  3
ACAD_PLOTSTYLENAME
350
E
  3
ACAD_SCALELIST
350
2B3
  3
ACAD_TABLESTYLE
350
121
  3
ACAD_VISUALSTYLE
350
27F
  3
ACDB_RECOMPOSE_DATA
350
2F7
  3
AcDbVariableDictionary
350
34
  3
AcmDictionary
350
49
  3
AMG
350
2B
  3
AMGSNAPSETTINGS
350
1DE
  0
DICTIONARY
  5
BF
330
2
100
AcDbDictionary
280
     1
281
     1
  3
ACAD_LAYERSTATES
360
3C2B
  3
AMLAYER_GROUPCOLORS
360
C0
  0
DICTIONARY
  5
29F7
330
10
100
AcDbDictionary
280
     1
281
     1
  3
ADSK_XREC_LAYER_RECONCILED
360
29F8
  0
DICTIONARY
  5
29F9
330
81
100
AcDbDictionary
280
     1
281
     1
  3
ADSK_XREC_LAYER_RECONCILED
360
29FA
  0
DICTIONARY
  5
82
330
1F
100
AcDbDictionary
280
     1
281
     1
  3
ACAD_SORTENTS
360
A41
  0
DICTIONARY
  5
38E0
330
38DF
100
AcDbDictionary
280
     1
281
     1
  3
ACAD_SORTENTS
360
6A95
  0
DICTIONARY
  5
4F6C
330
4EB3
100
AcDbDictionary
280
     1
281
     1
  3
ACAD_SORTENTS
360
66A0
  0
DICTIONARY
  5
50CB
330
5039
100
AcDbDictionary
280
     1
281
     1
  3
ACAD_SORTENTS
360
670F
  0
DICTIONARY
  5
676A
330
5122
100
AcDbDictionary
280
     1
281
     1
  3
ACAD_SORTENTS
360
728F
  0
DICTIONARY
  5
5218
330
5199
100
AcDbDictionary
280
     1
281
     1
  3
ACAD_SORTENTS
360
7248
  0
DICTIONARY
  5
53C7
330
5327
100
AcDbDictionary
280
     1
281
     1
  3
ACAD_SORTENTS
360
6897
  0
DICTIONARY
  5
552A
330
5470
100
AcDbDictionary
280
     1
281
     1
  3
ACAD_SORTENTS
360
6916
  0
DICTIONARY
  5
5647
330
55A1
100
AcDbDictionary
280
     1
281
     1
  3
ACAD_SORTENTS
360
698B
  0
DICTIONARY
  5
6AC4
330
6A78
100
AcDbDictionary
280
     1
281
     1
  3
ACAD_SORTENTS
360
6AC5
  0
DICTIONARY
  5
57DF
330
57D2
100
AcDbDictionary
280
     1
281
     1
  3
ACAD_DIMASSOC
360
57E9
  0
DICTIONARY
  5
5830
330
5821
100
AcDbDictionary
280
     1
281
     1
  3
ACAD_DIMASSOC
360
583C
  0
DICTIONARY
  5
5893
330
5886
100
AcDbDictionary
280
     1
281
     1
  3
ACAD_DIMASSOC
360
589D
  0
DICTIONARY
  5
58AD
330
589E
100
AcDbDictionary
280
     1
281
     1
  3
ACAD_DIMASSOC
360
58B9
  0
DICTIONARY
  5
58C7
330
58BA
100
AcDbDictionary
280
     1
281
     1
  3
ACAD_DIMASSOC
360
58D1
  0
DICTIONARY
  5
5964
330
5957
100
AcDbDictionary
280
     1
281
     1
  3
ACAD_DIMASSOC
360
596E
  0
DICTIONARY
  5
59FB
330
59EE
100
AcDbDictionary
280
     1
281
     1
  3
ACAD_DIMASSOC
360
5A05
  0
DICTIONARY
  5
5A13
330
5A06
100
AcDbDictionary
280
     1
281
     1
  3
ACAD_DIMASSOC
360
5A1D
  0
DICTIONARY
  5
5AB3
330
5AA4
100
AcDbDictionary
280
     1
281
     1
  3
ACAD_DIMASSOC
360
5ABF
  0
DICTIONARY
  5
5ACF
330
5AC0
100
AcDbDictionary
280
     1
281
     1
  3
ACAD_DIMASSOC
360
5ADB
  0
DICTIONARY
  5
5AEC
330
5ADF
100
AcDbDictionary
280
     1
281
     1
  3
ACAD_DIMASSOC
360
5AF6
  0
DICTIONARY
  5
5BCC
330
5BBF
100
AcDbDictionary
280
     1
281
     1
  3
ACAD_DIMASSOC
360
5BD6
  0
DICTIONARY
  5
7115
330
7108
100
AcDbDictionary
280
     1
281
     1
  3
ACAD_DIMASSOC
360
7116
  0
DICTIONARY
  5
7140
330
7132
100
AcDbDictionary
280
     1
281
     1
  3
ACAD_DIMASSOC
360
7141
  0
DICTIONARY
  5
C5
102
{ACAD_REACTORS
330
C
102
}
330
C
100
AcDbDictionary
281
     1
  0
DICTIONARY
  5
D
102
{ACAD_REACTORS
330
C
102
}
330
C
100
AcDbDictionary
281
     1
  0
DICTIONARY
  5
1A
102
{ACAD_REACTORS
330
C
102
}
330
C
100
AcDbDictionary
281
     1
  3
Model
350
22
  3
レイアウト1
350
1E
  3
レイアウト2
350
26
  0
DICTIONARY
  5
C4
102
{ACAD_REACTORS
330
C
102
}
330
C
100
AcDbDictionary
281
     1
  3
ByBlock
350
27D
  3
ByLayer
350
27C
  3
Global
350
27E
  0
DICTIONARY
  5
2D5
102
{ACAD_REACTORS
330
C
102
}
330
C
100
AcDbDictionary
281
     1
  3
Standard
350
2D6
  0
DICTIONARY
  5
17
102
{ACAD_REACTORS
330
C
102
}
330
C
100
AcDbDictionary
281
     1
  3
Standard
350
18
  0
DICTIONARY
  5
19
102
{ACAD_REACTORS
330
C
102
}
330
C
100
AcDbDictionary
281
     1
  3
SEISA基本
350
1C7E
  0
ACDBDICTIONARYWDFLT
  5
E
102
{ACAD_REACTORS
330
C
102
}
330
C
100
AcDbDictionary
281
     1
  3
Normal
350
F
100
AcDbDictionaryWithDefault
340
F
  0
DICTIONARY
  5
2B3
102
{ACAD_REACTORS
330
C
102
}
330
C
100
AcDbDictionary
281
     1
  3
*A1
350
2A04
  3
*A2
350
6FA8
  3
*A3
350
6FA9
  3
*A4
350
6FAA
  3
A0
350
2B4
  3
A1
350
2B5
  3
A2
350
2B6
  3
A3
350
2B7
  3
A4
350
2B8
  3
A5
350
2B9
  3
A6
350
2BA
  3
A7
350
2BB
  3
A8
350
2BC
  3
A9
350
2BD
  3
B0
350
2BE
  3
B1
350
2BF
  3
B2
350
2C0
  3
B3
350
2C1
  3
B4
350
2C2
  3
B5
350
2C3
  3
B6
350
2C4
  3
B7
350
2C5
  3
B8
350
2C6
  3
B9
350
2C7
  3
C0
350
2C8
  3
C1
350
2C9
  3
C2
350
2CA
  3
C3
350
2CB
  3
C4
350
2CC
  3
C5
350
2CD
  3
C6
350
2CE
  3
C7
350
2CF
  3
C8
350
2D0
  3
C9
350
2D1
  3
D0
350
2D2
  3
D1
350
2D3
  3
D2
350
2D4
  0
DICTIONARY
  5
121
102
{ACAD_REACTORS
330
C
102
}
330
C
100
AcDbDictionary
281
     1
  3
Standard
350
122
  0
DICTIONARY
  5
27F
102
{ACAD_REACTORS
330
C
102
}
330
C
100
AcDbDictionary
281
     1
  3
2dWireframe
350
285
  3
3D Hidden
350
287
  3
3dWireframe
350
286
  3
Basic
350
284
  3
Brighten
350
28B
  3
ColorChange
350
28F
  3
Conceptual
350
288
  3
Dim
350
28A
  3
Facepattern
350
28E
  3
Flat
350
280
  3
FlatWithEdges
350
281
  3
Gouraud
350
282
  3
GouraudWithEdges
350
283
  3
Linepattern
350
28D
  3
Realistic
350
289
  3
Thicken
350
28C
  0
XRECORD
  5
2F7
102
{ACAD_REACTORS
330
C
102
}
330
C
100
AcDbXrecord
280
     1
 90
        1
330
122
  0
DICTIONARY
  5
34
102
{ACAD_REACTORS
330
C
102
}
330
C
100
AcDbDictionary
281
     1
  3
CANNOSCALE
350
2FA
  3
CMLEADERSTYLE
350
2F8
  3
CTABLESTYLE
350
140
  3
DIMASSOC
350
AC
  3
INDEXCTL
350
35
  3
LAYEREVAL
350
64CF
  3
LAYERNOTIFY
350
64D0
  3
LIGHTINGUNITS
350
2FB
  3
MSLTSCALE
350
2F9
  0
DICTIONARY
  5
49
102
{ACAD_REACTORS
330
C
102
}
330
C
100
AcDbDictionary
281
     1
  3
AcmBOM
350
161B
  3
AcmStdDictionary
350
4A
  3
AMDTSECTSYM_ARROWCOLOR
350
12B
  0
DICTIONARY
  5
2B
102
{ACAD_REACTORS
330
C
102
}
330
C
100
AcDbDictionary
281
     1
  0
DICTIONARY
  5
1DE
102
{ACAD_REACTORS
330
C
102
}
330
C
100
AcDbDictionary
281
     1
  0
DICTIONARY
  5
3C2B
102
{ACAD_REACTORS
330
BF
102
}
330
BF
100
AcDbDictionary
281
     1
  0
DICTIONARY
  5
C0
102
{ACAD_REACTORS
330
BF
102
}
330
BF
100
AcDbDictionary
280
     1
281
     1
  0
XRECORD
  5
29F8
102
{ACAD_REACTORS
330
29F7
102
}
330
29F7
100
AcDbXrecord
280
     1
290
     1
  0
XRECORD
  5
29FA
102
{ACAD_REACTORS
330
29F9
102
}
330
29F9
100
AcDbXrecord
280
     1
290
     1
  0
SORTENTSTABLE
  5
A41
102
{ACAD_REACTORS
330
82
102
}
330
82
100
AcDbSortentsTable
330
1F
331
57D2
  5
583D
331
46D5
  5
46D5
331
59EE
  5
5ADF
331
6E61
  5
6D5F
331
54AC
  5
56FE
331
6E5D
  5
653C
331
5AC0
  5
5BA7
331
6E66
  5
6E5F
331
535A
  5
56FC
331
55D6
  5
5726
331
470F
  5
470F
331
5AA4
  5
5B8F
331
5066
  5
55D6
331
589E
  5
59EE
331
51C1
  5
5664
331
5957
  5
5AA3
331
58BA
  5
5A06
331
6E5E
  5
69AE
331
4714
  5
4714
331
5BBF
  5
5C83
331
6E67
  5
6E60
331
47A1
  5
47A1
331
5886
  5
5957
331
5821
  5
58BA
331
47B2
  5
47B2
331
462F
  5
462F
331
4715
  5
4715
331
5ADF
  5
5BBF
331
6E68
  5
6E61
331
6E64
  5
6E5D
331
5149
  5
5663
331
5A06
  5
5AF7
331
471E
  5
471E
331
47FC
  5
47FC
331
5090
  5
5662
  0
SORTENTSTABLE
  5
6A95
102
{ACAD_REACTORS
330
38E0
102
}
330
38E0
100
AcDbSortentsTable
330
38DF
  0
SORTENTSTABLE
  5
66A0
102
{ACAD_REACTORS
330
4F6C
102
}
330
4F6C
100
AcDbSortentsTable
330
4EB3
331
4EB6
  5
4EB7
331
4ECF
  5
4ED0
331
4ED3
  5
4ED4
331
4EE2
  5
4EE3
331
4ED7
  5
4ED8
331
4EE6
  5
4EE7
331
4EDB
  5
4EDC
331
4EC2
  5
4EC3
331
4EDF
  5
4EE0
331
4EC6
  5
4EC7
331
61DE
  5
4EB6
331
4EBB
  5
4EBC
331
4EEA
  5
4EEB
331
4ECA
  5
4ECB
331
4EBF
  5
4EC0
331
4EEE
  5
61DE
331
4ECE
  5
4ECF
331
4ED2
  5
4ED3
331
4ED6
  5
4ED7
331
4EE1
  5
4EE2
331
4EE5
  5
4EE6
331
4EDA
  5
4EDB
331
4EC1
  5
4EC2
331
4EDE
  5
4EDF
331
4EC5
  5
4EC6
331
4EBA
  5
4EBB
331
4EC9
  5
4ECA
331
4EBE
  5
4EBF
331
4EE9
  5
4EEA
331
4ECD
  5
4ECE
331
4EED
  5
4EEE
331
4ED1
  5
4ED2
331
4EE0
  5
4EE1
331
4ED5
  5
4ED6
331
4EE4
  5
4EE5
331
4ED9
  5
4EDA
331
4EC0
  5
4EC1
331
4EDD
  5
4EDE
331
4EC4
  5
4EC5
331
4EB9
  5
4EBA
331
4EE8
  5
4EE9
331
4EC8
  5
4EC9
331
4EBD
  5
4EBE
331
4EEC
  5
4EED
331
4ECC
  5
4ECD
331
4EB7
  5
4EB8
331
4ED0
  5
4ED1
331
4ED4
  5
4ED5
331
4EE3
  5
4EE4
331
4ED8
  5
4ED9
331
4EE7
  5
4EE8
331
4EDC
  5
4EDD
331
4EC3
  5
4EC4
331
4EB8
  5
4EB9
331
4EC7
  5
4EC8
331
4EBC
  5
4EBD
331
4ECB
  5
4ECC
331
4EEB
  5
4EEC
  0
SORTENTSTABLE
  5
670F
102
{ACAD_REACTORS
330
50CB
102
}
330
50CB
100
AcDbSortentsTable
330
5039
331
50A8
  5
670C
331
5054
  5
505A
331
5053
  5
5059
331
5047
  5
504D
331
5052
  5
5058
331
5046
  5
504C
331
5065
  5
50AA
331
5051
  5
5057
331
5045
  5
504B
331
5050
  5
5056
331
5044
  5
504A
331
5063
  5
50A9
331
504F
  5
5055
331
5043
  5
5049
331
504E
  5
5054
331
5062
  5
50A8
331
5042
  5
5048
331
504D
  5
5053
331
5061
  5
50A7
331
5041
  5
5047
331
50A7
  5
670B
331
504C
  5
5052
331
5060
  5
50A6
331
50A6
  5
670A
331
5040
  5
5046
331
504B
  5
5051
331
50A5
  5
6709
331
504A
  5
5050
331
5049
  5
504F
331
5048
  5
504E
331
670E
  5
5041
331
670D
  5
5040
331
670C
  5
503F
331
670B
  5
503E
331
505F
  5
50A5
331
670A
  5
503D
331
505E
  5
5065
331
6709
  5
503C
331
505D
  5
5063
331
505C
  5
5062
331
503F
  5
5045
331
505B
  5
5061
331
503E
  5
5044
331
505A
  5
5060
331
503D
  5
5043
331
5059
  5
505F
331
5058
  5
505E
331
503C
  5
5042
331
5057
  5
505D
331
50AA
  5
670E
331
5056
  5
505C
331
50A9
  5
670D
331
5055
  5
505B
  0
SORTENTSTABLE
  5
728F
102
{ACAD_REACTORS
330
676A
102
}
330
676A
100
AcDbSortentsTable
330
5122
331
5127
  5
5129
331
5128
  5
512A
331
5130
  5
5132
331
513F
  5
5141
331
5126
  5
5128
331
513E
  5
5140
331
512F
  5
5131
331
5137
  5
513B
331
70B6
  5
5126
331
5125
  5
5127
331
728E
  5
5125
331
513D
  5
513F
331
512E
  5
5130
331
5145
  5
728E
331
5136
  5
5139
331
513C
  5
513E
331
512D
  5
512F
331
5144
  5
70B6
331
5135
  5
5137
331
513B
  5
513D
331
512C
  5
512E
331
5143
  5
5145
331
5134
  5
5136
331
512B
  5
512D
331
5142
  5
5144
331
5133
  5
5135
331
5139
  5
513C
331
512A
  5
512C
331
5141
  5
5143
331
5132
  5
5134
331
5129
  5
512B
331
5140
  5
5142
331
5131
  5
5133
  0
SORTENTSTABLE
  5
7248
102
{ACAD_REACTORS
330
5218
102
}
330
5218
100
AcDbSortentsTable
330
5199
331
519F
  5
51A1
331
51A9
  5
51AB
331
51B6
  5
51B8
331
51A5
  5
51A7
331
51BB
  5
51BD
331
51A1
  5
51A3
331
51AE
  5
51B0
331
7014
  5
519D
331
51AA
  5
51AC
331
519C
  5
519E
331
51B7
  5
51B9
331
51A6
  5
51A8
331
51B3
  5
51B5
331
51BC
  5
7014
331
51A2
  5
51A4
331
51B8
  5
51BA
331
51AF
  5
51B3
331
7015
  5
519C
331
51AB
  5
51AD
331
519D
  5
519F
331
51A7
  5
51A9
331
51B4
  5
51B6
331
51BD
  5
7015
331
51A3
  5
51A5
331
51B9
  5
51BB
331
51B0
  5
51B4
331
51AC
  5
51AE
331
51A8
  5
51AA
331
519E
  5
51A0
331
51B5
  5
51B7
331
51A4
  5
51A6
331
51BA
  5
51BC
331
51A0
  5
51A2
331
51AD
  5
51AF
  0
SORTENTSTABLE
  5
6897
102
{ACAD_REACTORS
330
53C7
102
}
330
53C7
100
AcDbSortentsTable
330
5327
  0
SORTENTSTABLE
  5
6916
102
{ACAD_REACTORS
330
552A
102
}
330
552A
100
AcDbSortentsTable
330
5470
331
5486
  5
5487
331
5498
  5
549B
331
5485
  5
5486
331
5484
  5
5485
331
5483
  5
5484
331
5482
  5
5483
331
5481
  5
5482
331
5480
  5
5481
331
547F
  5
5480
331
547E
  5
547F
331
547D
  5
547E
331
547C
  5
547D
331
547B
  5
547C
331
547A
  5
547B
331
5479
  5
547A
331
54AB
  5
5527
331
5478
  5
5479
331
54AA
  5
5526
331
54A9
  5
54AB
331
54A8
  5
54AA
331
5477
  5
5478
331
5529
  5
59EC
331
5528
  5
5529
331
5527
  5
5494
331
5526
  5
5528
331
5497
  5
5499
331
5496
  5
5498
331
5495
  5
5497
331
54A7
  5
54A9
331
54A6
  5
54A8
331
5494
  5
5496
331
5493
  5
5495
331
54A5
  5
54A7
331
54A4
  5
54A6
331
5492
  5
5493
331
5491
  5
5492
331
54A3
  5
54A5
331
54A2
  5
54A4
331
5490
  5
5491
331
548F
  5
5490
331
54A1
  5
54A3
331
54A0
  5
54A2
331
548E
  5
548F
331
548D
  5
548E
331
549F
  5
54A1
331
549E
  5
54A0
331
548C
  5
548D
331
548B
  5
548C
331
549D
  5
549F
331
549C
  5
549E
331
548A
  5
548B
331
5489
  5
548A
331
549B
  5
549D
331
59EC
  5
5477
331
5488
  5
5489
331
5499
  5
549C
331
5487
  5
5488
  0
SORTENTSTABLE
  5
698B
102
{ACAD_REACTORS
330
5647
102
}
330
5647
100
AcDbSortentsTable
330
55A1
331
5642
  5
55CB
331
55CC
  5
55CD
331
55D5
  5
5642
331
55D3
  5
55D4
331
55D1
  5
55D2
331
55CD
  5
55CE
331
55CB
  5
55CC
331
55D4
  5
55D5
331
5B7C
  5
5646
331
55D2
  5
55D3
331
55D0
  5
55D1
331
5646
  5
5B7C
331
55CE
  5
55D0
  0
SORTENTSTABLE
  5
6AC5
102
{ACAD_REACTORS
330
6AC4
102
}
330
6AC4
100
AcDbSortentsTable
330
6A78
  0
DIMASSOC
  5
57E9
102
{ACAD_REACTORS
330
57DF
102
}
330
57DF
100
AcDbDimAssoc
330
57D2
 90
        3
 70
     0
 71
     0
  1
AcDbOsnapPointRef
 72
    13
331
51C1
331
51AB
 73
     2
 91
        0
 40
0.0
 10
0.0
 20
0.0
 30
2.000000000000000E+50
 75
     0
  1
AcDbOsnapPointRef
 72
    13
331
51C1
331
519C
 73
     2
 91
        0
 40
0.0
 10
0.0
 20
0.0
 30
2.000000000000000E+50
 75
     0
  0
DIMASSOC
  5
583C
102
{ACAD_REACTORS
330
5830
102
}
330
5830
100
AcDbDimAssoc
330
5821
 90
        3
 70
     0
 71
     0
  1
AcDbOsnapPointRef
 72
     1
331
55D6
331
55CC
 73
     2
 91
        0
 40
1.0
 10
0.0
 20
0.0
 30
2.000000000000000E+50
 75
     0
  1
AcDbOsnapPointRef
 72
    13
331
51C1
331
51B3
 73
     2
 91
        0
 40
0.0
 10
0.0
 20
0.0
 30
2.000000000000000E+50
 75
     0
  0
DIMASSOC
  5
589D
102
{ACAD_REACTORS
330
5893
102
}
330
5893
100
AcDbDimAssoc
330
5886
 90
        3
 70
     0
 71
     0
  1
AcDbOsnapPointRef
 72
     1
331
51C1
331
51A3
 73
     2
 91
        0
 40
1.0
 10
0.0
 20
0.0
 30
2.000000000000000E+50
 75
     0
  1
AcDbOsnapPointRef
 72
     2
331
51C1
331
519E
 73
     2
 91
        0
 40
0.5
 10
0.0
 20
0.0
 30
0.0
 75
     0
  0
DIMASSOC
  5
58B9
102
{ACAD_REACTORS
330
58AD
102
}
330
58AD
100
AcDbDimAssoc
330
589E
 90
        3
 70
     0
 71
     0
  1
AcDbOsnapPointRef
 72
     1
331
5149
331
512F
 73
     2
 91
        0
 40
1.0
 10
0.0
 20
0.0
 30
2.000000000000000E+50
 75
     0
  1
AcDbOsnapPointRef
 72
     1
331
51C1
331
51A3
 73
     2
 91
        0
 40
1.0
 10
0.0
 20
0.0
 30
2.000000000000000E+50
 75
     0
  0
DIMASSOC
  5
58D1
102
{ACAD_REACTORS
330
58C7
102
}
330
58C7
100
AcDbDimAssoc
330
58BA
 90
        3
 70
     0
 71
     0
  1
AcDbOsnapPointRef
 72
     2
331
5149
331
5127
 73
     2
 91
        0
 40
0.5
 10
0.0
 20
0.0
 30
0.0
 75
     0
  1
AcDbOsnapPointRef
 72
     1
331
5149
331
512F
 73
     2
 91
        0
 40
1.0
 10
0.0
 20
0.0
 30
2.000000000000000E+50
 75
     0
  0
DIMASSOC
  5
596E
102
{ACAD_REACTORS
330
5964
102
}
330
5964
100
AcDbDimAssoc
330
5957
 90
        3
 70
     0
 71
     0
  1
AcDbOsnapPointRef
 72
    13
331
5149
331
513E
 73
     2
 91
        0
 40
0.0
 10
0.0
 20
0.0
 30
2.000000000000000E+50
 75
     0
  1
AcDbOsnapPointRef
 72
    13
331
5149
331
5125
 73
     2
 91
        0
 40
0.0
 10
0.0
 20
0.0
 30
2.000000000000000E+50
 75
     0
  0
DIMASSOC
  5
5A05
102
{ACAD_REACTORS
330
59FB
102
}
330
59FB
100
AcDbDimAssoc
330
59EE
 90
        3
 70
     0
 71
     0
  1
AcDbOsnapPointRef
 72
     1
331
54AC
331
54A9
 73
     2
 91
        0
 40
0.9999999999999998
 10
0.0
 20
0.0
 30
2.000000000000000E+50
 75
     0
  1
AcDbOsnapPointRef
 72
     8
331
54AC
331
5475
 73
     2
 91
        0
 40
0.9999999999999847
 10
0.0
 20
0.0
 30
0.0
 75
     1
  1
AcDbOsnapPointRef
 72
     1
331
54AC
331
54A9
 73
     2
 91
        0
 40
0.9999999999999998
 10
0.0
 20
0.0
 30
2.000000000000000E+50
 75
     0
  0
DIMASSOC
  5
5A1D
102
{ACAD_REACTORS
330
5A13
102
}
330
5A13
100
AcDbDimAssoc
330
5A06
 90
        3
 70
     0
 71
     0
  1
AcDbOsnapPointRef
 72
     1
331
5090
331
4EC2
 73
     2
 91
        0
 40
1.0
 10
0.0
 20
0.0
 30
2.000000000000000E+50
 75
     0
  1
AcDbOsnapPointRef
 72
     8
331
5090
331
4EBB
 73
     2
 91
        0
 40
1.0
 10
0.0
 20
0.0
 30
0.0
 75
     1
  1
AcDbOsnapPointRef
 72
     1
331
5090
331
4EC2
 73
     2
 91
        0
 40
1.0
 10
0.0
 20
0.0
 30
2.000000000000000E+50
 75
     0
  0
DIMASSOC
  5
5ABF
102
{ACAD_REACTORS
330
5AB3
102
}
330
5AB3
100
AcDbDimAssoc
330
5AA4
 90
        3
 70
     0
 71
     0
  1
AcDbOsnapPointRef
 72
     1
331
5090
331
4EBA
 73
     2
 91
        0
 40
1.0
 10
0.0
 20
0.0
 30
2.000000000000000E+50
 75
     0
  1
AcDbOsnapPointRef
 72
    13
331
5066
331
503C
 73
     2
 91
        0
 40
0.0
 10
0.0
 20
0.0
 30
2.000000000000000E+50
 75
     0
  0
DIMASSOC
  5
5ADB
102
{ACAD_REACTORS
330
5ACF
102
}
330
5ACF
100
AcDbDimAssoc
330
5AC0
 90
        3
 70
     0
 71
     0
  1
AcDbOsnapPointRef
 72
     1
331
5090
331
4EBA
 73
     2
 91
        0
 40
1.0
 10
0.0
 20
0.0
 30
2.000000000000000E+50
 75
     0
  1
AcDbOsnapPointRef
 72
     8
331
5090
331
4EB9
 73
     2
 91
        0
 40
0.0
 10
0.0
 20
0.0
 30
0.0
 75
     1
  1
AcDbOsnapPointRef
 72
     1
331
5090
331
4EBA
 73
     2
 91
        0
 40
1.0
 10
0.0
 20
0.0
 30
2.000000000000000E+50
 75
     0
  0
DIMASSOC
  5
5AF6
102
{ACAD_REACTORS
330
5AEC
102
}
330
5AEC
100
AcDbDimAssoc
330
5ADF
 90
        2
 70
     0
 71
     0
  1
AcDbOsnapPointRef
 72
    13
331
55D6
331
55A6
 73
     2
 91
        0
 40
0.0
 10
0.0
 20
0.0
 30
2.000000000000000E+50
 75
     0
  0
DIMASSOC
  5
5BD6
102
{ACAD_REACTORS
330
5BCC
102
}
330
5BCC
100
AcDbDimAssoc
330
5BBF
 90
        3
 70
     0
 71
     0
  1
AcDbOsnapPointRef
 72
    13
331
5149
331
5127
 73
     2
 91
        0
 40
0.0
 10
0.0
 20
0.0
 30
2.000000000000000E+50
 75
     0
  1
AcDbOsnapPointRef
 72
    13
331
51C1
331
519E
 73
     2
 91
        0
 40
0.0
 10
0.0
 20
0.0
 30
2.000000000000000E+50
 75
     0
  0
DIMASSOC
  5
7116
102
{ACAD_REACTORS
330
7115
102
}
330
7115
100
AcDbDimAssoc
330
7108
 90
        3
 70
     0
 71
     0
  1
AcDbOsnapPointRef
 72
     4
331
5821
331
63A3
 73
     0
 91
        0
 40
0.0
 10
0.0
 20
0.0
 30
0.0
 75
     0
  1
AcDbOsnapPointRef
 72
     1
331
51C1
331
51B6
 73
     0
 91
        0
 40
0.0
 10
0.0
 20
0.0
 30
2.000000000000000E+50
 75
     0
  0
DIMASSOC
  5
7141
102
{ACAD_REACTORS
330
7140
102
}
330
7140
100
AcDbDimAssoc
330
7132
 90
        3
 70
     0
 71
     0
  1
AcDbOsnapPointRef
 72
     4
331
7108
331
7130
 73
     0
 91
        0
 40
0.0
 10
0.0
 20
0.0
 30
0.0
 75
     0
  1
AcDbOsnapPointRef
 72
     1
331
51C1
331
51BA
 73
     0
 91
        0
 40
0.0
 10
0.0
 20
0.0
 30
2.000000000000000E+50
 75
     0
  0
LAYOUT
  5
22
102
{ACAD_REACTORS
330
1A
102
}
330
1A
100
AcDbPlotSettings
  1

  2
KONICA MINOLTA 501 PCL
  4
A4
  6

 40
5.027082920074462
 41
5.027085781097412
 42
5.027069091796875
 43
5.027069091796875
 44
209.9733276367186
 45
296.9259948730469
 46
0.0
 47
4.615052964475125
 48
0.0
 49
0.0
140
0.0
141
0.0
142
1.0
143
3.752537289390696
 70
 11956
 72
     1
 73
     1
 74
     1
  7
SEISA.ctb
 75
     0
147
0.2664863591968119
 76
     0
 77
     2
 78
   300
148
-787.0385821509179
149
-827.9165112354057
100
AcDbLayout
  1
Model
 70
     1
 71
     0
 10
0.0
 20
0.0
 11
12.0
 21
9.0
 12
0.0
 22
0.0
 32
0.0
 14
0.0
 24
0.0
 34
0.0
 15
0.0
 25
0.0
 35
0.0
146
0.0
 13
0.0
 23
0.0
 33
0.0
 16
1.0
 26
0.0
 36
0.0
 17
0.0
 27
1.0
 37
0.0
 76
     0
330
1F
331
27A
1001
ACAD_PSEXT
1000
KONICA MINOLTA 501 PCL
1000
KONICA MINOLTA 501/421/361PCL
1000
IP_192.168.20.231_(1)
1000

1070
     0
  0
LAYOUT
  5
1E
102
{ACAD_REACTORS
330
1A
102
}
330
1A
100
AcDbPlotSettings
  1

  2
none_device
  4
Letter_(8.50_x_11.00_Inches)
  6

 40
6.349999904632567
 41
6.349999904632567
 42
6.350006103515625
 43
6.350006103515625
 44
215.8999938964844
 45
279.3999938964844
 46
0.0
 47
0.0
 48
0.0
 49
0.0
140
0.0
141
0.0
142
1.0
143
1.0
 70
 15024
 72
     1
 73
     1
 74
     5
  7
SEISA.ctb
 75
    16
147
1.0
 76
     0
 77
     2
 78
   300
148
0.0
149
0.0
100
AcDbLayout
  1
レイアウト1
 70
     1
 71
     1
 10
0.0
 20
0.0
 11
420.0
 21
297.0
 12
0.0
 22
0.0
 32
0.0
 14
1.000000000000000E+20
 24
1.000000000000000E+20
 34
1.000000000000000E+20
 15
-1.000000000000000E+20
 25
-1.000000000000000E+20
 35
-1.000000000000000E+20
146
0.0
 13
0.0
 23
0.0
 33
0.0
 16
1.0
 26
0.0
 36
0.0
 17
0.0
 27
1.0
 37
0.0
 76
     0
330
1B
  0
LAYOUT
  5
26
102
{ACAD_REACTORS
330
1A
102
}
330
1A
100
AcDbPlotSettings
  1

  2
none_device
  4
Letter_(8.50_x_11.00_Inches)
  6

 40
6.349999904632567
 41
6.349999904632567
 42
6.350006103515625
 43
6.350006103515625
 44
215.8999938964844
 45
279.3999938964844
 46
0.0
 47
0.0
 48
0.0
 49
0.0
140
0.0
141
0.0
142
1.0
143
1.0
 70
 15024
 72
     1
 73
     1
 74
     5
  7
SEISA.ctb
 75
    16
147
1.0
 76
     0
 77
     2
 78
   300
148
0.0
149
0.0
100
AcDbLayout
  1
レイアウト2
 70
     1
 71
     2
 10
0.0
 20
0.0
 11
12.0
 21
9.0
 12
0.0
 22
0.0
 32
0.0
 14
0.0
 24
0.0
 34
0.0
 15
0.0
 25
0.0
 35
0.0
146
0.0
 13
0.0
 23
0.0
 33
0.0
 16
1.0
 26
0.0
 36
0.0
 17
0.0
 27
1.0
 37
0.0
 76
     0
330
23
  0
MATERIAL
  5
27D
102
{ACAD_REACTORS
330
C4
102
}
330
C4
100
AcDbMaterial
  1
ByBlock
 73
     1
 78
     1
172
     1
176
     1
270
     1
274
     1
 94
       63
  0
MATERIAL
  5
27C
102
{ACAD_REACTORS
330
C4
102
}
330
C4
100
AcDbMaterial
  1
ByLayer
 73
     1
 78
     1
172
     1
176
     1
270
     1
274
     1
 94
       63
  0
MATERIAL
  5
27E
102
{ACAD_REACTORS
330
C4
102
}
330
C4
100
AcDbMaterial
  1
Global
 73
     1
 78
     1
172
     1
176
     1
270
     1
274
     1
 94
       63
  0
MLEADERSTYLE
  5
2D6
102
{ACAD_REACTORS
330
2D5
102
}
330
2D5
100
AcDbMLeaderStyle
170
     2
171
     1
172
     0
 90
        2
 40
0.0
 41
0.0
173
     1
 91
-1056964608
340
14
 92
       -2
290
     1
 42
2.0
291
     1
 43
0.36
  3
Standard
 44
4.0
300

342
11
174
     1
178
     6
175
     1
176
     0
 93
-1056964608
 45
4.0
292
     0
297
     0
 46
4.0
 94
-1056964608
 47
1.0
 49
1.0
140
1.0
293
     1
141
0.0
294
     1
177
     0
142
1.0
295
     0
296
     0
143
0.125
1001
ACAD_MLEADERVER
1070
     2
  0
MLINESTYLE
  5
18
102
{ACAD_REACTORS
330
17
102
}
330
17
100
AcDbMlineStyle
  2
STANDARD
 70
     0
  3

 62
   256
 51
90.0
 52
90.0
 71
     2
 49
0.5
 62
   256
  6
BYLAYER
 49
-0.5
 62
   256
  6
BYLAYER
  0
PLOTSETTINGS
  5
1C7E
102
{ACAD_REACTORS
330
19
102
}
330
19
100
AcDbPlotSettings
  1
SEISA基本
  2
none_device
  4
Letter_(8.50_x_11.00_Inches)
  6

 40
6.349999904632567
 41
6.349999904632567
 42
6.350006103515625
 43
6.350006103515625
 44
215.8999938964844
 45
279.3999938964844
 46
7.302498226506357
 47
0.0
 48
0.0
 49
0.0
140
0.0
141
0.0
142
1.0
143
1.574803221122935
 70
 11956
 72
     1
 73
     1
 74
     2
  7
SEISA.ctb
 75
     0
147
0.6349999711627054
 76
     0
 77
     2
 78
   300
148
0.0
149
0.0
1001
ACAD_PSEXT
1000
なし
1000
なし
1000
適切ではありません
1000
新しいプロッタ環境設定名を選択しない限り、レイアウトは印刷されません。
1070
     0
  0
ACDBPLACEHOLDER
  5
F
102
{ACAD_REACTORS
330
E
102
}
330
E
  0
SCALE
  5
2A04
102
{ACAD_REACTORS
330
2B3
102
}
330
2B3
100
AcDbScale
 70
     0
300
1:6
140
1.0
141
6.0
290
     0
  0
SCALE
  5
6FA8
102
{ACAD_REACTORS
330
2B3
102
}
330
2B3
100
AcDbScale
 70
     0
300
1:3
140
1.0
141
3.0
290
     0
  0
SCALE
  5
6FA9
102
{ACAD_REACTORS
330
2B3
102
}
330
2B3
100
AcDbScale
 70
     0
300
1:2.5
140
1.0
141
2.5
290
     0
  0
SCALE
  5
6FAA
102
{ACAD_REACTORS
330
2B3
102
}
330
2B3
100
AcDbScale
 70
     0
300
1:1.5
140
1.0
141
1.5
290
     0
  0
SCALE
  5
2B4
102
{ACAD_REACTORS
330
2B3
102
}
330
2B3
100
AcDbScale
 70
     0
300
1:1
140
1.0
141
1.0
290
     1
  0
SCALE
  5
2B5
102
{ACAD_REACTORS
330
2B3
102
}
330
2B3
100
AcDbScale
 70
     0
300
1:2
140
1.0
141
2.0
290
     0
  0
SCALE
  5
2B6
102
{ACAD_REACTORS
330
2B3
102
}
330
2B3
100
AcDbScale
 70
     0
300
1:4
140
1.0
141
4.0
290
     0
  0
SCALE
  5
2B7
102
{ACAD_REACTORS
330
2B3
102
}
330
2B3
100
AcDbScale
 70
     0
300
1:5
140
1.0
141
5.0
290
     0
  0
SCALE
  5
2B8
102
{ACAD_REACTORS
330
2B3
102
}
330
2B3
100
AcDbScale
 70
     0
300
1:8
140
1.0
141
8.0
290
     0
  0
SCALE
  5
2B9
102
{ACAD_REACTORS
330
2B3
102
}
330
2B3
100
AcDbScale
 70
     0
300
1:10
140
1.0
141
10.0
290
     0
  0
SCALE
  5
2BA
102
{ACAD_REACTORS
330
2B3
102
}
330
2B3
100
AcDbScale
 70
     0
300
1:16
140
1.0
141
16.0
290
     0
  0
SCALE
  5
2BB
102
{ACAD_REACTORS
330
2B3
102
}
330
2B3
100
AcDbScale
 70
     0
300
1:20
140
1.0
141
20.0
290
     0
  0
SCALE
  5
2BC
102
{ACAD_REACTORS
330
2B3
102
}
330
2B3
100
AcDbScale
 70
     0
300
1:30
140
1.0
141
30.0
290
     0
  0
SCALE
  5
2BD
102
{ACAD_REACTORS
330
2B3
102
}
330
2B3
100
AcDbScale
 70
     0
300
1:40
140
1.0
141
40.0
290
     0
  0
SCALE
  5
2BE
102
{ACAD_REACTORS
330
2B3
102
}
330
2B3
100
AcDbScale
 70
     0
300
1:50
140
1.0
141
50.0
290
     0
  0
SCALE
  5
2BF
102
{ACAD_REACTORS
330
2B3
102
}
330
2B3
100
AcDbScale
 70
     0
300
1:100
140
1.0
141
100.0
290
     0
  0
SCALE
  5
2C0
102
{ACAD_REACTORS
330
2B3
102
}
330
2B3
100
AcDbScale
 70
     0
300
2:1
140
2.0
141
1.0
290
     0
  0
SCALE
  5
2C1
102
{ACAD_REACTORS
330
2B3
102
}
330
2B3
100
AcDbScale
 70
     0
300
4:1
140
4.0
141
1.0
290
     0
  0
SCALE
  5
2C2
102
{ACAD_REACTORS
330
2B3
102
}
330
2B3
100
AcDbScale
 70
     0
300
8:1
140
8.0
141
1.0
290
     0
  0
SCALE
  5
2C3
102
{ACAD_REACTORS
330
2B3
102
}
330
2B3
100
AcDbScale
 70
     0
300
10:1
140
10.0
141
1.0
290
     0
  0
SCALE
  5
2C4
102
{ACAD_REACTORS
330
2B3
102
}
330
2B3
100
AcDbScale
 70
     0
300
100:1
140
100.0
141
1.0
290
     0
  0
SCALE
  5
2C5
102
{ACAD_REACTORS
330
2B3
102
}
330
2B3
100
AcDbScale
 70
     0
300
1/128" = 1'-0"
140
0.0078125
141
12.0
290
     0
  0
SCALE
  5
2C6
102
{ACAD_REACTORS
330
2B3
102
}
330
2B3
100
AcDbScale
 70
     0
300
1/64" = 1'-0"
140
0.015625
141
12.0
290
     0
  0
SCALE
  5
2C7
102
{ACAD_REACTORS
330
2B3
102
}
330
2B3
100
AcDbScale
 70
     0
300
1/32" = 1'-0"
140
0.03125
141
12.0
290
     0
  0
SCALE
  5
2C8
102
{ACAD_REACTORS
330
2B3
102
}
330
2B3
100
AcDbScale
 70
     0
300
1/16" = 1'-0"
140
0.0625
141
12.0
290
     0
  0
SCALE
  5
2C9
102
{ACAD_REACTORS
330
2B3
102
}
330
2B3
100
AcDbScale
 70
     0
300
3/32" = 1'-0"
140
0.09375
141
12.0
290
     0
  0
SCALE
  5
2CA
102
{ACAD_REACTORS
330
2B3
102
}
330
2B3
100
AcDbScale
 70
     0
300
1/8" = 1'-0"
140
0.125
141
12.0
290
     0
  0
SCALE
  5
2CB
102
{ACAD_REACTORS
330
2B3
102
}
330
2B3
100
AcDbScale
 70
     0
300
3/16" = 1'-0"
140
0.1875
141
12.0
290
     0
  0
SCALE
  5
2CC
102
{ACAD_REACTORS
330
2B3
102
}
330
2B3
100
AcDbScale
 70
     0
300
1/4" = 1'-0"
140
0.25
141
12.0
290
     0
  0
SCALE
  5
2CD
102
{ACAD_REACTORS
330
2B3
102
}
330
2B3
100
AcDbScale
 70
     0
300
3/8" = 1'-0"
140
0.375
141
12.0
290
     0
  0
SCALE
  5
2CE
102
{ACAD_REACTORS
330
2B3
102
}
330
2B3
100
AcDbScale
 70
     0
300
1/2" = 1'-0"
140
0.5
141
12.0
290
     0
  0
SCALE
  5
2CF
102
{ACAD_REACTORS
330
2B3
102
}
330
2B3
100
AcDbScale
 70
     0
300
3/4" = 1'-0"
140
0.75
141
12.0
290
     0
  0
SCALE
  5
2D0
102
{ACAD_REACTORS
330
2B3
102
}
330
2B3
100
AcDbScale
 70
     0
300
1" = 1'-0"
140
1.0
141
12.0
290
     0
  0
SCALE
  5
2D1
102
{ACAD_REACTORS
330
2B3
102
}
330
2B3
100
AcDbScale
 70
     0
300
1-1/2" = 1'-0"
140
1.5
141
12.0
290
     0
  0
SCALE
  5
2D2
102
{ACAD_REACTORS
330
2B3
102
}
330
2B3
100
AcDbScale
 70
     0
300
3" = 1'-0"
140
3.0
141
12.0
290
     0
  0
SCALE
  5
2D3
102
{ACAD_REACTORS
330
2B3
102
}
330
2B3
100
AcDbScale
 70
     0
300
6" = 1'-0"
140
6.0
141
12.0
290
     0
  0
SCALE
  5
2D4
102
{ACAD_REACTORS
330
2B3
102
}
330
2B3
100
AcDbScale
 70
     0
300
1'-0" = 1'-0"
140
12.0
141
12.0
290
     0
  0
TABLESTYLE
  5
122
102
{ACAD_XDICTIONARY
360
2F5
102
}
102
{ACAD_REACTORS
330
121
102
}
330
121
100
AcDbTableStyle
  3
Standard
 70
     0
 71
     0
 40
1.5
 41
1.5
280
     0
281
     0
  7
STANDARD
140
4.5
170
     2
 62
     0
 63
     7
283
     0
 90
      512
 91
        0
  1

274
    -2
284
     1
 64
     0
275
    -2
285
     1
 65
     0
276
    -2
286
     1
 66
     0
277
    -2
287
     1
 67
     0
278
    -2
288
     1
 68
     0
279
    -2
289
     1
 69
     0
  7
STANDARD
140
6.0
170
     5
 62
     0
 63
     7
283
     0
 90
      512
 91
        0
  1

274
    -2
284
     1
 64
     0
275
    -2
285
     1
 65
     0
276
    -2
286
     1
 66
     0
277
    -2
287
     1
 67
     0
278
    -2
288
     1
 68
     0
279
    -2
289
     1
 69
     0
  7
STANDARD
140
4.5
170
     5
 62
     0
 63
     7
283
     0
 90
      512
 91
        0
  1

274
    -2
284
     1
 64
     0
275
    -2
285
     1
 65
     0
276
    -2
286
     1
 66
     0
277
    -2
287
     1
 67
     0
278
    -2
288
     1
 68
     0
279
    -2
289
     1
 69
     0
  0
VISUALSTYLE
  5
285
102
{ACAD_REACTORS
330
27F
102
}
330
27F
100
AcDbVisualStyle
  2
2dWireframe
 70
     4
 71
     0
 72
     2
 73
     0
 90
        0
 40
-0.6
 41
-30.0
 62
     5
 63
     7
421
 16777215
 74
     1
 91
        4
 64
     7
 65
   257
 75
     1
175
     1
 42
1.0
 92
        0
 66
   257
 43
1.0
 76
     1
 77
     6
 78
     2
 67
     7
 79
     5
170
     0
171
     0
290
     0
174
     0
 93
        1
 44
0.0
173
     0
291
     0
 45
0.0
  0
VISUALSTYLE
  5
287
102
{ACAD_REACTORS
330
27F
102
}
330
27F
100
AcDbVisualStyle
  2
3D Hidden
 70
     6
 71
     1
 72
     2
 73
     2
 90
        0
 40
-0.6
 41
-30.0
 62
     5
 63
     7
421
 16777215
 74
     2
 91
        2
 64
     7
 65
   257
 75
     2
175
     1
 42
40.0
 92
        0
 66
   257
 43
1.0
 76
     1
 77
     6
 78
     2
 67
     7
 79
     3
170
     0
171
     0
290
     0
174
     0
 93
        1
 44
0.0
173
     0
291
     0
 45
0.0
  0
VISUALSTYLE
  5
286
102
{ACAD_REACTORS
330
27F
102
}
330
27F
100
AcDbVisualStyle
  2
3dWireframe
 70
     5
 71
     0
 72
     2
 73
     0
 90
        0
 40
-0.6
 41
-30.0
 62
     5
 63
     7
421
 16777215
 74
     1
 91
        4
 64
     7
 65
   257
 75
     1
175
     1
 42
1.0
 92
        0
 66
   257
 43
1.0
 76
     1
 77
     6
 78
     2
 67
     7
 79
     5
170
     0
171
     0
290
     0
174
     0
 93
        1
 44
0.0
173
     0
291
     0
 45
0.0
  0
VISUALSTYLE
  5
284
102
{ACAD_REACTORS
330
27F
102
}
330
27F
100
AcDbVisualStyle
  2
Basic
 70
     7
 71
     1
 72
     0
 73
     1
 90
        0
 40
-0.6
 41
-30.0
 62
     5
 63
     7
421
 16777215
 74
     0
 91
        4
 64
     7
 65
   257
 75
     1
175
     1
 42
1.0
 92
        8
 66
     7
 43
1.0
 76
     1
 77
     6
 78
     2
 67
     7
 79
     5
170
     0
171
     0
290
     0
174
     0
 93
        1
 44
0.0
173
     0
291
     1
 45
0.0
  0
VISUALSTYLE
  5
28B
102
{ACAD_REACTORS
330
27F
102
}
330
27F
100
AcDbVisualStyle
  2
Brighten
 70
    12
 71
     2
 72
     2
 73
     0
 90
        0
 40
-0.6
 41
-30.0
 62
     5
 63
     7
421
 16777215
 74
     1
 91
        4
 64
     7
 65
   257
 75
     1
175
     1
 42
1.0
 92
        8
 66
     7
 43
1.0
 76
     1
 77
     6
 78
     2
 67
     7
 79
     5
170
     0
171
     0
290
     0
174
     0
 93
        1
 44
50.0
173
     0
291
     1
 45
0.0
  0
VISUALSTYLE
  5
28F
102
{ACAD_REACTORS
330
27F
102
}
330
27F
100
AcDbVisualStyle
  2
ColorChange
 70
    16
 71
     2
 72
     2
 73
     3
 90
        0
 40
-0.6
 41
-30.0
 62
     5
 63
     8
421
  8421504
 74
     1
 91
        4
 64
     7
 65
   257
 75
     1
175
     1
 42
1.0
 92
        8
 66
     8
424
  8421504
 43
1.0
 76
     1
 77
     6
 78
     2
 67
     7
 79
     5
170
     0
171
     0
290
     0
174
     0
 93
        1
 44
0.0
173
     0
291
     1
 45
0.0
  0
VISUALSTYLE
  5
288
102
{ACAD_REACTORS
330
27F
102
}
330
27F
100
AcDbVisualStyle
  2
Conceptual
 70
     9
 71
     3
 72
     2
 73
     0
 90
        0
 40
-0.6
 41
-30.0
 62
     5
 63
     7
421
 16777215
 74
     2
 91
        2
 64
     7
 65
   257
 75
     1
175
     1
 42
40.0
 92
        8
 66
     7
 43
1.0
 76
     1
 77
     6
 78
     2
 67
     7
 79
     3
170
     0
171
     0
290
     0
174
     0
 93
        1
 44
0.0
173
     0
291
     0
 45
0.0
  0
VISUALSTYLE
  5
28A
102
{ACAD_REACTORS
330
27F
102
}
330
27F
100
AcDbVisualStyle
  2
Dim
 70
    11
 71
     2
 72
     2
 73
     0
 90
        0
 40
-0.6
 41
-30.0
 62
     5
 63
     7
421
 16777215
 74
     1
 91
        4
 64
     7
 65
   257
 75
     1
175
     1
 42
1.0
 92
        8
 66
     7
 43
1.0
 76
     1
 77
     6
 78
     2
 67
     7
 79
     5
170
     0
171
     0
290
     0
174
     0
 93
        1
 44
-50.0
173
     0
291
     1
 45
0.0
  0
VISUALSTYLE
  5
28E
102
{ACAD_REACTORS
330
27F
102
}
330
27F
100
AcDbVisualStyle
  2
Facepattern
 70
    15
 71
     2
 72
     2
 73
     0
 90
        0
 40
-0.6
 41
-30.0
 62
     5
 63
     7
421
 16777215
 74
     1
 91
        4
 64
     7
 65
   257
 75
     1
175
     1
 42
1.0
 92
        8
 66
     7
 43
1.0
 76
     1
 77
     6
 78
     2
 67
     7
 79
     5
170
     0
171
     0
290
     0
174
     0
 93
        1
 44
0.0
173
     0
291
     1
 45
0.0
  0
VISUALSTYLE
  5
280
102
{ACAD_REACTORS
330
27F
102
}
330
27F
100
AcDbVisualStyle
  2
Flat
 70
     0
 71
     2
 72
     1
 73
     1
 90
        2
 40
-0.6
 41
30.0
 62
     5
 63
     7
421
 16777215
 74
     0
 91
        4
 64
     7
 65
   257
 75
     1
175
     1
 42
1.0
 92
        8
 66
     7
 43
1.0
 76
     1
 77
     6
 78
     2
 67
     7
 79
     5
170
     0
171
     0
290
     0
174
     0
 93
       13
 44
0.0
173
     0
291
     1
 45
0.0
  0
VISUALSTYLE
  5
281
102
{ACAD_REACTORS
330
27F
102
}
330
27F
100
AcDbVisualStyle
  2
FlatWithEdges
 70
     1
 71
     2
 72
     1
 73
     1
 90
        2
 40
-0.6
 41
30.0
 62
     5
 63
     7
421
 16777215
 74
     1
 91
        4
 64
     7
 65
   257
 75
     1
175
     1
 42
1.0
 92
        0
 66
   257
 43
1.0
 76
     1
 77
     6
 78
     2
 67
     7
 79
     5
170
     0
171
     0
290
     0
174
     0
 93
       13
 44
0.0
173
     0
291
     1
 45
0.0
  0
VISUALSTYLE
  5
282
102
{ACAD_REACTORS
330
27F
102
}
330
27F
100
AcDbVisualStyle
  2
Gouraud
 70
     2
 71
     2
 72
     2
 73
     1
 90
        2
 40
-0.6
 41
30.0
 62
     5
 63
     7
421
 16777215
 74
     0
 91
        4
 64
     7
 65
   257
 75
     1
175
     1
 42
1.0
 92
        0
 66
     7
 43
1.0
 76
     1
 77
     6
 78
     2
 67
     7
 79
     5
170
     0
171
     0
290
     0
174
     0
 93
       13
 44
0.0
173
     0
291
     1
 45
0.0
  0
VISUALSTYLE
  5
283
102
{ACAD_REACTORS
330
27F
102
}
330
27F
100
AcDbVisualStyle
  2
GouraudWithEdges
 70
     3
 71
     2
 72
     2
 73
     1
 90
        2
 40
-0.6
 41
30.0
 62
     5
 63
     7
421
 16777215
 74
     1
 91
        4
 64
     7
 65
   257
 75
     1
175
     1
 42
1.0
 92
        0
 66
   257
 43
1.0
 76
     1
 77
     6
 78
     2
 67
     7
 79
     5
170
     0
171
     0
290
     0
174
     0
 93
       13
 44
0.0
173
     0
291
     1
 45
0.0
  0
VISUALSTYLE
  5
28D
102
{ACAD_REACTORS
330
27F
102
}
330
27F
100
AcDbVisualStyle
  2
Linepattern
 70
    14
 71
     2
 72
     2
 73
     0
 90
        0
 40
-0.6
 41
-30.0
 62
     5
 63
     7
421
 16777215
 74
     1
 91
        4
 64
     7
 65
   257
 75
     7
175
     7
 42
1.0
 92
        8
 66
     7
 43
1.0
 76
     1
 77
     6
 78
     2
 67
     7
 79
     5
170
     0
171
     0
290
     0
174
     0
 93
        1
 44
0.0
173
     0
291
     1
 45
0.0
  0
VISUALSTYLE
  5
289
102
{ACAD_REACTORS
330
27F
102
}
330
27F
100
AcDbVisualStyle
  2
Realistic
 70
     8
 71
     2
 72
     2
 73
     0
 90
        0
 40
-0.6
 41
-30.0
 62
     5
 63
     7
421
 16777215
 74
     1
 91
        0
 64
     7
 65
   257
 75
     1
175
     1
 42
1.0
 92
        8
 66
     8
424
  7895160
 43
1.0
 76
     1
 77
     6
 78
     2
 67
     7
 79
     5
170
     0
171
     0
290
     0
174
     0
 93
       13
 44
0.0
173
     0
291
     0
 45
0.0
  0
VISUALSTYLE
  5
28C
102
{ACAD_REACTORS
330
27F
102
}
330
27F
100
AcDbVisualStyle
  2
Thicken
 70
    13
 71
     2
 72
     2
 73
     0
 90
        0
 40
-0.6
 41
-30.0
 62
     5
 63
     7
421
 16777215
 74
     1
 91
        4
 64
     7
 65
   257
 75
     1
175
     1
 42
1.0
 92
       12
 66
     7
 43
1.0
 76
     1
 77
     6
 78
     2
 67
     7
 79
     5
170
     0
171
     0
290
     0
174
     0
 93
        1
 44
0.0
173
     0
291
     1
 45
0.0
  0
DICTIONARYVAR
  5
2FA
102
{ACAD_REACTORS
330
34
102
}
330
34
100
DictionaryVariables
280
     0
  1
1:6
  0
DICTIONARYVAR
  5
2F8
102
{ACAD_REACTORS
330
34
102
}
330
34
100
DictionaryVariables
280
     0
  1
STANDARD
  0
DICTIONARYVAR
  5
140
102
{ACAD_REACTORS
330
34
102
}
330
34
100
DictionaryVariables
280
     0
  1
STANDARD
  0
DICTIONARYVAR
  5
AC
102
{ACAD_REACTORS
330
34
102
}
330
34
100
DictionaryVariables
280
     0
  1
1
  0
DICTIONARYVAR
  5
35
102
{ACAD_REACTORS
330
34
102
}
330
34
100
DictionaryVariables
280
     0
  1
1
  0
DICTIONARYVAR
  5
64CF
102
{ACAD_REACTORS
330
34
102
}
330
34
100
DictionaryVariables
280
     0
  1
1
  0
DICTIONARYVAR
  5
64D0
102
{ACAD_REACTORS
330
34
102
}
330
34
100
DictionaryVariables
280
     0
  1
15
  0
DICTIONARYVAR
  5
2FB
102
{ACAD_REACTORS
330
34
102
}
330
34
100
DictionaryVariables
280
     0
  1
0
  0
DICTIONARYVAR
  5
2F9
102
{ACAD_REACTORS
330
34
102
}
330
34
100
DictionaryVariables
280
     0
  1
0
  0
DICTIONARY
  5
161B
102
{ACAD_REACTORS
330
49
102
}
330
49
100
AcDbDictionary
281
     1
  0
DICTIONARY
  5
4A
102
{ACAD_REACTORS
330
49
102
}
330
49
100
AcDbDictionary
281
     1
  0
XRECORD
  5
12B
102
{ACAD_REACTORS
330
49
102
}
330
49
100
AcDbXrecord
280
     1
 90
-1023410169
  0
DICTIONARY
  5
2F5
330
122
100
AcDbDictionary
280
     1
281
     1
  3
ACAD_ROUNDTRIP_2008_TABLESTYLE_CELLSTYLEMAP
360
73D4
  0
CELLSTYLEMAP
  5
73D4
102
{ACAD_REACTORS
330
2F5
102
}
330
2F5
100
AcDbCellStyleMap
 90
        3
300
CELLSTYLE
  1
TABLEFORMAT_BEGIN
 90
        5
170
     1
 91
        0
 92
    32768
 62
   257
 93
        1
300
CONTENTFORMAT
  1
CONTENTFORMAT_BEGIN
 90
        0
 91
        0
 92
      512
 93
        0
300

 40
0.0
140
1.0
 94
        5
 62
     0
340
11
144
6.0
309
CONTENTFORMAT_END
171
     1
301
MARGIN
  1
CELLMARGIN_BEGIN
 40
1.5
 40
1.5
 40
1.5
 40
1.5
 40
0.18
 40
0.18
309
CELLMARGIN_END
 94
        6
 95
        1
302
GRIDFORMAT
  1
GRIDFORMAT_BEGIN
 90
        0
 91
        1
 62
     0
 92
       -2
340
0
 93
        0
 40
0.045
309
GRIDFORMAT_END
 95
        2
302
GRIDFORMAT
  1
GRIDFORMAT_BEGIN
 90
        0
 91
        1
 62
     0
 92
       -2
340
0
 93
        0
 40
0.045
309
GRIDFORMAT_END
 95
        4
302
GRIDFORMAT
  1
GRIDFORMAT_BEGIN
 90
        0
 91
        1
 62
     0
 92
       -2
340
0
 93
        0
 40
0.045
309
GRIDFORMAT_END
 95
        8
302
GRIDFORMAT
  1
GRIDFORMAT_BEGIN
 90
        0
 91
        1
 62
     0
 92
       -2
340
0
 93
        0
 40
0.045
309
GRIDFORMAT_END
 95
       16
302
GRIDFORMAT
  1
GRIDFORMAT_BEGIN
 90
        0
 91
        1
 62
     0
 92
       -2
340
0
 93
        0
 40
0.045
309
GRIDFORMAT_END
 95
       32
302
GRIDFORMAT
  1
GRIDFORMAT_BEGIN
 90
        0
 91
        1
 62
     0
 92
       -2
340
0
 93
        0
 40
0.045
309
GRIDFORMAT_END
309
TABLEFORMAT_END
  1
CELLSTYLE_BEGIN
 90
        1
 91
        1
300
_TITLE
309
CELLSTYLE_END
300
CELLSTYLE
  1
TABLEFORMAT_BEGIN
 90
        5
170
     1
 91
        0
 92
        0
 62
   257
 93
        1
300
CONTENTFORMAT
  1
CONTENTFORMAT_BEGIN
 90
        0
 91
        0
 92
      512
 93
        0
300

 40
0.0
140
1.0
 94
        5
 62
     0
340
11
144
4.5
309
CONTENTFORMAT_END
171
     1
301
MARGIN
  1
CELLMARGIN_BEGIN
 40
1.5
 40
1.5
 40
1.5
 40
1.5
 40
0.18
 40
0.18
309
CELLMARGIN_END
 94
        6
 95
        1
302
GRIDFORMAT
  1
GRIDFORMAT_BEGIN
 90
        0
 91
        1
 62
     0
 92
       -2
340
0
 93
        0
 40
0.045
309
GRIDFORMAT_END
 95
        2
302
GRIDFORMAT
  1
GRIDFORMAT_BEGIN
 90
        0
 91
        1
 62
     0
 92
       -2
340
0
 93
        0
 40
0.045
309
GRIDFORMAT_END
 95
        4
302
GRIDFORMAT
  1
GRIDFORMAT_BEGIN
 90
        0
 91
        1
 62
     0
 92
       -2
340
0
 93
        0
 40
0.045
309
GRIDFORMAT_END
 95
        8
302
GRIDFORMAT
  1
GRIDFORMAT_BEGIN
 90
        0
 91
        1
 62
     0
 92
       -2
340
0
 93
        0
 40
0.045
309
GRIDFORMAT_END
 95
       16
302
GRIDFORMAT
  1
GRIDFORMAT_BEGIN
 90
        0
 91
        1
 62
     0
 92
       -2
340
0
 93
        0
 40
0.045
309
GRIDFORMAT_END
 95
       32
302
GRIDFORMAT
  1
GRIDFORMAT_BEGIN
 90
        0
 91
        1
 62
     0
 92
       -2
340
0
 93
        0
 40
0.045
309
GRIDFORMAT_END
309
TABLEFORMAT_END
  1
CELLSTYLE_BEGIN
 90
        2
 91
        1
300
_HEADER
309
CELLSTYLE_END
300
CELLSTYLE
  1
TABLEFORMAT_BEGIN
 90
        5
170
     1
 91
        0
 92
        0
 62
   257
 93
        1
300
CONTENTFORMAT
  1
CONTENTFORMAT_BEGIN
 90
        0
 91
        0
 92
      512
 93
        0
300

 40
0.0
140
1.0
 94
        2
 62
     0
340
11
144
4.5
309
CONTENTFORMAT_END
171
     1
301
MARGIN
  1
CELLMARGIN_BEGIN
 40
1.5
 40
1.5
 40
1.5
 40
1.5
 40
0.18
 40
0.18
309
CELLMARGIN_END
 94
        6
 95
        1
302
GRIDFORMAT
  1
GRIDFORMAT_BEGIN
 90
        0
 91
        1
 62
     0
 92
       -2
340
0
 93
        0
 40
0.045
309
GRIDFORMAT_END
 95
        2
302
GRIDFORMAT
  1
GRIDFORMAT_BEGIN
 90
        0
 91
        1
 62
     0
 92
       -2
340
0
 93
        0
 40
0.045
309
GRIDFORMAT_END
 95
        4
302
GRIDFORMAT
  1
GRIDFORMAT_BEGIN
 90
        0
 91
        1
 62
     0
 92
       -2
340
0
 93
        0
 40
0.045
309
GRIDFORMAT_END
 95
        8
302
GRIDFORMAT
  1
GRIDFORMAT_BEGIN
 90
        0
 91
        1
 62
     0
 92
       -2
340
0
 93
        0
 40
0.045
309
GRIDFORMAT_END
 95
       16
302
GRIDFORMAT
  1
GRIDFORMAT_BEGIN
 90
        0
 91
        1
 62
     0
 92
       -2
340
0
 93
        0
 40
0.045
309
GRIDFORMAT_END
 95
       32
302
GRIDFORMAT
  1
GRIDFORMAT_BEGIN
 90
        0
 91
        1
 62
     0
 92
       -2
340
0
 93
        0
 40
0.045
309
GRIDFORMAT_END
309
TABLEFORMAT_END
  1
CELLSTYLE_BEGIN
 90
        3
 91
        2
300
_DATA
309
CELLSTYLE_END
  0
ENDSEC
  0
EOF
