  0
SECTION
  2
HEADER
  9
$ACADVER
  1
AC1021
  9
$ACADMAINTVER
 70
    26
  9
$DWGCODEPAGE
  3
ANSI_932
  9
$LASTSAVEDBY
  1
Htm_Terada
  9
$CUSTOMPROPERTYTAG
  1
AmdtFileType
  9
$CUSTOMPROPERTY
  1
84
  9
$INSBASE
 10
0.0
 20
0.0
 30
0.0
  9
$EXTMIN
 10
836.8341144354499
 20
843.4154736557934
 30
-0.0015258207003583
  9
$EXTMAX
 10
1797.753302073566
 20
1533.663122531311
 30
0.0000000349246037
  9
$LIMMIN
 10
0.0000011486031326
 20
0.0000022162923869
  9
$LIMMAX
 10
2520.000001148603
 20
1782.000002216293
  9
$ORTHOMODE
 70
     1
  9
$REGENMODE
 70
     1
  9
$FILLMODE
 70
     1
  9
$QTEXTMODE
 70
     0
  9
$MIRRTEXT
 70
     1
  9
$LTSCALE
 40
6.0
  9
$ATTMODE
 70
     1
  9
$TEXTSIZE
 40
25.0
  9
$TRACEWID
 40
1.0
  9
$TEXTSTYLE
  7
SEISA
  9
$CLAYER
  8
AM_0 外形線1
  9
$CELTYPE
  6
ByLayer
  9
$CECOLOR
 62
   256
  9
$CELTSCALE
 40
1.0
  9
$DISPSILH
 70
     0
  9
$DIMSCALE
 40
6.0
  9
$DIMASZ
 40
2.5
  9
$DIMEXO
 40
0.625
  9
$DIMDLI
 40
10.0
  9
$DIMRND
 40
0.0
  9
$DIMDLE
 40
0.0
  9
$DIMEXE
 40
0.625
  9
$DIMTP
 40
0.1
  9
$DIMTM
 40
0.1
  9
$DIMTXT
 40
3.5
  9
$DIMCEN
 40
0.0
  9
$DIMTSZ
 40
0.0
  9
$DIMTOL
 70
     0
  9
$DIMLIM
 70
     0
  9
$DIMTIH
 70
     0
  9
$DIMTOH
 70
     0
  9
$DIMSE1
 70
     0
  9
$DIMSE2
 70
     0
  9
$DIMTAD
 70
     3
  9
$DIMZIN
 70
     8
  9
$DIMBLK
  1
Open30
  9
$DIMASO
 70
     1
  9
$DIMSHO
 70
     1
  9
$DIMPOST
  1

  9
$DIMAPOST
  1
"
  9
$DIMALT
 70
     0
  9
$DIMALTD
 70
     2
  9
$DIMALTF
 40
0.0393701
  9
$DIMLFAC
 40
1.0
  9
$DIMTOFL
 70
     1
  9
$DIMTVP
 40
0.0
  9
$DIMTIX
 70
     0
  9
$DIMSOXD
 70
     0
  9
$DIMSAH
 70
     0
  9
$DIMBLK1
  1

  9
$DIMBLK2
  1

  9
$DIMSTYLE
  2
SEISA
  9
$DIMCLRD
 70
     3
  9
$DIMCLRE
 70
     3
  9
$DIMCLRT
 70
     3
  9
$DIMTFAC
 40
0.71
  9
$DIMGAP
 40
1.5
  9
$DIMJUST
 70
     0
  9
$DIMSD1
 70
     0
  9
$DIMSD2
 70
     0
  9
$DIMTOLJ
 70
     0
  9
$DIMTZIN
 70
     0
  9
$DIMALTZ
 70
     0
  9
$DIMALTTZ
 70
     8
  9
$DIMUPT
 70
     0
  9
$DIMDEC
 70
     2
  9
$DIMTDEC
 70
     2
  9
$DIMALTU
 70
     2
  9
$DIMALTTD
 70
     2
  9
$DIMTXSTY
  7
SEISA
  9
$DIMAUNIT
 70
     0
  9
$DIMADEC
 70
     0
  9
$DIMALTRND
 40
0.0
  9
$DIMAZIN
 70
     2
  9
$DIMDSEP
 70
    46
  9
$DIMATFIT
 70
     3
  9
$DIMFRAC
 70
     0
  9
$DIMLDRBLK
  1
Open30
  9
$DIMLUNIT
 70
     2
  9
$DIMLWD
 70
    -1
  9
$DIMLWE
 70
    -1
  9
$DIMTMOVE
 70
     0
  9
$DIMFXL
 40
1.0
  9
$DIMFXLON
 70
     0
  9
$DIMJOGANG
 40
0.7853981633974483
  9
$DIMTFILL
 70
     0
  9
$DIMTFILLCLR
 70
     0
  9
$DIMARCSYM
 70
     1
  9
$DIMLTYPE
  6

  9
$DIMLTEX1
  6

  9
$DIMLTEX2
  6

  9
$LUNITS
 70
     2
  9
$LUPREC
 70
     2
  9
$SKETCHINC
 40
1.0
  9
$FILLETRAD
 40
1.0
  9
$AUNITS
 70
     0
  9
$AUPREC
 70
     0
  9
$MENU
  1
.
  9
$ELEVATION
 40
0.0
  9
$PELEVATION
 40
0.0
  9
$THICKNESS
 40
0.0
  9
$LIMCHECK
 70
     0
  9
$CHAMFERA
 40
8.0
  9
$CHAMFERB
 40
8.000000000000227
  9
$CHAMFERC
 40
7.999999999999772
  9
$CHAMFERD
 40
0.7853981633974483
  9
$SKPOLY
 70
     0
  9
$TDCREATE
 40
2454937.425196412
  9
$TDUCREATE
 40
2454937.050196412
  9
$TDUPDATE
 40
2456479.692469433
  9
$TDUUPDATE
 40
2456479.317469433
  9
$TDINDWG
 40
0.3291434375
  9
$TDUSRTIMER
 40
0.3291428935
  9
$USRTIMER
 70
     1
  9
$ANGBASE
 50
0.0
  9
$ANGDIR
 70
     0
  9
$PDMODE
 70
     0
  9
$PDSIZE
 40
0.0
  9
$PLINEWID
 40
0.0
  9
$SPLFRAME
 70
     0
  9
$SPLINETYPE
 70
     6
  9
$SPLINESEGS
 70
     8
  9
$HANDSEED
  5
7E5B
  9
$SURFTAB1
 70
     6
  9
$SURFTAB2
 70
     6
  9
$SURFTYPE
 70
     6
  9
$SURFU
 70
     6
  9
$SURFV
 70
     6
  9
$UCSBASE
  2

  9
$UCSNAME
  2

  9
$UCSORG
 10
0.0
 20
0.0
 30
0.0
  9
$UCSXDIR
 10
1.0
 20
0.0
 30
0.0
  9
$UCSYDIR
 10
0.0
 20
1.0
 30
0.0
  9
$UCSORTHOREF
  2

  9
$UCSORTHOVIEW
 70
     0
  9
$UCSORGTOP
 10
0.0
 20
0.0
 30
0.0
  9
$UCSORGBOTTOM
 10
0.0
 20
0.0
 30
0.0
  9
$UCSORGLEFT
 10
0.0
 20
0.0
 30
0.0
  9
$UCSORGRIGHT
 10
0.0
 20
0.0
 30
0.0
  9
$UCSORGFRONT
 10
0.0
 20
0.0
 30
0.0
  9
$UCSORGBACK
 10
0.0
 20
0.0
 30
0.0
  9
$PUCSBASE
  2

  9
$PUCSNAME
  2

  9
$PUCSORG
 10
0.0
 20
0.0
 30
0.0
  9
$PUCSXDIR
 10
1.0
 20
0.0
 30
0.0
  9
$PUCSYDIR
 10
0.0
 20
1.0
 30
0.0
  9
$PUCSORTHOREF
  2

  9
$PUCSORTHOVIEW
 70
     0
  9
$PUCSORGTOP
 10
0.0
 20
0.0
 30
0.0
  9
$PUCSORGBOTTOM
 10
0.0
 20
0.0
 30
0.0
  9
$PUCSORGLEFT
 10
0.0
 20
0.0
 30
0.0
  9
$PUCSORGRIGHT
 10
0.0
 20
0.0
 30
0.0
  9
$PUCSORGFRONT
 10
0.0
 20
0.0
 30
0.0
  9
$PUCSORGBACK
 10
0.0
 20
0.0
 30
0.0
  9
$USERI1
 70
     0
  9
$USERI2
 70
     0
  9
$USERI3
 70
     0
  9
$USERI4
 70
     0
  9
$USERI5
 70
     0
  9
$USERR1
 40
0.0
  9
$USERR2
 40
0.0
  9
$USERR3
 40
0.0
  9
$USERR4
 40
0.0
  9
$USERR5
 40
0.0
  9
$WORLDVIEW
 70
     1
  9
$SHADEDGE
 70
     3
  9
$SHADEDIF
 70
    70
  9
$TILEMODE
 70
     1
  9
$MAXACTVP
 70
    64
  9
$PINSBASE
 10
0.0
 20
0.0
 30
0.0
  9
$PLIMCHECK
 70
     0
  9
$PEXTMIN
 10
1.000000000000000E+20
 20
1.000000000000000E+20
 30
1.000000000000000E+20
  9
$PEXTMAX
 10
-1.000000000000000E+20
 20
-1.000000000000000E+20
 30
-1.000000000000000E+20
  9
$PLIMMIN
 10
0.0
 20
0.0
  9
$PLIMMAX
 10
420.0
 20
297.0
  9
$UNITMODE
 70
     0
  9
$VISRETAIN
 70
     1
  9
$PLINEGEN
 70
     0
  9
$PSLTSCALE
 70
     1
  9
$TREEDEPTH
 70
  3020
  9
$CMLSTYLE
  2
Standard
  9
$CMLJUST
 70
     0
  9
$CMLSCALE
 40
20.0
  9
$PROXYGRAPHICS
 70
     1
  9
$MEASUREMENT
 70
     1
  9
$CELWEIGHT
370
    -1
  9
$ENDCAPS
280
     0
  9
$JOINSTYLE
280
     0
  9
$LWDISPLAY
290
     0
  9
$INSUNITS
 70
     4
  9
$HYPERLINKBASE
  1

  9
$STYLESHEET
  1
SEISA.CTB
  9
$XEDIT
290
     1
  9
$CEPSNTYPE
380
     0
  9
$PSTYLEMODE
290
     1
  9
$FINGERPRINTGUID
  2
{A393BF26-F2C5-4BF6-8253-129FB6B8920C}
  9
$VERSIONGUID
  2
{A05EF778-23AB-4AC4-981D-85AB57985EC8}
  9
$EXTNAMES
290
     1
  9
$PSVPSCALE
 40
0.0
  9
$OLESTARTUP
290
     0
  9
$SORTENTS
280
   127
  9
$INDEXCTL
280
     0
  9
$HIDETEXT
280
     0
  9
$XCLIPFRAME
290
     0
  9
$HALOGAP
280
     0
  9
$OBSCOLOR
 70
   257
  9
$OBSLTYPE
280
     0
  9
$INTERSECTIONDISPLAY
280
     0
  9
$INTERSECTIONCOLOR
 70
   257
  9
$DIMASSOC
280
     2
  9
$PROJECTNAME
  1

  9
$CAMERADISPLAY
290
     0
  9
$LENSLENGTH
 40
50.0
  9
$CAMERAHEIGHT
 40
0.0
  9
$STEPSPERSEC
 40
2.0
  9
$STEPSIZE
 40
6.0
  9
$3DDWFPREC
 40
2.0
  9
$PSOLWIDTH
 40
0.25
  9
$PSOLHEIGHT
 40
4.0
  9
$LOFTANG1
 40
1.570796326794896
  9
$LOFTANG2
 40
1.570796326794896
  9
$LOFTMAG1
 40
0.0
  9
$LOFTMAG2
 40
0.0
  9
$LOFTPARAM
 70
     7
  9
$LOFTNORMALS
280
     1
  9
$LATITUDE
 40
37.795
  9
$LONGITUDE
 40
-122.394
  9
$NORTHDIRECTION
 40
0.0
  9
$TIMEZONE
 70
 -8000
  9
$LIGHTGLYPHDISPLAY
280
     1
  9
$TILEMODELIGHTSYNCH
280
     1
  9
$CMATERIAL
347
27C
  9
$SOLIDHIST
280
     1
  9
$SHOWHIST
280
     1
  9
$DWFFRAME
280
     2
  9
$DGNFRAME
280
     0
  9
$REALWORLDSCALE
290
     1
  9
$INTERFERECOLOR
 62
     1
  9
$INTERFEREOBJVS
345
289
  9
$INTERFEREVPVS
346
286
  9
$CSHADOW
280
     0
  9
$SHADOWPLANELOCATION
 40
0.0
  0
ENDSEC
  0
SECTION
  2
CLASSES
  0
CLASS
  1
ACDBDICTIONARYWDFLT
  2
AcDbDictionaryWithDefault
  3
ObjectDBX Classes
 90
        0
 91
        1
280
     0
281
     0
  0
CLASS
  1
AMGSETTINGSOBJ
  2
AmgSettingsObj
  3
"AcadM|Product Description: AutoCAD Mechanical|Company: Autodesk, Inc."
 90
     1024
 91
        2
280
     0
281
     0
  0
CLASS
  1
ACME_DOCUMENT
  2
AcMeDbDoc
  3
AcMeServices
 90
     1024
 91
        1
280
     0
281
     0
  0
CLASS
  1
ACMESCOPE
  2
AcMeScope
  3
AcMeServices
 90
     1024
 91
        1
280
     0
281
     0
  0
CLASS
  1
ACMECOMMANDHISTORY
  2
AcMeCommandHistory
  3
AcMeServices
 90
     1024
 91
        1
280
     0
281
     0
  0
CLASS
  1
DICTIONARYVAR
  2
AcDbDictionaryVar
  3
ObjectDBX Classes
 90
        0
 91
        9
280
     0
281
     0
  0
CLASS
  1
ACIMSYSVARMAN
  2
AcImSysVarManager
  3
AcMeServices
 90
     1024
 91
        5
280
     0
281
     0
  0
CLASS
  1
ACIMREALSYSVAR
  2
AcImRealSysVar
  3
AcMeServices
 90
     1024
 91
        1
280
     0
281
     0
  0
CLASS
  1
ACIMINTSYSVAR
  2
AcImIntSysVar
  3
AcMeServices
 90
     1024
 91
       27
280
     0
281
     0
  0
CLASS
  1
ACMEDRAWINGMAN
  2
AcMeDrawingMan
  3
AcMeServices
 90
     1024
 91
        1
280
     0
281
     0
  0
CLASS
  1
ACMEVIEW
  2
AcMeView
  3
AcMeServices
 90
     1024
 91
        1
280
     0
281
     0
  0
CLASS
  1
ACDBENTITYCACHE
  2
AcMeEntityCache
  3
AcMeServices
 90
     1024
 91
        1
280
     0
281
     0
  0
CLASS
  1
GSMANAGER
  2
AcMeGSManager
  3
AcMeServices
 90
     1024
 91
        1
280
     0
281
     0
  0
CLASS
  1
AMDTINTERNALREACTOR
  2
AmdtInternalReactor
  3
AcMeServices
 90
     1024
 91
        2
280
     0
281
     0
  0
CLASS
  1
ACMESTATEMGR
  2
AcMeStateMgr
  3
AcMeServices
 90
     1024
 91
        1
280
     0
281
     0
  0
CLASS
  1
ACGREFMASTER
  2
AcGrefMaster
  3
AcAttribServices
 90
     1024
 91
        1
280
     0
281
     0
  0
CLASS
  1
ACME_DATABASE
  2
AcMeDbDatabase
  3
AcMeServices
 90
     1024
 91
        1
280
     0
281
     0
  0
CLASS
  1
ACRFINSADJUSTERMGR
  2
AcRfInsAdjusterMgr
  3
AcMeServices
 90
     1024
 91
        1
280
     0
281
     0
  0
CLASS
  1
ACGREFACADMASTER
  2
AcGrefacadMaster
  3
AcGrefServices
 90
     1024
 91
        1
280
     0
281
     0
  0
CLASS
  1
AMIMASTER
  2
AmiMaster
  3
AmiServices
 90
     1024
 91
        1
280
     0
281
     0
  0
CLASS
  1
ACIMSTRSYSVAR
  2
AcImStrSysVar
  3
AcMeServices
 90
     1024
 91
        5
280
     0
281
     0
  0
CLASS
  1
ACMSTANDARDJIS
  2
AcmStandardJIS
  3
"Amdt_StdImp|Product Description: AutoCAD Mechanical|Company: Autodesk, Inc."
 90
     1024
 91
        0
280
     0
281
     0
  0
CLASS
  1
AMGOBJPROPCFG
  2
AmgObjPropCfg
  3
"AmgLay|Product Description: AutoCAD Mechanical|Company: Autodesk, Inc."
 90
     1025
 91
        1
280
     0
281
     0
  0
CLASS
  1
ACMSURFSTANDARDJIS
  2
AcmSurfTextStdJIS
  3
"Amdt_StdImp|Product Description: AutoCAD Mechanical|Company: Autodesk, Inc."
 90
     1024
 91
        0
280
     0
281
     0
  0
CLASS
  1
ACMFCFSTANDARDJIS
  2
AcmFCFStdJIS
  3
"Amdt_StdImp|Product Description: AutoCAD Mechanical|Company: Autodesk, Inc."
 90
     1024
 91
        0
280
     0
281
     0
  0
CLASS
  1
ACMWELDSTANDARDJIS
  2
AcmWeldingStdJIS
  3
"Amdt_StdImp|Product Description: AutoCAD Mechanical|Company: Autodesk, Inc."
 90
     1024
 91
        0
280
     0
281
     0
  0
CLASS
  1
ACMIDSTANDARDJIS
  2
AcmIdStdJIS
  3
"Amdt_StdImp|Product Description: AutoCAD Mechanical|Company: Autodesk, Inc."
 90
     1024
 91
        0
280
     0
281
     0
  0
CLASS
  1
ACMDATUMSTANDARDJIS
  2
AcmDatumStdJIS
  3
"Amdt_StdImp|Product Description: AutoCAD Mechanical|Company: Autodesk, Inc."
 90
     1024
 91
        0
280
     0
281
     0
  0
CLASS
  1
ACMBOMSTANDARDJIS
  2
AcmBOMStdJIS
  3
"Amdt_StdImp|Product Description: AutoCAD Mechanical|Company: Autodesk, Inc."
 90
     1024
 91
        0
280
     0
281
     0
  0
CLASS
  1
ACMDETAILSTANDARDJIS
  2
AmdtDetailSymStdJIS
  3
"Amdt_StdImp|Product Description: AutoCAD Mechanical|Company: Autodesk, Inc."
 90
     1024
 91
        0
280
     0
281
     0
  0
CLASS
  1
ACMSECTIONSTANDARDJIS
  2
AmdtSectionSymStdJIS
  3
"Amdt_StdImp|Product Description: AutoCAD Mechanical|Company: Autodesk, Inc."
 90
     1024
 91
        0
280
     0
281
     0
  0
CLASS
  1
ACMCENTERLINESTANDARDJIS
  2
AmdtCenterLineStdJIS
  3
"Amdt_StdImp|Product Description: AutoCAD Mechanical|Company: Autodesk, Inc."
 90
     1024
 91
        0
280
     0
281
     0
  0
CLASS
  1
ACMTHREADLINESTANDARDJIS
  2
AmdtThreadLineStdJIS
  3
"Amdt_StdImp|Product Description: AutoCAD Mechanical|Company: Autodesk, Inc."
 90
     1024
 91
        0
280
     0
281
     0
  0
CLASS
  1
ACAMGLAYSTD
  2
AcAmgLayStd
  3
"AmgLay|Product Description: AutoCAD Mechanical|Company: Autodesk, Inc."
 90
     1024
 91
        1
280
     0
281
     0
  0
CLASS
  1
ACAMGDIMSTD
  2
AcAmgDimStd
  3
"AmgDim|Product Description: AutoCAD Mechanical|Company: Autodesk, Inc."
 90
     1024
 91
        1
280
     0
281
     0
  0
CLASS
  1
ACAMGTITLESTD
  2
AcAmgTitleStd
  3
"AmgTitle|Product Description: AutoCAD Mechanical|Company: Autodesk, Inc."
 90
     4095
 91
        1
280
     0
281
     0
  0
CLASS
  1
ACMDATADICTIONARY
  2
AcmDataDictionary
  3
"AcmSymBB|Product Description: AutoCAD Mechanical|Company: Autodesk, Inc."
 90
     1024
 91
        1
280
     0
281
     0
  0
CLASS
  1
ACMDATAENTRYBLOCK
  2
AcmDataEntryBlock
  3
AcmSymBB|Product Description: AutoCAD Mechanical|Company: Autodesk, Inc.
 90
     1024
 91
        0
280
     0
281
     0
  0
CLASS
  1
LAYER_INDEX
  2
AcDbLayerIndex
  3
ObjectDBX Classes
 90
        0
 91
        0
280
     0
281
     0
  0
CLASS
  1
IDBUFFER
  2
AcDbIdBuffer
  3
ObjectDBX Classes
 90
        0
 91
        0
280
     0
281
     0
  0
CLASS
  1
ACMNOTESTANDARDJIS
  2
AmdtNoteStdJIS
  3
"Amdt_StdImp|Product Description: AutoCAD Mechanical|Company: Autodesk, Inc."
 90
     1024
 91
        0
280
     0
281
     0
  0
CLASS
  1
ACAMGHOLECHARTSTDJIS
  2
AcAmgHoleChartStdJIS
  3
AmgDim|Product Description: AutoCAD Mechanical|Company: Autodesk, Inc.
 90
     1024
 91
        0
280
     0
281
     0
  0
CLASS
  1
AM_DRAWING_MGR
  2
AcDmDwgMgr
  3
AcMechDwgViewMgmt
 90
     1024
 91
        1
280
     0
281
     0
  0
CLASS
  1
AM_DWG_DOCUMENT
  2
AcDmDwgDocument
  3
AcMechDwgViewMgmt
 90
     1024
 91
        1
280
     0
281
     0
  0
CLASS
  1
AM_DWG_SHEET
  2
AcDmSheet
  3
AcMechDwgViewMgmt
 90
     1024
 91
        2
280
     0
281
     0
  0
CLASS
  1
AM_VIEWDIMPARMAP
  2
AcDmViewDimParMap
  3
AcMechDwgViewMgmt
 90
     1024
 91
        2
280
     0
281
     0
  0
CLASS
  1
AM_DWGMGR_NAME
  2
AcDmDwgMgrName
  3
AcMechDwgViewMgmt
 90
     1024
 91
        1
280
     0
281
     0
  0
CLASS
  1
AMDTMENUSTATEMGR
  2
AmdtMenuStateMgr
  3
McadcomServices
 90
     1024
 91
        1
280
     0
281
     0
  0
CLASS
  1
AMDTMCOMMENUSTATE
  2
AmdtMcomMenuState
  3
McadcomServices
 90
     1024
 91
        1
280
     0
281
     0
  0
CLASS
  1
MAPIAMMOUDLE
  2
MApiAmModule
  3
MApiAmServices
 90
     1024
 91
        1
280
     0
281
     0
  0
CLASS
  1
AMDTADMENUSTATE
  2
AmdtAdMenuState
  3
DesignerServices
 90
     1024
 91
        1
280
     0
281
     0
  0
CLASS
  1
ADAPPL
  2
AcAdAppl
  3
DesignerServices
 90
     1024
 91
        1
280
     0
281
     0
  0
CLASS
  1
DEPMGR
  2
AcAdDepMgr
  3
DesignerServices
 90
     1024
 91
        1
280
     0
281
     0
  0
CLASS
  1
PARAMMGR
  2
AcAdParamMgr
  3
DesignerServices
 90
     1024
 91
        1
280
     0
281
     0
  0
CLASS
  1
PARAMSCOPE
  2
AcAdParamScope
  3
DesignerServices
 90
     1024
 91
        1
280
     0
281
     0
  0
CLASS
  1
NAMEDAPPL
  2
AcAdNamedAppl
  3
DesignerServices
 90
     1024
 91
        1
280
     0
281
     0
  0
CLASS
  1
AMDTDMMENUSTATE
  2
AmdtDmMenuState
  3
AcMechDwgViewMgmt
 90
     1024
 91
        1
280
     0
281
     0
  0
CLASS
  1
AMDTAMMENUSTATE
  2
AmdtAmMenuState
  3
DesignerAssemblies
 90
     1024
 91
        1
280
     0
281
     0
  0
CLASS
  1
ACAMPROJECT
  2
AcAmProject
  3
DesignerAssemblies
 90
     1024
 91
        1
280
     0
281
     0
  0
CLASS
  1
ACAMGRCOMPDEF
  2
AcAmGrCompDef
  3
DesignerAssemblies
 90
     1024
 91
        1
280
     0
281
     0
  0
CLASS
  1
ACCMCONTEXT
  2
AcCmContext
  3
DesignerAssemblies
 90
     1024
 91
        1
280
     0
281
     0
  0
CLASS
  1
ACAMCOMPDEF
  2
AcAmCompDef
  3
DesignerAssemblies
 90
     1024
 91
        1
280
     0
281
     0
  0
CLASS
  1
ACAMCOMPDEFMGR
  2
AcAmCompDefMgr
  3
DesignerAssemblies
 90
     1024
 91
        1
280
     0
281
     0
  0
CLASS
  1
AMCONTEXTMGR
  2
AcAmContextMgr
  3
DesignerAssemblies
 90
     1024
 91
        1
280
     0
281
     0
  0
CLASS
  1
ACAMCONTEXTMODELER
  2
AcAmContextModeler
  3
DesignerAssemblies
 90
     1024
 91
        1
280
     0
281
     0
  0
CLASS
  1
CATALOGSTATE
  2
AcAmCatalogState
  3
DesignerAssemblies
 90
     1024
 91
        1
280
     0
281
     0
  0
CLASS
  1
ACAMGRCOMPDEFSET
  2
AcAmGrCompDefSet
  3
DesignerAssemblies
 90
     1024
 91
        1
280
     0
281
     0
  0
CLASS
  1
AMDTBROWSERDBTAB
  2
AmdtBrowserDbTab
  3
McadcomServices
 90
     1024
 91
        1
280
     0
281
     0
  0
CLASS
  1
CBROWSERAPPOBJECT
  2
CBrowserAppObject
  3
McadcomServices
 90
     1024
 91
        3
280
     0
281
     0
  0
CLASS
  1
DM_PLACEHOLDER
  2
AcDmSelsetPlaceholder
  3
AcMechDwgViewMgmt
 90
     1024
 91
        1
280
     0
281
     0
  0
CLASS
  1
TABLESTYLE
  2
AcDbTableStyle
  3
ObjectDBX Classes
 90
     4095
 91
        1
280
     0
281
     0
  0
CLASS
  1
VAACXREFPANELOBJECT
  2
VaAcXREFPanelObject
  3
VAAC_ADDIN
 90
        0
 91
        0
280
     0
281
     0
  0
CLASS
  1
VAACIMAGEINVENTORY
  2
VaAcImageInventory
  3
VAAC_ADDIN
 90
        0
 91
        0
280
     0
281
     0
  0
CLASS
  1
AMDTNOTETEMPLATEDB
  2
AmdtNoteTemplateDB
  3
AcmSymBB|Product Description: AutoCAD Mechanical|Company: Autodesk, Inc.
 90
     1024
 91
        6
280
     0
281
     0
  0
CLASS
  1
ACAMGFILTERDAT
  2
AcAmgFilterDat
  3
"AcadM|Product Description: AutoCAD Mechanical|Company: Autodesk, Inc."
 90
     1024
 91
        0
280
     0
281
     0
  0
CLASS
  1
MATERIAL
  2
AcDbMaterial
  3
ObjectDBX Classes
 90
     1153
 91
        3
280
     0
281
     0
  0
CLASS
  1
VISUALSTYLE
  2
AcDbVisualStyle
  3
ObjectDBX Classes
 90
     4095
 91
       16
280
     0
281
     0
  0
CLASS
  1
ACRFATTGENMGR
  2
AcRfAttGeneralMgr
  3
AcAttribServices
 90
     1024
 91
        0
280
     0
281
     0
  0
CLASS
  1
ACRFOBJATTMGR
  2
AcRfObjAttGroupMgr
  3
AcAttribServices
 90
     1024
 91
        0
280
     0
281
     0
  0
CLASS
  1
ACRFMCADAPIATTHOLDER
  2
AcRfMCADAPIAttHolder
  3
AcAttribServices
 90
     1024
 91
        0
280
     0
281
     0
  0
CLASS
  1
AMDTSYSATTR
  2
AmdtSystemAttribute
  3
AcAttribServices
 90
     1024
 91
        0
280
     0
281
     0
  0
CLASS
  1
ACMTAPERSTANDARDJIS
  2
AcmTaperStdJIS
  3
"Amdt_StdImp|Product Description: AutoCAD Mechanical|Company: Autodesk, Inc."
 90
     1024
 91
        0
280
     0
281
     0
  0
CLASS
  1
CAMSSTRUCTBTNSTATE
  2
StructBtnState
  3
DesignerAssemblies
 90
     1024
 91
        0
280
     0
281
     0
  0
CLASS
  1
SCALE
  2
AcDbScale
  3
ObjectDBX Classes
 90
     1153
 91
       37
280
     0
281
     0
  0
CLASS
  1
MLEADERSTYLE
  2
AcDbMLeaderStyle
  3
ACDB_MLEADERSTYLE_CLASS
 90
     4095
 91
        1
280
     0
281
     0
  0
CLASS
  1
ACMANOOTATIONVIEWSTANDARDJIS
  2
AmdtAnViewStdJIS
  3
"Amdt_StdImp|Product Description: AutoCAD Mechanical|Company: Autodesk, Inc."
 90
     1024
 91
        0
280
     0
281
     0
  0
CLASS
  1
ACMSURFSTANDARDJIS2003
  2
AcmSurfTextStdJIS2003
  3
"Amdt_StdImp|Product Description: AutoCAD Mechanical|Company: Autodesk, Inc."
 90
     1024
 91
        0
280
     0
281
     0
  0
CLASS
  1
CELLSTYLEMAP
  2
AcDbCellStyleMap
  3
ObjectDBX Classes
 90
     1152
 91
        2
280
     0
281
     0
  0
CLASS
  1
ACMFCFSTANDARDJIS98
  2
AcmFCFStdJIS98
  3
"Amdt_StdImp|Product Description: AutoCAD Mechanical|Company: Autodesk, Inc."
 90
     1024
 91
        0
280
     0
281
     0
  0
CLASS
  1
SORTENTSTABLE
  2
AcDbSortentsTable
  3
ObjectDBX Classes
 90
        0
 91
       13
280
     0
281
     0
  0
CLASS
  1
DIMASSOC
  2
AcDbDimAssoc
  3
"AcDbDimAssoc|Product Desc:     AcDim ARX App For Dimension|Company:          Autodesk, Inc.|WEB Address:      www.autodesk.com"
 90
        0
 91
       14
280
     0
281
     0
  0
CLASS
  1
STDPART2D
  2
AmgStdPart
  3
AmgStdPart|Product Description: AutoCAD Mechanical|Company: Autodesk, Inc.
 90
     4095
 91
        0
280
     0
281
     1
  0
CLASS
  1
ACMDATAENTRYPART
  2
AcmDataEntryPart
  3
AcmSymBB|Product Description: AutoCAD Mechanical|Company: Autodesk, Inc.
 90
     1024
 91
        0
280
     0
281
     0
  0
CLASS
  1
ACMPARTREF
  2
AcmPartRef
  3
"AcmSymBB|Product Description: AutoCAD Mechanical|Company: Autodesk, Inc."
 90
     4095
 91
        0
280
     0
281
     1
  0
CLASS
  1
ACDBSTDPARTRES_LINE
  2
AcDbStdPartRes_Line
  3
AmgStdPart|Product Description: AutoCAD Mechanical|Company: Autodesk, Inc.
 90
     1024
 91
        0
280
     0
281
     0
  0
CLASS
  1
ACMBOM
  2
AcmBom
  3
"AcmSymBB|Product Description: AutoCAD Mechanical|Company: Autodesk, Inc."
 90
     1024
 91
        0
280
     0
281
     0
  0
CLASS
  1
AMDTFORMULAUPDATEDISPATCHER
  2
AmdtFormulaUpdateDispatcher
  3
AcMeServices
 90
     1024
 91
        0
280
     0
281
     0
  0
CLASS
  1
ACMBOMROW
  2
AcmBomRow
  3
"AcmSymBB|Product Description: AutoCAD Mechanical|Company: Autodesk, Inc."
 90
     1024
 91
        0
280
     0
281
     0
  0
CLASS
  1
ACMPARTLIST
  2
AcmPartList
  3
"AcmSymBB|Product Description: AutoCAD Mechanical|Company: Autodesk, Inc."
 90
     4095
 91
        0
280
     0
281
     1
  0
CLASS
  1
ACDBLINERES
  2
AcDbLineRes
  3
AcGrefServices
 90
     1024
 91
        0
280
     0
281
     0
  0
CLASS
  1
ACRFINSADJ
  2
AcRfInsAdjuster
  3
AcMeServices
 90
     1024
 91
        0
280
     0
281
     0
  0
CLASS
  1
ACMSTANDARDISO
  2
AcmStandardISO
  3
"Amdt_StdImp|Product Description: AutoCAD Mechanical|Company: Autodesk, Inc."
 90
     1024
 91
        1
280
     0
281
     0
  0
CLASS
  1
AMDTEDGESTANDARDISO13715
  2
AmdtEdgeStdISO13715
  3
"Amdt_StdImp|Product Description: AutoCAD Mechanical|Company: Autodesk, Inc."
 90
     1024
 91
        1
280
     0
281
     0
  0
CLASS
  1
ACMSURFSTANDARDISO2002
  2
AcmSurfTextStdISO2002
  3
"Amdt_StdImp|Product Description: AutoCAD Mechanical|Company: Autodesk, Inc."
 90
     1024
 91
        1
280
     0
281
     0
  0
CLASS
  1
ACMFCFSTANDARDISO
  2
AcmFCFStdISO
  3
"Amdt_StdImp|Product Description: AutoCAD Mechanical|Company: Autodesk, Inc."
 90
     1024
 91
        1
280
     0
281
     0
  0
CLASS
  1
ACMWELDSTANDARDISO
  2
AcmWeldingStdISO
  3
"Amdt_StdImp|Product Description: AutoCAD Mechanical|Company: Autodesk, Inc."
 90
     1024
 91
        1
280
     0
281
     0
  0
CLASS
  1
ACMIDSTANDARDISO
  2
AcmIdStdISO
  3
"Amdt_StdImp|Product Description: AutoCAD Mechanical|Company: Autodesk, Inc."
 90
     1024
 91
        1
280
     0
281
     0
  0
CLASS
  1
ACMDATUMSTANDARDISO
  2
AcmDatumStdISO
  3
"Amdt_StdImp|Product Description: AutoCAD Mechanical|Company: Autodesk, Inc."
 90
     1024
 91
        1
280
     0
281
     0
  0
CLASS
  1
ACMBOMSTANDARDISO
  2
AcmBOMStdISO
  3
"Amdt_StdImp|Product Description: AutoCAD Mechanical|Company: Autodesk, Inc."
 90
     1024
 91
        1
280
     0
281
     0
  0
CLASS
  1
ACMDETAILSTANDARDISO
  2
AmdtDetailSymStdISO
  3
"Amdt_StdImp|Product Description: AutoCAD Mechanical|Company: Autodesk, Inc."
 90
     1024
 91
        1
280
     0
281
     0
  0
CLASS
  1
ACMSECTIONSTANDARDISO2001
  2
AmdtSectionSymStdISO2001
  3
"Amdt_StdImp|Product Description: AutoCAD Mechanical|Company: Autodesk, Inc."
 90
     1024
 91
        1
280
     0
281
     0
  0
CLASS
  1
ACMCENTERLINESTANDARDISO
  2
AmdtCenterLineStdISO
  3
"Amdt_StdImp|Product Description: AutoCAD Mechanical|Company: Autodesk, Inc."
 90
     1024
 91
        1
280
     0
281
     0
  0
CLASS
  1
ACMTHREADLINESTANDARDISO
  2
AmdtThreadLineStdISO
  3
"Amdt_StdImp|Product Description: AutoCAD Mechanical|Company: Autodesk, Inc."
 90
     1024
 91
        1
280
     0
281
     0
  0
CLASS
  1
ACMNOTESTANDARDISO
  2
AmdtNoteStdISO
  3
"Amdt_StdImp|Product Description: AutoCAD Mechanical|Company: Autodesk, Inc."
 90
     1024
 91
        1
280
     0
281
     0
  0
CLASS
  1
ACMTAPERSTANDARDISO
  2
AcmTaperStdISO
  3
"Amdt_StdImp|Product Description: AutoCAD Mechanical|Company: Autodesk, Inc."
 90
     1024
 91
        1
280
     0
281
     0
  0
CLASS
  1
ACMANOOTATIONVIEWSTANDARDISO
  2
AmdtAnViewStdISO
  3
"Amdt_StdImp|Product Description: AutoCAD Mechanical|Company: Autodesk, Inc."
 90
     1024
 91
        1
280
     0
281
     0
  0
CLASS
  1
ACAMGHOLECHARTSTDISO
  2
AcAmgHoleChartStdISO
  3
AmgDim|Product Description: AutoCAD Mechanical|Company: Autodesk, Inc.
 90
     1024
 91
        1
280
     0
281
     0
  0
CLASS
  1
EXACXREFPANELOBJECT
  2
ExAcXREFPanelObject
  3
EXAC_ESW
 90
     1025
 91
        0
280
     0
281
     0
  0
CLASS
  1
NPOCOLLECTION
  2
AcDbImpNonPersistentObjectsCollection
  3
ObjectDBX Classes
 90
     1153
 91
        0
280
     0
281
     0
  0
CLASS
  1
ACDBSTDPARTRES_ARC
  2
AcDbStdPartRes_Arc
  3
AmgStdPart|Product Description: AutoCAD Mechanical|Company: Autodesk, Inc.
 90
     1024
 91
        0
280
     0
281
     0
  0
CLASS
  1
AMDTNOTE
  2
AmdtNote
  3
"AcmSymBB|Product Description: AutoCAD Mechanical|Company: Autodesk, Inc."
 90
     4095
 91
        0
280
     0
281
     1
  0
CLASS
  1
PLOTSETTINGS
  2
AcDbPlotSettings
  3
ObjectDBX Classes
 90
        0
 91
        1
280
     0
281
     0
  0
CLASS
  1
ACMSTANDARDANSI
  2
AcmStandardANSI
  3
"Amdt_StdImp|Product Description: AutoCAD Mechanical|Company: Autodesk, Inc."
 90
     1024
 91
        0
280
     0
281
     0
  0
CLASS
  1
ACMSURFSTANDARDANSI
  2
AcmSurfTextStdANSI
  3
"Amdt_StdImp|Product Description: AutoCAD Mechanical|Company: Autodesk, Inc."
 90
     1024
 91
        0
280
     0
281
     0
  0
CLASS
  1
ACMFCFSTANDARDANSI
  2
AcmFCFStdANSI
  3
"Amdt_StdImp|Product Description: AutoCAD Mechanical|Company: Autodesk, Inc."
 90
     1024
 91
        0
280
     0
281
     0
  0
CLASS
  1
ACMWELDSTANDARDANSI
  2
AcmWeldingStdANSI
  3
"Amdt_StdImp|Product Description: AutoCAD Mechanical|Company: Autodesk, Inc."
 90
     1024
 91
        0
280
     0
281
     0
  0
CLASS
  1
ACMIDSTANDARDANSI
  2
AcmIdStdANSI
  3
"Amdt_StdImp|Product Description: AutoCAD Mechanical|Company: Autodesk, Inc."
 90
     1024
 91
        0
280
     0
281
     0
  0
CLASS
  1
ACMDATUMSTANDARDANSI
  2
AcmDatumStdANSI
  3
"Amdt_StdImp|Product Description: AutoCAD Mechanical|Company: Autodesk, Inc."
 90
     1024
 91
        0
280
     0
281
     0
  0
CLASS
  1
ACMBOMSTANDARDANSI
  2
AcmBOMStdANSI
  3
"Amdt_StdImp|Product Description: AutoCAD Mechanical|Company: Autodesk, Inc."
 90
     1024
 91
        0
280
     0
281
     0
  0
CLASS
  1
ACMDETAILSTANDARDANSI
  2
AmdtDetailSymStdANSI
  3
"Amdt_StdImp|Product Description: AutoCAD Mechanical|Company: Autodesk, Inc."
 90
     1024
 91
        0
280
     0
281
     0
  0
CLASS
  1
ACMSECTIONSTANDARDANSI
  2
AmdtSectionSymStdANSI
  3
"Amdt_StdImp|Product Description: AutoCAD Mechanical|Company: Autodesk, Inc."
 90
     1024
 91
        0
280
     0
281
     0
  0
CLASS
  1
ACMCENTERLINESTANDARDANSI
  2
AmdtCenterLineStdANSI
  3
"Amdt_StdImp|Product Description: AutoCAD Mechanical|Company: Autodesk, Inc."
 90
     1024
 91
        0
280
     0
281
     0
  0
CLASS
  1
ACMTHREADLINESTANDARDANSI
  2
AmdtThreadLineStdANSI
  3
"Amdt_StdImp|Product Description: AutoCAD Mechanical|Company: Autodesk, Inc."
 90
     1024
 91
        0
280
     0
281
     0
  0
CLASS
  1
ACMNOTESTANDARDANSI
  2
AmdtNoteStdANSI
  3
"Amdt_StdImp|Product Description: AutoCAD Mechanical|Company: Autodesk, Inc."
 90
     1024
 91
        0
280
     0
281
     0
  0
CLASS
  1
ACMTAPERSTANDARDANSI
  2
AcmTaperStdANSI
  3
"Amdt_StdImp|Product Description: AutoCAD Mechanical|Company: Autodesk, Inc."
 90
     1024
 91
        0
280
     0
281
     0
  0
CLASS
  1
ACMANOOTATIONVIEWSTANDARDANSI
  2
AmdtAnViewStdANSI
  3
"Amdt_StdImp|Product Description: AutoCAD Mechanical|Company: Autodesk, Inc."
 90
     1024
 91
        0
280
     0
281
     0
  0
CLASS
  1
ACAMGHOLECHARTSTDANSI
  2
AcAmgHoleChartStdANSI
  3
AmgDim|Product Description: AutoCAD Mechanical|Company: Autodesk, Inc.
 90
     1024
 91
        0
280
     0
281
     0
  0
CLASS
  1
ACMSTANDARDBSI
  2
AcmStandardBSI
  3
"Amdt_StdImp|Product Description: AutoCAD Mechanical|Company: Autodesk, Inc."
 90
     1024
 91
        0
280
     0
281
     0
  0
CLASS
  1
ACMSURFSTANDARDBSI2002
  2
AcmSurfTextStdBSI2002
  3
"Amdt_StdImp|Product Description: AutoCAD Mechanical|Company: Autodesk, Inc."
 90
     1024
 91
        0
280
     0
281
     0
  0
CLASS
  1
ACMFCFSTANDARDBSI
  2
AcmFCFStdBSI
  3
"Amdt_StdImp|Product Description: AutoCAD Mechanical|Company: Autodesk, Inc."
 90
     1024
 91
        0
280
     0
281
     0
  0
CLASS
  1
ACMWELDSTANDARDBSI
  2
AcmWeldingStdBSI
  3
"Amdt_StdImp|Product Description: AutoCAD Mechanical|Company: Autodesk, Inc."
 90
     1024
 91
        0
280
     0
281
     0
  0
CLASS
  1
ACMIDSTANDARDBSI
  2
AcmIdStdBSI
  3
"Amdt_StdImp|Product Description: AutoCAD Mechanical|Company: Autodesk, Inc."
 90
     1024
 91
        0
280
     0
281
     0
  0
CLASS
  1
ACMDATUMSTANDARDBSI
  2
AcmDatumStdBSI
  3
"Amdt_StdImp|Product Description: AutoCAD Mechanical|Company: Autodesk, Inc."
 90
     1024
 91
        0
280
     0
281
     0
  0
CLASS
  1
ACMBOMSTANDARDBSI
  2
AcmBOMStdBSI
  3
"Amdt_StdImp|Product Description: AutoCAD Mechanical|Company: Autodesk, Inc."
 90
     1024
 91
        0
280
     0
281
     0
  0
CLASS
  1
ACMDETAILSTANDARDBSI
  2
AmdtDetailSymStdBSI
  3
"Amdt_StdImp|Product Description: AutoCAD Mechanical|Company: Autodesk, Inc."
 90
     1024
 91
        0
280
     0
281
     0
  0
CLASS
  1
ACMSECTIONSTANDARDBSI2001
  2
AmdtSectionSymStdBSI2001
  3
"Amdt_StdImp|Product Description: AutoCAD Mechanical|Company: Autodesk, Inc."
 90
     1024
 91
        0
280
     0
281
     0
  0
CLASS
  1
ACMCENTERLINESTANDARDBSI
  2
AmdtCenterLineStdBSI
  3
"Amdt_StdImp|Product Description: AutoCAD Mechanical|Company: Autodesk, Inc."
 90
     1024
 91
        0
280
     0
281
     0
  0
CLASS
  1
ACMTHREADLINESTANDARDBSI
  2
AmdtThreadLineStdBSI
  3
"Amdt_StdImp|Product Description: AutoCAD Mechanical|Company: Autodesk, Inc."
 90
     1024
 91
        0
280
     0
281
     0
  0
CLASS
  1
ACMNOTESTANDARDBSI
  2
AmdtNoteStdBSI
  3
"Amdt_StdImp|Product Description: AutoCAD Mechanical|Company: Autodesk, Inc."
 90
     1024
 91
        0
280
     0
281
     0
  0
CLASS
  1
ACMTAPERSTANDARDBSI
  2
AcmTaperStdBSI
  3
"Amdt_StdImp|Product Description: AutoCAD Mechanical|Company: Autodesk, Inc."
 90
     1024
 91
        0
280
     0
281
     0
  0
CLASS
  1
ACMANOOTATIONVIEWSTANDARDBSI
  2
AmdtAnViewStdBSI
  3
"Amdt_StdImp|Product Description: AutoCAD Mechanical|Company: Autodesk, Inc."
 90
     1024
 91
        0
280
     0
281
     0
  0
CLASS
  1
ACAMGHOLECHARTSTDBSI
  2
AcAmgHoleChartStdBSI
  3
AmgDim|Product Description: AutoCAD Mechanical|Company: Autodesk, Inc.
 90
     1024
 91
        0
280
     0
281
     0
  0
CLASS
  1
AMDTEDGESTANDARDJIS
  2
AmdtEdgeStdJIS
  3
"Amdt_StdImp|Product Description: AutoCAD Mechanical|Company: Autodesk, Inc."
 90
     1024
 91
        0
280
     0
281
     0
  0
CLASS
  1
ACDB_BLKREFOBJECTCONTEXTDATA_CLASS
  2
AcDbBlkRefObjectContextData
  3
ObjectDBX Classes
 90
     1153
 91
        0
280
     0
281
     0
  0
CLASS
  1
ACMSURFSYM
  2
AcmSurfaceTexture
  3
"AcmSymBB|Product Description: AutoCAD Mechanical|Company: Autodesk, Inc."
 90
     4095
 91
        0
280
     0
281
     1
  0
CLASS
  1
ACDBDIMENSIONRES
  2
AcDbDimensionRes
  3
AcmSymBB|Product Description: AutoCAD Mechanical|Company: Autodesk, Inc.
 90
     1024
 91
        0
280
     0
281
     0
  0
CLASS
  1
ACDBCIRCARCRES
  2
AcDbCircArcRes
  3
AcGrefServices
 90
     1024
 91
        0
280
     0
281
     0
  0
CLASS
  1
AMDTACMWBLOCKBOMENTITY
  2
AmdtAcmWblockBomEntity
  3
"AcmSymBB|Product Description: AutoCAD Mechanical|Company: Autodesk, Inc."
 90
     4095
 91
        0
280
     0
281
     1
  0
CLASS
  1
ACDBOPPOLYLINERES
  2
AcDbOpPolylineRes
  3
AcGrefServices
 90
     1024
 91
        0
280
     0
281
     0
  0
CLASS
  1
ACMPICKOBJ
  2
AcmPickEnt
  3
"AcmSymBB|Product Description: AutoCAD Mechanical|Company: Autodesk, Inc."
 90
     1024
 91
        0
280
     0
281
     1
  0
CLASS
  1
ACMBALLOON
  2
AcmBalloon
  3
"AcmSymBB|Product Description: AutoCAD Mechanical|Company: Autodesk, Inc."
 90
     4095
 91
        0
280
     0
281
     1
  0
ENDSEC
  0
SECTION
  2
TABLES
  0
TABLE
  2
VPORT
  5
8
330
0
100
AcDbSymbolTable
 70
     1
  0
VPORT
  5
27A
330
8
100
AcDbSymbolTableRecord
100
AcDbViewportTableRecord
  2
*Active
 70
     0
 10
0.0
 20
0.0
 11
1.0
 21
1.0
 12
1317.293708254508
 22
1188.539298093552
 13
0.0
 23
0.0
 14
15.0
 24
15.0
 15
60.0
 25
60.0
 16
0.0
 26
0.0
 36
1.0
 17
0.0
 27
0.0
 37
0.0
 40
695.523427083483
 41
1.571428571428571
 42
50.0
 43
0.0
 44
0.0
 50
0.0
 51
0.0
 71
     0
 72
 20000
 73
     1
 74
     3
 75
     0
 76
     0
 77
     0
 78
     0
281
     0
 65
     0
110
0.0
120
0.0
130
0.0
111
1.0
121
0.0
131
0.0
112
0.0
122
1.0
132
0.0
 79
     0
146
0.0
348
285
 60
     3
 61
     5
292
     1
282
     0
141
0.0
142
0.0
 63
   250
421
  3355443
  0
ENDTAB
  0
TABLE
  2
LTYPE
  5
5
330
0
100
AcDbSymbolTable
 70
    22
  0
LTYPE
  5
14
330
5
100
AcDbSymbolTableRecord
100
AcDbLinetypeTableRecord
  2
ByBlock
 70
     0
  3

 72
    65
 73
     0
 40
0.0
  0
LTYPE
  5
15
330
5
100
AcDbSymbolTableRecord
100
AcDbLinetypeTableRecord
  2
ByLayer
 70
     0
  3

 72
    65
 73
     0
 40
0.0
  0
LTYPE
  5
16
330
5
100
AcDbSymbolTableRecord
100
AcDbLinetypeTableRecord
  2
Continuous
 70
     0
  3
Solid line
 72
    65
 73
     0
 40
0.0
  0
LTYPE
  5
4D
330
5
100
AcDbSymbolTableRecord
100
AcDbLinetypeTableRecord
  2
AM_ISO02W050
 70
     0
  3
__ __ __ __ __ __ __ __ __ __ __ __ __ __ __
 72
    65
 73
     2
 40
7.5
 49
6.0
 74
     0
 49
-1.5
 74
     0
  0
LTYPE
  5
4E
330
5
100
AcDbSymbolTableRecord
100
AcDbLinetypeTableRecord
  2
AM_ISO08W050
 70
     0
  3
____ . ____ . ____ . ____ . ____ . ____ . ____
 72
    65
 73
     4
 40
18.0
 49
12.0
 74
     0
 49
-1.5
 74
     0
 49
3.0
 74
     0
 49
-1.5
 74
     0
  0
LTYPE
  5
4F
330
5
100
AcDbSymbolTableRecord
100
AcDbLinetypeTableRecord
  2
AM_ISO09W050
 70
     0
  3
_____ . . _____ . . _____ . . ____ .. ____
 72
    65
 73
     6
 40
22.5
 49
12.0
 74
     0
 49
-1.5
 74
     0
 49
3.0
 74
     0
 49
-1.5
 74
     0
 49
3.0
 74
     0
 49
-1.5
 74
     0
  0
LTYPE
  5
50
330
5
100
AcDbSymbolTableRecord
100
AcDbLinetypeTableRecord
  2
Amconstr
 70
     0
  3
_______________________
 72
    65
 73
     2
 40
9999.0
 49
9999.0
 74
     0
 49
0.0
 74
     0
  0
LTYPE
  5
51
330
5
100
AcDbSymbolTableRecord
100
AcDbLinetypeTableRecord
  2
AM_ISO08W050x2
 70
     0
  3
__ . __ . __ . __ . __ . __
 72
    65
 73
     4
 40
9.0
 49
6.0
 74
     0
 49
-0.75
 74
     0
 49
1.5
 74
     0
 49
-0.75
 74
     0
  0
LTYPE
  5
52
330
5
100
AcDbSymbolTableRecord
100
AcDbLinetypeTableRecord
  2
AM_ISO02W050x2
 70
     0
  3
 _ _ _ _ _ _ _ _ _ _ _ _
 72
    65
 73
     2
 40
3.75
 49
3.0
 74
     0
 49
-0.75
 74
     0
  0
LTYPE
  5
55
330
5
100
AcDbSymbolTableRecord
100
AcDbLinetypeTableRecord
  2
Amzigzag
 70
     0
  3
/\/-/\/-/\/-/\/-/\/-/\/
 72
    65
 73
     2
 40
11.0001
 49
0.0001
 74
     4
 75
   136
340
23D
 46
0.04
 50
0.0
 44
0.0
 45
0.0
 49
-11.0
 74
     0
  0
LTYPE
  5
65
330
5
100
AcDbSymbolTableRecord
100
AcDbLinetypeTableRecord
  2
CENTER
 70
     0
  3
__ . __
 72
    65
 73
     4
 40
7.0
 49
4.0
 74
     0
 49
-1.0
 74
     0
 49
1.0
 74
     0
 49
-1.0
 74
     0
  0
LTYPE
  5
E0
330
5
100
AcDbSymbolTableRecord
100
AcDbLinetypeTableRecord
  2
HIDDEN
 70
     0
  3
Hidden __ __ __ __ __ __ __ __ __ __ __ __ __ _
 72
    65
 73
     2
 40
9.524999999999996
 49
6.349999999999998
 74
     0
 49
-3.174999999999998
 74
     0
  0
LTYPE
  5
E1
330
5
100
AcDbSymbolTableRecord
100
AcDbLinetypeTableRecord
  2
PHANTOM2
 70
     0
  3
Phantom (.5x) ___ _ _ ___ _ _ ___ _ _ ___ _ _
 72
    65
 73
     6
 40
31.75
 49
15.875
 74
     0
 49
-3.174999999999998
 74
     0
 49
3.174999999999998
 74
     0
 49
-3.174999999999998
 74
     0
 49
3.174999999999998
 74
     0
 49
-3.174999999999998
 74
     0
  0
LTYPE
  5
5A2
330
5
100
AcDbSymbolTableRecord
100
AcDbLinetypeTableRecord
  2
ACJISWELD
 70
     0
  3
_ _ _ _ _
 72
    65
 73
     2
 40
2.0
 49
2.0
 74
     0
 49
-1.0
 74
     0
  0
LTYPE
  5
7E46
330
5
100
AcDbSymbolTableRecord
100
AcDbLinetypeTableRecord
  2
ACISOWELD
 70
     0
  3
_ _ _ _ _
 72
    65
 73
     2
 40
2.0
 49
2.0
 74
     0
 49
-1.0
 74
     0
  0
LTYPE
  5
7E47
330
5
100
AcDbSymbolTableRecord
100
AcDbLinetypeTableRecord
  2
ACISOTGB
 70
     0
  3
__ . . __ . .
 72
    65
 73
     6
 40
9.0
 49
4.0
 74
     0
 49
-1.0
 74
     0
 49
1.0
 74
     0
 49
-1.0
 74
     0
 49
1.0
 74
     0
 49
-1.0
 74
     0
  0
LTYPE
  5
7E48
330
5
100
AcDbSymbolTableRecord
100
AcDbLinetypeTableRecord
  2
ACISOTGL
 70
     0
  3
_ _ _ _ _
 72
    65
 73
     2
 40
3.0
 49
2.0
 74
     0
 49
-1.0
 74
     0
  0
ENDTAB
  0
TABLE
  2
LAYER
  5
2
102
{ACAD_XDICTIONARY
360
BF
102
}
330
0
100
AcDbSymbolTable
 70
     9
  0
LAYER
  5
10
102
{ACAD_XDICTIONARY
360
29F7
102
}
330
2
100
AcDbSymbolTableRecord
100
AcDbLayerTableRecord
  2
0
 70
     0
 62
     7
  6
Continuous
370
    -3
390
F
347
27E
  0
LAYER
  5
81
102
{ACAD_XDICTIONARY
360
29F9
102
}
330
2
100
AcDbSymbolTableRecord
100
AcDbLayerTableRecord
  2
AM_0 外形線1
 70
     0
 62
     7
  6
Continuous
370
    25
390
F
347
27E
  0
LAYER
  5
427
330
2
100
AcDbSymbolTableRecord
100
AcDbLayerTableRecord
  2
Defpoints
 70
     0
 62
     7
  6
Continuous
290
     0
370
    -3
390
F
347
27E
  0
LAYER
  5
3B51
330
2
100
AcDbSymbolTableRecord
100
AcDbLayerTableRecord
  2
AM_5 寸法線
 70
     0
 62
     3
  6
Continuous
370
    13
390
F
347
27E
1001
AcAecLayerStandard
1000

1000

  0
LAYER
  5
3B52
330
2
100
AcDbSymbolTableRecord
100
AcDbLayerTableRecord
  2
AM_4 細線
 70
     0
 62
     4
  6
Continuous
370
    13
390
F
347
27E
1001
AcAecLayerStandard
1000

1000

  0
LAYER
  5
3B53
330
2
100
AcDbSymbolTableRecord
100
AcDbLayerTableRecord
  2
AM_7 中心線
 70
     0
 62
     1
  6
AM_ISO08W050
370
    13
390
F
347
27E
1001
AcAecLayerStandard
1000

1000

  0
LAYER
  5
3B54
330
2
100
AcDbSymbolTableRecord
100
AcDbLayerTableRecord
  2
AM_3 隠れ線
 70
     0
 62
     8
  6
ACJISWELD
370
    13
390
F
347
27E
1001
AcAecLayerStandard
1000

1000

  0
LAYER
  5
3B57
330
2
100
AcDbSymbolTableRecord
100
AcDbLayerTableRecord
  2
AM_6 文字
 70
     0
 62
     2
  6
Continuous
370
    13
390
F
347
27E
1001
AcAecLayerStandard
1000

1000

  0
ENDTAB
  0
TABLE
  2
STYLE
  5
3
330
0
100
AcDbSymbolTable
 70
    11
  0
STYLE
  5
11
330
3
100
AcDbSymbolTableRecord
100
AcDbTextStyleTableRecord
  2
STANDARD
 70
     0
 40
0.0
 41
1.0
 50
0.0
 71
     0
 42
25.0
  3
ISOCP.SHX
  4
EXTFONT.SHX
  0
STYLE
  5
23D
330
3
100
AcDbSymbolTableRecord
100
AcDbTextStyleTableRecord
  2

 70
     1
 40
0.0
 41
1.0
 50
0.0
 71
     0
 42
2.5
  3
genltshp.shx
  4

  0
STYLE
  5
5D5
330
3
100
AcDbSymbolTableRecord
100
AcDbTextStyleTableRecord
  2
SEISA
 70
     0
 40
0.0
 41
0.9
 50
0.0
 71
     0
 42
25.0
  3
romans.shx
  4
extfont2.shx
  0
STYLE
  5
7E36
330
3
100
AcDbSymbolTableRecord
100
AcDbTextStyleTableRecord
  2
ACISOTS
 70
     0
 40
1.0
 41
1.0
 50
0.0
 71
     0
 42
25.0
  3
isocp.shx
  4
extfont.shx
  0
STYLE
  5
7E45
330
3
100
AcDbSymbolTableRecord
100
AcDbTextStyleTableRecord
  2
ACISOGDT
 70
     0
 40
0.0
 41
1.0
 50
0.0
 71
     0
 42
25.0
  3
amgdt.shx
  4

  0
ENDTAB
  0
TABLE
  2
VIEW
  5
6
330
0
100
AcDbSymbolTable
 70
     6
  0
VIEW
  5
91B
330
6
100
AcDbSymbolTableRecord
100
AcDbViewTableRecord
  2
AM_VIEW1
 70
     0
 40
891.0000000000001
 10
861.373153857963
 20
1336.500002216292
 41
1722.746305418719
 11
0.0
 21
0.0
 31
1.0
 12
0.0
 22
0.0
 32
0.0
 42
50.0
 43
0.0
 44
0.0
 50
0.0
 71
     0
281
     0
 72
     0
 73
     0
  0
VIEW
  5
91C
330
6
100
AcDbSymbolTableRecord
100
AcDbViewTableRecord
  2
AM_VIEW2
 70
     0
 40
891.0000000000001
 10
1658.626848439243
 20
1336.500002216292
 41
1722.746305418719
 11
0.0
 21
0.0
 31
1.0
 12
0.0
 22
0.0
 32
0.0
 42
50.0
 43
0.0
 44
0.0
 50
0.0
 71
     0
281
     0
 72
     0
 73
     0
  0
VIEW
  5
91D
330
6
100
AcDbSymbolTableRecord
100
AcDbViewTableRecord
  2
AM_VIEW3
 70
     0
 40
891.0000000000001
 10
861.373153857963
 20
445.5000022162923
 41
1722.746305418719
 11
0.0
 21
0.0
 31
1.0
 12
0.0
 22
0.0
 32
0.0
 42
50.0
 43
0.0
 44
0.0
 50
0.0
 71
     0
281
     0
 72
     0
 73
     0
  0
VIEW
  5
91E
330
6
100
AcDbSymbolTableRecord
100
AcDbViewTableRecord
  2
AM_VIEW4
 70
     0
 40
891.0000000000001
 10
1658.626848439243
 20
445.5000022162923
 41
1722.746305418719
 11
0.0
 21
0.0
 31
1.0
 12
0.0
 22
0.0
 32
0.0
 42
50.0
 43
0.0
 44
0.0
 50
0.0
 71
     0
281
     0
 72
     0
 73
     0
  0
VIEW
  5
91F
330
6
100
AcDbSymbolTableRecord
100
AcDbViewTableRecord
  2
AM_VIEW5
 70
     0
 40
891.0000000000001
 10
1260.000001148603
 20
891.0000022162925
 41
1722.74630541872
 11
0.0
 21
0.0
 31
1.0
 12
0.0
 22
0.0
 32
0.0
 42
50.0
 43
0.0
 44
0.0
 50
0.0
 71
     0
281
     0
 72
     0
 73
     0
  0
VIEW
  5
920
330
6
100
AcDbSymbolTableRecord
100
AcDbViewTableRecord
  2
AM_VIEW6
 70
     0
 40
1781.98218
 10
1260.000001148603
 20
891.0000022162925
 41
3445.458155911332
 11
0.0
 21
0.0
 31
1.0
 12
0.0
 22
0.0
 32
0.0
 42
50.0
 43
0.0
 44
0.0
 50
0.0
 71
     0
281
     0
 72
     0
 73
     0
  0
ENDTAB
  0
TABLE
  2
UCS
  5
7
330
0
100
AcDbSymbolTable
 70
     0
  0
ENDTAB
  0
TABLE
  2
APPID
  5
9
330
0
100
AcDbSymbolTable
 70
   396
  0
APPID
  5
12
330
9
100
AcDbSymbolTableRecord
100
AcDbRegAppTableRecord
  2
ACAD
 70
     0
  0
APPID
  5
30
330
9
100
AcDbSymbolTableRecord
100
AcDbRegAppTableRecord
  2
MCAD_NO_VIS
 70
     0
  0
APPID
  5
31
330
9
100
AcDbSymbolTableRecord
100
AcDbRegAppTableRecord
  2
ACAD_TEMP_GRAPHIC
 70
     0
  0
APPID
  5
44
330
9
100
AcDbSymbolTableRecord
100
AcDbRegAppTableRecord
  2
ACATTRIBSERVICES
 70
     0
  0
APPID
  5
F6
330
9
100
AcDbSymbolTableRecord
100
AcDbRegAppTableRecord
  2
AD_DRAW
 70
     0
  0
APPID
  5
114
330
9
100
AcDbSymbolTableRecord
100
AcDbRegAppTableRecord
  2
DESIGNERASSEMBLIES
 70
     0
  0
APPID
  5
118
330
9
100
AcDbSymbolTableRecord
100
AcDbRegAppTableRecord
  2
ACADM_DIM_EDIT
 70
     0
  0
APPID
  5
119
330
9
100
AcDbSymbolTableRecord
100
AcDbRegAppTableRecord
  2
AMDT_DM_ADJ
 70
     0
  0
APPID
  5
1AF
330
9
100
AcDbSymbolTableRecord
100
AcDbRegAppTableRecord
  2
ACAD_DSTYLE_DIMARC_LENGTH_SYMBOL
 70
     0
  0
APPID
  5
1B0
330
9
100
AcDbSymbolTableRecord
100
AcDbRegAppTableRecord
  2
ACAD_DSTYLE_DIMJOGGED_JOGANGLE_SYMBOL
 70
     0
  0
APPID
  5
2D7
330
9
100
AcDbSymbolTableRecord
100
AcDbRegAppTableRecord
  2
ACAD_MLEADERVER
 70
     0
  0
APPID
  5
355
330
9
100
AcDbSymbolTableRecord
100
AcDbRegAppTableRecord
  2
AcadAnnoPO
 70
     0
  0
APPID
  5
428
330
9
100
AcDbSymbolTableRecord
100
AcDbRegAppTableRecord
  2
ACAD_DSTYLE_DIMTEXT_FILL
 70
     0
  0
APPID
  5
429
330
9
100
AcDbSymbolTableRecord
100
AcDbRegAppTableRecord
  2
GENIUS_GENSCREG_15
 70
     0
  0
APPID
  5
42A
330
9
100
AcDbSymbolTableRecord
100
AcDbRegAppTableRecord
  2
GENIUS_GENOBJ-N-SDF_13
 70
     0
  0
APPID
  5
42B
330
9
100
AcDbSymbolTableRecord
100
AcDbRegAppTableRecord
  2
GENIUS_GENODEF_13
 70
     0
  0
APPID
  5
42C
330
9
100
AcDbSymbolTableRecord
100
AcDbRegAppTableRecord
  2
ACAD_EXEMPT_FROM_CAD_STANDARDS
 70
     0
  0
APPID
  5
42D
330
9
100
AcDbSymbolTableRecord
100
AcDbRegAppTableRecord
  2
AcAecLayerStandard
 70
     0
  0
APPID
  5
42E
330
9
100
AcDbSymbolTableRecord
100
AcDbRegAppTableRecord
  2
GENIUS_GENOBJ-N-CEN_13
 70
     0
  0
APPID
  5
42F
330
9
100
AcDbSymbolTableRecord
100
AcDbRegAppTableRecord
  2
GENIUS_GENCEN_19
 70
     0
  0
APPID
  5
430
330
9
100
AcDbSymbolTableRecord
100
AcDbRegAppTableRecord
  2
ACAD_DSTYLE_DIMINSPECT
 70
     0
  0
APPID
  5
431
330
9
100
AcDbSymbolTableRecord
100
AcDbRegAppTableRecord
  2
GENIUS_AMGTXT_16
 70
     0
  0
APPID
  5
432
330
9
100
AcDbSymbolTableRecord
100
AcDbRegAppTableRecord
  2
GENIUS_GENFIL_13
 70
     0
  0
APPID
  5
433
330
9
100
AcDbSymbolTableRecord
100
AcDbRegAppTableRecord
  2
GENIUS_GENOLIS_13
 70
     0
  0
APPID
  5
434
330
9
100
AcDbSymbolTableRecord
100
AcDbRegAppTableRecord
  2
GENIUS_GENOBJ-N-CHA_13
 70
     0
  0
APPID
  5
435
330
9
100
AcDbSymbolTableRecord
100
AcDbRegAppTableRecord
  2
GENIUS_GENOENT_13
 70
     0
  0
APPID
  5
436
330
9
100
AcDbSymbolTableRecord
100
AcDbRegAppTableRecord
  2
GENIUS_GENOREF_13
 70
     0
  0
APPID
  5
437
330
9
100
AcDbSymbolTableRecord
100
AcDbRegAppTableRecord
  2
GENIUS_GENOBJ-N-FIL_13
 70
     0
  0
APPID
  5
438
330
9
100
AcDbSymbolTableRecord
100
AcDbRegAppTableRecord
  2
GEVID1208829536
 70
     0
  0
APPID
  5
439
330
9
100
AcDbSymbolTableRecord
100
AcDbRegAppTableRecord
  2
GEVDC
 70
     0
  0
APPID
  5
43A
330
9
100
AcDbSymbolTableRecord
100
AcDbRegAppTableRecord
  2
GEVRADREF
 70
     0
  0
APPID
  5
43B
330
9
100
AcDbSymbolTableRecord
100
AcDbRegAppTableRecord
  2
GENIUS_GENBH_13
 70
     0
  0
APPID
  5
43C
330
9
100
AcDbSymbolTableRecord
100
AcDbRegAppTableRecord
  2
GENIUS_GENOBJ-NBEHI-BHF_13
 70
     0
  0
APPID
  5
43D
330
9
100
AcDbSymbolTableRecord
100
AcDbRegAppTableRecord
  2
GENIUS_GENOBJ-NBEHI-BHB_13
 70
     0
  0
APPID
  5
43E
330
9
100
AcDbSymbolTableRecord
100
AcDbRegAppTableRecord
  2
GEVID1208829537
 70
     0
  0
APPID
  5
43F
330
9
100
AcDbSymbolTableRecord
100
AcDbRegAppTableRecord
  2
ACAD_DSTYLE_DIMJAG
 70
     0
  0
APPID
  5
440
330
9
100
AcDbSymbolTableRecord
100
AcDbRegAppTableRecord
  2
ACAD_DSTYLE_DIMTALN
 70
     0
  0
APPID
  5
441
330
9
100
AcDbSymbolTableRecord
100
AcDbRegAppTableRecord
  2
AMG_2DHIDE
 70
     0
  0
APPID
  5
442
330
9
100
AcDbSymbolTableRecord
100
AcDbRegAppTableRecord
  2
AMG_2DSTRUCT_BTR
 70
     0
  0
APPID
  5
443
330
9
100
AcDbSymbolTableRecord
100
AcDbRegAppTableRecord
  2
GEVID1208845772
 70
     0
  0
APPID
  5
444
330
9
100
AcDbSymbolTableRecord
100
AcDbRegAppTableRecord
  2
GEVID1208845773
 70
     0
  0
APPID
  5
445
330
9
100
AcDbSymbolTableRecord
100
AcDbRegAppTableRecord
  2
ACADM_2DVIEW_IGN_NOTIFY
 70
     0
  0
APPID
  5
446
330
9
100
AcDbSymbolTableRecord
100
AcDbRegAppTableRecord
  2
GEVID1208845774
 70
     0
  0
APPID
  5
447
330
9
100
AcDbSymbolTableRecord
100
AcDbRegAppTableRecord
  2
GEVID1208845775
 70
     0
  0
APPID
  5
448
330
9
100
AcDbSymbolTableRecord
100
AcDbRegAppTableRecord
  2
GEVID1208845776
 70
     0
  0
APPID
  5
449
330
9
100
AcDbSymbolTableRecord
100
AcDbRegAppTableRecord
  2
GEVID1208845777
 70
     0
  0
APPID
  5
44A
330
9
100
AcDbSymbolTableRecord
100
AcDbRegAppTableRecord
  2
GEVCON
 70
     0
  0
APPID
  5
44B
330
9
100
AcDbSymbolTableRecord
100
AcDbRegAppTableRecord
  2
GENIUS_GENOBJ-F-SCPASSM_13
 70
     0
  0
APPID
  5
44C
330
9
100
AcDbSymbolTableRecord
100
AcDbRegAppTableRecord
  2
GEVID1208845778
 70
     0
  0
APPID
  5
44D
330
9
100
AcDbSymbolTableRecord
100
AcDbRegAppTableRecord
  2
GEVID1208845779
 70
     0
  0
APPID
  5
44E
330
9
100
AcDbSymbolTableRecord
100
AcDbRegAppTableRecord
  2
GEVID1208845780
 70
     0
  0
APPID
  5
44F
330
9
100
AcDbSymbolTableRecord
100
AcDbRegAppTableRecord
  2
GEVID1208845781
 70
     0
  0
APPID
  5
450
330
9
100
AcDbSymbolTableRecord
100
AcDbRegAppTableRecord
  2
GEVID1208845782
 70
     0
  0
APPID
  5
451
330
9
100
AcDbSymbolTableRecord
100
AcDbRegAppTableRecord
  2
GEVID1208845783
 70
     0
  0
APPID
  5
452
330
9
100
AcDbSymbolTableRecord
100
AcDbRegAppTableRecord
  2
GEVID1208845784
 70
     0
  0
APPID
  5
453
330
9
100
AcDbSymbolTableRecord
100
AcDbRegAppTableRecord
  2
GEVID1208845785
 70
     0
  0
APPID
  5
454
330
9
100
AcDbSymbolTableRecord
100
AcDbRegAppTableRecord
  2
GEVID1208845787
 70
     0
  0
APPID
  5
455
330
9
100
AcDbSymbolTableRecord
100
AcDbRegAppTableRecord
  2
GEVID1208845788
 70
     0
  0
APPID
  5
456
330
9
100
AcDbSymbolTableRecord
100
AcDbRegAppTableRecord
  2
GEVID1208845789
 70
     0
  0
APPID
  5
457
330
9
100
AcDbSymbolTableRecord
100
AcDbRegAppTableRecord
  2
GEVID1208845790
 70
     0
  0
APPID
  5
458
330
9
100
AcDbSymbolTableRecord
100
AcDbRegAppTableRecord
  2
GEVID1208845791
 70
     0
  0
APPID
  5
459
330
9
100
AcDbSymbolTableRecord
100
AcDbRegAppTableRecord
  2
GEVID1208845792
 70
     0
  0
APPID
  5
45A
330
9
100
AcDbSymbolTableRecord
100
AcDbRegAppTableRecord
  2
GEVID1208845793
 70
     0
  0
APPID
  5
45B
330
9
100
AcDbSymbolTableRecord
100
AcDbRegAppTableRecord
  2
GEVID1208845794
 70
     0
  0
APPID
  5
45C
330
9
100
AcDbSymbolTableRecord
100
AcDbRegAppTableRecord
  2
GEVID1208845795
 70
     0
  0
APPID
  5
45D
330
9
100
AcDbSymbolTableRecord
100
AcDbRegAppTableRecord
  2
GEVID1208845796
 70
     0
  0
APPID
  5
45E
330
9
100
AcDbSymbolTableRecord
100
AcDbRegAppTableRecord
  2
GEVID1208845797
 70
     0
  0
APPID
  5
45F
330
9
100
AcDbSymbolTableRecord
100
AcDbRegAppTableRecord
  2
GEVID1208845798
 70
     0
  0
APPID
  5
460
330
9
100
AcDbSymbolTableRecord
100
AcDbRegAppTableRecord
  2
GEVID1208845799
 70
     0
  0
APPID
  5
461
330
9
100
AcDbSymbolTableRecord
100
AcDbRegAppTableRecord
  2
GEVID1208845800
 70
     0
  0
APPID
  5
462
330
9
100
AcDbSymbolTableRecord
100
AcDbRegAppTableRecord
  2
GEVID1208845801
 70
     0
  0
APPID
  5
463
330
9
100
AcDbSymbolTableRecord
100
AcDbRegAppTableRecord
  2
GEVID1208845802
 70
     0
  0
APPID
  5
464
330
9
100
AcDbSymbolTableRecord
100
AcDbRegAppTableRecord
  2
GENIUS_GENOBJ-N-DIM_13
 70
     0
  0
APPID
  5
465
330
9
100
AcDbSymbolTableRecord
100
AcDbRegAppTableRecord
  2
GENIUS_GENDIM_13
 70
     0
  0
APPID
  5
466
330
9
100
AcDbSymbolTableRecord
100
AcDbRegAppTableRecord
  2
GENIUS_GENDIMSH_14
 70
     0
  0
APPID
  5
467
330
9
100
AcDbSymbolTableRecord
100
AcDbRegAppTableRecord
  2
GEVID1208845803
 70
     0
  0
APPID
  5
468
330
9
100
AcDbSymbolTableRecord
100
AcDbRegAppTableRecord
  2
GEVID1208845804
 70
     0
  0
APPID
  5
469
330
9
100
AcDbSymbolTableRecord
100
AcDbRegAppTableRecord
  2
GEVID1208845805
 70
     0
  0
APPID
  5
46A
330
9
100
AcDbSymbolTableRecord
100
AcDbRegAppTableRecord
  2
GEVID1208845806
 70
     0
  0
APPID
  5
46B
330
9
100
AcDbSymbolTableRecord
100
AcDbRegAppTableRecord
  2
GEVID1208845807
 70
     0
  0
APPID
  5
46C
330
9
100
AcDbSymbolTableRecord
100
AcDbRegAppTableRecord
  2
GEVID1208845808
 70
     0
  0
APPID
  5
46D
330
9
100
AcDbSymbolTableRecord
100
AcDbRegAppTableRecord
  2
GEVID1208845809
 70
     0
  0
APPID
  5
46E
330
9
100
AcDbSymbolTableRecord
100
AcDbRegAppTableRecord
  2
GEVID1208845810
 70
     0
  0
APPID
  5
46F
330
9
100
AcDbSymbolTableRecord
100
AcDbRegAppTableRecord
  2
GEVID1208845811
 70
     0
  0
APPID
  5
470
330
9
100
AcDbSymbolTableRecord
100
AcDbRegAppTableRecord
  2
GEVID1208845813
 70
     0
  0
APPID
  5
471
330
9
100
AcDbSymbolTableRecord
100
AcDbRegAppTableRecord
  2
GEVID1208845814
 70
     0
  0
APPID
  5
472
330
9
100
AcDbSymbolTableRecord
100
AcDbRegAppTableRecord
  2
GEVID1208845815
 70
     0
  0
APPID
  5
473
330
9
100
AcDbSymbolTableRecord
100
AcDbRegAppTableRecord
  2
GEVID1208845816
 70
     0
  0
APPID
  5
474
330
9
100
AcDbSymbolTableRecord
100
AcDbRegAppTableRecord
  2
GEVID1208845817
 70
     0
  0
APPID
  5
475
330
9
100
AcDbSymbolTableRecord
100
AcDbRegAppTableRecord
  2
GEVID1208845818
 70
     0
  0
APPID
  5
476
330
9
100
AcDbSymbolTableRecord
100
AcDbRegAppTableRecord
  2
GEVID1208845819
 70
     0
  0
APPID
  5
477
330
9
100
AcDbSymbolTableRecord
100
AcDbRegAppTableRecord
  2
GEVID1208845820
 70
     0
  0
APPID
  5
478
330
9
100
AcDbSymbolTableRecord
100
AcDbRegAppTableRecord
  2
GENIUS_GENOBJ-F-SHCL_13
 70
     0
  0
APPID
  5
479
330
9
100
AcDbSymbolTableRecord
100
AcDbRegAppTableRecord
  2
GENIUS_GEFMSH_13
 70
     0
  0
APPID
  5
47A
330
9
100
AcDbSymbolTableRecord
100
AcDbRegAppTableRecord
  2
GENIUS_GENOBJ-F-SHCA_13
 70
     0
  0
APPID
  5
47B
330
9
100
AcDbSymbolTableRecord
100
AcDbRegAppTableRecord
  2
GENIUS_GEFSH_13
 70
     0
  0
APPID
  5
47C
330
9
100
AcDbSymbolTableRecord
100
AcDbRegAppTableRecord
  2
GENIUS_GEFSHP_13
 70
     0
  0
APPID
  5
47D
330
9
100
AcDbSymbolTableRecord
100
AcDbRegAppTableRecord
  2
GENIUS_GEFSHP0_13
 70
     0
  0
APPID
  5
47E
330
9
100
AcDbSymbolTableRecord
100
AcDbRegAppTableRecord
  2
GENIUS_GEFSH0_13
 70
     0
  0
APPID
  5
47F
330
9
100
AcDbSymbolTableRecord
100
AcDbRegAppTableRecord
  2
GENIUS_GEFSHP1_13
 70
     0
  0
APPID
  5
480
330
9
100
AcDbSymbolTableRecord
100
AcDbRegAppTableRecord
  2
GENIUS_GEFSH1_13
 70
     0
  0
APPID
  5
481
330
9
100
AcDbSymbolTableRecord
100
AcDbRegAppTableRecord
  2
GEVID1208866337
 70
     0
  0
APPID
  5
482
330
9
100
AcDbSymbolTableRecord
100
AcDbRegAppTableRecord
  2
GEVID1208866338
 70
     0
  0
APPID
  5
483
330
9
100
AcDbSymbolTableRecord
100
AcDbRegAppTableRecord
  2
GEVID1208866339
 70
     0
  0
APPID
  5
484
330
9
100
AcDbSymbolTableRecord
100
AcDbRegAppTableRecord
  2
GEVID1208866340
 70
     0
  0
APPID
  5
485
330
9
100
AcDbSymbolTableRecord
100
AcDbRegAppTableRecord
  2
GEVID1208866341
 70
     0
  0
APPID
  5
486
330
9
100
AcDbSymbolTableRecord
100
AcDbRegAppTableRecord
  2
ACAD_PSEXT
 70
     0
  0
APPID
  5
487
330
9
100
AcDbSymbolTableRecord
100
AcDbRegAppTableRecord
  2
GEVID1208866342
 70
     0
  0
APPID
  5
488
330
9
100
AcDbSymbolTableRecord
100
AcDbRegAppTableRecord
  2
GEVID1208913836
 70
     0
  0
APPID
  5
489
330
9
100
AcDbSymbolTableRecord
100
AcDbRegAppTableRecord
  2
GEVID1208913837
 70
     0
  0
APPID
  5
48A
330
9
100
AcDbSymbolTableRecord
100
AcDbRegAppTableRecord
  2
GEVID1208913838
 70
     0
  0
APPID
  5
48B
330
9
100
AcDbSymbolTableRecord
100
AcDbRegAppTableRecord
  2
GEVID1208913839
 70
     0
  0
APPID
  5
48C
330
9
100
AcDbSymbolTableRecord
100
AcDbRegAppTableRecord
  2
GENIUS_GENDTOL_13
 70
     0
  0
APPID
  5
48D
330
9
100
AcDbSymbolTableRecord
100
AcDbRegAppTableRecord
  2
GEVID1208928889
 70
     0
  0
APPID
  5
48E
330
9
100
AcDbSymbolTableRecord
100
AcDbRegAppTableRecord
  2
GEVID1208928890
 70
     0
  0
APPID
  5
48F
330
9
100
AcDbSymbolTableRecord
100
AcDbRegAppTableRecord
  2
GEVID1208928891
 70
     0
  0
APPID
  5
490
330
9
100
AcDbSymbolTableRecord
100
AcDbRegAppTableRecord
  2
GEVID1208928892
 70
     0
  0
APPID
  5
491
330
9
100
AcDbSymbolTableRecord
100
AcDbRegAppTableRecord
  2
GEVID1208933827
 70
     0
  0
APPID
  5
492
330
9
100
AcDbSymbolTableRecord
100
AcDbRegAppTableRecord
  2
GEVID1208933829
 70
     0
  0
APPID
  5
493
330
9
100
AcDbSymbolTableRecord
100
AcDbRegAppTableRecord
  2
GEVID1208933830
 70
     0
  0
APPID
  5
494
330
9
100
AcDbSymbolTableRecord
100
AcDbRegAppTableRecord
  2
GEVID1208933831
 70
     0
  0
APPID
  5
495
330
9
100
AcDbSymbolTableRecord
100
AcDbRegAppTableRecord
  2
GEVID1208933832
 70
     0
  0
APPID
  5
496
330
9
100
AcDbSymbolTableRecord
100
AcDbRegAppTableRecord
  2
GEVID1208933833
 70
     0
  0
APPID
  5
497
330
9
100
AcDbSymbolTableRecord
100
AcDbRegAppTableRecord
  2
GEVID1208933834
 70
     0
  0
APPID
  5
498
330
9
100
AcDbSymbolTableRecord
100
AcDbRegAppTableRecord
  2
GEVID1208933835
 70
     0
  0
APPID
  5
499
330
9
100
AcDbSymbolTableRecord
100
AcDbRegAppTableRecord
  2
GEVID1208933836
 70
     0
  0
APPID
  5
49A
330
9
100
AcDbSymbolTableRecord
100
AcDbRegAppTableRecord
  2
GEVID1208933837
 70
     0
  0
APPID
  5
49B
330
9
100
AcDbSymbolTableRecord
100
AcDbRegAppTableRecord
  2
GEVID1208933838
 70
     0
  0
APPID
  5
49C
330
9
100
AcDbSymbolTableRecord
100
AcDbRegAppTableRecord
  2
GEVID1208933840
 70
     0
  0
APPID
  5
49D
330
9
100
AcDbSymbolTableRecord
100
AcDbRegAppTableRecord
  2
GEVID1208933842
 70
     0
  0
APPID
  5
49E
330
9
100
AcDbSymbolTableRecord
100
AcDbRegAppTableRecord
  2
GEVID1208933843
 70
     0
  0
APPID
  5
49F
330
9
100
AcDbSymbolTableRecord
100
AcDbRegAppTableRecord
  2
GEVID1208933844
 70
     0
  0
APPID
  5
4A0
330
9
100
AcDbSymbolTableRecord
100
AcDbRegAppTableRecord
  2
GEVID1208933845
 70
     0
  0
APPID
  5
4A1
330
9
100
AcDbSymbolTableRecord
100
AcDbRegAppTableRecord
  2
GEVID1208933846
 70
     0
  0
APPID
  5
4A2
330
9
100
AcDbSymbolTableRecord
100
AcDbRegAppTableRecord
  2
GEVID1208933847
 70
     0
  0
APPID
  5
4A3
330
9
100
AcDbSymbolTableRecord
100
AcDbRegAppTableRecord
  2
GEVID1208933848
 70
     0
  0
APPID
  5
4A4
330
9
100
AcDbSymbolTableRecord
100
AcDbRegAppTableRecord
  2
GEVID1208933849
 70
     0
  0
APPID
  5
4A5
330
9
100
AcDbSymbolTableRecord
100
AcDbRegAppTableRecord
  2
GEVID1208933850
 70
     0
  0
APPID
  5
4A6
330
9
100
AcDbSymbolTableRecord
100
AcDbRegAppTableRecord
  2
GEVID1208933851
 70
     0
  0
APPID
  5
4A7
330
9
100
AcDbSymbolTableRecord
100
AcDbRegAppTableRecord
  2
GEVID1208933852
 70
     0
  0
APPID
  5
4A8
330
9
100
AcDbSymbolTableRecord
100
AcDbRegAppTableRecord
  2
GEVID1208933853
 70
     0
  0
APPID
  5
4A9
330
9
100
AcDbSymbolTableRecord
100
AcDbRegAppTableRecord
  2
GEVID1208933854
 70
     0
  0
APPID
  5
4AA
330
9
100
AcDbSymbolTableRecord
100
AcDbRegAppTableRecord
  2
GEVID1208933855
 70
     0
  0
APPID
  5
4AB
330
9
100
AcDbSymbolTableRecord
100
AcDbRegAppTableRecord
  2
GEVID1208933856
 70
     0
  0
APPID
  5
4AC
330
9
100
AcDbSymbolTableRecord
100
AcDbRegAppTableRecord
  2
GEVID1208933857
 70
     0
  0
APPID
  5
4AD
330
9
100
AcDbSymbolTableRecord
100
AcDbRegAppTableRecord
  2
GEVID1208933858
 70
     0
  0
APPID
  5
4AE
330
9
100
AcDbSymbolTableRecord
100
AcDbRegAppTableRecord
  2
GEVID1208933859
 70
     0
  0
APPID
  5
4AF
330
9
100
AcDbSymbolTableRecord
100
AcDbRegAppTableRecord
  2
GEVID1208933860
 70
     0
  0
APPID
  5
4B0
330
9
100
AcDbSymbolTableRecord
100
AcDbRegAppTableRecord
  2
GEVID1208933861
 70
     0
  0
APPID
  5
4B1
330
9
100
AcDbSymbolTableRecord
100
AcDbRegAppTableRecord
  2
GEVID1208933862
 70
     0
  0
APPID
  5
4B2
330
9
100
AcDbSymbolTableRecord
100
AcDbRegAppTableRecord
  2
GEVID1208933863
 70
     0
  0
APPID
  5
4B3
330
9
100
AcDbSymbolTableRecord
100
AcDbRegAppTableRecord
  2
GEVID1208933864
 70
     0
  0
APPID
  5
4B4
330
9
100
AcDbSymbolTableRecord
100
AcDbRegAppTableRecord
  2
GEVID1208933865
 70
     0
  0
APPID
  5
4B5
330
9
100
AcDbSymbolTableRecord
100
AcDbRegAppTableRecord
  2
GEVID1208933866
 70
     0
  0
APPID
  5
4B6
330
9
100
AcDbSymbolTableRecord
100
AcDbRegAppTableRecord
  2
GEVID1208933867
 70
     0
  0
APPID
  5
4B7
330
9
100
AcDbSymbolTableRecord
100
AcDbRegAppTableRecord
  2
GEVID1208933868
 70
     0
  0
APPID
  5
4B8
330
9
100
AcDbSymbolTableRecord
100
AcDbRegAppTableRecord
  2
GEVID1208933869
 70
     0
  0
APPID
  5
4B9
330
9
100
AcDbSymbolTableRecord
100
AcDbRegAppTableRecord
  2
GEVID1208933870
 70
     0
  0
APPID
  5
4BA
330
9
100
AcDbSymbolTableRecord
100
AcDbRegAppTableRecord
  2
GEVID1208933871
 70
     0
  0
APPID
  5
4BB
330
9
100
AcDbSymbolTableRecord
100
AcDbRegAppTableRecord
  2
GEVID1208933872
 70
     0
  0
APPID
  5
4BC
330
9
100
AcDbSymbolTableRecord
100
AcDbRegAppTableRecord
  2
GEVID1208933873
 70
     0
  0
APPID
  5
4BD
330
9
100
AcDbSymbolTableRecord
100
AcDbRegAppTableRecord
  2
GEVID1208933874
 70
     0
  0
APPID
  5
4BE
330
9
100
AcDbSymbolTableRecord
100
AcDbRegAppTableRecord
  2
GEVID1208933875
 70
     0
  0
APPID
  5
4BF
330
9
100
AcDbSymbolTableRecord
100
AcDbRegAppTableRecord
  2
GEVID1208933876
 70
     0
  0
APPID
  5
4C0
330
9
100
AcDbSymbolTableRecord
100
AcDbRegAppTableRecord
  2
ACAD_DSTYLE_DIMRADIAL_EXTENSION
 70
     0
  0
APPID
  5
4C1
330
9
100
AcDbSymbolTableRecord
100
AcDbRegAppTableRecord
  2
GEVID1208999100
 70
     0
  0
APPID
  5
4C2
330
9
100
AcDbSymbolTableRecord
100
AcDbRegAppTableRecord
  2
GEVID1208999101
 70
     0
  0
APPID
  5
4C3
330
9
100
AcDbSymbolTableRecord
100
AcDbRegAppTableRecord
  2
GEVID1208999102
 70
     0
  0
APPID
  5
4C4
330
9
100
AcDbSymbolTableRecord
100
AcDbRegAppTableRecord
  2
GEVID1208999103
 70
     0
  0
APPID
  5
4C5
330
9
100
AcDbSymbolTableRecord
100
AcDbRegAppTableRecord
  2
GEVID1208999105
 70
     0
  0
APPID
  5
4C6
330
9
100
AcDbSymbolTableRecord
100
AcDbRegAppTableRecord
  2
GEVID1208999106
 70
     0
  0
APPID
  5
4C7
330
9
100
AcDbSymbolTableRecord
100
AcDbRegAppTableRecord
  2
GEVID1208999108
 70
     0
  0
APPID
  5
4C8
330
9
100
AcDbSymbolTableRecord
100
AcDbRegAppTableRecord
  2
GEVID1208999109
 70
     0
  0
APPID
  5
4C9
330
9
100
AcDbSymbolTableRecord
100
AcDbRegAppTableRecord
  2
GEVID1208999110
 70
     0
  0
APPID
  5
4CA
330
9
100
AcDbSymbolTableRecord
100
AcDbRegAppTableRecord
  2
GEVID1208999111
 70
     0
  0
APPID
  5
4CB
330
9
100
AcDbSymbolTableRecord
100
AcDbRegAppTableRecord
  2
GEVID1208999112
 70
     0
  0
APPID
  5
4CC
330
9
100
AcDbSymbolTableRecord
100
AcDbRegAppTableRecord
  2
GEVID1208999113
 70
     0
  0
APPID
  5
4CD
330
9
100
AcDbSymbolTableRecord
100
AcDbRegAppTableRecord
  2
GEVID1208999114
 70
     0
  0
APPID
  5
4CE
330
9
100
AcDbSymbolTableRecord
100
AcDbRegAppTableRecord
  2
GEVID1210218799
 70
     0
  0
APPID
  5
4CF
330
9
100
AcDbSymbolTableRecord
100
AcDbRegAppTableRecord
  2
GEVID1210218800
 70
     0
  0
APPID
  5
4D0
330
9
100
AcDbSymbolTableRecord
100
AcDbRegAppTableRecord
  2
GENIUS_GEFWELD_13
 70
     0
  0
APPID
  5
4D1
330
9
100
AcDbSymbolTableRecord
100
AcDbRegAppTableRecord
  2
GENIUS_GENOBJ-F-WELS_13
 70
     0
  0
APPID
  5
4D2
330
9
100
AcDbSymbolTableRecord
100
AcDbRegAppTableRecord
  2
AcadAnnotative
 70
     0
  0
APPID
  5
4D3
330
9
100
AcDbSymbolTableRecord
100
AcDbRegAppTableRecord
  2
GEVID1210145339
 70
     0
  0
APPID
  5
4D4
330
9
100
AcDbSymbolTableRecord
100
AcDbRegAppTableRecord
  2
ACAD_DSTYLE_DIMBREAK
 70
     0
  0
APPID
  5
4D5
330
9
100
AcDbSymbolTableRecord
100
AcDbRegAppTableRecord
  2
GEVID1210145340
 70
     0
  0
APPID
  5
4D6
330
9
100
AcDbSymbolTableRecord
100
AcDbRegAppTableRecord
  2
GEVID1210145341
 70
     0
  0
APPID
  5
4D7
330
9
100
AcDbSymbolTableRecord
100
AcDbRegAppTableRecord
  2
GEVID1210145342
 70
     0
  0
APPID
  5
4D8
330
9
100
AcDbSymbolTableRecord
100
AcDbRegAppTableRecord
  2
GEVID1210145343
 70
     0
  0
APPID
  5
4D9
330
9
100
AcDbSymbolTableRecord
100
AcDbRegAppTableRecord
  2
GEVID1210145344
 70
     0
  0
APPID
  5
4DA
330
9
100
AcDbSymbolTableRecord
100
AcDbRegAppTableRecord
  2
GEVID1210145345
 70
     0
  0
APPID
  5
4DB
330
9
100
AcDbSymbolTableRecord
100
AcDbRegAppTableRecord
  2
GEVID1210152816
 70
     0
  0
APPID
  5
4DC
330
9
100
AcDbSymbolTableRecord
100
AcDbRegAppTableRecord
  2
GEVID1210153850
 70
     0
  0
APPID
  5
4DD
330
9
100
AcDbSymbolTableRecord
100
AcDbRegAppTableRecord
  2
GEVID1210153851
 70
     0
  0
APPID
  5
4DE
330
9
100
AcDbSymbolTableRecord
100
AcDbRegAppTableRecord
  2
GEVID1210153852
 70
     0
  0
APPID
  5
4DF
330
9
100
AcDbSymbolTableRecord
100
AcDbRegAppTableRecord
  2
GEVID1210549898
 70
     0
  0
APPID
  5
4E0
330
9
100
AcDbSymbolTableRecord
100
AcDbRegAppTableRecord
  2
GEVID1210549899
 70
     0
  0
APPID
  5
4E1
330
9
100
AcDbSymbolTableRecord
100
AcDbRegAppTableRecord
  2
GEVID1210549900
 70
     0
  0
APPID
  5
4E2
330
9
100
AcDbSymbolTableRecord
100
AcDbRegAppTableRecord
  2
GEVID1210549901
 70
     0
  0
APPID
  5
4E3
330
9
100
AcDbSymbolTableRecord
100
AcDbRegAppTableRecord
  2
GEVID1210549902
 70
     0
  0
APPID
  5
4E4
330
9
100
AcDbSymbolTableRecord
100
AcDbRegAppTableRecord
  2
GEVID1210549903
 70
     0
  0
APPID
  5
4E5
330
9
100
AcDbSymbolTableRecord
100
AcDbRegAppTableRecord
  2
GEVID1210549904
 70
     0
  0
APPID
  5
4E6
330
9
100
AcDbSymbolTableRecord
100
AcDbRegAppTableRecord
  2
GEVID1210549905
 70
     0
  0
APPID
  5
4E7
330
9
100
AcDbSymbolTableRecord
100
AcDbRegAppTableRecord
  2
GEVID1210549906
 70
     0
  0
APPID
  5
4E8
330
9
100
AcDbSymbolTableRecord
100
AcDbRegAppTableRecord
  2
GEVID1210549907
 70
     0
  0
APPID
  5
4E9
330
9
100
AcDbSymbolTableRecord
100
AcDbRegAppTableRecord
  2
GEVID1210549908
 70
     0
  0
APPID
  5
4EA
330
9
100
AcDbSymbolTableRecord
100
AcDbRegAppTableRecord
  2
GEVID1210549909
 70
     0
  0
APPID
  5
4EB
330
9
100
AcDbSymbolTableRecord
100
AcDbRegAppTableRecord
  2
GEVID1210549910
 70
     0
  0
APPID
  5
4EC
330
9
100
AcDbSymbolTableRecord
100
AcDbRegAppTableRecord
  2
GEVID1210549911
 70
     0
  0
APPID
  5
4ED
330
9
100
AcDbSymbolTableRecord
100
AcDbRegAppTableRecord
  2
GEVID1210549912
 70
     0
  0
APPID
  5
4EE
330
9
100
AcDbSymbolTableRecord
100
AcDbRegAppTableRecord
  2
GEVID1210549913
 70
     0
  0
APPID
  5
4EF
330
9
100
AcDbSymbolTableRecord
100
AcDbRegAppTableRecord
  2
GEVID1210549914
 70
     0
  0
APPID
  5
4F0
330
9
100
AcDbSymbolTableRecord
100
AcDbRegAppTableRecord
  2
GEVID1210549915
 70
     0
  0
APPID
  5
4F1
330
9
100
AcDbSymbolTableRecord
100
AcDbRegAppTableRecord
  2
GEVID1210549916
 70
     0
  0
APPID
  5
4F2
330
9
100
AcDbSymbolTableRecord
100
AcDbRegAppTableRecord
  2
GEVID1210549917
 70
     0
  0
APPID
  5
4F3
330
9
100
AcDbSymbolTableRecord
100
AcDbRegAppTableRecord
  2
GENIUS_GENOBJ-N-CRS_13
 70
     0
  0
APPID
  5
4F4
330
9
100
AcDbSymbolTableRecord
100
AcDbRegAppTableRecord
  2
GEVID1210549918
 70
     0
  0
APPID
  5
4F5
330
9
100
AcDbSymbolTableRecord
100
AcDbRegAppTableRecord
  2
GENIUS_GENOBJ-N-CRC_13
 70
     0
  0
APPID
  5
4F6
330
9
100
AcDbSymbolTableRecord
100
AcDbRegAppTableRecord
  2
GENIUS_GENCRC_14
 70
     0
  0
APPID
  5
4F7
330
9
100
AcDbSymbolTableRecord
100
AcDbRegAppTableRecord
  2
GEVID1210549919
 70
     0
  0
APPID
  5
4F8
330
9
100
AcDbSymbolTableRecord
100
AcDbRegAppTableRecord
  2
GEVID1210549921
 70
     0
  0
APPID
  5
4F9
330
9
100
AcDbSymbolTableRecord
100
AcDbRegAppTableRecord
  2
GEVID1210549922
 70
     0
  0
APPID
  5
4FA
330
9
100
AcDbSymbolTableRecord
100
AcDbRegAppTableRecord
  2
GEVID1210635173
 70
     0
  0
APPID
  5
4FB
330
9
100
AcDbSymbolTableRecord
100
AcDbRegAppTableRecord
  2
GEVID1210635174
 70
     0
  0
APPID
  5
4FC
330
9
100
AcDbSymbolTableRecord
100
AcDbRegAppTableRecord
  2
GEVID1210635175
 70
     0
  0
APPID
  5
4FD
330
9
100
AcDbSymbolTableRecord
100
AcDbRegAppTableRecord
  2
GEVID1210635176
 70
     0
  0
APPID
  5
4FE
330
9
100
AcDbSymbolTableRecord
100
AcDbRegAppTableRecord
  2
GEVID1210635177
 70
     0
  0
APPID
  5
4FF
330
9
100
AcDbSymbolTableRecord
100
AcDbRegAppTableRecord
  2
GEVID1210635178
 70
     0
  0
APPID
  5
500
330
9
100
AcDbSymbolTableRecord
100
AcDbRegAppTableRecord
  2
GENIUS_GENIUS_GENBHEDTMP_13
 70
     0
  0
APPID
  5
501
330
9
100
AcDbSymbolTableRecord
100
AcDbRegAppTableRecord
  2
GEVID1210635179
 70
     0
  0
APPID
  5
502
330
9
100
AcDbSymbolTableRecord
100
AcDbRegAppTableRecord
  2
GEVID1210635180
 70
     0
  0
APPID
  5
503
330
9
100
AcDbSymbolTableRecord
100
AcDbRegAppTableRecord
  2
GEVID1210635181
 70
     0
  0
APPID
  5
504
330
9
100
AcDbSymbolTableRecord
100
AcDbRegAppTableRecord
  2
GEVID1210635182
 70
     0
  0
APPID
  5
505
330
9
100
AcDbSymbolTableRecord
100
AcDbRegAppTableRecord
  2
GEVID1210635184
 70
     0
  0
APPID
  5
506
330
9
100
AcDbSymbolTableRecord
100
AcDbRegAppTableRecord
  2
GEVID1210635185
 70
     0
  0
APPID
  5
507
330
9
100
AcDbSymbolTableRecord
100
AcDbRegAppTableRecord
  2
GEVID1210635186
 70
     0
  0
APPID
  5
508
330
9
100
AcDbSymbolTableRecord
100
AcDbRegAppTableRecord
  2
GEVID1210635187
 70
     0
  0
APPID
  5
509
330
9
100
AcDbSymbolTableRecord
100
AcDbRegAppTableRecord
  2
GEVID1210635188
 70
     0
  0
APPID
  5
50A
330
9
100
AcDbSymbolTableRecord
100
AcDbRegAppTableRecord
  2
GEVID1210635189
 70
     0
  0
APPID
  5
50B
330
9
100
AcDbSymbolTableRecord
100
AcDbRegAppTableRecord
  2
GEVID1210635190
 70
     0
  0
APPID
  5
50C
330
9
100
AcDbSymbolTableRecord
100
AcDbRegAppTableRecord
  2
GENIUS_GENREC_14
 70
     0
  0
APPID
  5
50D
330
9
100
AcDbSymbolTableRecord
100
AcDbRegAppTableRecord
  2
GENIUS_GENOBJ-N-REC_13
 70
     0
  0
APPID
  5
50E
330
9
100
AcDbSymbolTableRecord
100
AcDbRegAppTableRecord
  2
GEVID1210676655
 70
     0
  0
APPID
  5
50F
330
9
100
AcDbSymbolTableRecord
100
AcDbRegAppTableRecord
  2
GEVID1210676656
 70
     0
  0
APPID
  5
510
330
9
100
AcDbSymbolTableRecord
100
AcDbRegAppTableRecord
  2
GEVID1210676657
 70
     0
  0
APPID
  5
511
330
9
100
AcDbSymbolTableRecord
100
AcDbRegAppTableRecord
  2
GEVID1210676659
 70
     0
  0
APPID
  5
512
330
9
100
AcDbSymbolTableRecord
100
AcDbRegAppTableRecord
  2
GEVID1210676660
 70
     0
  0
APPID
  5
513
330
9
100
AcDbSymbolTableRecord
100
AcDbRegAppTableRecord
  2
GEVID1210676661
 70
     0
  0
APPID
  5
514
330
9
100
AcDbSymbolTableRecord
100
AcDbRegAppTableRecord
  2
GEVID1210676662
 70
     0
  0
APPID
  5
515
330
9
100
AcDbSymbolTableRecord
100
AcDbRegAppTableRecord
  2
GEVID1210721646
 70
     0
  0
APPID
  5
516
330
9
100
AcDbSymbolTableRecord
100
AcDbRegAppTableRecord
  2
GEVID1210721647
 70
     0
  0
APPID
  5
517
330
9
100
AcDbSymbolTableRecord
100
AcDbRegAppTableRecord
  2
GEVID1210721648
 70
     0
  0
APPID
  5
518
330
9
100
AcDbSymbolTableRecord
100
AcDbRegAppTableRecord
  2
GEVID1210721649
 70
     0
  0
APPID
  5
519
330
9
100
AcDbSymbolTableRecord
100
AcDbRegAppTableRecord
  2
GEVID1210721650
 70
     0
  0
APPID
  5
51A
330
9
100
AcDbSymbolTableRecord
100
AcDbRegAppTableRecord
  2
GEVID1210721651
 70
     0
  0
APPID
  5
51B
330
9
100
AcDbSymbolTableRecord
100
AcDbRegAppTableRecord
  2
GEVID1210721652
 70
     0
  0
APPID
  5
51C
330
9
100
AcDbSymbolTableRecord
100
AcDbRegAppTableRecord
  2
GEVID1210721653
 70
     0
  0
APPID
  5
51D
330
9
100
AcDbSymbolTableRecord
100
AcDbRegAppTableRecord
  2
PE_URL
 70
     0
  0
APPID
  5
51E
330
9
100
AcDbSymbolTableRecord
100
AcDbRegAppTableRecord
  2
GEVID1210825555
 70
     0
  0
APPID
  5
51F
330
9
100
AcDbSymbolTableRecord
100
AcDbRegAppTableRecord
  2
GEVID1210825556
 70
     0
  0
APPID
  5
520
330
9
100
AcDbSymbolTableRecord
100
AcDbRegAppTableRecord
  2
GEVID1210825557
 70
     0
  0
APPID
  5
521
330
9
100
AcDbSymbolTableRecord
100
AcDbRegAppTableRecord
  2
GEVID1210825558
 70
     0
  0
APPID
  5
522
330
9
100
AcDbSymbolTableRecord
100
AcDbRegAppTableRecord
  2
GEVID1210825559
 70
     0
  0
APPID
  5
523
330
9
100
AcDbSymbolTableRecord
100
AcDbRegAppTableRecord
  2
GEVID1210825560
 70
     0
  0
APPID
  5
524
330
9
100
AcDbSymbolTableRecord
100
AcDbRegAppTableRecord
  2
GEVID1210825561
 70
     0
  0
APPID
  5
525
330
9
100
AcDbSymbolTableRecord
100
AcDbRegAppTableRecord
  2
GEVID1210825562
 70
     0
  0
APPID
  5
526
330
9
100
AcDbSymbolTableRecord
100
AcDbRegAppTableRecord
  2
GEVID1210825563
 70
     0
  0
APPID
  5
527
330
9
100
AcDbSymbolTableRecord
100
AcDbRegAppTableRecord
  2
GEVID1210825564
 70
     0
  0
APPID
  5
528
330
9
100
AcDbSymbolTableRecord
100
AcDbRegAppTableRecord
  2
GEVID1210825565
 70
     0
  0
APPID
  5
529
330
9
100
AcDbSymbolTableRecord
100
AcDbRegAppTableRecord
  2
GEVID1210825566
 70
     0
  0
APPID
  5
52A
330
9
100
AcDbSymbolTableRecord
100
AcDbRegAppTableRecord
  2
GEVID1210825567
 70
     0
  0
APPID
  5
52B
330
9
100
AcDbSymbolTableRecord
100
AcDbRegAppTableRecord
  2
GENIUS_GENOBJ-N-ZOO_13
 70
     0
  0
APPID
  5
52C
330
9
100
AcDbSymbolTableRecord
100
AcDbRegAppTableRecord
  2
GENIUS_GENZOO_17
 70
     0
  0
APPID
  5
52D
330
9
100
AcDbSymbolTableRecord
100
AcDbRegAppTableRecord
  2
ACADANNOTATIVEDECOMPOSITION
 70
     0
  0
APPID
  5
52E
330
9
100
AcDbSymbolTableRecord
100
AcDbRegAppTableRecord
  2
GENIUS_GENOBJ-N-HTC_13
 70
     0
  0
APPID
  5
52F
330
9
100
AcDbSymbolTableRecord
100
AcDbRegAppTableRecord
  2
GENIUS_GENHATCH_13
 70
     0
  0
APPID
  5
530
330
9
100
AcDbSymbolTableRecord
100
AcDbRegAppTableRecord
  2
GEVID1210896020
 70
     0
  0
APPID
  5
531
330
9
100
AcDbSymbolTableRecord
100
AcDbRegAppTableRecord
  2
GEVID1210896021
 70
     0
  0
APPID
  5
532
330
9
100
AcDbSymbolTableRecord
100
AcDbRegAppTableRecord
  2
GEVID1209083540
 70
     0
  0
APPID
  5
533
330
9
100
AcDbSymbolTableRecord
100
AcDbRegAppTableRecord
  2
GEVMK
 70
     0
  0
APPID
  5
534
330
9
100
AcDbSymbolTableRecord
100
AcDbRegAppTableRecord
  2
GEVID1209083542
 70
     0
  0
APPID
  5
535
330
9
100
AcDbSymbolTableRecord
100
AcDbRegAppTableRecord
  2
GEVID1209083543
 70
     0
  0
APPID
  5
536
330
9
100
AcDbSymbolTableRecord
100
AcDbRegAppTableRecord
  2
GEVID1209083544
 70
     0
  0
APPID
  5
537
330
9
100
AcDbSymbolTableRecord
100
AcDbRegAppTableRecord
  2
GEVID1209083545
 70
     0
  0
APPID
  5
538
330
9
100
AcDbSymbolTableRecord
100
AcDbRegAppTableRecord
  2
GEVID1209083546
 70
     0
  0
APPID
  5
539
330
9
100
AcDbSymbolTableRecord
100
AcDbRegAppTableRecord
  2
GEVID1209083547
 70
     0
  0
APPID
  5
53A
330
9
100
AcDbSymbolTableRecord
100
AcDbRegAppTableRecord
  2
GEVID1209083548
 70
     0
  0
APPID
  5
53B
330
9
100
AcDbSymbolTableRecord
100
AcDbRegAppTableRecord
  2
GEVID1209083549
 70
     0
  0
APPID
  5
53C
330
9
100
AcDbSymbolTableRecord
100
AcDbRegAppTableRecord
  2
GEVID1209083550
 70
     0
  0
APPID
  5
53D
330
9
100
AcDbSymbolTableRecord
100
AcDbRegAppTableRecord
  2
GEVID1209083551
 70
     0
  0
APPID
  5
53E
330
9
100
AcDbSymbolTableRecord
100
AcDbRegAppTableRecord
  2
GEVID1209083552
 70
     0
  0
APPID
  5
53F
330
9
100
AcDbSymbolTableRecord
100
AcDbRegAppTableRecord
  2
GEVID1209083553
 70
     0
  0
APPID
  5
540
330
9
100
AcDbSymbolTableRecord
100
AcDbRegAppTableRecord
  2
GEVID1210896022
 70
     0
  0
APPID
  5
541
330
9
100
AcDbSymbolTableRecord
100
AcDbRegAppTableRecord
  2
GEVID1211508364
 70
     0
  0
APPID
  5
542
330
9
100
AcDbSymbolTableRecord
100
AcDbRegAppTableRecord
  2
GEVID1211414908
 70
     0
  0
APPID
  5
543
330
9
100
AcDbSymbolTableRecord
100
AcDbRegAppTableRecord
  2
GEVID1211414909
 70
     0
  0
APPID
  5
544
330
9
100
AcDbSymbolTableRecord
100
AcDbRegAppTableRecord
  2
GEVID1211508359
 70
     0
  0
APPID
  5
545
330
9
100
AcDbSymbolTableRecord
100
AcDbRegAppTableRecord
  2
GEVID1211508360
 70
     0
  0
APPID
  5
546
330
9
100
AcDbSymbolTableRecord
100
AcDbRegAppTableRecord
  2
GEVID1211508361
 70
     0
  0
APPID
  5
547
330
9
100
AcDbSymbolTableRecord
100
AcDbRegAppTableRecord
  2
GEVID1211508362
 70
     0
  0
APPID
  5
548
330
9
100
AcDbSymbolTableRecord
100
AcDbRegAppTableRecord
  2
GEVID1211508363
 70
     0
  0
APPID
  5
549
330
9
100
AcDbSymbolTableRecord
100
AcDbRegAppTableRecord
  2
GEVID1211878469
 70
     0
  0
APPID
  5
54A
330
9
100
AcDbSymbolTableRecord
100
AcDbRegAppTableRecord
  2
GEVID1212642819
 70
     0
  0
APPID
  5
54B
330
9
100
AcDbSymbolTableRecord
100
AcDbRegAppTableRecord
  2
GEVID1212642820
 70
     0
  0
APPID
  5
54C
330
9
100
AcDbSymbolTableRecord
100
AcDbRegAppTableRecord
  2
GEVID1212642821
 70
     0
  0
APPID
  5
54D
330
9
100
AcDbSymbolTableRecord
100
AcDbRegAppTableRecord
  2
GEVID1212642822
 70
     0
  0
APPID
  5
54E
330
9
100
AcDbSymbolTableRecord
100
AcDbRegAppTableRecord
  2
GEVID1212642823
 70
     0
  0
APPID
  5
54F
330
9
100
AcDbSymbolTableRecord
100
AcDbRegAppTableRecord
  2
GEVID1212642825
 70
     0
  0
APPID
  5
550
330
9
100
AcDbSymbolTableRecord
100
AcDbRegAppTableRecord
  2
GEVID1212642826
 70
     0
  0
APPID
  5
551
330
9
100
AcDbSymbolTableRecord
100
AcDbRegAppTableRecord
  2
GEVID1212642827
 70
     0
  0
APPID
  5
552
330
9
100
AcDbSymbolTableRecord
100
AcDbRegAppTableRecord
  2
GEVID1212642828
 70
     0
  0
APPID
  5
553
330
9
100
AcDbSymbolTableRecord
100
AcDbRegAppTableRecord
  2
GEVID1212642831
 70
     0
  0
APPID
  5
554
330
9
100
AcDbSymbolTableRecord
100
AcDbRegAppTableRecord
  2
GEVID1212642834
 70
     0
  0
APPID
  5
555
330
9
100
AcDbSymbolTableRecord
100
AcDbRegAppTableRecord
  2
GEVID1212642835
 70
     0
  0
APPID
  5
556
330
9
100
AcDbSymbolTableRecord
100
AcDbRegAppTableRecord
  2
GEVID1212642836
 70
     0
  0
APPID
  5
557
330
9
100
AcDbSymbolTableRecord
100
AcDbRegAppTableRecord
  2
GEVID1212642837
 70
     0
  0
APPID
  5
558
330
9
100
AcDbSymbolTableRecord
100
AcDbRegAppTableRecord
  2
GEVID1212642839
 70
     0
  0
APPID
  5
559
330
9
100
AcDbSymbolTableRecord
100
AcDbRegAppTableRecord
  2
GEVID1212642840
 70
     0
  0
APPID
  5
55A
330
9
100
AcDbSymbolTableRecord
100
AcDbRegAppTableRecord
  2
GEVID1212642841
 70
     0
  0
APPID
  5
55B
330
9
100
AcDbSymbolTableRecord
100
AcDbRegAppTableRecord
  2
GEVID1212655312
 70
     0
  0
APPID
  5
55C
330
9
100
AcDbSymbolTableRecord
100
AcDbRegAppTableRecord
  2
GEVID1212655313
 70
     0
  0
APPID
  5
55D
330
9
100
AcDbSymbolTableRecord
100
AcDbRegAppTableRecord
  2
GEVID1212656533
 70
     0
  0
APPID
  5
55E
330
9
100
AcDbSymbolTableRecord
100
AcDbRegAppTableRecord
  2
GEVID1212656534
 70
     0
  0
APPID
  5
55F
330
9
100
AcDbSymbolTableRecord
100
AcDbRegAppTableRecord
  2
GEVID1212656535
 70
     0
  0
APPID
  5
560
330
9
100
AcDbSymbolTableRecord
100
AcDbRegAppTableRecord
  2
GEVID1212656536
 70
     0
  0
APPID
  5
561
330
9
100
AcDbSymbolTableRecord
100
AcDbRegAppTableRecord
  2
GEVID1212656538
 70
     0
  0
APPID
  5
562
330
9
100
AcDbSymbolTableRecord
100
AcDbRegAppTableRecord
  2
GEVID1212656541
 70
     0
  0
APPID
  5
563
330
9
100
AcDbSymbolTableRecord
100
AcDbRegAppTableRecord
  2
GEVID1212656543
 70
     0
  0
APPID
  5
564
330
9
100
AcDbSymbolTableRecord
100
AcDbRegAppTableRecord
  2
GENIUS_GENOBJ-F-PFASSM_13
 70
     0
  0
APPID
  5
565
330
9
100
AcDbSymbolTableRecord
100
AcDbRegAppTableRecord
  2
GEVID1212656544
 70
     0
  0
APPID
  5
566
330
9
100
AcDbSymbolTableRecord
100
AcDbRegAppTableRecord
  2
GEVID1212656545
 70
     0
  0
APPID
  5
567
330
9
100
AcDbSymbolTableRecord
100
AcDbRegAppTableRecord
  2
GEVID1212656546
 70
     0
  0
APPID
  5
568
330
9
100
AcDbSymbolTableRecord
100
AcDbRegAppTableRecord
  2
GEVID1212656547
 70
     0
  0
APPID
  5
569
330
9
100
AcDbSymbolTableRecord
100
AcDbRegAppTableRecord
  2
GEVID1212656548
 70
     0
  0
APPID
  5
56A
330
9
100
AcDbSymbolTableRecord
100
AcDbRegAppTableRecord
  2
GEVID1212656549
 70
     0
  0
APPID
  5
56B
330
9
100
AcDbSymbolTableRecord
100
AcDbRegAppTableRecord
  2
GEVID1212656550
 70
     0
  0
APPID
  5
56C
330
9
100
AcDbSymbolTableRecord
100
AcDbRegAppTableRecord
  2
GEVID1212656552
 70
     0
  0
APPID
  5
56D
330
9
100
AcDbSymbolTableRecord
100
AcDbRegAppTableRecord
  2
GEVID1212656553
 70
     0
  0
APPID
  5
56E
330
9
100
AcDbSymbolTableRecord
100
AcDbRegAppTableRecord
  2
GEVID1212656554
 70
     0
  0
APPID
  5
56F
330
9
100
AcDbSymbolTableRecord
100
AcDbRegAppTableRecord
  2
GEVID1212656555
 70
     0
  0
APPID
  5
570
330
9
100
AcDbSymbolTableRecord
100
AcDbRegAppTableRecord
  2
GEVID1212656556
 70
     0
  0
APPID
  5
571
330
9
100
AcDbSymbolTableRecord
100
AcDbRegAppTableRecord
  2
GEVID1212656557
 70
     0
  0
APPID
  5
572
330
9
100
AcDbSymbolTableRecord
100
AcDbRegAppTableRecord
  2
GEVID1212656559
 70
     0
  0
APPID
  5
573
330
9
100
AcDbSymbolTableRecord
100
AcDbRegAppTableRecord
  2
GEVID1212656560
 70
     0
  0
APPID
  5
574
330
9
100
AcDbSymbolTableRecord
100
AcDbRegAppTableRecord
  2
GEVID1212656561
 70
     0
  0
APPID
  5
575
330
9
100
AcDbSymbolTableRecord
100
AcDbRegAppTableRecord
  2
GEVID1212656562
 70
     0
  0
APPID
  5
576
330
9
100
AcDbSymbolTableRecord
100
AcDbRegAppTableRecord
  2
GEVID1212656563
 70
     0
  0
APPID
  5
577
330
9
100
AcDbSymbolTableRecord
100
AcDbRegAppTableRecord
  2
GEVID1212711781
 70
     0
  0
APPID
  5
578
330
9
100
AcDbSymbolTableRecord
100
AcDbRegAppTableRecord
  2
GEVID1212711782
 70
     0
  0
APPID
  5
579
330
9
100
AcDbSymbolTableRecord
100
AcDbRegAppTableRecord
  2
GEVID1212711783
 70
     0
  0
APPID
  5
57A
330
9
100
AcDbSymbolTableRecord
100
AcDbRegAppTableRecord
  2
GEVID1212711784
 70
     0
  0
APPID
  5
57B
330
9
100
AcDbSymbolTableRecord
100
AcDbRegAppTableRecord
  2
GEVID1212711788
 70
     0
  0
APPID
  5
57C
330
9
100
AcDbSymbolTableRecord
100
AcDbRegAppTableRecord
  2
GEVID1212711789
 70
     0
  0
APPID
  5
57D
330
9
100
AcDbSymbolTableRecord
100
AcDbRegAppTableRecord
  2
GEVID1212711790
 70
     0
  0
APPID
  5
57E
330
9
100
AcDbSymbolTableRecord
100
AcDbRegAppTableRecord
  2
GEVID1212711791
 70
     0
  0
APPID
  5
57F
330
9
100
AcDbSymbolTableRecord
100
AcDbRegAppTableRecord
  2
GEVID1212711792
 70
     0
  0
APPID
  5
580
330
9
100
AcDbSymbolTableRecord
100
AcDbRegAppTableRecord
  2
GEVID1212711793
 70
     0
  0
APPID
  5
581
330
9
100
AcDbSymbolTableRecord
100
AcDbRegAppTableRecord
  2
GEVID1212711794
 70
     0
  0
APPID
  5
582
330
9
100
AcDbSymbolTableRecord
100
AcDbRegAppTableRecord
  2
GEVID1212711795
 70
     0
  0
APPID
  5
583
330
9
100
AcDbSymbolTableRecord
100
AcDbRegAppTableRecord
  2
GEVID1212711797
 70
     0
  0
APPID
  5
584
330
9
100
AcDbSymbolTableRecord
100
AcDbRegAppTableRecord
  2
GEVID1212711798
 70
     0
  0
APPID
  5
585
330
9
100
AcDbSymbolTableRecord
100
AcDbRegAppTableRecord
  2
GEVID1212711799
 70
     0
  0
APPID
  5
586
330
9
100
AcDbSymbolTableRecord
100
AcDbRegAppTableRecord
  2
GEVID1212711800
 70
     0
  0
APPID
  5
587
330
9
100
AcDbSymbolTableRecord
100
AcDbRegAppTableRecord
  2
GEVID1212711801
 70
     0
  0
APPID
  5
588
330
9
100
AcDbSymbolTableRecord
100
AcDbRegAppTableRecord
  2
GEVID1212711802
 70
     0
  0
APPID
  5
589
330
9
100
AcDbSymbolTableRecord
100
AcDbRegAppTableRecord
  2
GEVID1212711803
 70
     0
  0
APPID
  5
58A
330
9
100
AcDbSymbolTableRecord
100
AcDbRegAppTableRecord
  2
GEVID1212711804
 70
     0
  0
APPID
  5
58B
330
9
100
AcDbSymbolTableRecord
100
AcDbRegAppTableRecord
  2
GEVID1212711805
 70
     0
  0
APPID
  5
58C
330
9
100
AcDbSymbolTableRecord
100
AcDbRegAppTableRecord
  2
GEVID1212711806
 70
     0
  0
APPID
  5
58D
330
9
100
AcDbSymbolTableRecord
100
AcDbRegAppTableRecord
  2
GEVID1212711807
 70
     0
  0
APPID
  5
58E
330
9
100
AcDbSymbolTableRecord
100
AcDbRegAppTableRecord
  2
GEVID1212711808
 70
     0
  0
APPID
  5
58F
330
9
100
AcDbSymbolTableRecord
100
AcDbRegAppTableRecord
  2
GEVID1212711809
 70
     0
  0
APPID
  5
590
330
9
100
AcDbSymbolTableRecord
100
AcDbRegAppTableRecord
  2
GEVID1212711810
 70
     0
  0
APPID
  5
591
330
9
100
AcDbSymbolTableRecord
100
AcDbRegAppTableRecord
  2
GEVID1212711811
 70
     0
  0
APPID
  5
90A
330
9
100
AcDbSymbolTableRecord
100
AcDbRegAppTableRecord
  2
GENIUS_GENTRA_14
 70
     0
  0
APPID
  5
919
330
9
100
AcDbSymbolTableRecord
100
AcDbRegAppTableRecord
  2
GENIUS_GENOBJ-N-TIT_13
 70
     0
  0
APPID
  5
91A
330
9
100
AcDbSymbolTableRecord
100
AcDbRegAppTableRecord
  2
GENIUS_GENTITLE_13
 70
     0
  0
APPID
  5
949
330
9
100
AcDbSymbolTableRecord
100
AcDbRegAppTableRecord
  2
GENIUS_GENBLLY_14
 70
     0
  0
APPID
  5
DDD
330
9
100
AcDbSymbolTableRecord
100
AcDbRegAppTableRecord
  2
GEVID1213165152
 70
     0
  0
APPID
  5
12F9
330
9
100
AcDbSymbolTableRecord
100
AcDbRegAppTableRecord
  2
AcDbDynamicBlockTrueName
 70
     0
  0
APPID
  5
12FA
330
9
100
AcDbSymbolTableRecord
100
AcDbRegAppTableRecord
  2
ACDBBLOCKREPETAG
 70
     0
  0
APPID
  5
1C15
330
9
100
AcDbSymbolTableRecord
100
AcDbRegAppTableRecord
  2
GEVID1214872427
 70
     0
  0
APPID
  5
1C2A
330
9
100
AcDbSymbolTableRecord
100
AcDbRegAppTableRecord
  2
GEVID1214872428
 70
     0
  0
APPID
  5
1C2F
330
9
100
AcDbSymbolTableRecord
100
AcDbRegAppTableRecord
  2
GEVID1214872429
 70
     0
  0
APPID
  5
1C33
330
9
100
AcDbSymbolTableRecord
100
AcDbRegAppTableRecord
  2
GEVID1214872430
 70
     0
  0
APPID
  5
1C3F
330
9
100
AcDbSymbolTableRecord
100
AcDbRegAppTableRecord
  2
GEVID1214872432
 70
     0
  0
APPID
  5
1C4E
330
9
100
AcDbSymbolTableRecord
100
AcDbRegAppTableRecord
  2
GEVID1214872433
 70
     0
  0
APPID
  5
20DC
330
9
100
AcDbSymbolTableRecord
100
AcDbRegAppTableRecord
  2
AcDbDynamicBlockGUID
 70
     0
  0
APPID
  5
20FD
330
9
100
AcDbSymbolTableRecord
100
AcDbRegAppTableRecord
  2
GENIUS_GENOBJ-N-REV_13
 70
     0
  0
APPID
  5
20FE
330
9
100
AcDbSymbolTableRecord
100
AcDbRegAppTableRecord
  2
GENIUS_GENOBJ-N-RSSYM_13
 70
     0
  0
APPID
  5
20FF
330
9
100
AcDbSymbolTableRecord
100
AcDbRegAppTableRecord
  2
GENIUS_GENSYMENT_13
 70
     0
  0
APPID
  5
2100
330
9
100
AcDbSymbolTableRecord
100
AcDbRegAppTableRecord
  2
GENIUS_GENSCSYM_13
 70
     0
  0
APPID
  5
57F1
330
9
100
AcDbSymbolTableRecord
100
AcDbRegAppTableRecord
  2
GEVID1239761836
 70
     0
  0
APPID
  5
57F6
330
9
100
AcDbSymbolTableRecord
100
AcDbRegAppTableRecord
  2
GEVID1239761837
 70
     0
  0
APPID
  5
6478
330
9
100
AcDbSymbolTableRecord
100
AcDbRegAppTableRecord
  2
GEVID1239761838
 70
     0
  0
APPID
  5
647D
330
9
100
AcDbSymbolTableRecord
100
AcDbRegAppTableRecord
  2
GEVID1239761839
 70
     0
  0
ENDTAB
  0
TABLE
  2
DIMSTYLE
  5
A
330
0
100
AcDbSymbolTable
 70
    29
100
AcDbDimStyleTable
 71
     1
340
5AB
  0
DIMSTYLE
105
5AB
330
A
100
AcDbSymbolTableRecord
100
AcDbDimStyleTableRecord
  2
SEISA
 70
     0
  4
"
 40
6.0
 41
2.5
 42
0.625
 43
10.0
 44
0.625
 47
0.1
 48
0.1
 73
     0
 74
     0
 77
     3
 78
     8
 79
     2
 90
     1
140
3.5
141
0.0
143
0.0393701
146
0.71
147
1.5
172
     1
176
     3
177
     3
178
     3
271
     2
272
     2
283
     0
286
     8
340
5D5
341
69
342
69
371
    -1
372
    -1
1001
ACAD_DSTYLE_DIMJAG
1070
   388
1040
1.5
1001
ACAD_DSTYLE_DIMTALN
1070
   392
1070
     1
  0
DIMSTYLE
105
5E9
102
{ACAD_REACTORS
330
5836
330
587B
330
58FB
330
5913
330
592F
330
5A3E
330
5A68
330
5A80
330
5B16
330
5B32
330
5BC0
330
5C56
330
790B
330
7935
102
}
330
A
100
AcDbSymbolTableRecord
100
AcDbDimStyleTableRecord
  2
SEISA$0
 70
     0
  4
"
 40
6.0
 41
2.5
 42
0.625
 43
10.0
 44
0.625
 47
0.1
 48
0.1
 73
     0
 74
     0
 77
     3
 78
     8
 79
     2
 90
     1
140
3.5
141
0.0
143
0.0393701
146
0.71
147
1.5
172
     1
176
     3
177
     3
178
     3
271
     2
272
     2
283
     0
286
     8
340
5D5
341
69
342
69
371
    -1
372
    -1
  0
DIMSTYLE
105
7E51
330
A
100
AcDbSymbolTableRecord
100
AcDbDimStyleTableRecord
  2
AM_ISO
 70
     0
  4
"
 41
2.5
 42
1.0
 43
10.0
 44
1.0
 47
0.1
 48
0.1
 73
     0
 74
     0
 77
     1
 78
     8
 79
     2
 90
     1
140
3.5
141
0.0
143
0.0393701
146
0.71
147
1.5
172
     1
176
   256
177
   256
178
     2
271
     2
272
     3
274
     4
283
     0
284
     8
340
11
371
    -1
372
    -1
  0
DIMSTYLE
105
7E52
330
A
100
AcDbSymbolTableRecord
100
AcDbDimStyleTableRecord
  2
AM_ISO$3
 70
     0
  4
"
 41
2.5
 42
1.0
 43
10.0
 44
1.0
 47
0.1
 48
0.1
 73
     0
 77
     1
 78
     8
 79
     2
 90
     1
140
3.5
141
0.0
143
0.0393701
146
0.71
147
1.5
176
   256
177
   256
178
     2
271
     2
272
     3
274
     4
283
     0
284
     8
288
     1
289
     0
340
11
371
    -1
372
    -1
  0
DIMSTYLE
105
7E53
330
A
100
AcDbSymbolTableRecord
100
AcDbDimStyleTableRecord
  2
AM_ISO$4
 70
     0
  4
"
 41
2.5
 42
1.0
 43
10.0
 44
1.0
 47
0.1
 48
0.1
 73
     0
 77
     1
 78
     8
 79
     2
 90
     1
140
3.5
141
0.0
143
0.0393701
146
0.71
147
1.5
176
   256
177
   256
178
     2
271
     2
272
     3
274
     4
283
     0
284
     8
288
     1
289
     0
340
11
371
    -1
372
    -1
  0
DIMSTYLE
105
7E54
330
A
100
AcDbSymbolTableRecord
100
AcDbDimStyleTableRecord
  2
AM_ISO$6
 70
     0
  4
"
 41
2.5
 42
1.0
 43
10.0
 44
1.0
 47
0.1
 48
0.1
 73
     0
 74
     0
 78
     8
 79
     2
 90
     1
140
3.5
141
0.0
143
0.0393701
146
0.71
147
1.5
172
     1
176
   256
177
   256
178
     2
271
     2
272
     3
274
     4
283
     0
284
     8
340
11
371
    -1
372
    -1
  0
DIMSTYLE
105
7E55
330
A
100
AcDbSymbolTableRecord
100
AcDbDimStyleTableRecord
  2
AM_ISO$7
 70
     0
  4
"
 41
2.5
 42
1.0
 43
10.0
 44
1.0
 47
0.1
 48
0.1
 73
     0
 74
     0
 77
     1
 78
     8
 79
     2
 90
     1
140
5.0
141
0.0
143
0.0393701
146
0.71
147
1.5
172
     1
176
   256
177
   256
178
     2
271
     2
272
     3
274
     4
283
     0
284
     8
340
11
371
    -1
372
    -1
  0
DIMSTYLE
105
7E56
330
A
100
AcDbSymbolTableRecord
100
AcDbDimStyleTableRecord
  2
AM_ISO$SF
 70
     0
  4
"
 41
2.5
 42
1.0
 43
10.0
 44
1.0
 47
0.1
 48
0.1
 73
     0
 74
     0
 75
     1
 76
     1
 77
     1
 78
     8
 79
     2
 90
     1
140
3.5
141
0.0
143
0.0393701
146
0.71
147
1.5
172
     1
176
   256
177
   256
178
     2
271
     2
272
     3
274
     4
283
     0
284
     8
340
11
371
    -1
372
    -1
  0
DIMSTYLE
105
7E57
330
A
100
AcDbSymbolTableRecord
100
AcDbDimStyleTableRecord
  2
AM_ISO$SH
 70
     0
  4
"
 41
2.5
 42
1.0
 43
10.0
 44
1.0
 47
0.1
 48
0.1
 73
     0
 74
     0
 75
     1
 76
     1
 77
     1
 78
     8
 79
     2
 90
     1
140
3.5
141
0.0
143
0.0393701
144
2.0
146
0.71
147
1.5
172
     1
173
     1
176
   256
177
   256
178
     2
271
     2
272
     3
274
     4
283
     0
284
     8
340
11
343
74
371
    -1
372
    -1
  0
ENDTAB
  0
TABLE
  2
BLOCK_RECORD
  5
1
330
0
100
AcDbSymbolTable
 70
    31
  0
BLOCK_RECORD
  5
1F
102
{ACAD_XDICTIONARY
360
82
102
}
330
1
100
AcDbSymbolTableRecord
100
AcDbBlockTableRecord
  2
*Model_Space
340
22
 70
     0
280
     1
281
     0
  0
BLOCK_RECORD
  5
1B
330
1
100
AcDbSymbolTableRecord
100
AcDbBlockTableRecord
  2
*Paper_Space
340
1E
 70
     0
280
     1
281
     0
  0
BLOCK_RECORD
  5
23
330
1
100
AcDbSymbolTableRecord
100
AcDbBlockTableRecord
  2
*Paper_Space0
340
26
 70
     0
280
     1
281
     0
  0
BLOCK_RECORD
  5
69
330
1
100
AcDbSymbolTableRecord
100
AcDbBlockTableRecord
  2
_Open30
340
0
102
{BLKREFS
331
6962
331
6963
331
696D
331
696E
331
6981
331
6982
331
698D
331
698E
331
6995
331
6996
331
69C3
331
69CE
331
69FA
331
69FB
331
6C31
331
6C32
331
6C43
331
6C44
331
6C4C
331
6C4D
331
792F
331
7930
331
7962
331
7963
331
7D5F
331
7D60
102
}
 70
     0
280
     1
281
     0
  0
BLOCK_RECORD
  5
74
330
1
100
AcDbSymbolTableRecord
100
AcDbBlockTableRecord
  2
GENAXEH
340
0
 70
     0
280
     1
281
     0
  0
BLOCK_RECORD
  5
380C
102
{ACAD_XDICTIONARY
360
380D
102
}
330
1
100
AcDbSymbolTableRecord
100
AcDbBlockTableRecord
  2
ロッカクアナツキプラグA R1／2
340
0
310
2800000020000000200000000100080000000000000400000000000000000000000000000000000000000000000080000080000000808000800000008000800080800000C0C0C000C0DCC000F0CAA6000020400000206000002080000020A0000020C0000020E00000400000004020000040400000406000004080000040A0
310
000040C0000040E00000600000006020000060400000606000006080000060A0000060C0000060E00000800000008020000080400000806000008080000080A0000080C0000080E00000A0000000A0200000A0400000A0600000A0800000A0A00000A0C00000A0E00000C0000000C0200000C0400000C0600000C0800000C0
310
A00000C0C00000C0E00000E0000000E0200000E0400000E0600000E0800000E0A00000E0C00000E0E00040000000400020004000400040006000400080004000A0004000C0004000E00040200000402020004020400040206000402080004020A0004020C0004020E000404000004040200040404000404060004040800040
310
40A0004040C0004040E00040600000406020004060400040606000406080004060A0004060C0004060E00040800000408020004080400040806000408080004080A0004080C0004080E00040A0000040A0200040A0400040A0600040A0800040A0A00040A0C00040A0E00040C0000040C0200040C0400040C0600040C08000
310
40C0A00040C0C00040C0E00040E0000040E0200040E0400040E0600040E0800040E0A00040E0C00040E0E00080000000800020008000400080006000800080008000A0008000C0008000E00080200000802020008020400080206000802080008020A0008020C0008020E00080400000804020008040400080406000804080
310
008040A0008040C0008040E00080600000806020008060400080606000806080008060A0008060C0008060E00080800000808020008080400080806000808080008080A0008080C0008080E00080A0000080A0200080A0400080A0600080A0800080A0A00080A0C00080A0E00080C0000080C0200080C0400080C0600080C0
310
800080C0A00080C0C00080C0E00080E0000080E0200080E0400080E0600080E0800080E0A00080E0C00080E0E000C0000000C0002000C0004000C0006000C0008000C000A000C000C000C000E000C0200000C0202000C0204000C0206000C0208000C020A000C020C000C020E000C0400000C0402000C0404000C0406000C0
310
408000C040A000C040C000C040E000C0600000C0602000C0604000C0606000C0608000C060A000C060C000C060E000C0800000C0802000C0804000C0806000C0808000C080A000C080C000C080E000C0A00000C0A02000C0A04000C0A06000C0A08000C0A0A000C0A0C000C0A0E000C0C00000C0C02000C0C04000C0C06000
310
C0C08000C0C0A000F0FBFF00A4A0A000808080000000FF0000FF000000FFFF00FF000000FF00FF00FFFF0000FFFFFF00000000000000000000000000000000000000000000000000000000000000000000000000000000000000000000000000F9000000000000000000000000000000000000000000000000000000000000
310
00F900000000000000000000000000000000000000000000000000000000000000F900000000000000000000000000000000000000000000000000000000000000F900000000000000000000000000000000000000000000000000000000000000F90000000000000000000000000000000000000000000000000000000000
310
0000F900000000000000000000000000000000000000000000000000000000000000F900000000000000000000000000000000000000000000000000000000000000F9000000000000000000000000000000000000000000000000FFFFFFFFFFFFFFFFFFFFFFFFFFFF00000000000000000000000000000000FFFF00000000
310
000000F9000000000000FFFF000000000000000000000000FFFFFFFFFFFFFFFFFFFFFFFFFFFFFFFFFFFFFFFFFFFF00000000000000000000FFFE000000000000000000F90000000000000000FEFF00000000000000000000FFFE000000000000000000F90000000000000000FEFF00000000000000000000FFFE0000000000
310
00000000F90000000000000000FEFF00000000000000000000FFFE000000000000000000F90000000000000000FEFF00000000000000000000FFFE000000000000000000F90000000000000000FEFF00000000000000000000FFFE000000000000000000F90000000000000000FEFF00000000000000000000FFFE00000000
310
0000000000F90000000000000000FEFF00000000000000000000FFFE000000000000000000F90000000000000000FEFF00000000000000000000FFFE000000000000000000F90000000000000000FEFF00000000000000000000FFFE000000000000000000F90000000000000000FEFF00000000000000000000FFFE000000
310
000000000000F90000000000000000FEFF00000000000000000000FFFFFFFFFFFFFFFFFFFFFFFFFFFFFFFFFFFFFFFFFFFF0000000000000000000000FF000000000000000000F90000000000000000FF00000000000000000000000000000000000000000000F9000000000000000000000000000000000000000000000000
310
00000000000000F900000000000000000000000000000000000000000000000000000000000000F900000000000000000000000000000000000000000000000000000000000000F900000000000000000000000000000000000000000000000000000000000000F90000000000000000000000000000000000000000000000
310
0000000000000000F90000000000000000000000000000000000000000000000000000000000000000000000000000000000000000000000
102
{BLKREFS
331
4D66
102
}
 70
     4
280
     1
281
     0
  0
BLOCK_RECORD
  5
3A85
330
1
100
AcDbSymbolTableRecord
100
AcDbBlockTableRecord
  2
GENDOT
340
0
102
{BLKREFS
331
69C2
331
69CD
102
}
 70
     0
280
     1
281
     0
  0
BLOCK_RECORD
  5
4D27
102
{ACAD_XDICTIONARY
360
4DF4
102
}
330
1
100
AcDbSymbolTableRecord
100
AcDbBlockTableRecord
  2
ケースＡ CCMH500
340
0
310
2800000020000000200000000100080000000000000400000000000000000000000000000000000000000000000080000080000000808000800000008000800080800000C0C0C000C0DCC000F0CAA6000020400000206000002080000020A0000020C0000020E00000400000004020000040400000406000004080000040A0
310
000040C0000040E00000600000006020000060400000606000006080000060A0000060C0000060E00000800000008020000080400000806000008080000080A0000080C0000080E00000A0000000A0200000A0400000A0600000A0800000A0A00000A0C00000A0E00000C0000000C0200000C0400000C0600000C0800000C0
310
A00000C0C00000C0E00000E0000000E0200000E0400000E0600000E0800000E0A00000E0C00000E0E00040000000400020004000400040006000400080004000A0004000C0004000E00040200000402020004020400040206000402080004020A0004020C0004020E000404000004040200040404000404060004040800040
310
40A0004040C0004040E00040600000406020004060400040606000406080004060A0004060C0004060E00040800000408020004080400040806000408080004080A0004080C0004080E00040A0000040A0200040A0400040A0600040A0800040A0A00040A0C00040A0E00040C0000040C0200040C0400040C0600040C08000
310
40C0A00040C0C00040C0E00040E0000040E0200040E0400040E0600040E0800040E0A00040E0C00040E0E00080000000800020008000400080006000800080008000A0008000C0008000E00080200000802020008020400080206000802080008020A0008020C0008020E00080400000804020008040400080406000804080
310
008040A0008040C0008040E00080600000806020008060400080606000806080008060A0008060C0008060E00080800000808020008080400080806000808080008080A0008080C0008080E00080A0000080A0200080A0400080A0600080A0800080A0A00080A0C00080A0E00080C0000080C0200080C0400080C0600080C0
310
800080C0A00080C0C00080C0E00080E0000080E0200080E0400080E0600080E0800080E0A00080E0C00080E0E000C0000000C0002000C0004000C0006000C0008000C000A000C000C000C000E000C0200000C0202000C0204000C0206000C0208000C020A000C020C000C020E000C0400000C0402000C0404000C0406000C0
310
408000C040A000C040C000C040E000C0600000C0602000C0604000C0606000C0608000C060A000C060C000C060E000C0800000C0802000C0804000C0806000C0808000C080A000C080C000C080E000C0A00000C0A02000C0A04000C0A06000C0A08000C0A0A000C0A0C000C0A0E000C0C00000C0C02000C0C04000C0C06000
310
C0C08000C0C0A000F0FBFF00A4A0A000808080000000FF0000FF000000FFFF00FF000000FF00FF00FFFF0000FFFFFF000000000000000000000000000000000000000000000000000000000000000000000000000000000000000000FFFFFF0000000000000000000000000000000000000000000000000000000000FF00FF
310
0000000000000000000000000000000000000000000000000000000000FF00FF0000000000000000000000000000000000000000000000000000000000FF00FFFFFFFFFFFFFFFF00000000000000000000000000000000000000000000FF00FF00000000FFFFFF00000000000000000000000000000000000000000000FF00
310
FF00000000FFFFFF00000000000000000000000000000000000000000000FF00FF00000000FFFFFF00000000000000000000000000000000000000000000FF00FF00000000FFFFFF00000000000000000000000000000000000000000000FF00FF00000000FFFFFF00000000000000000000000000000000000000000000FF
310
00FF00000000FFFFFF00000000000000000000000000000000000000000000FF00FF00000000FFFFFF00000000000000000000000000000000000000000000FF00FF00000000FFFFFF00000000000000000000000000000000000000000000FF00FF00000000FFFFFF00000000000000000000000000000000000000000000
310
FF00FF00000000FFFFFF00000000000000000000000000000000000000000000FF00FF00000000FFFFFF00000000000000000000000000000000000000000000FF00FF00000000FFFFFF0000000000000000000000000000000000000000000000000000000000000000000000000000000000000000000000000000000000
310
00000000000000000000000000000000000000000000000000000000000000000000000000000000000000000000000000000000000000000000000000000000000000000000000000000000000000000000000000000000000000000000000000000000000000000000000000000000000000000000000000000000000000
310
000000000000000000000000000000000000000000000000000000000000000000000000000000000000000000000000000000000000000000000000000000000000000000000000000000000000000000000000000000000000000000000000000000000000FFFFA4A4FFFF00000000000000000000000000000000000000
310
000000FFFFFFFFFFF9F9F9F9FF00000000000000000000000000000000000000000000FFFFFFFFFFFFFFFFFFFFFF000000000000000000000000000000000000000000FFFFFF0000000000000000000000000000000000000000000000000000F9F9F9FFFFFFF9000000000000000000000000000000000000000000000000
310
00000000FFFFFF00000000000000000000000000000000000000000000000000000000000000000000000000000000000000000000000000
102
{BLKREFS
331
4D69
102
}
 70
     4
280
     1
281
     0
  0
BLOCK_RECORD
  5
4EC2
102
{ACAD_XDICTIONARY
360
4F73
102
}
330
1
100
AcDbSymbolTableRecord
100
AcDbBlockTableRecord
  2
ケースＢ CCMH500
340
0
310
2800000020000000200000000100080000000000000400000000000000000000000000000000000000000000000080000080000000808000800000008000800080800000C0C0C000C0DCC000F0CAA6000020400000206000002080000020A0000020C0000020E00000400000004020000040400000406000004080000040A0
310
000040C0000040E00000600000006020000060400000606000006080000060A0000060C0000060E00000800000008020000080400000806000008080000080A0000080C0000080E00000A0000000A0200000A0400000A0600000A0800000A0A00000A0C00000A0E00000C0000000C0200000C0400000C0600000C0800000C0
310
A00000C0C00000C0E00000E0000000E0200000E0400000E0600000E0800000E0A00000E0C00000E0E00040000000400020004000400040006000400080004000A0004000C0004000E00040200000402020004020400040206000402080004020A0004020C0004020E000404000004040200040404000404060004040800040
310
40A0004040C0004040E00040600000406020004060400040606000406080004060A0004060C0004060E00040800000408020004080400040806000408080004080A0004080C0004080E00040A0000040A0200040A0400040A0600040A0800040A0A00040A0C00040A0E00040C0000040C0200040C0400040C0600040C08000
310
40C0A00040C0C00040C0E00040E0000040E0200040E0400040E0600040E0800040E0A00040E0C00040E0E00080000000800020008000400080006000800080008000A0008000C0008000E00080200000802020008020400080206000802080008020A0008020C0008020E00080400000804020008040400080406000804080
310
008040A0008040C0008040E00080600000806020008060400080606000806080008060A0008060C0008060E00080800000808020008080400080806000808080008080A0008080C0008080E00080A0000080A0200080A0400080A0600080A0800080A0A00080A0C00080A0E00080C0000080C0200080C0400080C0600080C0
310
800080C0A00080C0C00080C0E00080E0000080E0200080E0400080E0600080E0800080E0A00080E0C00080E0E000C0000000C0002000C0004000C0006000C0008000C000A000C000C000C000E000C0200000C0202000C0204000C0206000C0208000C020A000C020C000C020E000C0400000C0402000C0404000C0406000C0
310
408000C040A000C040C000C040E000C0600000C0602000C0604000C0606000C0608000C060A000C060C000C060E000C0800000C0802000C0804000C0806000C0808000C080A000C080C000C080E000C0A00000C0A02000C0A04000C0A06000C0A08000C0A0A000C0A0C000C0A0E000C0C00000C0C02000C0C04000C0C06000
310
C0C08000C0C0A000F0FBFF00A4A0A000808080000000FF0000FF000000FFFF00FF000000FF00FF00FFFF0000FFFFFF000000000000000000000000000000000000000000000000000000000000000000000000000000000000000000000000000000FFFF000000000000000000000000000000000000000000000000000000
310
000000F9F9F9F900000000000000000000000000000000000000000000000000000000FF0000000000000000000000000000000000000000000000FFFFFFFFFFFFFFFFFF000000000000000000000000000000000000000000000000FFFFFF00000000FF000000000000000000000000000000000000000000000000FFFFFF
310
00000000FF000000000000000000000000000000000000000000000000FFFFFF00000000FF000000000000000000000000000000000000000000000000FFFFFF00000000FF000000000000000000000000000000000000000000000000FFFFFF00000000FF000000000000000000000000000000000000000000000000FFFF
310
FF00000000FF000000000000000000000000000000000000000000000000FFFFFF00000000FF000000000000000000000000000000000000000000000000FFFFFF00000000FF000000000000000000000000000000000000000000000000FFFFFF00000000FF000000000000000000000000000000000000000000000000FF
310
FFFF00000000FF000000000000000000000000000000000000000000000000FFFFFF00000000FF000000000000000000000000000000000000000000000000FFFFFF00000000FF0000000000000000000000000000000000000000000000000000000000000000000000000000000000000000000000000000000000000000
310
00000000000000000000000000000000000000000000000000000000000000000000000000000000000000000000000000000000000000000000000000000000000000000000000000000000000000000000000000000000000000000000000000000000000000000000000000000000000000000000000000000000000000
310
00000000000000000000000000000000000000000000000000000000000000000000000000000000000000000000000000000000000000000000000000000000000000000000000000000000000000000000000000000000000000000000000000FFA4A4A4FF00000000000000000000000000000000000000000000000000
310
0000FFF9F9F9FFFFFFFFFF00000000000000000000000000000000000000000000FFFFFFFFFFFFFFFFFFFF000000000000000000000000000000000000000000000000000000000000FFFF000000000000000000000000000000000000000000000000000000000000FFFF0000000000000000000000000000000000000000
310
00000000000000000000FFFF0000000000000000000000000000000000000000000000000000000000000000000000000000000000000000
102
{BLKREFS
331
4EF8
102
}
 70
     4
280
     1
281
     0
  0
BLOCK_RECORD
  5
4FD2
102
{ACAD_XDICTIONARY
360
5049
102
}
330
1
100
AcDbSymbolTableRecord
100
AcDbBlockTableRecord
  2
センタＡ CCMH500
340
0
310
2800000020000000200000000100080000000000000400000000000000000000000000000000000000000000000080000080000000808000800000008000800080800000C0C0C000C0DCC000F0CAA6000020400000206000002080000020A0000020C0000020E00000400000004020000040400000406000004080000040A0
310
000040C0000040E00000600000006020000060400000606000006080000060A0000060C0000060E00000800000008020000080400000806000008080000080A0000080C0000080E00000A0000000A0200000A0400000A0600000A0800000A0A00000A0C00000A0E00000C0000000C0200000C0400000C0600000C0800000C0
310
A00000C0C00000C0E00000E0000000E0200000E0400000E0600000E0800000E0A00000E0C00000E0E00040000000400020004000400040006000400080004000A0004000C0004000E00040200000402020004020400040206000402080004020A0004020C0004020E000404000004040200040404000404060004040800040
310
40A0004040C0004040E00040600000406020004060400040606000406080004060A0004060C0004060E00040800000408020004080400040806000408080004080A0004080C0004080E00040A0000040A0200040A0400040A0600040A0800040A0A00040A0C00040A0E00040C0000040C0200040C0400040C0600040C08000
310
40C0A00040C0C00040C0E00040E0000040E0200040E0400040E0600040E0800040E0A00040E0C00040E0E00080000000800020008000400080006000800080008000A0008000C0008000E00080200000802020008020400080206000802080008020A0008020C0008020E00080400000804020008040400080406000804080
310
008040A0008040C0008040E00080600000806020008060400080606000806080008060A0008060C0008060E00080800000808020008080400080806000808080008080A0008080C0008080E00080A0000080A0200080A0400080A0600080A0800080A0A00080A0C00080A0E00080C0000080C0200080C0400080C0600080C0
310
800080C0A00080C0C00080C0E00080E0000080E0200080E0400080E0600080E0800080E0A00080E0C00080E0E000C0000000C0002000C0004000C0006000C0008000C000A000C000C000C000E000C0200000C0202000C0204000C0206000C0208000C020A000C020C000C020E000C0400000C0402000C0404000C0406000C0
310
408000C040A000C040C000C040E000C0600000C0602000C0604000C0606000C0608000C060A000C060C000C060E000C0800000C0802000C0804000C0806000C0808000C080A000C080C000C080E000C0A00000C0A02000C0A04000C0A06000C0A08000C0A0A000C0A0C000C0A0E000C0C00000C0C02000C0C04000C0C06000
310
C0C08000C0C0A000F0FBFF00A4A0A000808080000000FF0000FF000000FFFF00FF000000FF00FF00FFFF0000FFFFFF00000000000000000000000000000000000000000000000000000000000000000000000000000000000000000000000000000000FFFFFFFFFFFF00000000000000000000000000000000000000000000
310
0000000000FFFF000000FF0000000000000000000000000000000000000000000000000000FFFF000000FF0000000000000000000000000000000000000000000000000000FFFF000000FF0000000000000000000000000000000000000000000000000000FFFF000000FF0000000000000000000000000000000000000000
310
000000000000FFFF000000FF0000000000000000000000000000000000000000000000000000FFFF000000FF0000000000000000000000000000000000000000000000000000FFFF000000FF0000000000000000000000000000000000000000000000000000FFFF000000FF00000000000000000000000000000000000000
310
00000000000000FFFF000000FF0000000000000000000000000000000000000000000000000000FFFF000000FF0000000000000000000000000000000000000000000000000000FFFF000000FF0000000000000000000000000000000000000000000000000000FFFF000000FF000000000000000000000000000000000000
310
0000000000000000FFFF000000FF000000000000000000000000A4A4A4A4A4A40000000000000000FFFF0000FFFF000000000000000000000000FF0000000000000000000000000000000000FFFF000000000000000000000000FF0000000000000000000000000000000000FFFF000000000000000000000000FF00000000
310
00000000000000000000000000FFFF000000000000000000000000FF0000000000000000000000000000000000FFFF000000000000000000000000FF0000000000000000000000000000000000FFFF000000000000000000000000FF0000000000000000000000000000000000FFFF000000000000000000000000FF000000
310
0000000000000000000000000000FFFF000000000000000000000000FFFFFFFFFFFFFFFFFFFFFFFFFFFFFFFFFFFFFFFF000000000000000000000000FFFFFFFFFFFFFFFFFFFFFFFFFFFFFFFFFFFFFFFF000000000000000000000000FF000000000000000000000000000000000000FF000000000000000000000000FF0000
310
00000000000000000000000000000000FF000000000000000000000000FF000000000000000000000000000000000000FF000000000000000000000000FFFFFFFFFFFFFFFFF9FFFFFFFFFFFFFFFFFFFF000000000000000000000000000000000000F9FFF9F9F9FFFF00000000000000000000000000000000000000000000
310
000000000000F900000000000000000000000000000000000000000000000000000000000000000000000000000000000000000000000000
102
{BLKREFS
331
4FF9
102
}
 70
     4
280
     1
281
     0
  0
BLOCK_RECORD
  5
50AA
102
{ACAD_XDICTIONARY
360
5121
102
}
330
1
100
AcDbSymbolTableRecord
100
AcDbBlockTableRecord
  2
センタＢ CCMH500
340
0
310
2800000020000000200000000100080000000000000400000000000000000000000000000000000000000000000080000080000000808000800000008000800080800000C0C0C000C0DCC000F0CAA6000020400000206000002080000020A0000020C0000020E00000400000004020000040400000406000004080000040A0
310
000040C0000040E00000600000006020000060400000606000006080000060A0000060C0000060E00000800000008020000080400000806000008080000080A0000080C0000080E00000A0000000A0200000A0400000A0600000A0800000A0A00000A0C00000A0E00000C0000000C0200000C0400000C0600000C0800000C0
310
A00000C0C00000C0E00000E0000000E0200000E0400000E0600000E0800000E0A00000E0C00000E0E00040000000400020004000400040006000400080004000A0004000C0004000E00040200000402020004020400040206000402080004020A0004020C0004020E000404000004040200040404000404060004040800040
310
40A0004040C0004040E00040600000406020004060400040606000406080004060A0004060C0004060E00040800000408020004080400040806000408080004080A0004080C0004080E00040A0000040A0200040A0400040A0600040A0800040A0A00040A0C00040A0E00040C0000040C0200040C0400040C0600040C08000
310
40C0A00040C0C00040C0E00040E0000040E0200040E0400040E0600040E0800040E0A00040E0C00040E0E00080000000800020008000400080006000800080008000A0008000C0008000E00080200000802020008020400080206000802080008020A0008020C0008020E00080400000804020008040400080406000804080
310
008040A0008040C0008040E00080600000806020008060400080606000806080008060A0008060C0008060E00080800000808020008080400080806000808080008080A0008080C0008080E00080A0000080A0200080A0400080A0600080A0800080A0A00080A0C00080A0E00080C0000080C0200080C0400080C0600080C0
310
800080C0A00080C0C00080C0E00080E0000080E0200080E0400080E0600080E0800080E0A00080E0C00080E0E000C0000000C0002000C0004000C0006000C0008000C000A000C000C000C000E000C0200000C0202000C0204000C0206000C0208000C020A000C020C000C020E000C0400000C0402000C0404000C0406000C0
310
408000C040A000C040C000C040E000C0600000C0602000C0604000C0606000C0608000C060A000C060C000C060E000C0800000C0802000C0804000C0806000C0808000C080A000C080C000C080E000C0A00000C0A02000C0A04000C0A06000C0A08000C0A0A000C0A0C000C0A0E000C0C00000C0C02000C0C04000C0C06000
310
C0C08000C0C0A000F0FBFF00A4A0A000808080000000FF0000FF000000FFFF00FF000000FF00FF00FFFF0000FFFFFF00000000000000000000000000000000000000000000000000000000000000000000000000000000FFFFFFFFFFFF00000000000000000000000000000000000000000000000000FF000000FFFF000000
310
0000000000000000000000000000000000000000000000FF000000FFFF0000000000000000000000000000000000000000000000000000FF000000FFFF0000000000000000000000000000000000000000000000000000FF000000FFFF0000000000000000000000000000000000000000000000000000FF000000FFFF0000
310
000000000000000000000000000000000000000000000000FF000000FFFF0000000000000000000000000000000000000000000000000000FF000000FFFF0000000000000000000000000000000000000000000000000000FF000000FFFF0000000000000000000000000000000000000000000000000000FF000000FFFF00
310
00000000000000000000000000000000000000000000000000FF000000FFFF0000000000000000000000000000000000000000000000000000FF000000FFFF0000000000000000000000000000000000000000000000000000FF000000FFFF0000000000000000000000000000000000000000000000000000FF000000FFFF
310
0000000000000000000000000000000000000000000000000000FFFF0000FFFF0000000000000000A4A4A4A4A4A4000000000000000000000000FFFF0000000000000000000000000000000000FF000000000000000000000000FFFF0000000000000000000000000000000000FF000000000000000000000000FFFF000000
310
0000000000000000000000000000FF000000000000000000000000FFFF0000000000000000000000000000000000FF000000000000000000000000FFFF0000000000000000000000000000000000FF000000000000000000000000FFFF0000000000000000000000000000000000FF000000000000000000000000FFFF0000
310
000000000000000000000000000000FF000000000000000000000000FFFFFFFFFFFFFFFFFFFFFFFFFFFFFFFFFFFFFFFF000000000000000000000000FFFFFFFFFFFFFFFFFFFFFFFFFFFFFFFFFFFFFFFF000000000000000000000000FF000000000000000000000000000000000000FF000000000000000000000000FF0000
310
00000000000000000000000000000000FF000000000000000000000000FF000000000000000000000000000000000000FF00000000000000000000000000FFFFFFFFFFFFFFFFFFFFF9FFFFFFFFFFFFFFFF0000000000000000000000000000000000000000FFFFF9F9F9FFF900000000000000000000000000000000000000
310
000000000000000000F900000000000000000000000000000000000000000000000000000000000000000000000000000000000000000000
102
{BLKREFS
331
50D1
102
}
 70
     4
280
     1
281
     0
  0
BLOCK_RECORD
  5
525A
102
{ACAD_XDICTIONARY
360
52E8
102
}
330
1
100
AcDbSymbolTableRecord
100
AcDbBlockTableRecord
  2
リーマボルト CCMH500 M20
340
0
310
2800000020000000200000000100080000000000000400000000000000000000000000000000000000000000000080000080000000808000800000008000800080800000C0C0C000C0DCC000F0CAA6000020400000206000002080000020A0000020C0000020E00000400000004020000040400000406000004080000040A0
310
000040C0000040E00000600000006020000060400000606000006080000060A0000060C0000060E00000800000008020000080400000806000008080000080A0000080C0000080E00000A0000000A0200000A0400000A0600000A0800000A0A00000A0C00000A0E00000C0000000C0200000C0400000C0600000C0800000C0
310
A00000C0C00000C0E00000E0000000E0200000E0400000E0600000E0800000E0A00000E0C00000E0E00040000000400020004000400040006000400080004000A0004000C0004000E00040200000402020004020400040206000402080004020A0004020C0004020E000404000004040200040404000404060004040800040
310
40A0004040C0004040E00040600000406020004060400040606000406080004060A0004060C0004060E00040800000408020004080400040806000408080004080A0004080C0004080E00040A0000040A0200040A0400040A0600040A0800040A0A00040A0C00040A0E00040C0000040C0200040C0400040C0600040C08000
310
40C0A00040C0C00040C0E00040E0000040E0200040E0400040E0600040E0800040E0A00040E0C00040E0E00080000000800020008000400080006000800080008000A0008000C0008000E00080200000802020008020400080206000802080008020A0008020C0008020E00080400000804020008040400080406000804080
310
008040A0008040C0008040E00080600000806020008060400080606000806080008060A0008060C0008060E00080800000808020008080400080806000808080008080A0008080C0008080E00080A0000080A0200080A0400080A0600080A0800080A0A00080A0C00080A0E00080C0000080C0200080C0400080C0600080C0
310
800080C0A00080C0C00080C0E00080E0000080E0200080E0400080E0600080E0800080E0A00080E0C00080E0E000C0000000C0002000C0004000C0006000C0008000C000A000C000C000C000E000C0200000C0202000C0204000C0206000C0208000C020A000C020C000C020E000C0400000C0402000C0404000C0406000C0
310
408000C040A000C040C000C040E000C0600000C0602000C0604000C0606000C0608000C060A000C060C000C060E000C0800000C0802000C0804000C0806000C0808000C080A000C080C000C080E000C0A00000C0A02000C0A04000C0A06000C0A08000C0A0A000C0A0C000C0A0E000C0C00000C0C02000C0C04000C0C06000
310
C0C08000C0C0A000F0FBFF00A4A0A000808080000000FF0000FF000000FFFF00FF000000FF00FF00FFFF0000FFFFFF0000000000000000000000000000000000000000000000000000000000000000000000000000000000000000000000000000000000000000000000000000000000000000000000000000000000000000
310
00000000000000000000000000000000000000000000000000000000000000000000000000000000000000000000000000000000000000000000000000000000000000000000000000000000000000000000000000000000000000000000000000000000000000000000000000000000000000000000000000000000000000
310
00000000000000000000000000000000000000000000000000000000000000000000000000000000000000000000000000000000000000000000000000000000000000000000000000000000000000000000000000000000000000000000000000000000000000000000000000000000000000000000FFFFFFFFFFFFFF0000
310
00000000000000000000000000FFFFFFFF000000000000FF00000000FF00000000000000000000000000000000000000FFFF000000FFFFFF00000000FFFFFFFF000000000000000000000000FFFF0000FFFF0000FFFFFEFFFFFFFFFFFF0000FF000000000000000000000000FFFFFFFFFFFF0000FFFF00FF00000000FF0000
310
FF000000000000000000000000FF000000FFFF0000FFFF00FF00000000FF0000FF000000000000000000000000FF000000FFFF0000FFFF00FF00000000FFFF00FF000000000000000000000000FF000000FFFF0000FFFF00FF00000000FFFF00FF000000000000000000000000FF000000FFFF0000FFFFFEFFFFFFFFFFFF00
310
00FF000000000000000000000000FFFFFFFFFFFF000000FFFFFF00000000FFFFFFFF000000000000000000000000FFFF0000FFFF0000000000FF00000000FF00000000000000000000000000000000000000FFFF0000000000FFFFFFFFFFFFFF000000000000000000000000000000FFFFFFFF000000000000000000000000
310
00000000000000000000000000000000000000000000000000000000000000000000000000000000000000000000000000000000000000000000000000000000000000000000000000000000000000000000000000000000000000000000000000000000000000000000000000000000000000000000000000000000000000
310
00000000000000000000000000000000000000000000000000000000000000000000000000000000000000000000000000000000000000000000000000000000000000000000000000000000000000000000000000000000000000000000000000000000000000000000000000000000000000000000000000000000000000
310
0000000000000000000000000000000000000000000000000000000000000000000000000000000000000000000000000000000000000000
102
{BLKREFS
331
5287
102
}
 70
     4
280
     1
281
     0
  0
BLOCK_RECORD
  5
53DA
102
{ACAD_XDICTIONARY
360
5480
102
}
330
1
100
AcDbSymbolTableRecord
100
AcDbBlockTableRecord
  2
ＧＣサイドカバ－A CCMH500
340
0
310
2800000020000000200000000100080000000000000400000000000000000000000000000000000000000000000080000080000000808000800000008000800080800000C0C0C000C0DCC000F0CAA6000020400000206000002080000020A0000020C0000020E00000400000004020000040400000406000004080000040A0
310
000040C0000040E00000600000006020000060400000606000006080000060A0000060C0000060E00000800000008020000080400000806000008080000080A0000080C0000080E00000A0000000A0200000A0400000A0600000A0800000A0A00000A0C00000A0E00000C0000000C0200000C0400000C0600000C0800000C0
310
A00000C0C00000C0E00000E0000000E0200000E0400000E0600000E0800000E0A00000E0C00000E0E00040000000400020004000400040006000400080004000A0004000C0004000E00040200000402020004020400040206000402080004020A0004020C0004020E000404000004040200040404000404060004040800040
310
40A0004040C0004040E00040600000406020004060400040606000406080004060A0004060C0004060E00040800000408020004080400040806000408080004080A0004080C0004080E00040A0000040A0200040A0400040A0600040A0800040A0A00040A0C00040A0E00040C0000040C0200040C0400040C0600040C08000
310
40C0A00040C0C00040C0E00040E0000040E0200040E0400040E0600040E0800040E0A00040E0C00040E0E00080000000800020008000400080006000800080008000A0008000C0008000E00080200000802020008020400080206000802080008020A0008020C0008020E00080400000804020008040400080406000804080
310
008040A0008040C0008040E00080600000806020008060400080606000806080008060A0008060C0008060E00080800000808020008080400080806000808080008080A0008080C0008080E00080A0000080A0200080A0400080A0600080A0800080A0A00080A0C00080A0E00080C0000080C0200080C0400080C0600080C0
310
800080C0A00080C0C00080C0E00080E0000080E0200080E0400080E0600080E0800080E0A00080E0C00080E0E000C0000000C0002000C0004000C0006000C0008000C000A000C000C000C000E000C0200000C0202000C0204000C0206000C0208000C020A000C020C000C020E000C0400000C0402000C0404000C0406000C0
310
408000C040A000C040C000C040E000C0600000C0602000C0604000C0606000C0608000C060A000C060C000C060E000C0800000C0802000C0804000C0806000C0808000C080A000C080C000C080E000C0A00000C0A02000C0A04000C0A06000C0A08000C0A0A000C0A0C000C0A0E000C0C00000C0C02000C0C04000C0C06000
310
C0C08000C0C0A000F0FBFF00A4A0A000808080000000FF0000FF000000FFFF00FF000000FF00FF00FFFF0000FFFFFF000000000000000000000000000000000000000000000000000000000000000000000000000000000000000000000000FFFF0000000000000000000000000000000000000000000000000000000000F9
310
F9FFF9000000000000000000000000000000000000000000000000000000000000FF00000000000000000000000000000000000000000000000000000000000000FF00000000000000000000000000000000000000000000000000000000000000FF0000000000000000000000000000000000000000000000000000000000
310
0000FF00000000000000000000000000000000000000000000000000000000000000FF00000000000000000000000000000000000000000000000000000000000000FF00000000000000000000000000000000000000000000000000000000000000FF00000000000000000000000000000000000000000000000000000000
310
000000FF00000000000000000000000000000000000000000000000000000000000000FF00000000000000000000000000000000000000000000000000000000000000FF00000000000000000000000000000000000000000000000000000000000000FF000000000000000000000000000000000000000000000000000000
310
00000000FF00000000000000000000000000000000000000000000000000000000000000FF00000000000000000000000000000000000000000000000000000000000000FF00000000000000000000000000000000000000000000000000000000000000000000000000000000000000000000000000000000000000000000
310
00000000000000000000000000000000000000000000000000000000000000000000000000000000000000000000000000000000000000000000000000000000000000000000000000000000000000000000000000000000000000000000000000000000000000000000000000000000000000000000000000000000000000
310
00000000000000000000000000000000000000000000000000000000000000000000000000000000000000000000000000000000000000000000000000000000000000000000000000000000000000000000000000000000000000000000000000000000000000000000000000000000000000000000000000000000000000
310
0000000000000000000000000000000000000000000000000000000000000000000000000000FFFF000000000000000000000000000000000000000000000000000000000000FFFFFF00000000000000000000000000000000000000000000000000000000FFFFFFFF00000000000000000000000000000000000000000000
310
000000000000FFFFFFFF00000000000000000000000000000000000000000000000000000000000000000000000000000000000000000000
102
{BLKREFS
331
540F
102
}
 70
     4
280
     1
281
     0
  0
BLOCK_RECORD
  5
54F7
102
{ACAD_XDICTIONARY
360
559C
102
}
330
1
100
AcDbSymbolTableRecord
100
AcDbBlockTableRecord
  2
ＧＣサイドカバ－Ｂ CCMH500
340
0
310
2800000020000000200000000100080000000000000400000000000000000000000000000000000000000000000080000080000000808000800000008000800080800000C0C0C000C0DCC000F0CAA6000020400000206000002080000020A0000020C0000020E00000400000004020000040400000406000004080000040A0
310
000040C0000040E00000600000006020000060400000606000006080000060A0000060C0000060E00000800000008020000080400000806000008080000080A0000080C0000080E00000A0000000A0200000A0400000A0600000A0800000A0A00000A0C00000A0E00000C0000000C0200000C0400000C0600000C0800000C0
310
A00000C0C00000C0E00000E0000000E0200000E0400000E0600000E0800000E0A00000E0C00000E0E00040000000400020004000400040006000400080004000A0004000C0004000E00040200000402020004020400040206000402080004020A0004020C0004020E000404000004040200040404000404060004040800040
310
40A0004040C0004040E00040600000406020004060400040606000406080004060A0004060C0004060E00040800000408020004080400040806000408080004080A0004080C0004080E00040A0000040A0200040A0400040A0600040A0800040A0A00040A0C00040A0E00040C0000040C0200040C0400040C0600040C08000
310
40C0A00040C0C00040C0E00040E0000040E0200040E0400040E0600040E0800040E0A00040E0C00040E0E00080000000800020008000400080006000800080008000A0008000C0008000E00080200000802020008020400080206000802080008020A0008020C0008020E00080400000804020008040400080406000804080
310
008040A0008040C0008040E00080600000806020008060400080606000806080008060A0008060C0008060E00080800000808020008080400080806000808080008080A0008080C0008080E00080A0000080A0200080A0400080A0600080A0800080A0A00080A0C00080A0E00080C0000080C0200080C0400080C0600080C0
310
800080C0A00080C0C00080C0E00080E0000080E0200080E0400080E0600080E0800080E0A00080E0C00080E0E000C0000000C0002000C0004000C0006000C0008000C000A000C000C000C000E000C0200000C0202000C0204000C0206000C0208000C020A000C020C000C020E000C0400000C0402000C0404000C0406000C0
310
408000C040A000C040C000C040E000C0600000C0602000C0604000C0606000C0608000C060A000C060C000C060E000C0800000C0802000C0804000C0806000C0808000C080A000C080C000C080E000C0A00000C0A02000C0A04000C0A06000C0A08000C0A0A000C0A0C000C0A0E000C0C00000C0C02000C0C04000C0C06000
310
C0C08000C0C0A000F0FBFF00A4A0A000808080000000FF0000FF000000FFFF00FF000000FF00FF00FFFF0000FFFFFF000000000000000000000000000000000000000000000000000000000000000000000000000000000000000000000000FF000000000000000000000000000000000000000000000000000000000000F9
310
FFF9F90000000000000000000000000000000000000000000000000000000000FF00000000000000000000000000000000000000000000000000000000000000FF00000000000000000000000000000000000000000000000000000000000000FF000000000000000000000000000000000000000000000000000000000000
310
00FF00000000000000000000000000000000000000000000000000000000000000FF00000000000000000000000000000000000000000000000000000000000000FF00000000000000000000000000000000000000000000000000000000000000FF0000000000000000000000000000000000000000000000000000000000
310
0000FF00000000000000000000000000000000000000000000000000000000000000FF00000000000000000000000000000000000000000000000000000000000000FF00000000000000000000000000000000000000000000000000000000000000FF00000000000000000000000000000000000000000000000000000000
310
000000FF00000000000000000000000000000000000000000000000000000000000000FF00000000000000000000000000000000000000000000000000000000000000FF0000000000000000000000000000000000000000000000000000000000000000000000000000000000000000000000000000000000000000000000
310
00000000000000000000000000000000000000000000000000000000000000000000000000000000000000000000000000000000000000000000000000000000000000000000000000000000000000000000000000000000000000000000000000000000000000000000000000000000000000000000000000000000000000
310
00000000000000000000000000000000000000000000000000000000000000000000000000000000000000000000000000000000000000000000000000000000000000000000000000000000000000000000000000000000000000000000000000000000000000000000000000000000000000000000000000000000000000
310
0000000000000000000000000000000000000000000000000000000000000000000000000000FFFF0000000000000000000000000000000000000000000000000000000000FFFFFF0000000000000000000000000000000000000000000000000000000000FFFFFFFF00000000000000000000000000000000000000000000
310
000000000000FFFF000000000000000000000000000000000000000000000000000000000000000000000000000000000000000000000000
102
{BLKREFS
331
5529
102
}
 70
     4
280
     1
281
     0
  0
BLOCK_RECORD
  5
5837
330
1
100
AcDbSymbolTableRecord
100
AcDbBlockTableRecord
  2
*D15
340
0
 70
     0
280
     1
281
     0
  0
BLOCK_RECORD
  5
587C
330
1
100
AcDbSymbolTableRecord
100
AcDbBlockTableRecord
  2
*D16
340
0
 70
     0
280
     1
281
     0
  0
BLOCK_RECORD
  5
58FC
330
1
100
AcDbSymbolTableRecord
100
AcDbBlockTableRecord
  2
*D17
340
0
 70
     0
280
     1
281
     0
  0
BLOCK_RECORD
  5
5914
330
1
100
AcDbSymbolTableRecord
100
AcDbBlockTableRecord
  2
*D18
340
0
 70
     0
280
     1
281
     0
  0
BLOCK_RECORD
  5
5930
330
1
100
AcDbSymbolTableRecord
100
AcDbBlockTableRecord
  2
*D19
340
0
 70
     0
280
     1
281
     0
  0
BLOCK_RECORD
  5
5A3F
330
1
100
AcDbSymbolTableRecord
100
AcDbBlockTableRecord
  2
*D20
340
0
 70
     0
280
     1
281
     0
  0
BLOCK_RECORD
  5
5A69
330
1
100
AcDbSymbolTableRecord
100
AcDbBlockTableRecord
  2
*D21
340
0
 70
     0
280
     1
281
     0
  0
BLOCK_RECORD
  5
5A81
330
1
100
AcDbSymbolTableRecord
100
AcDbBlockTableRecord
  2
*D22
340
0
 70
     0
280
     1
281
     0
  0
BLOCK_RECORD
  5
5B17
330
1
100
AcDbSymbolTableRecord
100
AcDbBlockTableRecord
  2
*D23
340
0
 70
     0
280
     1
281
     0
  0
BLOCK_RECORD
  5
5B33
330
1
100
AcDbSymbolTableRecord
100
AcDbBlockTableRecord
  2
*D24
340
0
 70
     0
280
     1
281
     0
  0
BLOCK_RECORD
  5
5BC1
330
1
100
AcDbSymbolTableRecord
100
AcDbBlockTableRecord
  2
*D25
340
0
 70
     0
280
     1
281
     0
  0
BLOCK_RECORD
  5
5C57
330
1
100
AcDbSymbolTableRecord
100
AcDbBlockTableRecord
  2
*D26
340
0
 70
     0
280
     1
281
     0
  0
BLOCK_RECORD
  5
72FB
102
{ACAD_XDICTIONARY
360
734F
102
}
330
1
100
AcDbSymbolTableRecord
100
AcDbBlockTableRecord
  2
ロッカクアナツキプラグB R1／2
340
0
102
{BLKREFS
331
4EF7
102
}
 70
     0
280
     1
281
     0
  0
BLOCK_RECORD
  5
790C
330
1
100
AcDbSymbolTableRecord
100
AcDbBlockTableRecord
  2
*D28
340
0
 70
     0
280
     1
281
     0
  0
BLOCK_RECORD
  5
7936
330
1
100
AcDbSymbolTableRecord
100
AcDbBlockTableRecord
  2
*D29
340
0
 70
     0
280
     1
281
     0
  0
ENDTAB
  0
ENDSEC
  0
SECTION
  2
BLOCKS
  0
BLOCK
  5
20
330
1F
100
AcDbEntity
  8
0
100
AcDbBlockBegin
  2
*Model_Space
 70
     0
 10
0.0
 20
0.0
 30
0.0
  3
*Model_Space
  1

  0
ENDBLK
  5
21
330
1F
100
AcDbEntity
  8
0
100
AcDbBlockEnd
  0
BLOCK
  5
1C
330
1B
100
AcDbEntity
 67
     1
  8
0
100
AcDbBlockBegin
  2
*Paper_Space
 70
     0
 10
0.0
 20
0.0
 30
0.0
  3
*Paper_Space
  1

  0
ENDBLK
  5
1D
330
1B
100
AcDbEntity
 67
     1
  8
0
100
AcDbBlockEnd
  0
BLOCK
  5
24
330
23
100
AcDbEntity
 67
     1
  8
0
100
AcDbBlockBegin
  2
*Paper_Space0
 70
     0
 10
0.0
 20
0.0
 30
0.0
  3
*Paper_Space0
  1

  0
ENDBLK
  5
25
330
23
100
AcDbEntity
 67
     1
  8
0
100
AcDbBlockEnd
  0
BLOCK
  5
6D
330
69
100
AcDbEntity
  8
0
100
AcDbBlockBegin
  2
_Open30
 70
     0
 10
0.0
 20
0.0
 30
0.0
  3
_Open30
  1

  0
LINE
  5
6A
330
69
100
AcDbEntity
  8
0
  6
ByBlock
 62
     0
370
    -2
100
AcDbLine
 10
-1.0
 20
0.26794919
 30
0.0
 11
0.0
 21
0.0
 31
0.0
  0
LINE
  5
6B
330
69
100
AcDbEntity
  8
0
  6
ByBlock
 62
     0
370
    -2
100
AcDbLine
 10
0.0
 20
0.0
 30
0.0
 11
-1.0
 21
-0.26794919
 31
0.0
  0
LINE
  5
6C
330
69
100
AcDbEntity
  8
0
  6
ByBlock
 62
     0
370
    -2
100
AcDbLine
 10
0.0
 20
0.0
 30
0.0
 11
-1.0
 21
0.0
 31
0.0
  0
ENDBLK
  5
6E
330
69
100
AcDbEntity
  8
0
100
AcDbBlockEnd
  0
BLOCK
  5
76
330
74
100
AcDbEntity
  8
0
100
AcDbBlockBegin
  2
GENAXEH
 70
     0
 10
0.0
 20
0.0
 30
0.0
  3
GENAXEH
  1

  0
LINE
  5
75
330
74
100
AcDbEntity
  8
0
100
AcDbLine
 10
-1.0
 20
0.0
 30
0.0
 11
1.0
 21
0.0
 31
0.0
  0
ENDBLK
  5
77
330
74
100
AcDbEntity
  8
0
100
AcDbBlockEnd
  0
BLOCK
  5
380F
330
380C
100
AcDbEntity
  8
0
100
AcDbBlockBegin
  2
ロッカクアナツキプラグA R1／2
 70
     0
 10
0.0
 20
0.0
 30
0.0
  3
ロッカクアナツキプラグA R1／2
  1

  0
LINE
  5
4E1D
330
380C
100
AcDbEntity
  8
AM_0 外形線1
100
AcDbLine
 10
10.66397700000016
 20
-1.5
 30
0.0
 11
10.2623880000001
 21
-13.0
 31
0.0
  0
LINE
  5
4E1E
330
380C
100
AcDbEntity
  8
AM_4 細線
100
AcDbLine
 10
9.541186000000379
 20
-0.3772080000001097
 30
0.0
 11
9.076479000000288
 21
-13.68468499999994
 31
0.0
  0
LINE
  5
4E1F
330
380C
100
AcDbEntity
  8
AM_0 外形線1
100
AcDbLine
 10
-10.2623880000001
 20
-13.0
 30
0.0
 11
-10.66397700000016
 21
-1.5
 31
0.0
  0
LINE
  5
4E20
330
380C
100
AcDbEntity
  8
AM_4 細線
100
AcDbLine
 10
-9.541185000000039
 20
-0.3772080000001097
 30
0.0
 11
-9.076477999999953
 21
-13.68468499999994
 31
0.0
  0
LINE
  5
4E21
330
380C
100
AcDbEntity
  8
AM_7 中心線
 48
0.5
100
AcDbLine
 10
0.0
 20
5.364789999999856
 30
0.0
 11
0.0
 21
-22.81425800000011
 31
0.0
  0
LINE
  5
4E22
330
380C
100
AcDbEntity
  8
AM_0 外形線1
100
AcDbLine
 10
6.798287000000073
 20
-15.0
 30
0.0
 11
-6.798286000000188
 21
-15.0
 31
0.0
  0
LINE
  5
4E23
330
380C
100
AcDbEntity
  8
AM_0 外形線1
100
AcDbLine
 10
10.2623880000001
 20
-13.0
 30
0.0
 11
-10.2623880000001
 21
-13.0
 31
0.0
  0
LINE
  5
4E24
330
380C
100
AcDbEntity
  8
AM_0 外形線1
100
AcDbLine
 10
-6.798286000000188
 20
-15.0
 30
0.0
 11
-10.2623880000001
 21
-13.0
 31
0.0
  0
LINE
  5
4E25
330
380C
100
AcDbEntity
  8
AM_0 外形線1
100
AcDbLine
 10
10.2623880000001
 20
-13.0
 30
0.0
 11
6.798287000000073
 21
-15.0
 31
0.0
  0
LINE
  5
4E26
330
380C
100
AcDbEntity
  8
AM_0 外形線1
100
AcDbLine
 10
10.66397700000016
 20
-1.5
 30
0.0
 11
-10.66397700000016
 21
-1.5
 31
0.0
  0
LINE
  5
4E27
330
380C
100
AcDbEntity
  8
AM_0 外形線1
100
AcDbLine
 10
-10.66397700000016
 20
-1.5
 30
0.0
 11
-9.163977000000159
 21
0.0
 31
0.0
  0
LINE
  5
4E28
330
380C
100
AcDbEntity
  8
AM_0 外形線1
100
AcDbLine
 10
9.163977000000159
 20
0.0
 30
0.0
 11
10.66397700000016
 21
-1.5
 31
0.0
  0
LINE
  5
4E47
330
380C
100
AcDbEntity
  8
AM_0 外形線1
100
AcDbLine
 10
-9.163977000000159
 20
0.0
 30
0.0
 11
9.163977000000159
 21
0.0
 31
0.0
  0
ENDBLK
  5
381E
330
380C
100
AcDbEntity
  8
0
100
AcDbBlockEnd
  0
BLOCK
  5
3A86
330
3A85
100
AcDbEntity
  8
0
100
AcDbBlockBegin
  2
GENDOT
 70
     0
 10
0.0
 20
0.0
 30
0.0
  3
GENDOT
  1

  0
LINE
  5
3A87
330
3A85
100
AcDbEntity
  8
0
100
AcDbLine
 10
0.0
 20
0.0
 30
0.0
 11
-1.0
 21
0.0
 31
0.0
  0
LWPOLYLINE
  5
3A88
330
3A85
100
AcDbEntity
  8
0
100
AcDbPolyline
 90
        2
 70
     1
 43
0.25
 10
-0.125
 20
0.0
 42
1.0
 10
0.125
 20
0.0
 42
1.0
  0
ENDBLK
  5
3A89
330
3A85
100
AcDbEntity
  8
0
100
AcDbBlockEnd
  0
BLOCK
  5
4D28
330
4D27
100
AcDbEntity
  8
0
100
AcDbBlockBegin
  2
ケースＡ CCMH500
 70
     0
 10
0.0
 20
0.0
 30
0.0
  3
ケースＡ CCMH500
  1

  0
LINE
  5
4D2A
330
4D27
100
AcDbEntity
  8
AM_0 外形線1
100
AcDbLine
 10
25.0
 20
-249.0
 30
0.0
 11
25.0
 21
0.0
 31
0.0
  0
LINE
  5
4D2B
330
4D27
100
AcDbEntity
  8
AM_0 外形線1
100
AcDbLine
 10
0.0
 20
0.0
 30
0.0
 11
0.0
 21
-249.0
 31
0.0
  0
LINE
  5
4D2C
330
4D27
100
AcDbEntity
  8
AM_0 外形線1
100
AcDbLine
 10
25.0
 20
249.0
 30
0.0
 11
25.0
 21
209.5
 31
0.0
  0
LINE
  5
4D2D
330
4D27
100
AcDbEntity
  8
AM_0 外形線1
100
AcDbLine
 10
0.0
 20
242.0
 30
0.0
 11
0.0
 21
249.0
 31
0.0
  0
LINE
  5
4D2E
330
4D27
100
AcDbEntity
  8
AM_0 外形線1
100
AcDbLine
 10
31.0
 20
-203.5
 30
0.0
 11
118.5
 21
-203.5
 31
0.0
  0
ARC
  5
4D2F
330
4D27
100
AcDbEntity
  8
AM_0 外形線1
100
AcDbCircle
 10
31.0
 20
-209.5
 30
0.0
 40
6.0
100
AcDbArc
 50
90.0
 51
180.0
  0
LINE
  5
4D30
330
4D27
100
AcDbEntity
  8
AM_0 外形線1
100
AcDbLine
 10
118.5
 20
-203.5
 30
0.0
 11
118.5
 21
0.0
 31
0.0
  0
LINE
  5
4D31
330
4D27
100
AcDbEntity
  8
AM_0 外形線1
100
AcDbLine
 10
152.0
 20
-192.8000000000002
 30
0.0
 11
152.0
 21
0.0
 31
0.0
  0
LINE
  5
4D32
330
4D27
100
AcDbEntity
  8
AM_0 外形線1
100
AcDbLine
 10
127.0
 20
-212.0
 30
0.0
 11
152.0
 21
-212.0
 31
0.0
  0
LINE
  5
4D33
330
4D27
100
AcDbEntity
  8
AM_0 外形線1
100
AcDbLine
 10
118.5
 20
-203.5
 30
0.0
 11
127.0
 21
-212.0
 31
0.0
  0
LINE
  5
4D34
330
4D27
100
AcDbEntity
  8
AM_0 外形線1
100
AcDbLine
 10
152.0
 20
-192.8000000000002
 30
0.0
 11
152.0
 21
-212.0
 31
0.0
  0
LINE
  5
4D35
330
4D27
100
AcDbEntity
  8
AM_0 外形線1
100
AcDbLine
 10
72.5
 20
187.5
 30
0.0
 11
-7.0
 21
187.5
 31
0.0
  0
LINE
  5
4D36
330
4D27
100
AcDbEntity
  8
AM_7 中心線
100
AcDbLine
 10
-56.47008800000002
 20
231.0
 30
0.0
 11
53.0
 21
231.0
 31
0.0
  0
LINE
  5
4D37
330
4D27
100
AcDbEntity
  8
AM_0 外形線1
100
AcDbLine
 10
-7.0
 20
187.5
 30
0.0
 11
-7.0
 21
199.0
 31
0.0
  0
LINE
  5
4D38
330
4D27
100
AcDbEntity
  8
AM_0 外形線1
100
AcDbLine
 10
39.7376119999999
 20
190.5
 30
0.0
 11
39.84237500000018
 21
187.5
 31
0.0
  0
LINE
  5
4D39
330
4D27
100
AcDbEntity
  8
AM_0 外形線1
100
AcDbLine
 10
22.5
 20
242.0
 30
0.0
 11
0.0
 21
242.0
 31
0.0
  0
LINE
  5
4D3A
330
4D27
100
AcDbEntity
  8
AM_0 外形線1
100
AcDbLine
 10
0.0
 20
220.0
 30
0.0
 11
22.5
 21
220.0
 31
0.0
  0
LINE
  5
4D3B
330
4D27
100
AcDbEntity
  8
AM_0 外形線1
100
AcDbLine
 10
0.0
 20
207.1999999999998
 30
0.0
 11
0.0
 21
220.0
 31
0.0
  0
ARC
  5
4D3C
330
4D27
100
AcDbEntity
  8
AM_0 外形線1
100
AcDbCircle
 10
4.0
 20
200.5
 30
0.0
 40
0.5
100
AcDbArc
 50
270.0
 51
0.0
  0
LINE
  5
4D3D
330
4D27
100
AcDbEntity
  8
AM_0 外形線1
100
AcDbLine
 10
4.5
 20
200.5
 30
0.0
 11
4.5
 21
206.6999999999998
 31
0.0
  0
ARC
  5
4D3E
330
4D27
100
AcDbEntity
  8
AM_0 外形線1
100
AcDbCircle
 10
4.0
 20
206.6999999999998
 30
0.0
 40
0.5
100
AcDbArc
 50
0.0
 51
90.0
  0
LINE
  5
4D3F
330
4D27
100
AcDbEntity
  8
AM_0 外形線1
100
AcDbLine
 10
4.0
 20
207.1999999999998
 30
0.0
 11
0.0
 21
207.1999999999998
 31
0.0
  0
LWPOLYLINE
  5
4D40
330
4D27
100
AcDbEntity
  8
AM_0 外形線1
100
AcDbPolyline
 90
       73
 70
     0
 43
0.0
 10
2.25
 20
207.1999999999998
 10
2.053899999999885
 20
207.1863009999999
 10
1.859292000000094
 20
207.1453079999999
 10
1.667656999999961
 20
207.077333
 10
1.480454999999891
 20
206.9828939999998
 10
1.299109000000044
 20
206.8627079999999
 10
1.125
 20
206.717692
 10
0.9594530000003942
 20
206.5489479999999
 10
0.8037279999998645
 20
206.3577599999999
 10
0.6590100000003078
 20
206.145585
 10
0.5263999999997396
 20
205.9140359999999
 10
0.4069079999999305
 20
205.6648759999998
 10
0.3014430000002903
 20
205.3999999999998
 10
0.2108079999998154
 20
205.1214259999999
 10
0.1356919999998354
 20
204.831273
 10
0.0766670000002705
 20
204.531749
 10
0.0341829999997572
 20
204.2251339999998
 10
0.0085619999999835
 20
203.9137609999998
 10
0.0
 20
203.6
 10
0.0085619999999835
 20
203.2862399999999
 10
0.0341829999997572
 20
202.9748669999999
 10
0.0766670000002705
 20
202.668252
 10
0.1356919999998354
 20
202.3687279999999
 10
0.2108079999998154
 20
202.078575
 10
0.3014430000002903
 20
201.8
 10
0.4069079999999305
 20
201.5351249999999
 10
0.5263999999997396
 20
201.285965
 10
0.6590100000003078
 20
201.0544159999999
 10
0.8037279999998645
 20
200.84224
 10
0.9594530000003942
 20
200.6510529999998
 10
1.125
 20
200.482309
 10
1.299109000000044
 20
200.3372919999999
 10
1.480454999999891
 20
200.2171069999999
 10
1.667656999999961
 20
200.1226669999998
 10
1.859292000000094
 20
200.0546919999999
 10
2.053899999999885
 20
200.0136989999999
 10
2.25
 20
200.0
 10
2.446101000000453
 20
200.0136989999999
 10
2.640709000000241
 20
200.0546919999999
 10
2.832343000000037
 20
200.1226669999998
 10
3.019545999999991
 20
200.2171069999999
 10
3.200890999999955
 20
200.3372919999999
 10
3.375
 20
200.482309
 10
3.54054700000006
 20
200.6510529999998
 10
3.696272000000134
 20
200.84224
 10
3.84099100000003
 20
201.0544159999999
 10
3.97360000000026
 20
201.285965
 10
4.093092000000068
 20
201.5351249999999
 10
4.198558000000048
 20
201.8
 10
4.289193000000068
 20
202.078575
 10
4.364309000000048
 20
202.3687279999999
 10
4.423332999999728
 20
202.668252
 10
4.465818000000125
 20
202.9748669999999
 10
4.491438000000016
 20
203.2862399999999
 10
4.5
 20
203.6
 10
4.491438000000016
 20
203.9137609999998
 10
4.465818000000125
 20
204.2251339999998
 10
4.423332999999728
 20
204.531749
 10
4.364309000000048
 20
204.831273
 10
4.289193000000068
 20
205.1214259999999
 10
4.198558000000048
 20
205.3999999999998
 10
4.093092000000068
 20
205.6648759999998
 10
3.97360000000026
 20
205.9140359999999
 10
3.84099100000003
 20
206.145585
 10
3.696272000000134
 20
206.3577599999999
 10
3.54054700000006
 20
206.5489479999999
 10
3.375
 20
206.717692
 10
3.200890999999955
 20
206.8627079999999
 10
3.019545999999991
 20
206.9828939999998
 10
2.832343000000037
 20
207.077333
 10
2.640709000000241
 20
207.1453079999999
 10
2.446101000000453
 20
207.1863009999999
 10
2.25
 20
207.1999999999998
  0
LINE
  5
4D41
330
4D27
100
AcDbEntity
  8
AM_0 外形線1
100
AcDbLine
 10
-7.0
 20
199.0
 30
0.0
 11
-6.0
 21
200.0
 31
0.0
  0
LINE
  5
4D42
330
4D27
100
AcDbEntity
  8
AM_0 外形線1
100
AcDbLine
 10
-5.999999999999772
 20
200.0000000000002
 30
0.0
 11
4.0
 21
200.0
 31
0.0
  0
ARC
  5
4D44
330
4D27
100
AcDbEntity
  8
AM_0 外形線1
100
AcDbCircle
 10
31.0
 20
209.5
 30
0.0
 40
6.0
100
AcDbArc
 50
180.0
 51
270.0
  0
LINE
  5
4D45
330
4D27
100
AcDbEntity
  8
AM_0 外形線1
100
AcDbLine
 10
40.45881499999995
 20
203.1227919999999
 30
0.0
 11
40.44564199999967
 21
203.5
 31
0.0
  0
LINE
  5
4D46
330
4D27
100
AcDbEntity
  8
AM_0 外形線1
100
AcDbLine
 10
39.33602299999984
 20
202.0
 30
0.0
 11
39.28364199999986
 21
203.5
 31
0.0
  0
LINE
  5
4D47
330
4D27
100
AcDbEntity
  8
AM_0 外形線1
100
AcDbLine
 10
22.5
 20
242.0
 30
0.0
 11
25.0
 21
242.0
 31
0.0
  0
LINE
  5
4D48
330
4D27
100
AcDbEntity
  8
AM_0 外形線1
100
AcDbLine
 10
22.5
 20
220.0
 30
0.0
 11
25.0
 21
220.0
 31
0.0
  0
LINE
  5
4D4A
330
4D27
100
AcDbEntity
  8
AM_0 外形線1
100
AcDbLine
 10
73.0
 20
186.0
 30
0.0
 11
147.0
 21
186.0
 31
0.0
  0
LINE
  5
4D4B
330
4D27
100
AcDbEntity
  8
AM_7 中心線
100
AcDbLine
 10
71.0
 20
180.0
 30
0.0
 11
149.0
 21
180.0
 31
0.0
  0
LINE
  5
4D4C
330
4D27
100
AcDbEntity
  8
AM_3 隠れ線
100
AcDbLine
 10
142.0
 20
175.1999999999998
 30
0.0
 11
79.0
 21
175.1999999999998
 31
0.0
  0
LINE
  5
4D4D
330
4D27
100
AcDbEntity
  8
AM_0 外形線1
100
AcDbLine
 10
79.0
 20
175.1999999999998
 30
0.0
 11
73.5
 21
175.1999999999998
 31
0.0
  0
ARC
  5
4D4E
330
4D27
100
AcDbEntity
  8
AM_0 外形線1
100
AcDbCircle
 10
72.5
 20
187.0
 30
0.0
 40
0.5
100
AcDbArc
 50
0.0
 51
90.0
  0
LINE
  5
4D4F
330
4D27
100
AcDbEntity
  8
AM_0 外形線1
100
AcDbLine
 10
59.07647900000029
 20
189.815315
 30
0.0
 11
58.99562599999989
 21
187.5
 31
0.0
  0
LINE
  5
4D50
330
4D27
100
AcDbEntity
  8
AM_0 外形線1
100
AcDbLine
 10
60.26238800000011
 20
190.5
 30
0.0
 11
60.15762600000015
 21
187.5
 31
0.0
  0
LINE
  5
4D51
330
4D27
100
AcDbEntity
  8
AM_0 外形線1
100
AcDbLine
 10
73.5
 20
175.1999999999998
 30
0.0
 11
73.0
 21
175.6999999999998
 31
0.0
  0
LINE
  5
4D52
330
4D27
100
AcDbEntity
  8
AM_0 外形線1
100
AcDbLine
 10
73.0
 20
175.6999999999998
 30
0.0
 11
73.0
 21
169.8526300000001
 31
0.0
  0
LINE
  5
4D53
330
4D27
100
AcDbEntity
  8
AM_0 外形線1
100
AcDbLine
 10
73.0
 20
175.6999999999998
 30
0.0
 11
73.0
 21
187.0
 31
0.0
  0
LINE
  5
4D54
330
4D27
100
AcDbEntity
  8
AM_0 外形線1
100
AcDbLine
 10
59.55435799999985
 20
203.5
 30
0.0
 11
59.54118599999993
 21
203.1227919999999
 31
0.0
  0
LINE
  5
4D55
330
4D27
100
AcDbEntity
  8
AM_0 外形線1
100
AcDbLine
 10
60.66397700000015
 20
202.0
 30
0.0
 11
60.71635800000013
 21
203.5
 31
0.0
  0
LINE
  5
4D56
330
4D27
100
AcDbEntity
  8
AM_0 外形線1
100
AcDbLine
 10
118.5
 20
203.5
 30
0.0
 11
127.0
 21
212.0
 31
0.0
  0
LINE
  5
4D57
330
4D27
100
AcDbEntity
  8
AM_0 外形線1
100
AcDbLine
 10
152.0
 20
195.9999999999998
 30
0.0
 11
152.0
 21
187.5
 31
0.0
  0
ARC
  5
4D58
330
4D27
100
AcDbEntity
  8
AM_0 外形線1
100
AcDbCircle
 10
147.5
 20
187.0
 30
0.0
 40
0.5
100
AcDbArc
 50
90.0
 51
180.0
  0
LINE
  5
4D59
330
4D27
100
AcDbEntity
  8
AM_0 外形線1
100
AcDbLine
 10
147.5
 20
187.5
 30
0.0
 11
152.0000000000002
 21
187.5
 31
0.0
  0
LINE
  5
4D5A
330
4D27
100
AcDbEntity
  8
AM_0 外形線1
100
AcDbLine
 10
147.0
 20
175.6999999999998
 30
0.0
 11
146.5
 21
175.1999999999998
 31
0.0
  0
LINE
  5
4D5B
330
4D27
100
AcDbEntity
  8
AM_0 外形線1
100
AcDbLine
 10
142.0
 20
175.1999999999998
 30
0.0
 11
146.5
 21
175.1999999999998
 31
0.0
  0
LINE
  5
4D5C
330
4D27
100
AcDbEntity
  8
AM_0 外形線1
100
AcDbLine
 10
147.0
 20
187.0
 30
0.0
 11
147.0
 21
175.6999999999998
 31
0.0
  0
LINE
  5
4D5D
330
4D27
100
AcDbEntity
  8
AM_0 外形線1
100
AcDbLine
 10
152.0
 20
206.0
 30
0.0
 11
152.0
 21
212.0
 31
0.0
  0
LINE
  5
4D5F
330
4D27
100
AcDbEntity
  8
AM_0 外形線1
100
AcDbLine
 10
1.0
 20
250.0
 30
0.0
 11
24.0
 21
250.0
 31
0.0
  0
LINE
  5
4D60
330
4D27
100
AcDbEntity
  8
AM_0 外形線1
100
AcDbLine
 10
0.0
 20
249.0
 30
0.0
 11
1.0
 21
250.0
 31
0.0
  0
LINE
  5
4D61
330
4D27
100
AcDbEntity
  8
AM_0 外形線1
100
AcDbLine
 10
24.0
 20
250.0
 30
0.0
 11
25.0
 21
249.0
 31
0.0
  0
LINE
  5
4D62
330
4D27
100
AcDbEntity
  8
AM_0 外形線1
100
AcDbLine
 10
1.0
 20
-250.0
 30
0.0
 11
24.0
 21
-250.0
 31
0.0
  0
LINE
  5
4D63
330
4D27
100
AcDbEntity
  8
AM_0 外形線1
100
AcDbLine
 10
0.0
 20
-249.0
 30
0.0
 11
1.0
 21
-250.0
 31
0.0
  0
LINE
  5
4D64
330
4D27
100
AcDbEntity
  8
AM_0 外形線1
100
AcDbLine
 10
24.0
 20
-250.0
 30
0.0
 11
25.0
 21
-249.0
 31
0.0
  0
LINE
  5
4D65
330
4D27
100
AcDbEntity
  8
AM_0 外形線1
100
AcDbLine
 10
130.3626827106964
 20
-212.0
 30
0.0
 11
130.3626827106964
 21
0.0
 31
0.0
  0
INSERT
  5
4D66
330
4D27
100
AcDbEntity
  8
AM_0 外形線1
100
AcDbBlockReference
  2
ロッカクアナツキプラグA R1／2
 10
50.0
 20
203.5
 30
0.0
  0
LINE
  5
4D67
330
4D27
100
AcDbEntity
  8
AM_0 外形線1
100
AcDbLine
 10
40.92352200000004
 20
189.815315
 30
0.0
 11
41.00437499999997
 21
187.5
 31
0.0
  0
LINE
  5
4D68
330
4D27
100
AcDbEntity
  8
AM_0 外形線1
100
AcDbLine
 10
118.5
 20
203.5
 30
0.0
 11
31.0
 21
203.5
 31
0.0
  0
LINE
  5
4DF3
330
4D27
100
AcDbEntity
  8
AM_0 外形線1
100
AcDbLine
 10
152.0
 20
212.0
 30
0.0
 11
127.0
 21
212.0
 31
0.0
  0
ENDBLK
  5
4D29
330
4D27
100
AcDbEntity
  8
0
100
AcDbBlockEnd
  0
BLOCK
  5
4EC3
330
4EC2
100
AcDbEntity
  8
0
100
AcDbBlockBegin
  2
ケースＢ CCMH500
 70
     0
 10
0.0
 20
0.0
 30
0.0
  3
ケースＢ CCMH500
  1

  0
LINE
  5
4EC5
330
4EC2
100
AcDbEntity
  8
AM_0 外形線1
100
AcDbLine
 10
-25.0
 20
-249.0
 30
0.0
 11
-25.0
 21
0.0
 31
0.0
  0
LINE
  5
4EC6
330
4EC2
100
AcDbEntity
  8
AM_0 外形線1
100
AcDbLine
 10
-73.0
 20
186.0
 30
0.0
 11
-147.0
 21
186.0
 31
0.0
  0
LINE
  5
4EC7
330
4EC2
100
AcDbEntity
  8
AM_0 外形線1
100
AcDbLine
 10
-31.0
 20
-203.5
 30
0.0
 11
-118.5
 21
-203.5
 31
0.0
  0
LINE
  5
4EC8
330
4EC2
100
AcDbEntity
  8
AM_0 外形線1
100
AcDbLine
 10
-31.0
 20
203.5
 30
0.0
 11
-118.5
 21
203.5
 31
0.0
  0
LINE
  5
4EC9
330
4EC2
100
AcDbEntity
  8
AM_7 中心線
 48
0.5
100
AcDbLine
 10
-71.0
 20
180.0
 30
0.0
 11
-149.0
 21
180.0
 31
0.0
  0
LINE
  5
4ECA
330
4EC2
100
AcDbEntity
  8
AM_3 隠れ線
100
AcDbLine
 10
-142.0
 20
175.1999999999998
 30
0.0
 11
-78.90231314499761
 21
175.1999999999998
 31
0.0
  0
LINE
  5
4ECB
330
4EC2
100
AcDbEntity
  8
AM_0 外形線1
100
AcDbLine
 10
-127.0
 20
-212.0
 30
0.0
 11
-127.0
 21
0.0
 31
0.0
  0
LINE
  5
4ECC
330
4EC2
100
AcDbEntity
  8
AM_0 外形線1
100
AcDbLine
 10
-118.5
 20
-203.5
 30
0.0
 11
-118.5
 21
0.0
 31
0.0
  0
LINE
  5
4ECE
330
4EC2
100
AcDbEntity
  8
AM_0 外形線1
100
AcDbLine
 10
-127.0
 20
-212.0
 30
0.0
 11
-152.0
 21
-212.0
 31
0.0
  0
LINE
  5
4ECF
330
4EC2
100
AcDbEntity
  8
AM_0 外形線1
100
AcDbLine
 10
-152.0
 20
0.0
 30
0.0
 11
-152.0
 21
-212.0
 31
0.0
  0
LINE
  5
4ED0
330
4EC2
100
AcDbEntity
  8
AM_0 外形線1
100
AcDbLine
 10
-118.5
 20
-203.5
 30
0.0
 11
-127.0
 21
-212.0
 31
0.0
  0
LINE
  5
4ED1
330
4EC2
100
AcDbEntity
  8
AM_0 外形線1
100
AcDbLine
 10
-152.0
 20
192.7999999999999
 30
0.0
 11
-152.0
 21
187.5
 31
0.0
  0
LINE
  5
4ED2
330
4EC2
100
AcDbEntity
  8
AM_0 外形線1
100
AcDbLine
 10
-147.5
 20
187.5
 30
0.0
 11
-152.0
 21
187.5
 31
0.0
  0
ARC
  5
4ED3
330
4EC2
100
AcDbEntity
  8
AM_0 外形線1
100
AcDbCircle
 10
-147.5
 20
187.0
 30
0.0
 40
0.5
100
AcDbArc
 50
0.0
 51
90.0
  0
LINE
  5
4ED4
330
4EC2
100
AcDbEntity
  8
AM_0 外形線1
100
AcDbLine
 10
-147.0
 20
175.6999999999998
 30
0.0
 11
-146.5
 21
175.1999999999998
 31
0.0
  0
LINE
  5
4ED5
330
4EC2
100
AcDbEntity
  8
AM_0 外形線1
100
AcDbLine
 10
-142.0
 20
175.1999999999998
 30
0.0
 11
-146.5
 21
175.1999999999998
 31
0.0
  0
LINE
  5
4ED6
330
4EC2
100
AcDbEntity
  8
AM_0 外形線1
100
AcDbLine
 10
-147.0
 20
187.0
 30
0.0
 11
-147.0
 21
175.6999999999998
 31
0.0
  0
LINE
  5
4ED7
330
4EC2
100
AcDbEntity
  8
AM_0 外形線1
100
AcDbLine
 10
-127.0
 20
212.0
 30
0.0
 11
-152.0
 21
212.0
 31
0.0
  0
LINE
  5
4ED8
330
4EC2
100
AcDbEntity
  8
AM_0 外形線1
100
AcDbLine
 10
-152.0
 20
206.0
 30
0.0
 11
-152.0
 21
212.0
 31
0.0
  0
LINE
  5
4ED9
330
4EC2
100
AcDbEntity
  8
AM_0 外形線1
100
AcDbLine
 10
-152.0
 20
192.7999999999999
 30
0.0
 11
-152.0
 21
196.0
 31
0.0
  0
LINE
  5
4EDA
330
4EC2
100
AcDbEntity
  8
AM_0 外形線1
100
AcDbLine
 10
-118.5
 20
203.5
 30
0.0
 11
-127.0
 21
212.0
 31
0.0
  0
LINE
  5
4EDB
330
4EC2
100
AcDbEntity
  8
AM_0 外形線1
100
AcDbLine
 10
-25.0
 20
209.5
 30
0.0
 11
-25.0
 21
249.0
 31
0.0
  0
ARC
  5
4EDC
330
4EC2
100
AcDbEntity
  8
AM_0 外形線1
100
AcDbCircle
 10
-31.0
 20
-209.5
 30
0.0
 40
6.0
100
AcDbArc
 50
0.0
 51
90.0
  0
ARC
  5
4EDD
330
4EC2
100
AcDbEntity
  8
AM_0 外形線1
100
AcDbCircle
 10
-31.0
 20
209.5
 30
0.0
 40
6.0
100
AcDbArc
 50
270.0
 51
0.0
  0
LINE
  5
4EDE
330
4EC2
100
AcDbEntity
  8
AM_0 外形線1
100
AcDbLine
 10
-72.5
 20
187.5
 30
0.0
 11
-8.0
 21
187.5
 31
0.0
  0
ARC
  5
4EDF
330
4EC2
100
AcDbEntity
  8
AM_0 外形線1
100
AcDbCircle
 10
-72.5
 20
187.0
 30
0.0
 40
0.5
100
AcDbArc
 50
90.0
 51
180.0
  0
LINE
  5
4EE0
330
4EC2
100
AcDbEntity
  8
AM_0 外形線1
100
AcDbLine
 10
-73.5
 20
175.1999999999998
 30
0.0
 11
-73.0
 21
175.6999999999998
 31
0.0
  0
LINE
  5
4EE1
330
4EC2
100
AcDbEntity
  8
AM_0 外形線1
100
AcDbLine
 10
-73.0
 20
175.6999999999998
 30
0.0
 11
-73.0
 21
169.8526300000001
 31
0.0
  0
LINE
  5
4EE2
330
4EC2
100
AcDbEntity
  8
AM_0 外形線1
100
AcDbLine
 10
-73.0
 20
175.6999999999998
 30
0.0
 11
-73.0
 21
187.0
 31
0.0
  0
LINE
  5
4EE3
330
4EC2
100
AcDbEntity
  8
AM_0 外形線1
100
AcDbLine
 10
-59.07647799999995
 20
189.815315
 30
0.0
 11
-58.99562500000001
 21
187.5
 31
0.0
  0
LINE
  5
4EE4
330
4EC2
100
AcDbEntity
  8
AM_0 外形線1
100
AcDbLine
 10
-60.26238800000011
 20
190.5
 30
0.0
 11
-60.15762499999983
 21
187.5
 31
0.0
  0
LINE
  5
4EE5
330
4EC2
100
AcDbEntity
  8
AM_0 外形線1
100
AcDbLine
 10
-40.9235209999997
 20
189.815315
 30
0.0
 11
-41.0043740000001
 21
187.5
 31
0.0
  0
LINE
  5
4EE6
330
4EC2
100
AcDbEntity
  8
AM_0 外形線1
100
AcDbLine
 10
-39.7376119999999
 20
190.5
 30
0.0
 11
-39.84237399999983
 21
187.5
 31
0.0
  0
LINE
  5
4EE7
330
4EC2
100
AcDbEntity
  8
AM_0 外形線1
100
AcDbLine
 10
-59.55435800000032
 20
203.5
 30
0.0
 11
-59.54118500000004
 21
203.1227919999999
 31
0.0
  0
LINE
  5
4EE8
330
4EC2
100
AcDbEntity
  8
AM_0 外形線1
100
AcDbLine
 10
-60.66397700000015
 20
202.0
 30
0.0
 11
-60.71635800000013
 21
203.5
 31
0.0
  0
LINE
  5
4EE9
330
4EC2
100
AcDbEntity
  8
AM_0 外形線1
100
AcDbLine
 10
-40.45881399999962
 20
203.1227919999999
 30
0.0
 11
-40.44564200000013
 21
203.5
 31
0.0
  0
LINE
  5
4EEA
330
4EC2
100
AcDbEntity
  8
AM_0 外形線1
100
AcDbLine
 10
-39.33602299999984
 20
202.0
 30
0.0
 11
-39.28364200000033
 21
203.5
 31
0.0
  0
LINE
  5
4EEB
330
4EC2
100
AcDbEntity
  8
AM_0 外形線1
100
AcDbLine
 10
-8.0
 20
187.5
 30
0.0
 11
-8.0
 21
200.0
 31
0.0
  0
LINE
  5
4EEC
330
4EC2
100
AcDbEntity
  8
AM_0 外形線1
100
AcDbLine
 10
-1.0
 20
200.0
 30
0.0
 11
0.0
 21
201.0
 31
0.0
  0
LINE
  5
4EED
330
4EC2
100
AcDbEntity
  8
AM_0 外形線1
100
AcDbLine
 10
-25.0
 20
242.0
 30
0.0
 11
0.0
 21
242.0
 31
0.0
  0
LINE
  5
4EEE
330
4EC2
100
AcDbEntity
  8
AM_0 外形線1
100
AcDbLine
 10
-25.0
 20
220.0
 30
0.0
 11
0.0
 21
220.0
 31
0.0
  0
LINE
  5
4EEF
330
4EC2
100
AcDbEntity
  8
AM_0 外形線1
100
AcDbLine
 10
-1.0
 20
250.0
 30
0.0
 11
-24.0
 21
250.0
 31
0.0
  0
LINE
  5
4EF0
330
4EC2
100
AcDbEntity
  8
AM_0 外形線1
100
AcDbLine
 10
-24.0
 20
250.0
 30
0.0
 11
-25.0
 21
249.0
 31
0.0
  0
LINE
  5
4EF1
330
4EC2
100
AcDbEntity
  8
AM_0 外形線1
100
AcDbLine
 10
0.0
 20
249.0
 30
0.0
 11
-1.0
 21
250.0
 31
0.0
  0
LINE
  5
4EF2
330
4EC2
100
AcDbEntity
  8
AM_7 中心線
 48
0.5
100
AcDbLine
 10
30.32151650938431
 20
-231.0
 30
0.0
 11
-30.0
 21
-231.0
 31
0.0
  0
LINE
  5
4EF3
330
4EC2
100
AcDbEntity
  8
AM_0 外形線1
100
AcDbLine
 10
-1.0
 20
-250.0
 30
0.0
 11
-24.0
 21
-250.0
 31
0.0
  0
LINE
  5
4EF4
330
4EC2
100
AcDbEntity
  8
AM_0 外形線1
100
AcDbLine
 10
-24.0
 20
-250.0
 30
0.0
 11
-25.0
 21
-249.0
 31
0.0
  0
LINE
  5
4EF5
330
4EC2
100
AcDbEntity
  8
AM_0 外形線1
100
AcDbLine
 10
0.0
 20
-249.0
 30
0.0
 11
-1.0
 21
-250.0
 31
0.0
  0
LINE
  5
4EF6
330
4EC2
100
AcDbEntity
  8
AM_0 外形線1
100
AcDbLine
 10
-78.90231314499761
 20
175.1999999999998
 30
0.0
 11
-73.5
 21
175.1999999999998
 31
0.0
  0
INSERT
  5
4EF7
330
4EC2
100
AcDbEntity
  8
AM_0 外形線1
100
AcDbBlockReference
  2
ロッカクアナツキプラグB R1／2
 10
-50.0
 20
203.5
 30
0.0
  0
LINE
  5
4F6F
330
4EC2
100
AcDbEntity
  8
AM_0 外形線1
100
AcDbLine
 10
0.0
 20
-249.0
 30
0.0
 11
0.0
 21
0.0
 31
0.0
  0
LINE
  5
4F70
330
4EC2
100
AcDbEntity
  8
AM_0 外形線1
100
AcDbLine
 10
-8.0
 20
200.0
 30
0.0
 11
-1.0
 21
200.0
 31
0.0
  0
LINE
  5
4F71
330
4EC2
100
AcDbEntity
  8
AM_0 外形線1
100
AcDbLine
 10
0.0
 20
201.0
 30
0.0
 11
0.0
 21
220.0
 31
0.0
  0
LINE
  5
4F72
330
4EC2
100
AcDbEntity
  8
AM_0 外形線1
100
AcDbLine
 10
0.0
 20
249.0
 30
0.0
 11
0.0
 21
242.0
 31
0.0
  0
ENDBLK
  5
4EC4
330
4EC2
100
AcDbEntity
  8
0
100
AcDbBlockEnd
  0
BLOCK
  5
4FD3
330
4FD2
100
AcDbEntity
  8
0
100
AcDbBlockBegin
  2
センタＡ CCMH500
 70
     0
 10
0.0
 20
0.0
 30
0.0
  3
センタＡ CCMH500
  1

  0
LINE
  5
4FD5
330
4FD2
100
AcDbEntity
  8
AM_0 外形線1
100
AcDbLine
 10
230.0
 20
166.5
 30
0.0
 11
183.0
 21
166.5
 31
0.0
  0
LINE
  5
4FD6
330
4FD2
100
AcDbEntity
  8
AM_0 外形線1
100
AcDbLine
 10
183.0
 20
-166.5
 30
0.0
 11
230.0
 21
-166.5
 31
0.0
  0
LINE
  5
4FD7
330
4FD2
100
AcDbEntity
  8
AM_0 外形線1
100
AcDbLine
 10
0.0
 20
143.25
 30
0.0
 11
0.0
 21
0.0
 31
0.0
  0
LINE
  5
4FD8
330
4FD2
100
AcDbEntity
  8
AM_3 隠れ線
100
AcDbLine
 10
52.0
 20
8.75
 30
0.0
 11
0.0
 21
8.75
 31
0.0
  0
LINE
  5
4FD9
330
4FD2
100
AcDbEntity
  8
AM_3 隠れ線
100
AcDbLine
 10
0.0
 20
10.0
 30
0.0
 11
36.0
 21
10.0
 31
0.0
  0
LINE
  5
4FDA
330
4FD2
100
AcDbEntity
  8
AM_3 隠れ線
100
AcDbLine
 10
36.0
 20
10.0
 30
0.0
 11
36.72168800000009
 21
8.75
 31
0.0
  0
LINE
  5
4FDB
330
4FD2
100
AcDbEntity
  8
AM_3 隠れ線
100
AcDbLine
 10
36.0
 20
0.0
 30
0.0
 11
36.0
 21
10.0
 31
0.0
  0
LINE
  5
4FDC
330
4FD2
100
AcDbEntity
  8
AM_3 隠れ線
100
AcDbLine
 10
36.72168800000009
 20
8.75
 30
0.0
 11
36.72168800000009
 21
0.0
 31
0.0
  0
LINE
  5
4FDD
330
4FD2
100
AcDbEntity
  8
AM_0 外形線1
100
AcDbLine
 10
180.0
 20
-167.5
 30
0.0
 11
180.0
 21
0.0
 31
0.0
  0
LINE
  5
4FDE
330
4FD2
100
AcDbEntity
  8
AM_0 外形線1
100
AcDbLine
 10
183.0
 20
-166.5
 30
0.0
 11
183.0
 21
0.0
 31
0.0
  0
LINE
  5
4FDF
330
4FD2
100
AcDbEntity
  8
AM_0 外形線1
100
AcDbLine
 10
157.0
 20
-167.5
 30
0.0
 11
180.0
 21
-167.5
 31
0.0
  0
LINE
  5
4FE0
330
4FD2
100
AcDbEntity
  8
AM_0 外形線1
100
AcDbLine
 10
180.0
 20
-167.5
 30
0.0
 11
183.0
 21
-166.5
 31
0.0
  0
LINE
  5
4FE1
330
4FD2
100
AcDbEntity
  8
AM_3 隠れ線
100
AcDbLine
 10
57.0518149999998
 20
0.0
 30
0.0
 11
52.0
 21
8.75
 31
0.0
  0
LINE
  5
4FE2
330
4FD2
100
AcDbEntity
  8
AM_3 隠れ線
100
AcDbLine
 10
52.0
 20
8.75
 30
0.0
 11
52.0
 21
0.0
 31
0.0
  0
LINE
  5
4FE3
330
4FD2
100
AcDbEntity
  8
AM_0 外形線1
100
AcDbLine
 10
67.5
 20
166.0
 30
0.0
 11
1.0
 21
166.0
 31
0.0
  0
LINE
  5
4FE4
330
4FD2
100
AcDbEntity
  8
AM_0 外形線1
100
AcDbLine
 10
0.0
 20
165.0
 30
0.0
 11
0.0
 21
143.25
 31
0.0
  0
LINE
  5
4FE5
330
4FD2
100
AcDbEntity
  8
AM_0 外形線1
100
AcDbLine
 10
1.0
 20
166.0
 30
0.0
 11
0.0
 21
165.0
 31
0.0
  0
ARC
  5
4FE7
330
4FD2
100
AcDbEntity
  8
AM_0 外形線1
100
AcDbCircle
 10
99.50000000000001
 20
0.0
 30
0.0
 40
185.75
100
AcDbArc
 50
80.39289699998731
 51
99.60710300001268
  0
LINE
  5
4FE9
330
4FD2
100
AcDbEntity
  8
AM_0 外形線1
100
AcDbLine
 10
68.5
 20
183.144923
 30
0.0
 11
68.0
 21
182.559588
 31
0.0
  0
ARC
  5
4FEA
330
4FD2
100
AcDbEntity
  8
AM_0 外形線1
100
AcDbCircle
 10
67.5
 20
166.5
 30
0.0
 40
0.5
100
AcDbArc
 50
270.0
 51
0.0
  0
LINE
  5
4FEB
330
4FD2
100
AcDbEntity
  8
AM_0 外形線1
100
AcDbLine
 10
68.0
 20
182.559588
 30
0.0
 11
68.0
 21
166.5
 31
0.0
  0
LINE
  5
4FEC
330
4FD2
100
AcDbEntity
  8
AM_7 中心線
 48
0.5
100
AcDbLine
 10
99.50000000000001
 20
190.75
 30
0.0
 11
99.50000000000001
 21
169.0
 31
0.0
  0
LINE
  5
4FED
330
4FD2
100
AcDbEntity
  8
AM_0 外形線1
100
AcDbLine
 10
180.0
 20
167.5
 30
0.0
 11
131.5
 21
167.5
 31
0.0
  0
LINE
  5
4FEE
330
4FD2
100
AcDbEntity
  8
AM_0 外形線1
100
AcDbLine
 10
131.0
 20
182.559588
 30
0.0
 11
130.5
 21
183.144923
 31
0.0
  0
ARC
  5
4FEF
330
4FD2
100
AcDbEntity
  8
AM_0 外形線1
100
AcDbCircle
 10
131.5
 20
168.0
 30
0.0
 40
0.5
100
AcDbArc
 50
180.0
 51
270.0
  0
LINE
  5
4FF0
330
4FD2
100
AcDbEntity
  8
AM_0 外形線1
100
AcDbLine
 10
131.0
 20
168.0
 30
0.0
 11
131.0
 21
182.559588
 31
0.0
  0
LINE
  5
4FF1
330
4FD2
100
AcDbEntity
  8
AM_0 外形線1
100
AcDbLine
 10
183.0
 20
166.5
 30
0.0
 11
180.0
 21
167.5
 31
0.0
  0
LINE
  5
4FF2
330
4FD2
100
AcDbEntity
  8
AM_0 外形線1
100
AcDbLine
 10
236.0
 20
-160.5
 30
0.0
 11
236.0
 21
160.5
 31
0.0
  0
ARC
  5
4FF3
330
4FD2
100
AcDbEntity
  8
AM_0 外形線1
100
AcDbCircle
 10
230.0
 20
-160.5
 30
0.0
 40
6.0
100
AcDbArc
 50
270.0
 51
0.0
  0
ARC
  5
4FF4
330
4FD2
100
AcDbEntity
  8
AM_0 外形線1
100
AcDbCircle
 10
230.0
 20
160.5
 30
0.0
 40
6.0
100
AcDbArc
 50
0.0
 51
90.0
  0
LINE
  5
4FF5
330
4FD2
100
AcDbEntity
  8
AM_0 外形線1
100
AcDbLine
 10
236.0
 20
102.4999999999995
 30
0.0
 11
0.0
 21
102.4999999999995
 31
0.0
  0
ARC
  5
7C0B
330
4FD2
100
AcDbEntity
  8
AM_0 外形線1
100
AcDbCircle
 10
99.50000000000001
 20
0.0
 30
0.0
 40
174.0
100
AcDbArc
 50
79.5699787089503
 51
100.4300212910497
  0
ARC
  5
7CEA
330
4FD2
100
AcDbEntity
  8
AM_7 中心線
100
AcDbCircle
 10
99.50000000000001
 20
0.0
 30
0.0
 40
179.875
100
AcDbArc
 50
78.94319947350715
 51
101.4239686142687
  0
ENDBLK
  5
4FD4
330
4FD2
100
AcDbEntity
  8
0
100
AcDbBlockEnd
  0
BLOCK
  5
50AB
330
50AA
100
AcDbEntity
  8
0
100
AcDbBlockBegin
  2
センタＢ CCMH500
 70
     0
 10
0.0
 20
0.0
 30
0.0
  3
センタＢ CCMH500
  1

  0
ARC
  5
50AD
330
50AA
100
AcDbEntity
  8
AM_0 外形線1
100
AcDbCircle
 10
-99.50000000000001
 20
0.0
 30
0.0
 40
185.75
100
AcDbArc
 50
80.39289699998731
 51
99.60710300001268
  0
LINE
  5
50B0
330
50AA
100
AcDbEntity
  8
AM_0 外形線1
100
AcDbLine
 10
-236.0
 20
-160.5
 30
0.0
 11
-236.0
 21
160.5
 31
0.0
  0
LINE
  5
50B1
330
50AA
100
AcDbEntity
  8
AM_0 外形線1
100
AcDbLine
 10
-180.0
 20
-167.5
 30
0.0
 11
-180.0
 21
0.0
 31
0.0
  0
LINE
  5
50B2
330
50AA
100
AcDbEntity
  8
AM_0 外形線1
100
AcDbLine
 10
-183.0
 20
-166.5
 30
0.0
 11
-183.0
 21
0.0
 31
0.0
  0
LINE
  5
50B3
330
50AA
100
AcDbEntity
  8
AM_0 外形線1
100
AcDbLine
 10
-180.0
 20
-167.5
 30
0.0
 11
-183.0
 21
-166.5
 31
0.0
  0
LINE
  5
50B4
330
50AA
100
AcDbEntity
  8
AM_0 外形線1
100
AcDbLine
 10
-183.0
 20
-166.5
 30
0.0
 11
-230.0
 21
-166.5
 31
0.0
  0
ARC
  5
50B5
330
50AA
100
AcDbEntity
  8
AM_0 外形線1
100
AcDbCircle
 10
-230.0
 20
-160.5
 30
0.0
 40
6.0
100
AcDbArc
 50
180.0
 51
270.0
  0
LINE
  5
50B6
330
50AA
100
AcDbEntity
  8
AM_0 外形線1
100
AcDbLine
 10
-157.0
 20
-167.5
 30
0.0
 11
-180.0
 21
-167.5
 31
0.0
  0
LINE
  5
50B7
330
50AA
100
AcDbEntity
  8
AM_0 外形線1
100
AcDbLine
 10
-183.0
 20
166.5
 30
0.0
 11
-180.0
 21
167.5
 31
0.0
  0
LINE
  5
50B8
330
50AA
100
AcDbEntity
  8
AM_0 外形線1
100
AcDbLine
 10
-230.0
 20
166.5
 30
0.0
 11
-183.0
 21
166.5
 31
0.0
  0
ARC
  5
50B9
330
50AA
100
AcDbEntity
  8
AM_0 外形線1
100
AcDbCircle
 10
-230.0
 20
160.5
 30
0.0
 40
6.0
100
AcDbArc
 50
90.0
 51
180.0
  0
LINE
  5
50BA
330
50AA
100
AcDbEntity
  8
AM_0 外形線1
100
AcDbLine
 10
-180.0
 20
167.5
 30
0.0
 11
-131.5
 21
167.5
 31
0.0
  0
LINE
  5
50BB
330
50AA
100
AcDbEntity
  8
AM_0 外形線1
100
AcDbLine
 10
-131.0
 20
182.559588
 30
0.0
 11
-130.5
 21
183.144923
 31
0.0
  0
ARC
  5
50BC
330
50AA
100
AcDbEntity
  8
AM_0 外形線1
100
AcDbCircle
 10
-131.5
 20
168.0
 30
0.0
 40
0.5
100
AcDbArc
 50
270.0
 51
0.0
  0
LINE
  5
50BD
330
50AA
100
AcDbEntity
  8
AM_0 外形線1
100
AcDbLine
 10
-131.0
 20
168.0
 30
0.0
 11
-131.0
 21
182.559588
 31
0.0
  0
LINE
  5
50BE
330
50AA
100
AcDbEntity
  8
AM_0 外形線1
100
AcDbLine
 10
0.0
 20
142.5
 30
0.0
 11
0.0
 21
0.0
 31
0.0
  0
LINE
  5
50BF
330
50AA
100
AcDbEntity
  8
AM_3 隠れ線
100
AcDbLine
 10
0.0
 20
10.0
 30
0.0
 11
-36.0
 21
10.0
 31
0.0
  0
LINE
  5
50C0
330
50AA
100
AcDbEntity
  8
AM_3 隠れ線
100
AcDbLine
 10
-52.0
 20
8.75
 30
0.0
 11
0.0
 21
8.75
 31
0.0
  0
LINE
  5
50C1
330
50AA
100
AcDbEntity
  8
AM_3 隠れ線
100
AcDbLine
 10
-52.0
 20
8.75
 30
0.0
 11
-52.0
 21
0.0
 31
0.0
  0
LINE
  5
50C2
330
50AA
100
AcDbEntity
  8
AM_3 隠れ線
100
AcDbLine
 10
-57.0518149999998
 20
0.0
 30
0.0
 11
-52.0
 21
8.75
 31
0.0
  0
LINE
  5
50C3
330
50AA
100
AcDbEntity
  8
AM_3 隠れ線
100
AcDbLine
 10
-36.0
 20
10.0
 30
0.0
 11
-36.7216870000002
 21
8.75
 31
0.0
  0
LINE
  5
50C4
330
50AA
100
AcDbEntity
  8
AM_3 隠れ線
100
AcDbLine
 10
-36.7216870000002
 20
8.75
 30
0.0
 11
-36.7216870000002
 21
0.0
 31
0.0
  0
LINE
  5
50C5
330
50AA
100
AcDbEntity
  8
AM_3 隠れ線
100
AcDbLine
 10
-36.0
 20
0.0
 30
0.0
 11
-36.0
 21
10.0
 31
0.0
  0
LINE
  5
50C6
330
50AA
100
AcDbEntity
  8
AM_0 外形線1
100
AcDbLine
 10
-67.5
 20
166.0
 30
0.0
 11
-1.0
 21
166.0
 31
0.0
  0
LINE
  5
50C7
330
50AA
100
AcDbEntity
  8
AM_7 中心線
 48
0.5
100
AcDbLine
 10
-99.50000000000001
 20
190.75
 30
0.0
 11
-99.50000000000001
 21
169.0
 31
0.0
  0
LINE
  5
50C8
330
50AA
100
AcDbEntity
  8
AM_0 外形線1
100
AcDbLine
 10
-68.5
 20
183.144923
 30
0.0
 11
-68.0
 21
182.559588
 31
0.0
  0
LINE
  5
50C9
330
50AA
100
AcDbEntity
  8
AM_0 外形線1
100
AcDbLine
 10
-68.0
 20
182.559588
 30
0.0
 11
-68.0
 21
166.5
 31
0.0
  0
ARC
  5
50CA
330
50AA
100
AcDbEntity
  8
AM_0 外形線1
100
AcDbCircle
 10
-67.5
 20
166.5
 30
0.0
 40
0.5
100
AcDbArc
 50
180.0
 51
270.0
  0
LINE
  5
50CB
330
50AA
100
AcDbEntity
  8
AM_0 外形線1
100
AcDbLine
 10
0.0
 20
165.0
 30
0.0
 11
0.0
 21
152.5
 31
0.0
  0
LINE
  5
50CC
330
50AA
100
AcDbEntity
  8
AM_0 外形線1
100
AcDbLine
 10
-1.0
 20
166.0
 30
0.0
 11
0.0
 21
165.0
 31
0.0
  0
LINE
  5
50CD
330
50AA
100
AcDbEntity
  8
AM_0 外形線1
100
AcDbLine
 10
0.0
 20
102.4999999999997
 30
0.0
 11
-236.0
 21
102.5
 31
0.0
  0
ARC
  5
7AAD
330
50AA
100
AcDbEntity
  8
AM_7 中心線
100
AcDbCircle
 10
-99.50000000000001
 20
0.0
 30
0.0
 40
179.875
100
AcDbArc
 50
78.57603138571845
 51
101.0568005265081
  0
ARC
  5
7AAE
330
50AA
100
AcDbEntity
  8
AM_0 外形線1
100
AcDbCircle
 10
-99.50000000000001
 20
0.0
 30
0.0
 40
174.0
100
AcDbArc
 50
79.5699787089503
 51
100.4300212910497
  0
ENDBLK
  5
50AC
330
50AA
100
AcDbEntity
  8
0
100
AcDbBlockEnd
  0
BLOCK
  5
525B
330
525A
100
AcDbEntity
  8
0
100
AcDbBlockBegin
  2
リーマボルト CCMH500 M20
 70
     0
 10
0.0
 20
0.0
 30
0.0
  3
リーマボルト CCMH500 M20
  1

  0
LINE
  5
525D
330
525A
100
AcDbEntity
  8
AM_0 外形線1
100
AcDbLine
 10
-50.0
 20
3.433333999999831
 30
0.0
 11
-55.10000000000037
 21
-1.666666000000076
 31
0.0
  0
LINE
  5
525E
330
525A
100
AcDbEntity
  8
AM_0 外形線1
100
AcDbLine
 10
-50.0
 20
2.099999999999909
 30
0.0
 11
-55.10000000000037
 21
-3.0
 31
0.0
  0
LINE
  5
525F
330
525A
100
AcDbEntity
  8
AM_0 外形線1
100
AcDbLine
 10
-55.10000000000037
 20
17.04999999999995
 30
0.0
 11
-50.0
 21
17.04999999999995
 31
0.0
  0
LINE
  5
5260
330
525A
100
AcDbEntity
  8
AM_0 外形線1
100
AcDbLine
 10
-50.0
 20
-17.05000000000018
 30
0.0
 11
-55.10000000000037
 21
-17.05000000000018
 31
0.0
  0
LINE
  5
5261
330
525A
100
AcDbEntity
  8
AM_0 外形線1
100
AcDbLine
 10
-71.10000000000036
 20
12.96974599999998
 30
0.0
 11
-71.10000000000036
 21
-12.97000000000003
 31
0.0
  0
LINE
  5
5262
330
525A
100
AcDbEntity
  8
AM_0 外形線1
100
AcDbLine
 10
-55.10000000000037
 20
-17.30000000000018
 30
0.0
 11
-55.10000000000037
 21
17.04999999999995
 31
0.0
  0
ARC
  5
5263
330
525A
100
AcDbEntity
  8
AM_0 外形線1
100
AcDbCircle
 10
-62.61703200000011
 20
-12.96987300000023
 30
0.0
 40
8.482967
100
AcDbArc
 50
149.3062210000045
 51
210.6937789999955
  0
LINE
  5
5264
330
525A
100
AcDbEntity
  8
AM_0 外形線1
100
AcDbLine
 10
-69.91160099999979
 20
-17.30000000000018
 30
0.0
 11
-55.32246299999997
 21
-17.30000000000018
 31
0.0
  0
LINE
  5
5265
330
525A
100
AcDbEntity
  8
AM_0 外形線1
100
AcDbLine
 10
-55.32246299999997
 20
-17.30000000000018
 30
0.0
 11
-55.10000000000037
 21
-17.30000000000018
 31
0.0
  0
LINE
  5
5266
330
525A
100
AcDbEntity
  8
AM_0 外形線1
100
AcDbLine
 10
-71.10000000000036
 20
10.0
 30
0.0
 11
-76.0
 21
10.0
 31
0.0
  0
LINE
  5
5267
330
525A
100
AcDbEntity
  8
AM_0 外形線1
100
AcDbLine
 10
-76.0
 20
-10.0
 30
0.0
 11
-71.10000000000036
 21
-10.0
 31
0.0
  0
LINE
  5
5268
330
525A
100
AcDbEntity
  8
AM_4 細線
100
AcDbLine
 10
-77.80000000000019
 20
8.199999999999818
 30
0.0
 11
-71.10000000000036
 21
8.199999999999818
 31
0.0
  0
LINE
  5
5269
330
525A
100
AcDbEntity
  8
AM_4 細線
100
AcDbLine
 10
-77.80000000000019
 20
-8.200000000000045
 30
0.0
 11
-71.10000000000036
 21
-8.200000000000045
 31
0.0
  0
LINE
  5
526A
330
525A
100
AcDbEntity
  8
AM_0 外形線1
100
AcDbLine
 10
-76.0
 20
10.0
 30
0.0
 11
-78.0
 21
8.0
 31
0.0
  0
LINE
  5
526B
330
525A
100
AcDbEntity
  8
AM_0 外形線1
100
AcDbLine
 10
-78.0
 20
8.0
 30
0.0
 11
-78.0
 21
-8.0
 31
0.0
  0
LINE
  5
526C
330
525A
100
AcDbEntity
  8
AM_0 外形線1
100
AcDbLine
 10
-78.0
 20
-8.0
 30
0.0
 11
-76.0
 21
-10.0
 31
0.0
  0
LINE
  5
526D
330
525A
100
AcDbEntity
  8
AM_0 外形線1
100
AcDbLine
 10
-76.0
 20
-10.0
 30
0.0
 11
-76.0
 21
10.0
 31
0.0
  0
LINE
  5
526E
330
525A
100
AcDbEntity
  8
AM_0 外形線1
100
AcDbLine
 10
-55.10000000000037
 20
17.04999999999995
 30
0.0
 11
-55.10000000000037
 21
17.29999999999995
 31
0.0
  0
LINE
  5
526F
330
525A
100
AcDbEntity
  8
AM_0 外形線1
100
AcDbLine
 10
-55.10000000000037
 20
17.29999999999995
 30
0.0
 11
-69.91160099999979
 21
17.29999999999995
 31
0.0
  0
ARC
  5
5270
330
525A
100
AcDbEntity
  8
AM_0 外形線1
100
AcDbCircle
 10
-62.61703200000011
 20
12.969873
 30
0.0
 40
8.482967
100
AcDbArc
 50
149.3062210000045
 51
210.6937789999955
  0
ARC
  5
5271
330
525A
100
AcDbEntity
  8
AM_0 外形線1
100
AcDbCircle
 10
-39.10000000000037
 20
0.0
 30
0.0
 40
32.0
100
AcDbArc
 50
164.3362059999997
 51
195.6637940000003
  0
LINE
  5
5272
330
525A
100
AcDbEntity
  8
AM_0 外形線1
100
AcDbLine
 10
-69.91160099999979
 20
8.639746000000059
 30
0.0
 11
-55.10000000000037
 21
8.639746000000059
 31
0.0
  0
LINE
  5
5273
330
525A
100
AcDbEntity
  8
AM_0 外形線1
100
AcDbLine
 10
-69.91160099999979
 20
-8.639746000000286
 30
0.0
 11
-55.10000000000037
 21
-8.639746000000286
 31
0.0
  0
LINE
  5
5274
330
525A
100
AcDbEntity
  8
AM_0 外形線1
100
AcDbLine
 10
-42.26794900000004
 20
11.0
 30
0.0
 11
-42.26794900000004
 21
-11.0
 31
0.0
  0
LINE
  5
5275
330
525A
100
AcDbEntity
  8
AM_0 外形線1
100
AcDbLine
 10
-44.0
 20
-10.0
 30
0.0
 11
-44.0
 21
10.0
 31
0.0
  0
LINE
  5
5276
330
525A
100
AcDbEntity
  8
AM_0 外形線1
100
AcDbLine
 10
-42.26794900000004
 20
11.0
 30
0.0
 11
-44.0
 21
10.0
 31
0.0
  0
LINE
  5
5277
330
525A
100
AcDbEntity
  8
AM_0 外形線1
100
AcDbLine
 10
-44.0
 20
-10.0
 30
0.0
 11
-42.26794900000004
 21
-11.0
 31
0.0
  0
LINE
  5
5278
330
525A
100
AcDbEntity
  8
AM_0 外形線1
100
AcDbLine
 10
-44.0
 20
10.0
 30
0.0
 11
-50.0
 21
10.0
 31
0.0
  0
LINE
  5
5279
330
525A
100
AcDbEntity
  8
AM_0 外形線1
100
AcDbLine
 10
-44.0
 20
-10.0
 30
0.0
 11
-50.0
 21
-10.0
 31
0.0
  0
LINE
  5
527A
330
525A
100
AcDbEntity
  8
AM_0 外形線1
100
AcDbLine
 10
13.0
 20
12.96974599999998
 30
0.0
 11
13.0
 21
-12.96974600000021
 31
0.0
  0
ARC
  5
527B
330
525A
100
AcDbEntity
  8
AM_0 外形線1
100
AcDbCircle
 10
5.91593499999999
 20
-12.96987300000023
 30
0.0
 40
7.084065999999999
100
AcDbArc
 50
322.3201419999917
 51
37.67985800000835
  0
LINE
  5
527C
330
525A
100
AcDbEntity
  8
AM_0 外形線1
100
AcDbLine
 10
11.52253699999983
 20
-17.30000000000018
 30
0.0
 11
0.0
 21
-17.29999999999995
 31
0.0
  0
LINE
  5
527D
330
525A
100
AcDbEntity
  8
AM_0 外形線1
100
AcDbLine
 10
0.0
 20
17.29999999999995
 30
0.0
 11
11.52253699999983
 21
17.29999999999995
 31
0.0
  0
LINE
  5
527E
330
525A
100
AcDbEntity
  8
AM_0 外形線1
100
AcDbLine
 10
11.52253699999983
 20
8.639746000000059
 30
0.0
 11
0.0
 21
8.639746000000059
 31
0.0
  0
LINE
  5
527F
330
525A
100
AcDbEntity
  8
AM_0 外形線1
100
AcDbLine
 10
11.52253699999983
 20
-8.639746000000286
 30
0.0
 11
0.0
 21
-8.639746000000286
 31
0.0
  0
ARC
  5
5280
330
525A
100
AcDbEntity
  8
AM_0 外形線1
100
AcDbCircle
 10
-1.0
 20
11.0
 30
0.0
 40
1.0
100
AcDbArc
 50
270.0
 51
0.0
  0
LINE
  5
5281
330
525A
100
AcDbEntity
  8
AM_0 外形線1
100
AcDbLine
 10
-2.5
 20
11.0
 30
0.0
 11
-1.0
 21
10.0
 31
0.0
  0
ARC
  5
5282
330
525A
100
AcDbEntity
  8
AM_0 外形線1
100
AcDbCircle
 10
-1.0
 20
-11.0
 30
0.0
 40
1.0
100
AcDbArc
 50
0.0
 51
90.0
  0
LINE
  5
5283
330
525A
100
AcDbEntity
  8
AM_0 外形線1
100
AcDbLine
 10
-2.5
 20
-11.0
 30
0.0
 11
-1.0
 21
-10.0
 31
0.0
  0
LINE
  5
5284
330
525A
100
AcDbEntity
  8
AM_0 外形線1
100
AcDbLine
 10
-2.5
 20
11.0
 30
0.0
 11
-2.5
 21
-11.0
 31
0.0
  0
ARC
  5
5285
330
525A
100
AcDbEntity
  8
AM_0 外形線1
100
AcDbCircle
 10
5.91593499999999
 20
12.969873
 30
0.0
 40
7.084065999999999
100
AcDbArc
 50
322.3201419999917
 51
37.67985800000835
  0
ARC
  5
5286
330
525A
100
AcDbEntity
  8
AM_0 外形線1
100
AcDbCircle
 10
-13.0
 20
0.0
 30
0.0
 40
26.0
100
AcDbArc
 50
340.5916910000212
 51
19.40830899997873
  0
LINE
  5
52E4
330
525A
100
AcDbEntity
  8
AM_0 外形線1
100
AcDbLine
 10
-50.0
 20
17.04999999999995
 30
0.0
 11
-50.0
 21
-17.05000000000018
 31
0.0
  0
LINE
  5
52E5
330
525A
100
AcDbEntity
  8
AM_0 外形線1
100
AcDbLine
 10
-42.26794900000004
 20
11.0
 30
0.0
 11
-2.5
 21
11.0
 31
0.0
  0
LINE
  5
52E6
330
525A
100
AcDbEntity
  8
AM_0 外形線1
100
AcDbLine
 10
-42.26794900000004
 20
-11.0
 30
0.0
 11
-2.5
 21
-11.0
 31
0.0
  0
LINE
  5
52E7
330
525A
100
AcDbEntity
  8
AM_0 外形線1
100
AcDbLine
 10
0.0
 20
17.29999999999995
 30
0.0
 11
0.0
 21
-17.29999999999995
 31
0.0
  0
ENDBLK
  5
525C
330
525A
100
AcDbEntity
  8
0
100
AcDbBlockEnd
  0
BLOCK
  5
53DB
330
53DA
100
AcDbEntity
  8
0
100
AcDbBlockBegin
  2
ＧＣサイドカバ－A CCMH500
 70
     0
 10
0.0
 20
0.0
 30
0.0
  3
ＧＣサイドカバ－A CCMH500
  1

  0
LINE
  5
53DD
330
53DA
100
AcDbEntity
  8
AM_0 外形線1
100
AcDbLine
 10
16.0
 20
-199.5
 30
0.0
 11
16.0
 21
0.0
 31
0.0
  0
LINE
  5
53DE
330
53DA
100
AcDbEntity
  8
AM_7 中心線
 48
0.5
100
AcDbLine
 10
-25.30323300000009
 20
-201.0
 30
0.0
 11
28.32590699999992
 21
-201.0
 31
0.0
  0
LINE
  5
53DF
330
53DA
100
AcDbEntity
  8
AM_0 外形線1
100
AcDbLine
 10
0.0
 20
-212.0
 30
0.0
 11
16.0
 21
-212.0
 31
0.0
  0
LINE
  5
53E0
330
53DA
100
AcDbEntity
  8
AM_0 外形線1
100
AcDbLine
 10
16.0
 20
-212.0
 30
0.0
 11
16.0
 21
-199.5
 31
0.0
  0
LINE
  5
53E1
330
53DA
100
AcDbEntity
  8
AM_0 外形線1
100
AcDbLine
 10
-16.5
 20
205.2999999999999
 30
0.0
 11
-20.0
 21
205.2999999999999
 31
0.0
  0
LINE
  5
53E2
330
53DA
100
AcDbEntity
  8
AM_0 外形線1
100
AcDbLine
 10
-16.5
 20
196.6999999999998
 30
0.0
 11
-20.0
 21
196.6999999999998
 31
0.0
  0
LINE
  5
53E3
330
53DA
100
AcDbEntity
  8
AM_7 中心線
 48
0.5
100
AcDbLine
 10
-26.59299899999997
 20
201.0
 30
0.0
 11
30.93779700000006
 21
201.0
 31
0.0
  0
LINE
  5
53E4
330
53DA
100
AcDbEntity
  8
AM_0 外形線1
100
AcDbLine
 10
-20.0
 20
205.2999999999999
 30
0.0
 11
-22.48260600000003
 21
201.0
 31
0.0
  0
LINE
  5
53E5
330
53DA
100
AcDbEntity
  8
AM_0 外形線1
100
AcDbLine
 10
-22.48260600000003
 20
201.0
 30
0.0
 11
-20.0
 21
196.6999999999998
 31
0.0
  0
LINE
  5
53E6
330
53DA
100
AcDbEntity
  8
AM_0 外形線1
100
AcDbLine
 10
-20.0
 20
196.6999999999998
 30
0.0
 11
-20.0
 21
205.2999999999999
 31
0.0
  0
LINE
  5
53E7
330
53DA
100
AcDbEntity
  8
AM_0 外形線1
100
AcDbLine
 10
3.099999999999908
 20
187.5
 30
0.0
 11
3.099999999999908
 21
192.7999999999999
 31
0.0
  0
LWPOLYLINE
  5
53E8
330
53DA
100
AcDbEntity
  8
AM_0 外形線1
100
AcDbPolyline
 90
       73
 70
     0
 43
0.0
 10
1.550000000000181
 20
187.5
 10
1.685091999999712
 20
187.510084
 10
1.819155000000137
 20
187.5402599999997
 10
1.951170000000274
 20
187.5902969999999
 10
2.080132000000047
 20
187.6598149999999
 10
2.205058999999891
 20
187.7482849999999
 10
2.324999999999818
 20
187.8550329999998
 10
2.439044000000193
 20
187.979247
 10
2.546320999999806
 20
188.1199829999998
 10
2.646015999999689
 20
188.276167
 10
2.737368999999943
 20
188.446613
 10
2.819685999999818
 20
188.6300229999999
 10
2.892339999999876
 20
188.8249999999998
 10
2.954776999999921
 20
189.0300619999998
 10
3.006523999999898
 20
189.243647
 10
3.047185000000353
 20
189.46413
 10
3.076452000000243
 20
189.6898329999999
 10
3.09410200000002
 20
189.919038
 10
3.099999999999908
 20
190.1499999999998
 10
3.09410200000002
 20
190.3809630000001
 10
3.076452000000243
 20
190.6101679999999
 10
3.047185000000353
 20
190.835871
 10
3.006523999999898
 20
191.0563539999998
 10
2.954776999999921
 20
191.269939
 10
2.892339999999876
 20
191.4749999999999
 10
2.819685999999818
 20
191.6699779999999
 10
2.737368999999943
 20
191.853388
 10
2.646015999999689
 20
192.0238329999999
 10
2.546320999999806
 20
192.1800179999998
 10
2.439044000000193
 20
192.3207529999997
 10
2.324999999999818
 20
192.4449679999998
 10
2.205058999999891
 20
192.5517159999999
 10
2.080132000000047
 20
192.6401859999998
 10
1.951170000000274
 20
192.7097039999998
 10
1.819155000000137
 20
192.7597409999998
 10
1.685091999999712
 20
192.7899159999999
 10
1.550000000000181
 20
192.7999999999999
 10
1.414909000000078
 20
192.7899159999999
 10
1.28084600000011
 20
192.7597409999998
 10
1.148830999999971
 20
192.7097039999998
 10
1.019869000000197
 20
192.6401859999998
 10
0.8949419999999006
 20
192.5517159999999
 10
0.775000000000091
 20
192.4449679999998
 10
0.6609570000000531
 20
192.3207529999997
 10
0.5536799999999859
 20
192.1800179999998
 10
0.4539850000001026
 20
192.0238329999999
 10
0.3626309999999648
 20
191.853388
 10
0.2803149999999732
 20
191.6699779999999
 10
0.2076609999999164
 20
191.4749999999999
 10
0.1452229999999872
 20
191.269939
 10
0.0934770000003482
 20
191.0563539999998
 10
0.0528150000000096
 20
190.835871
 10
0.0235480000001189
 20
190.6101679999999
 10
0.0058989999997721
 20
190.3809630000001
 10
0.0
 20
190.1499999999998
 10
0.0058989999997721
 20
189.919038
 10
0.0235480000001189
 20
189.6898329999999
 10
0.0528150000000096
 20
189.46413
 10
0.0934770000003482
 20
189.243647
 10
0.1452229999999872
 20
189.0300619999998
 10
0.2076609999999164
 20
188.8249999999998
 10
0.2803149999999732
 20
188.6300229999999
 10
0.3626309999999648
 20
188.446613
 10
0.4539850000001026
 20
188.276167
 10
0.5536799999999859
 20
188.1199829999998
 10
0.6609570000000531
 20
187.979247
 10
0.775000000000091
 20
187.8550329999998
 10
0.8949419999999006
 20
187.7482849999999
 10
1.019869000000197
 20
187.6598149999999
 10
1.148830999999971
 20
187.5902969999999
 10
1.28084600000011
 20
187.5402599999997
 10
1.414909000000078
 20
187.510084
 10
1.550000000000181
 20
187.5
  0
LINE
  5
53E9
330
53DA
100
AcDbEntity
  8
AM_0 外形線1
100
AcDbLine
 10
16.0
 20
199.5
 30
0.0
 11
16.0
 21
169.0
 31
0.0
  0
LINE
  5
53EA
330
53DA
100
AcDbEntity
  8
AM_0 外形線1
100
AcDbLine
 10
11.59999999999991
 20
174.5499999999999
 30
0.0
 11
0.400000000000091
 21
174.5499999999999
 31
0.0
  0
LWPOLYLINE
  5
53EB
330
53DA
100
AcDbEntity
  8
AM_0 外形線1
100
AcDbPolyline
 90
       73
 70
     0
 43
0.0
 10
11.59999999999991
 20
171.0249999999998
 10
11.57869099999971
 20
171.332224
 10
11.51492400000006
 20
171.6371099999999
 10
11.40918499999998
 20
171.9373379999999
 10
11.26227900000003
 20
172.2306209999999
 10
11.07532399999991
 20
172.5147299999999
 10
10.84974300000022
 20
172.7874999999999
 10
10.58725200000026
 20
173.046857
 10
10.28984899999977
 20
173.2908269999998
 10
9.959797999999862
 20
173.5175519999998
 10
9.599611000000095
 20
173.7253069999999
 10
9.212027999999918
 20
173.9125109999998
 10
8.800000000000181
 20
174.0777399999999
 10
8.366662999999789
 20
174.2197349999999
 10
7.915312999999969
 20
174.3374169999999
 10
7.449387000000115
 20
174.429889
 10
6.972429999999802
 20
174.4964479999999
 10
6.488072999999985
 20
174.5365869999998
 10
6.0
 20
174.5499999999999
 10
5.511927999999898
 20
174.5365869999998
 10
5.027571000000079
 20
174.4964479999999
 10
4.550613999999768
 20
174.429889
 10
4.084687999999913
 20
174.3374169999999
 10
3.633338000000093
 20
174.2197349999999
 10
3.199999999999818
 20
174.0777399999999
 10
2.787972000000081
 20
173.9125109999998
 10
2.400389999999787
 20
173.7253069999999
 10
2.040202000000134
 20
173.5175519999998
 10
1.710151000000223
 20
173.2908269999998
 10
1.412749000000076
 20
173.046857
 10
1.15025800000012
 20
172.7874999999999
 10
0.9246769999999742
 20
172.5147299999999
 10
0.7377219999998488
 20
172.2306209999999
 10
0.5908159999999043
 20
171.9373379999999
 10
0.485077000000274
 20
171.6371099999999
 10
0.4213100000001761
 20
171.332224
 10
0.400000000000091
 20
171.0249999999998
 10
0.4213100000001761
 20
170.7177759999999
 10
0.485077000000274
 20
170.4128909999999
 10
0.5908159999999043
 20
170.1126629999999
 10
0.7377219999998488
 20
169.8193789999998
 10
0.9246769999999742
 20
169.5352709999999
 10
1.15025800000012
 20
169.2624999999998
 10
1.412749000000076
 20
169.0031429999999
 10
1.710151000000223
 20
168.759174
 10
2.040202000000134
 20
168.532449
 10
2.400389999999787
 20
168.3246939999999
 10
2.787972000000081
 20
168.1374889999999
 10
3.199999999999818
 20
167.9722609999999
 10
3.633338000000093
 20
167.830265
 10
4.084687999999913
 20
167.7125839999999
 10
4.550613999999768
 20
167.6201119999998
 10
5.027571000000079
 20
167.5535529999996
 10
5.511927999999898
 20
167.513414
 10
6.0
 20
167.5
 10
6.488072999999985
 20
167.513414
 10
6.972429999999802
 20
167.5535529999996
 10
7.449387000000115
 20
167.6201119999998
 10
7.915312999999969
 20
167.7125839999999
 10
8.366662999999789
 20
167.830265
 10
8.800000000000181
 20
167.9722609999999
 10
9.212027999999918
 20
168.1374889999999
 10
9.599611000000095
 20
168.3246939999999
 10
9.959797999999862
 20
168.532449
 10
10.28984899999977
 20
168.759174
 10
10.58725200000026
 20
169.0031429999999
 10
10.84974300000022
 20
169.2624999999998
 10
11.07532399999991
 20
169.5352709999999
 10
11.26227900000003
 20
169.8193789999998
 10
11.40918499999998
 20
170.1126629999999
 10
11.51492400000006
 20
170.4128909999999
 10
11.57869099999971
 20
170.7177759999999
 10
11.59999999999991
 20
171.0249999999998
  0
LINE
  5
53ED
330
53DA
100
AcDbEntity
  8
AM_0 外形線1
100
AcDbLine
 10
0.400000000000091
 20
169.0
 30
0.0
 11
0.400000000000091
 21
167.5
 31
0.0
  0
LINE
  5
53EE
330
53DA
100
AcDbEntity
  8
AM_0 外形線1
100
AcDbLine
 10
-4.0
 20
169.0
 30
0.0
 11
-4.0
 21
167.5
 31
0.0
  0
LINE
  5
53EF
330
53DA
100
AcDbEntity
  8
AM_0 外形線1
100
AcDbLine
 10
0.400000000000091
 20
174.5499999999999
 30
0.0
 11
0.400000000000091
 21
169.0
 31
0.0
  0
LINE
  5
53F0
330
53DA
100
AcDbEntity
  8
AM_0 外形線1
100
AcDbLine
 10
0.400000000000091
 20
169.0
 30
0.0
 11
-4.0
 21
169.0
 31
0.0
  0
LINE
  5
53F1
330
53DA
100
AcDbEntity
  8
AM_0 外形線1
100
AcDbLine
 10
-4.0
 20
169.0
 30
0.0
 11
-4.0
 21
187.0
 31
0.0
  0
LINE
  5
53F2
330
53DA
100
AcDbEntity
  8
AM_0 外形線1
100
AcDbLine
 10
16.0
 20
169.0
 30
0.0
 11
16.0
 21
167.5
 31
0.0
  0
LINE
  5
53F3
330
53DA
100
AcDbEntity
  8
AM_0 外形線1
100
AcDbLine
 10
11.59999999999991
 20
169.0
 30
0.0
 11
11.59999999999991
 21
167.5
 31
0.0
  0
LINE
  5
53F4
330
53DA
100
AcDbEntity
  8
AM_0 外形線1
100
AcDbLine
 10
11.59999999999991
 20
169.0
 30
0.0
 11
11.59999999999991
 21
174.5499999999999
 31
0.0
  0
LINE
  5
53F5
330
53DA
100
AcDbEntity
  8
AM_0 外形線1
100
AcDbLine
 10
16.0
 20
169.0
 30
0.0
 11
11.59999999999991
 21
169.0
 31
0.0
  0
LINE
  5
53F6
330
53DA
100
AcDbEntity
  8
AM_0 外形線1
100
AcDbLine
 10
18.5
 20
210.8
 30
0.0
 11
24.36435400000029
 21
210.8
 31
0.0
  0
LINE
  5
53F7
330
53DA
100
AcDbEntity
  8
AM_0 外形線1
100
AcDbLine
 10
24.36435400000029
 20
191.1999999999998
 30
0.0
 11
18.5
 21
191.1999999999998
 31
0.0
  0
LINE
  5
53F8
330
53DA
100
AcDbEntity
  8
AM_0 外形線1
100
AcDbLine
 10
24.61728700000004
 20
196.1074779999999
 30
0.0
 11
18.5
 21
196.1074779999999
 31
0.0
  0
LINE
  5
53F9
330
53DA
100
AcDbEntity
  8
AM_0 外形線1
100
AcDbLine
 10
24.61728700000004
 20
205.892523
 30
0.0
 11
18.5
 21
205.892523
 31
0.0
  0
LINE
  5
53FA
330
53DA
100
AcDbEntity
  8
AM_0 外形線1
100
AcDbLine
 10
16.0
 20
195.5
 30
0.0
 11
0.0
 21
195.5
 31
0.0
  0
LINE
  5
53FB
330
53DA
100
AcDbEntity
  8
AM_0 外形線1
100
AcDbLine
 10
16.0
 20
206.5
 30
0.0
 11
0.0
 21
206.5
 31
0.0
  0
LINE
  5
53FC
330
53DA
100
AcDbEntity
  8
AM_4 細線
100
AcDbLine
 10
16.0
 20
196.0
 30
0.0
 11
-16.49999999999954
 21
195.9999999999995
 31
0.0
  0
LINE
  5
53FD
330
53DA
100
AcDbEntity
  8
AM_4 細線
100
AcDbLine
 10
16.0
 20
206.0
 30
0.0
 11
-16.5
 21
206.0
 31
0.0
  0
LINE
  5
53FE
330
53DA
100
AcDbEntity
  8
AM_0 外形線1
100
AcDbLine
 10
16.0
 20
205.2999999999999
 30
0.0
 11
-16.5
 21
205.2999999999999
 31
0.0
  0
LINE
  5
53FF
330
53DA
100
AcDbEntity
  8
AM_0 外形線1
100
AcDbLine
 10
16.0
 20
196.6999999999998
 30
0.0
 11
-16.5
 21
196.7
 31
0.0
  0
LINE
  5
5400
330
53DA
100
AcDbEntity
  8
AM_0 外形線1
100
AcDbLine
 10
3.099999999999908
 20
192.7999999999999
 30
0.0
 11
0.0
 21
192.7999999999999
 31
0.0
  0
LINE
  5
5401
330
53DA
100
AcDbEntity
  8
AM_0 外形線1
100
AcDbLine
 10
-16.5
 20
206.0
 30
0.0
 11
-16.5
 21
196.0
 31
0.0
  0
LINE
  5
5402
330
53DA
100
AcDbEntity
  8
AM_0 外形線1
100
AcDbLine
 10
16.0
 20
212.0
 30
0.0
 11
16.0
 21
199.5
 31
0.0
  0
LINE
  5
5403
330
53DA
100
AcDbEntity
  8
AM_0 外形線1
100
AcDbLine
 10
16.0
 20
210.25
 30
0.0
 11
18.5
 21
210.25
 31
0.0
  0
LINE
  5
5405
330
53DA
100
AcDbEntity
  8
AM_0 外形線1
100
AcDbLine
 10
18.5
 20
191.75
 30
0.0
 11
16.0
 21
191.75
 31
0.0
  0
LINE
  5
5407
330
53DA
100
AcDbEntity
  8
AM_0 外形線1
100
AcDbLine
 10
18.5
 20
203.25
 30
0.0
 11
16.0
 21
200.75
 31
0.0
  0
LINE
  5
5408
330
53DA
100
AcDbEntity
  8
AM_0 外形線1
100
AcDbLine
 10
18.5
 20
201.25
 30
0.0
 11
16.0
 21
198.75
 31
0.0
  0
ARC
  5
5409
330
53DA
100
AcDbEntity
  8
AM_0 外形線1
100
AcDbCircle
 10
22.00150100000019
 20
208.2179609999998
 30
0.0
 40
3.5
100
AcDbArc
 50
318.3628590000148
 51
47.53802600001487
  0
ARC
  5
540A
330
53DA
100
AcDbEntity
  8
AM_0 外形線1
100
AcDbCircle
 10
11.5
 20
201.0
 30
0.0
 40
14.0
100
AcDbArc
 50
339.5453489999912
 51
20.4546510000088
  0
ARC
  5
540B
330
53DA
100
AcDbEntity
  8
AM_0 外形線1
100
AcDbCircle
 10
22.00150100000019
 20
193.78204
 30
0.0
 40
3.5
100
AcDbArc
 50
312.4619739999851
 51
41.63714099998522
  0
LINE
  5
540C
330
53DA
100
AcDbEntity
  8
AM_0 外形線1
100
AcDbLine
 10
25.5
 20
193.6795579999998
 30
0.0
 11
25.5
 21
208.3204419999999
 31
0.0
  0
LINE
  5
540D
330
53DA
100
AcDbEntity
  8
AM_0 外形線1
100
AcDbLine
 10
-17.71243546666665
 20
205.2999999999999
 30
0.0
 11
-17.7124354666671
 21
196.6999999999998
 31
0.0
  0
LINE
  5
540E
330
53DA
100
AcDbEntity
  8
AM_0 外形線1
100
AcDbLine
 10
0.0
 20
211.9999999999998
 30
0.0
 11
16.0
 21
212.0
 31
0.0
  0
LINE
  5
544B
330
53DA
100
AcDbEntity
  8
AM_0 外形線1
100
AcDbLine
 10
18.5
 20
191.1999999999998
 30
0.0
 11
18.5
 21
210.8
 31
0.0
  0
LINE
  5
544C
330
53DA
100
AcDbEntity
  8
AM_0 外形線1
100
AcDbLine
 10
-4.0
 20
187.0
 30
0.0
 11
-3.5
 21
187.5
 31
0.0
1001
GENIUS_GENFIL_13
1070
     0
1040
0.5
1040
0.5
1040
7.999999999999772
1040
45.0
1002
{
1002
}
1001
GENIUS_GENODEF_13
1002
{
1000
HIER
1070
     0
1002
}
1002
{
1000
MANEDIT
1070
     0
1002
}
1002
{
1000
NOSEL
1070
     0
1002
}
1002
{
1000
BEHIND
1070
     0
1002
}
1002
{
1000
OTHER
1070
     0
1002
}
1002
{
1000
REACTOR
1002
}
1001
GENIUS_GENOBJ-N-CHA_13
1002
{
1000
OWNER
1000
GEN
1002
}
  0
LINE
  5
544D
330
53DA
100
AcDbEntity
  8
AM_0 外形線1
100
AcDbLine
 10
0.0
 20
192.7999999999999
 30
0.0
 11
0.0
 21
195.9999999999998
 31
0.0
  0
LINE
  5
544E
330
53DA
100
AcDbEntity
  8
AM_0 外形線1
100
AcDbLine
 10
0.0
 20
206.0
 30
0.0
 11
0.0
 21
212.0
 31
0.0
  0
LINE
  5
547E
330
53DA
100
AcDbEntity
  8
AM_0 外形線1
100
AcDbLine
 10
0.0
 20
0.0
 30
0.0
 11
0.0
 21
-212.0000000000002
 31
0.0
  0
LINE
  5
547F
330
53DA
100
AcDbEntity
  8
AM_0 外形線1
100
AcDbLine
 10
3.099999999999908
 20
187.5
 30
0.0
 11
-3.5
 21
187.5
 31
0.0
  0
ENDBLK
  5
53DC
330
53DA
100
AcDbEntity
  8
0
100
AcDbBlockEnd
  0
BLOCK
  5
54F8
330
54F7
100
AcDbEntity
  8
0
100
AcDbBlockBegin
  2
ＧＣサイドカバ－Ｂ CCMH500
 70
     0
 10
0.0
 20
0.0
 30
0.0
  3
ＧＣサイドカバ－Ｂ CCMH500
  1

  0
LINE
  5
54FA
330
54F7
100
AcDbEntity
  8
AM_0 外形線1
100
AcDbLine
 10
-16.0
 20
-199.5
 30
0.0
 11
-16.0
 21
0.0
 31
0.0
  0
LINE
  5
54FB
330
54F7
100
AcDbEntity
  8
AM_7 中心線
 48
0.5
100
AcDbLine
 10
23.80213000000003
 20
-201.0
 30
0.0
 11
-28.32590699999992
 21
-201.0
 31
0.0
  0
LINE
  5
54FC
330
54F7
100
AcDbEntity
  8
AM_0 外形線1
100
AcDbLine
 10
-16.0
 20
-212.0
 30
0.0
 11
-16.0
 21
-199.5
 31
0.0
  0
LINE
  5
54FD
330
54F7
100
AcDbEntity
  8
AM_0 外形線1
100
AcDbLine
 10
-3.100000000000362
 20
187.5
 30
0.0
 11
-3.100000000000362
 21
192.7999999999999
 31
0.0
  0
LINE
  5
54FE
330
54F7
100
AcDbEntity
  8
AM_0 外形線1
100
AcDbLine
 10
-16.0
 20
212.0
 30
0.0
 11
-16.0
 21
169.0
 31
0.0
  0
LINE
  5
54FF
330
54F7
100
AcDbEntity
  8
AM_0 外形線1
100
AcDbLine
 10
-0.400000000000091
 20
169.0
 30
0.0
 11
4.0
 21
169.0
 31
0.0
  0
LINE
  5
5500
330
54F7
100
AcDbEntity
  8
AM_0 外形線1
100
AcDbLine
 10
-0.400000000000091
 20
169.0
 30
0.0
 11
-0.400000000000091
 21
167.5
 31
0.0
  0
LINE
  5
5501
330
54F7
100
AcDbEntity
  8
AM_0 外形線1
100
AcDbLine
 10
-0.400000000000091
 20
174.5499999999999
 30
0.0
 11
-0.400000000000091
 21
169.0
 31
0.0
  0
LINE
  5
5502
330
54F7
100
AcDbEntity
  8
AM_0 外形線1
100
AcDbLine
 10
-16.0
 20
169.0
 30
0.0
 11
-16.0
 21
167.5
 31
0.0
  0
LINE
  5
5503
330
54F7
100
AcDbEntity
  8
AM_0 外形線1
100
AcDbLine
 10
-11.60000000000036
 20
169.0
 30
0.0
 11
-11.60000000000036
 21
167.5
 31
0.0
  0
LINE
  5
5504
330
54F7
100
AcDbEntity
  8
AM_0 外形線1
100
AcDbLine
 10
-16.0
 20
169.0
 30
0.0
 11
-11.60000000000036
 21
169.0
 31
0.0
  0
LINE
  5
5505
330
54F7
100
AcDbEntity
  8
AM_0 外形線1
100
AcDbLine
 10
-11.60000000000036
 20
169.0
 30
0.0
 11
-11.60000000000036
 21
174.5499999999999
 31
0.0
  0
LINE
  5
5506
330
54F7
100
AcDbEntity
  8
AM_0 外形線1
100
AcDbLine
 10
-11.60000000000036
 20
174.5499999999999
 30
0.0
 11
-0.400000000000091
 21
174.5499999999999
 31
0.0
  0
LWPOLYLINE
  5
5507
330
54F7
100
AcDbEntity
  8
AM_0 外形線1
100
AcDbPolyline
 90
       73
 70
     0
 43
0.0
 10
-11.60000000000036
 20
171.0249999999998
 10
-11.57868999999982
 20
170.7177759999999
 10
-11.51492299999972
 20
170.4128909999999
 10
-11.40918400000009
 20
170.1126629999999
 10
-11.26227800000015
 20
169.8193789999998
 10
-11.07532300000002
 20
169.5352709999999
 10
-10.84974200000033
 20
169.2624999999998
 10
-10.58725099999992
 20
169.0031429999999
 10
-10.28984899999977
 20
168.759174
 10
-9.959797999999862
 20
168.532449
 10
-9.599610000000213
 20
168.3246939999999
 10
-9.212027999999918
 20
168.1374889999999
 10
-8.800000000000181
 20
167.9722609999999
 10
-8.366661999999905
 20
167.830265
 10
-7.915312000000084
 20
167.7125839999999
 10
-7.449386000000231
 20
167.6201119999998
 10
-6.97242899999992
 20
167.5535529999996
 10
-6.488072000000101
 20
167.513414
 10
-6.0
 20
167.5
 10
-5.511927000000013
 20
167.513414
 10
-5.027570000000196
 20
167.5535529999996
 10
-4.550612999999883
 20
167.6201119999998
 10
-4.084687000000029
 20
167.7125839999999
 10
-3.633337000000209
 20
167.830265
 10
-3.199999999999818
 20
167.9722609999999
 10
-2.787972000000081
 20
168.1374889999999
 10
-2.400388999999904
 20
168.3246939999999
 10
-2.040202000000134
 20
168.532449
 10
-1.710151000000223
 20
168.759174
 10
-1.412747999999736
 20
169.0031429999999
 10
-1.150256999999782
 20
169.2624999999998
 10
-0.9246760000000904
 20
169.5352709999999
 10
-0.737720999999965
 20
169.8193789999998
 10
-0.5908149999995658
 20
170.1126629999999
 10
-0.4850759999999356
 20
170.4128909999999
 10
-0.4213090000002923
 20
170.7177759999999
 10
-0.400000000000091
 20
171.0249999999998
 10
-0.4213090000002923
 20
171.332224
 10
-0.4850759999999356
 20
171.6371099999999
 10
-0.5908149999995658
 20
171.9373379999999
 10
-0.737720999999965
 20
172.2306209999999
 10
-0.9246760000000904
 20
172.5147299999999
 10
-1.150256999999782
 20
172.7874999999999
 10
-1.412747999999736
 20
173.046857
 10
-1.710151000000223
 20
173.2908269999998
 10
-2.040202000000134
 20
173.5175519999998
 10
-2.400388999999904
 20
173.7253069999999
 10
-2.787972000000081
 20
173.9125109999998
 10
-3.199999999999818
 20
174.0777399999999
 10
-3.633337000000209
 20
174.2197349999999
 10
-4.084687000000029
 20
174.3374169999999
 10
-4.550612999999883
 20
174.429889
 10
-5.027570000000196
 20
174.4964479999999
 10
-5.511927000000013
 20
174.5365869999998
 10
-6.0
 20
174.5499999999999
 10
-6.488072000000101
 20
174.5365869999998
 10
-6.97242899999992
 20
174.4964479999999
 10
-7.449386000000231
 20
174.429889
 10
-7.915312000000084
 20
174.3374169999999
 10
-8.366661999999905
 20
174.2197349999999
 10
-8.800000000000181
 20
174.0777399999999
 10
-9.212027999999918
 20
173.9125109999998
 10
-9.599610000000213
 20
173.7253069999999
 10
-9.959797999999862
 20
173.5175519999998
 10
-10.28984899999977
 20
173.2908269999998
 10
-10.58725099999992
 20
173.046857
 10
-10.84974200000033
 20
172.7874999999999
 10
-11.07532300000002
 20
172.5147299999999
 10
-11.26227800000015
 20
172.2306209999999
 10
-11.40918400000009
 20
171.9373379999999
 10
-11.51492299999972
 20
171.6371099999999
 10
-11.57868999999982
 20
171.332224
 10
-11.60000000000036
 20
171.0249999999998
  0
LINE
  5
5509
330
54F7
100
AcDbEntity
  8
AM_0 外形線1
100
AcDbLine
 10
4.0
 20
169.0
 30
0.0
 11
4.0
 21
167.5
 31
0.0
  0
LINE
  5
550A
330
54F7
100
AcDbEntity
  8
AM_0 外形線1
100
AcDbLine
 10
4.0
 20
169.0
 30
0.0
 11
4.000000000000227
 21
187.0
 31
0.0
  0
LINE
  5
550B
330
54F7
100
AcDbEntity
  8
AM_7 中心線
 48
0.5
100
AcDbLine
 10
26.35421700000006
 20
201.0
 30
0.0
 11
-33.22734799999989
 21
201.0
 31
0.0
  0
LINE
  5
550C
330
54F7
100
AcDbEntity
  8
AM_0 外形線1
100
AcDbLine
 10
-18.5
 20
210.8
 30
0.0
 11
-24.36435299999994
 21
210.8
 31
0.0
  0
LINE
  5
550D
330
54F7
100
AcDbEntity
  8
AM_0 外形線1
100
AcDbLine
 10
-24.36435299999994
 20
191.1999999999998
 30
0.0
 11
-18.5
 21
191.1999999999998
 31
0.0
  0
LINE
  5
550E
330
54F7
100
AcDbEntity
  8
AM_0 外形線1
100
AcDbLine
 10
-24.61728700000004
 20
196.1074779999999
 30
0.0
 11
-18.5
 21
196.1074779999999
 31
0.0
  0
LINE
  5
550F
330
54F7
100
AcDbEntity
  8
AM_0 外形線1
100
AcDbLine
 10
-24.61728700000004
 20
205.892523
 30
0.0
 11
-18.5
 21
205.892523
 31
0.0
  0
LINE
  5
5510
330
54F7
100
AcDbEntity
  8
AM_0 外形線1
100
AcDbLine
 10
-25.5
 20
193.6795579999998
 30
0.0
 11
-25.5
 21
208.3204419999999
 31
0.0
  0
ARC
  5
5511
330
54F7
100
AcDbEntity
  8
AM_0 外形線1
100
AcDbCircle
 10
-22.0015000000003
 20
208.2179609999998
 30
0.0
 40
3.5
100
AcDbArc
 50
132.461973999985
 51
221.6371409999852
  0
ARC
  5
5512
330
54F7
100
AcDbEntity
  8
AM_0 外形線1
100
AcDbCircle
 10
-11.5
 20
201.0
 30
0.0
 40
14.0
100
AcDbArc
 50
159.5453489999911
 51
200.4546510000088
  0
ARC
  5
5513
330
54F7
100
AcDbEntity
  8
AM_0 外形線1
100
AcDbCircle
 10
-22.0015000000003
 20
193.78204
 30
0.0
 40
3.5
100
AcDbArc
 50
138.3628590000147
 51
227.5380260000149
  0
LINE
  5
5515
330
54F7
100
AcDbEntity
  8
AM_0 外形線1
100
AcDbLine
 10
-16.0
 20
210.25
 30
0.0
 11
-18.5
 21
210.25
 31
0.0
  0
LINE
  5
5516
330
54F7
100
AcDbEntity
  8
AM_0 外形線1
100
AcDbLine
 10
-18.5
 20
210.25
 30
0.0
 11
-18.5
 21
191.75
 31
0.0
  0
LINE
  5
5517
330
54F7
100
AcDbEntity
  8
AM_0 外形線1
100
AcDbLine
 10
-18.5
 20
191.75
 30
0.0
 11
-16.0
 21
191.75
 31
0.0
  0
LINE
  5
5518
330
54F7
100
AcDbEntity
  8
AM_0 外形線1
100
AcDbLine
 10
-18.5
 20
210.25
 30
0.0
 11
-18.5
 21
210.8
 31
0.0
  0
LINE
  5
5519
330
54F7
100
AcDbEntity
  8
AM_0 外形線1
100
AcDbLine
 10
-18.5
 20
191.1999999999998
 30
0.0
 11
-18.5
 21
191.75
 31
0.0
  0
LINE
  5
551A
330
54F7
100
AcDbEntity
  8
AM_0 外形線1
100
AcDbLine
 10
-16.0
 20
203.25
 30
0.0
 11
-18.5
 21
200.75
 31
0.0
  0
LINE
  5
551B
330
54F7
100
AcDbEntity
  8
AM_0 外形線1
100
AcDbLine
 10
-16.0
 20
201.25
 30
0.0
 11
-18.5
 21
198.75
 31
0.0
  0
LINE
  5
551C
330
54F7
100
AcDbEntity
  8
AM_0 外形線1
100
AcDbLine
 10
-16.0
 20
195.5
 30
0.0
 11
0.0
 21
195.5
 31
0.0
  0
LINE
  5
551D
330
54F7
100
AcDbEntity
  8
AM_0 外形線1
100
AcDbLine
 10
-16.0
 20
206.5
 30
0.0
 11
0.0
 21
206.5
 31
0.0
  0
LINE
  5
551E
330
54F7
100
AcDbEntity
  8
AM_0 外形線1
100
AcDbLine
 10
-3.100000000000362
 20
192.7999999999999
 30
0.0
 11
0.0
 21
192.7999999999999
 31
0.0
  0
LINE
  5
551F
330
54F7
100
AcDbEntity
  8
AM_0 外形線1
100
AcDbLine
 10
20.0
 20
205.2999999999999
 30
0.0
 11
22.48260699999992
 21
201.0
 31
0.0
  0
LINE
  5
5520
330
54F7
100
AcDbEntity
  8
AM_0 外形線1
100
AcDbLine
 10
22.48260699999992
 20
201.0
 30
0.0
 11
20.0
 21
196.6999999999998
 31
0.0
  0
LINE
  5
5521
330
54F7
100
AcDbEntity
  8
AM_0 外形線1
100
AcDbLine
 10
20.0
 20
196.6999999999998
 30
0.0
 11
20.0
 21
205.2999999999999
 31
0.0
  0
LINE
  5
5522
330
54F7
100
AcDbEntity
  8
AM_0 外形線1
100
AcDbLine
 10
16.5
 20
205.2999999999999
 30
0.0
 11
20.0
 21
205.2999999999999
 31
0.0
  0
LINE
  5
5523
330
54F7
100
AcDbEntity
  8
AM_0 外形線1
100
AcDbLine
 10
16.5
 20
196.6999999999998
 30
0.0
 11
20.0
 21
196.6999999999998
 31
0.0
  0
LINE
  5
5524
330
54F7
100
AcDbEntity
  8
AM_0 外形線1
100
AcDbLine
 10
16.5
 20
206.0
 30
0.0
 11
16.5
 21
196.0
 31
0.0
  0
LINE
  5
5525
330
54F7
100
AcDbEntity
  8
AM_4 細線
100
AcDbLine
 10
-16.0
 20
196.0
 30
0.0
 11
16.49999999999954
 21
195.9999999999995
 31
0.0
  0
LINE
  5
5526
330
54F7
100
AcDbEntity
  8
AM_4 細線
100
AcDbLine
 10
-16.0
 20
206.0
 30
0.0
 11
16.5
 21
206.0
 31
0.0
  0
LINE
  5
5527
330
54F7
100
AcDbEntity
  8
AM_0 外形線1
100
AcDbLine
 10
-16.0
 20
205.2999999999999
 30
0.0
 11
16.5
 21
205.2999999999999
 31
0.0
  0
LINE
  5
5528
330
54F7
100
AcDbEntity
  8
AM_0 外形線1
100
AcDbLine
 10
-16.0
 20
196.6999999999998
 30
0.0
 11
16.5
 21
196.7
 31
0.0
  0
LINE
  5
5594
330
54F7
100
AcDbEntity
  8
AM_0 外形線1
100
AcDbLine
 10
-16.0
 20
-212.0
 30
0.0
 11
0.0
 21
-212.0
 31
0.0
  0
LINE
  5
5595
330
54F7
100
AcDbEntity
  8
AM_0 外形線1
100
AcDbLine
 10
0.0
 20
-212.0
 30
0.0
 11
0.0
 21
0.0
 31
0.0
  0
LINE
  5
5596
330
54F7
100
AcDbEntity
  8
AM_0 外形線1
100
AcDbLine
 10
-16.0
 20
212.0
 30
0.0
 11
0.0
 21
212.0
 31
0.0
  0
LINE
  5
5597
330
54F7
100
AcDbEntity
  8
AM_0 外形線1
100
AcDbLine
 10
0.0
 20
206.0
 30
0.0
 11
0.0
 21
212.0
 31
0.0
  0
LINE
  5
5598
330
54F7
100
AcDbEntity
  8
AM_0 外形線1
100
AcDbLine
 10
0.0
 20
195.9999999999998
 30
0.0
 11
0.0
 21
192.7999999999999
 31
0.0
  0
LINE
  5
5599
330
54F7
100
AcDbEntity
  8
AM_0 外形線1
100
AcDbLine
 10
-3.100000000000362
 20
187.5
 30
0.0
 11
3.500000000000226
 21
187.5
 31
0.0
  0
LINE
  5
559A
330
54F7
100
AcDbEntity
  8
AM_0 外形線1
100
AcDbLine
 10
3.500000000000226
 20
187.5
 30
0.0
 11
4.000000000000227
 21
187.0
 31
0.0
1001
GENIUS_GENFIL_13
1070
     0
1040
0.5
1040
0.5
1040
7.999999999999772
1040
45.0
1002
{
1002
}
1001
GENIUS_GENODEF_13
1002
{
1000
HIER
1070
     0
1002
}
1002
{
1000
MANEDIT
1070
     0
1002
}
1002
{
1000
NOSEL
1070
     0
1002
}
1002
{
1000
BEHIND
1070
     0
1002
}
1002
{
1000
OTHER
1070
     0
1002
}
1002
{
1000
REACTOR
1002
}
1001
GENIUS_GENOBJ-N-CHA_13
1002
{
1000
OWNER
1000
GEN
1002
}
  0
ELLIPSE
  5
559B
330
54F7
100
AcDbEntity
  8
AM_0 外形線1
100
AcDbEllipse
 10
-1.550000000000181
 20
190.15
 30
0.0
 11
0.0
 21
2.649999999999863
 31
0.0
210
0.0
220
0.0
230
1.0
 40
0.5849056603774573
 41
0.0
 42
6.283185307179585
  0
ENDBLK
  5
54F9
330
54F7
100
AcDbEntity
  8
0
100
AcDbBlockEnd
  0
BLOCK
  5
5838
330
5837
100
AcDbEntity
  8
0
100
AcDbBlockBegin
  2
*D15
 70
     1
 10
0.0
 20
0.0
 30
0.0
  3
*D15
  1

  0
LINE
  5
695F
330
5837
100
AcDbEntity
  8
AM_5 寸法線
 62
     3
100
AcDbLine
 10
1009.135319899475
 20
1451.090763880208
 30
0.0
 11
863.1353198994759
 21
1451.090763880208
 31
0.0
  0
LINE
  5
6960
330
5837
100
AcDbEntity
  8
AM_5 寸法線
 62
     3
100
AcDbLine
 10
1009.135319899475
 20
1116.090763880208
 30
0.0
 11
863.1353198994757
 21
1116.090763880208
 31
0.0
  0
LINE
  5
6961
330
5837
100
AcDbEntity
  8
AM_5 寸法線
 62
     3
100
AcDbLine
 10
866.8853198994757
 20
1436.090763880209
 30
0.0
 11
866.8853198994757
 21
1131.090763880209
 31
0.0
  0
INSERT
  5
6962
330
5837
100
AcDbEntity
  8
AM_5 寸法線
 62
     3
100
AcDbBlockReference
  2
_Open30
 10
866.8853198994757
 20
1451.090763880208
 30
0.0
 41
15.0
 42
15.0
 43
15.0
 50
90.0
  0
INSERT
  5
6963
330
5837
100
AcDbEntity
  8
AM_5 寸法線
 62
     3
100
AcDbBlockReference
  2
_Open30
 10
866.8853198994757
 20
1116.090763880208
 30
0.0
 41
15.0
 42
15.0
 43
15.0
 50
270.0
  0
MTEXT
  5
6964
330
5837
100
AcDbEntity
  8
AM_5 寸法線
 62
     3
100
AcDbMText
 10
847.3853198994756
 20
1307.43730547561
 30
0.0
 40
21.0
 41
0.0
 46
0.0
 71
     5
 72
     1
  1
%%c335
  7
SEISA
 11
0.0000000000000001
 21
1.0
 31
0.0
 73
     1
 44
1.0
  0
POINT
  5
6965
330
5837
100
AcDbEntity
  8
Defpoints
 62
     0
100
AcDbPoint
 10
1012.885319899476
 20
1451.090763880208
 30
0.0
  0
POINT
  5
6966
330
5837
100
AcDbEntity
  8
Defpoints
 62
     0
100
AcDbPoint
 10
1012.885319899476
 20
1116.090763880208
 30
0.0
  0
POINT
  5
6967
330
5837
100
AcDbEntity
  8
Defpoints
 62
     0
100
AcDbPoint
 10
866.8853198994757
 20
1116.090763880208
 30
0.0
  0
ENDBLK
  5
5839
330
5837
100
AcDbEntity
  8
0
100
AcDbBlockEnd
  0
BLOCK
  5
587D
330
587C
100
AcDbEntity
  8
0
100
AcDbBlockBegin
  2
*D16
 70
     1
 10
0.0
 20
0.0
 30
0.0
  3
*D16
  1

  0
LINE
  5
6968
330
587C
100
AcDbEntity
  8
AM_5 寸法線
 62
     3
100
AcDbLine
 10
1061.885319899475
 20
1447.840763880209
 30
0.0
 11
1061.885319899475
 21
1410.125085837163
 31
0.0
  0
LINE
  5
6969
330
587C
100
AcDbEntity
  8
AM_5 寸法線
 62
     3
100
AcDbLine
 10
1055.885319899475
 20
1447.340763880208
 30
0.0
 11
1055.885319899475
 21
1410.125085837163
 31
0.0
  0
LINE
  5
696A
330
587C
100
AcDbEntity
  8
AM_5 寸法線
 62
     3
100
AcDbLine
 10
1076.885319899475
 20
1413.875085837163
 30
0.0
 11
1091.885319899476
 21
1413.875085837163
 31
0.0
  0
LINE
  5
696B
330
587C
100
AcDbEntity
  8
AM_5 寸法線
 62
     3
100
AcDbLine
 10
1040.885319899476
 20
1413.875085837163
 30
0.0
 11
996.1853198994756
 21
1413.875085837163
 31
0.0
  0
LINE
  5
696C
330
587C
100
AcDbEntity
  8
AM_5 寸法線
 62
     3
100
AcDbLine
 10
1061.885319899475
 20
1413.875085837163
 30
0.0
 11
1055.885319899475
 21
1413.875085837163
 31
0.0
  0
INSERT
  5
696D
330
587C
100
AcDbEntity
  8
AM_5 寸法線
 62
     3
100
AcDbBlockReference
  2
_Open30
 10
1061.885319899475
 20
1413.875085837163
 30
0.0
 41
15.0
 42
15.0
 43
15.0
 50
180.0
  0
INSERT
  5
696E
330
587C
100
AcDbEntity
  8
AM_5 寸法線
 62
     3
100
AcDbBlockReference
  2
_Open30
 10
1055.885319899475
 20
1413.875085837163
 30
0.0
 41
15.0
 42
15.0
 43
15.0
  0
MTEXT
  5
696F
330
587C
100
AcDbEntity
  8
AM_5 寸法線
 62
     3
100
AcDbMText
 10
1011.035319899475
 20
1433.375085837163
 30
0.0
 40
21.0
 41
0.0
 46
0.0
 71
     5
 72
     1
  1
6
  7
SEISA
 73
     1
 44
1.0
  0
POINT
  5
6970
102
{ACAD_REACTORS
330
7919
102
}
330
587C
100
AcDbEntity
  8
Defpoints
 62
     0
100
AcDbPoint
 10
1061.885319899475
 20
1451.590763880209
 30
0.0
  0
POINT
  5
6971
330
587C
100
AcDbEntity
  8
Defpoints
 62
     0
100
AcDbPoint
 10
1055.885319899475
 20
1451.090763880208
 30
0.0
  0
POINT
  5
6972
330
587C
100
AcDbEntity
  8
Defpoints
 62
     0
100
AcDbPoint
 10
1055.885319899475
 20
1413.875085837163
 30
0.0
  0
ENDBLK
  5
587E
330
587C
100
AcDbEntity
  8
0
100
AcDbBlockEnd
  0
BLOCK
  5
58FD
330
58FC
100
AcDbEntity
  8
0
100
AcDbBlockBegin
  2
*D17
 70
     1
 10
0.0
 20
0.0
 30
0.0
  3
*D17
  1

  0
LINE
  5
697E
330
58FC
100
AcDbEntity
  8
AM_5 寸法線
 62
     3
100
AcDbLine
 10
1192.885319899476
 20
1287.340763880209
 30
0.0
 11
1192.885319899476
 21
1319.686801880208
 31
0.0
  0
LINE
  5
697F
330
58FC
100
AcDbEntity
  8
AM_5 寸法線
 62
     3
100
AcDbLine
 10
956.8853198994755
 20
1287.340763880209
 30
0.0
 11
956.8853198994755
 21
1319.686801880208
 31
0.0
  0
LINE
  5
6980
330
58FC
100
AcDbEntity
  8
AM_5 寸法線
 62
     3
100
AcDbLine
 10
1177.885319899475
 20
1315.936801880208
 30
0.0
 11
971.8853198994755
 21
1315.936801880208
 31
0.0
  0
INSERT
  5
6981
330
58FC
100
AcDbEntity
  8
AM_5 寸法線
 62
     3
100
AcDbBlockReference
  2
_Open30
 10
1192.885319899476
 20
1315.936801880208
 30
0.0
 41
15.0
 42
15.0
 43
15.0
  0
INSERT
  5
6982
330
58FC
100
AcDbEntity
  8
AM_5 寸法線
 62
     3
100
AcDbBlockReference
  2
_Open30
 10
956.8853198994755
 20
1315.936801880208
 30
0.0
 41
15.0
 42
15.0
 43
15.0
 50
180.0
  0
MTEXT
  5
6983
330
58FC
100
AcDbEntity
  8
AM_5 寸法線
 62
     3
100
AcDbMText
 10
1074.885319899475
 20
1335.436801880208
 30
0.0
 40
21.0
 41
0.0
 46
0.0
 71
     5
 72
     1
  1
236
  7
SEISA
 73
     1
 44
1.0
  0
POINT
  5
6984
330
58FC
100
AcDbEntity
  8
Defpoints
 62
     0
100
AcDbPoint
 10
1192.885319899476
 20
1283.590763880209
 30
0.0
  0
POINT
  5
6985
330
58FC
100
AcDbEntity
  8
Defpoints
 62
     0
100
AcDbPoint
 10
956.8853198994755
 20
1283.590763880209
 30
0.0
  0
POINT
  5
6986
330
58FC
100
AcDbEntity
  8
Defpoints
 62
     0
100
AcDbPoint
 10
956.8853198994755
 20
1315.936801880208
 30
0.0
  0
ENDBLK
  5
58FE
330
58FC
100
AcDbEntity
  8
0
100
AcDbBlockEnd
  0
BLOCK
  5
5915
330
5914
100
AcDbEntity
  8
0
100
AcDbBlockBegin
  2
*D18
 70
     1
 10
0.0
 20
0.0
 30
0.0
  3
*D18
  1

  0
LINE
  5
6987
330
5914
100
AcDbEntity
  8
AM_5 寸法線
 62
     3
100
AcDbLine
 10
1192.885319899476
 20
1287.340763880209
 30
0.0
 11
1192.885319899476
 21
1319.686801880208
 31
0.0
  0
LINE
  5
6988
330
5914
100
AcDbEntity
  8
AM_5 寸法線
 62
     3
100
AcDbLine
 10
1214.885319899476
 20
1287.340763880209
 30
0.0
 11
1214.885319899476
 21
1319.686801880208
 31
0.0
  0
LINE
  5
6989
330
5914
100
AcDbEntity
  8
AM_5 寸法線
 62
     3
100
AcDbLine
 10
1177.885319899475
 20
1315.936801880208
 30
0.0
 11
1162.885319899475
 21
1315.936801880208
 31
0.0
  0
LINE
  5
698A
330
5914
100
AcDbEntity
  8
AM_5 寸法線
 62
     3
100
AcDbLine
 10
1229.885319899476
 20
1315.936801880208
 30
0.0
 11
1244.885319899476
 21
1315.936801880208
 31
0.0
  0
MTEXT
  5
698B
330
5914
100
AcDbEntity
  8
AM_5 寸法線
 62
     3
100
AcDbMText
 10
1248.805524336909
 20
1335.118151799641
 30
0.0
 40
21.0
 41
0.0
 46
0.0
 71
     5
 72
     1
  1
22
  7
SEISA
 73
     1
 44
1.0
  0
LINE
  5
698C
330
5914
100
AcDbEntity
  8
AM_5 寸法線
 62
     3
100
AcDbLine
 10
1192.885319899476
 20
1315.936801880208
 30
0.0
 11
1214.885319899476
 21
1315.936801880208
 31
0.0
  0
INSERT
  5
698D
330
5914
100
AcDbEntity
  8
AM_5 寸法線
 62
     3
100
AcDbBlockReference
  2
_Open30
 10
1192.885319899476
 20
1315.936801880208
 30
0.0
 41
15.0
 42
15.0
 43
15.0
  0
INSERT
  5
698E
330
5914
100
AcDbEntity
  8
AM_5 寸法線
 62
     3
100
AcDbBlockReference
  2
_Open30
 10
1214.885319899476
 20
1315.936801880208
 30
0.0
 41
15.0
 42
15.0
 43
15.0
 50
180.0
  0
POINT
  5
698F
330
5914
100
AcDbEntity
  8
Defpoints
 62
     0
100
AcDbPoint
 10
1192.885319899476
 20
1283.590763880209
 30
0.0
  0
POINT
  5
6990
330
5914
100
AcDbEntity
  8
Defpoints
 62
     0
100
AcDbPoint
 10
1214.885319899476
 20
1283.590763880209
 30
0.0
  0
POINT
  5
6991
330
5914
100
AcDbEntity
  8
Defpoints
 62
     0
100
AcDbPoint
 10
1214.885319899476
 20
1315.936801880208
 30
0.0
  0
ENDBLK
  5
5916
330
5914
100
AcDbEntity
  8
0
100
AcDbBlockEnd
  0
BLOCK
  5
5931
330
5930
100
AcDbEntity
  8
0
100
AcDbBlockBegin
  2
*D19
 70
     1
 10
0.0
 20
0.0
 30
0.0
  3
*D19
  1

  0
LINE
  5
6992
330
5930
100
AcDbEntity
  8
AM_5 寸法線
 62
     3
100
AcDbLine
 10
1214.885319899476
 20
1287.340763880209
 30
0.0
 11
1214.885319899476
 21
1319.686801880208
 31
0.0
  0
LINE
  5
6993
330
5930
100
AcDbEntity
  8
AM_5 寸法線
 62
     3
100
AcDbLine
 10
1450.885319899476
 20
1287.340763880209
 30
0.0
 11
1450.885319899476
 21
1319.686801880208
 31
0.0
  0
LINE
  5
6994
330
5930
100
AcDbEntity
  8
AM_5 寸法線
 62
     3
100
AcDbLine
 10
1229.885319899476
 20
1315.936801880208
 30
0.0
 11
1435.885319899475
 21
1315.936801880208
 31
0.0
  0
INSERT
  5
6995
330
5930
100
AcDbEntity
  8
AM_5 寸法線
 62
     3
100
AcDbBlockReference
  2
_Open30
 10
1214.885319899476
 20
1315.936801880208
 30
0.0
 41
15.0
 42
15.0
 43
15.0
 50
180.0
  0
INSERT
  5
6996
330
5930
100
AcDbEntity
  8
AM_5 寸法線
 62
     3
100
AcDbBlockReference
  2
_Open30
 10
1450.885319899476
 20
1315.936801880208
 30
0.0
 41
15.0
 42
15.0
 43
15.0
  0
MTEXT
  5
6997
330
5930
100
AcDbEntity
  8
AM_5 寸法線
 62
     3
100
AcDbMText
 10
1332.885319899476
 20
1335.436801880208
 30
0.0
 40
21.0
 41
0.0
 46
0.0
 71
     5
 72
     1
  1
236
  7
SEISA
 73
     1
 44
1.0
  0
POINT
  5
6998
330
5930
100
AcDbEntity
  8
Defpoints
 62
     0
100
AcDbPoint
 10
1214.885319899476
 20
1283.590763880209
 30
0.0
  0
POINT
  5
6999
330
5930
100
AcDbEntity
  8
Defpoints
 62
     0
100
AcDbPoint
 10
1450.885319899476
 20
1283.590763880209
 30
0.0
  0
POINT
  5
699A
330
5930
100
AcDbEntity
  8
Defpoints
 62
     0
100
AcDbPoint
 10
1450.885319899476
 20
1315.936801880208
 30
0.0
  0
ENDBLK
  5
5932
330
5930
100
AcDbEntity
  8
0
100
AcDbBlockEnd
  0
BLOCK
  5
5A40
330
5A3F
100
AcDbEntity
  8
0
100
AcDbBlockBegin
  2
*D20
 70
     1
 10
0.0
 20
0.0
 30
0.0
  3
*D20
  1

  0
LINE
  5
6C2E
330
5A3F
100
AcDbEntity
  8
AM_5 寸法線
 62
     3
100
AcDbLine
 10
1398.635319899476
 20
1451.090763880208
 30
0.0
 11
1544.635319899476
 21
1451.090763880208
 31
0.0
  0
LINE
  5
6C2F
330
5A3F
100
AcDbEntity
  8
AM_5 寸法線
 62
     3
100
AcDbLine
 10
1398.635319899476
 20
1116.090763880208
 30
0.0
 11
1544.635319899476
 21
1116.090763880208
 31
0.0
  0
LINE
  5
6C30
330
5A3F
100
AcDbEntity
  8
AM_5 寸法線
 62
     3
100
AcDbLine
 10
1540.885319899476
 20
1436.090763880208
 30
0.0
 11
1540.885319899476
 21
1131.090763880208
 31
0.0
  0
INSERT
  5
6C31
330
5A3F
100
AcDbEntity
  8
AM_5 寸法線
 62
     3
100
AcDbBlockReference
  2
_Open30
 10
1540.885319899476
 20
1451.090763880208
 30
0.0
 41
15.0
 42
15.0
 43
15.0
 50
90.0
  0
INSERT
  5
6C32
330
5A3F
100
AcDbEntity
  8
AM_5 寸法線
 62
     3
100
AcDbBlockReference
  2
_Open30
 10
1540.885319899476
 20
1116.090763880208
 30
0.0
 41
15.0
 42
15.0
 43
15.0
 50
270.0
  0
MTEXT
  5
6C33
330
5A3F
100
AcDbEntity
  8
AM_5 寸法線
 62
     3
100
AcDbMText
 10
1521.385319899475
 20
1283.590763880209
 30
0.0
 40
21.0
 41
0.0
 46
0.0
 71
     5
 72
     1
  1
%%c335
  7
SEISA
 11
0.0000000000000001
 21
1.0
 31
0.0
 73
     1
 44
1.0
  0
POINT
  5
6C34
330
5A3F
100
AcDbEntity
  8
Defpoints
 62
     0
100
AcDbPoint
 10
1394.885319899475
 20
1451.090763880208
 30
0.0
  0
POINT
  5
6C35
330
5A3F
100
AcDbEntity
  8
Defpoints
 62
     0
100
AcDbPoint
 10
1394.885319899475
 20
1116.090763880208
 30
0.0
  0
POINT
  5
6C36
330
5A3F
100
AcDbEntity
  8
Defpoints
 62
     0
100
AcDbPoint
 10
1540.885319899476
 20
1116.090763880208
 30
0.0
  0
ENDBLK
  5
5A41
330
5A3F
100
AcDbEntity
  8
0
100
AcDbBlockEnd
  0
BLOCK
  5
5A6A
330
5A69
100
AcDbEntity
  8
0
100
AcDbBlockBegin
  2
*D21
 70
     1
 10
0.0
 20
0.0
 30
0.0
  3
*D21
  1

  0
LINE
  5
6C40
330
5A69
100
AcDbEntity
  8
AM_5 寸法線
 62
     3
100
AcDbLine
 10
1375.635319899475
 20
1495.590763880209
 30
0.0
 11
1592.635319899476
 21
1495.590763880208
 31
0.0
  0
LINE
  5
6C41
330
5A69
100
AcDbEntity
  8
AM_5 寸法線
 62
     3
100
AcDbLine
 10
1375.635319899473
 20
1071.590763880208
 30
0.0
 11
1592.635319899476
 21
1071.590763880208
 31
0.0
  0
LINE
  5
6C42
330
5A69
100
AcDbEntity
  8
AM_5 寸法線
 62
     3
100
AcDbLine
 10
1588.885319899476
 20
1480.590763880208
 30
0.0
 11
1588.885319899476
 21
1086.590763880208
 31
0.0
  0
INSERT
  5
6C43
330
5A69
100
AcDbEntity
  8
AM_5 寸法線
 62
     3
100
AcDbBlockReference
  2
_Open30
 10
1588.885319899476
 20
1495.590763880208
 30
0.0
 41
15.0
 42
15.0
 43
15.0
 50
90.0
  0
INSERT
  5
6C44
330
5A69
100
AcDbEntity
  8
AM_5 寸法線
 62
     3
100
AcDbBlockReference
  2
_Open30
 10
1588.885319899476
 20
1071.590763880208
 30
0.0
 41
15.0
 42
15.0
 43
15.0
 50
270.0
  0
MTEXT
  5
6C45
330
5A69
100
AcDbEntity
  8
AM_5 寸法線
 62
     3
100
AcDbMText
 10
1569.385319899476
 20
1283.590763880209
 30
0.0
 40
21.0
 41
0.0
 46
0.0
 71
     5
 72
     1
  1
%%c424
  7
SEISA
 11
0.0000000000000001
 21
1.0
 31
0.0
 73
     1
 44
1.0
  0
POINT
  5
6C46
330
5A69
100
AcDbEntity
  8
Defpoints
 62
     0
100
AcDbPoint
 10
1371.885319899476
 20
1495.590763880209
 30
0.0
  0
POINT
  5
6C47
330
5A69
100
AcDbEntity
  8
Defpoints
 62
     0
100
AcDbPoint
 10
1371.885319899473
 20
1071.590763880208
 30
0.0
  0
POINT
  5
6C48
330
5A69
100
AcDbEntity
  8
Defpoints
 62
     0
100
AcDbPoint
 10
1588.885319899476
 20
1071.590763880208
 30
0.0
  0
ENDBLK
  5
5A6B
330
5A69
100
AcDbEntity
  8
0
100
AcDbBlockEnd
  0
BLOCK
  5
5A82
330
5A81
100
AcDbEntity
  8
0
100
AcDbBlockBegin
  2
*D22
 70
     1
 10
0.0
 20
0.0
 30
0.0
  3
*D22
  1

  0
LINE
  5
6C49
330
5A81
100
AcDbEntity
  8
AM_5 寸法線
 62
     3
100
AcDbLine
 10
1231.635319899476
 20
1533.590763880209
 30
0.0
 11
1640.635319899476
 21
1533.590763880208
 31
0.0
  0
LINE
  5
6C4A
330
5A81
100
AcDbEntity
  8
AM_5 寸法線
 62
     3
100
AcDbLine
 10
1231.635319899476
 20
1033.590763880209
 30
0.0
 11
1640.635319899476
 21
1033.590763880208
 31
0.0
  0
LINE
  5
6C4B
330
5A81
100
AcDbEntity
  8
AM_5 寸法線
 62
     3
100
AcDbLine
 10
1636.885319899476
 20
1518.590763880208
 30
0.0
 11
1636.885319899476
 21
1048.590763880208
 31
0.0
  0
INSERT
  5
6C4C
330
5A81
100
AcDbEntity
  8
AM_5 寸法線
 62
     3
100
AcDbBlockReference
  2
_Open30
 10
1636.885319899476
 20
1533.590763880208
 30
0.0
 41
15.0
 42
15.0
 43
15.0
 50
90.0
  0
INSERT
  5
6C4D
330
5A81
100
AcDbEntity
  8
AM_5 寸法線
 62
     3
100
AcDbBlockReference
  2
_Open30
 10
1636.885319899476
 20
1033.590763880208
 30
0.0
 41
15.0
 42
15.0
 43
15.0
 50
270.0
  0
MTEXT
  5
6C4E
330
5A81
100
AcDbEntity
  8
AM_5 寸法線
 62
     3
100
AcDbMText
 10
1617.385319899476
 20
1283.590763880209
 30
0.0
 40
21.0
 41
0.0
 46
0.0
 71
     5
 72
     1
  1
%%c500
  7
SEISA
 11
0.0000000000000001
 21
1.0
 31
0.0
 73
     1
 44
1.0
  0
POINT
  5
6C4F
330
5A81
100
AcDbEntity
  8
Defpoints
 62
     0
100
AcDbPoint
 10
1227.885319899475
 20
1533.590763880209
 30
0.0
  0
POINT
  5
6C50
330
5A81
100
AcDbEntity
  8
Defpoints
 62
     0
100
AcDbPoint
 10
1227.885319899475
 20
1033.590763880209
 30
0.0
  0
POINT
  5
6C51
330
5A81
100
AcDbEntity
  8
Defpoints
 62
     0
100
AcDbPoint
 10
1636.885319899476
 20
1033.590763880208
 30
0.0
  0
ENDBLK
  5
5A83
330
5A81
100
AcDbEntity
  8
0
100
AcDbBlockEnd
  0
BLOCK
  5
5B18
330
5B17
100
AcDbEntity
  8
0
100
AcDbBlockBegin
  2
*D23
 70
     1
 10
0.0
 20
0.0
 30
0.0
  3
*D23
  1

  0
LINE
  5
69BD
330
5B17
100
AcDbEntity
  8
AM_5 寸法線
 62
     3
100
AcDbLine
 10
1203.885319899476
 20
1030.840763880209
 30
0.0
 11
1203.885319899476
 21
939.712282578561
 31
0.0
  0
LINE
  5
69BE
330
5B17
100
AcDbEntity
  8
AM_5 寸法線
 62
     3
100
AcDbLine
 10
1178.885319899475
 20
1030.840763880209
 30
0.0
 11
1178.885319899475
 21
939.712282578561
 31
0.0
  0
LINE
  5
69BF
330
5B17
100
AcDbEntity
  8
AM_5 寸法線
 62
     3
100
AcDbLine
 10
1218.885319899476
 20
943.4622825785607
 30
0.0
 11
1233.885319899475
 21
943.4622825785607
 31
0.0
  0
LINE
  5
69C0
330
5B17
100
AcDbEntity
  8
AM_5 寸法線
 62
     3
100
AcDbLine
 10
1163.885319899476
 20
943.4622825785607
 30
0.0
 11
1100.285319899476
 21
943.4622825785607
 31
0.0
  0
LINE
  5
69C1
330
5B17
100
AcDbEntity
  8
AM_5 寸法線
 62
     3
100
AcDbLine
 10
1203.885319899476
 20
943.4622825785607
 30
0.0
 11
1178.885319899475
 21
943.4622825785607
 31
0.0
  0
INSERT
  5
69C2
330
5B17
100
AcDbEntity
  8
AM_5 寸法線
 62
     3
100
AcDbBlockReference
  2
GENDOT
 10
1203.885319899476
 20
943.4622825785607
 30
0.0
 41
15.0
 42
15.0
 43
15.0
 50
180.0
  0
INSERT
  5
69C3
330
5B17
100
AcDbEntity
  8
AM_5 寸法線
 62
     3
100
AcDbBlockReference
  2
_Open30
 10
1178.885319899475
 20
943.4622825785607
 30
0.0
 41
15.0
 42
15.0
 43
15.0
  0
MTEXT
  5
69C4
330
5B17
100
AcDbEntity
  8
AM_5 寸法線
 62
     3
100
AcDbMText
 10
1124.585319899475
 20
962.962282578561
 30
0.0
 40
21.0
 41
0.0
 46
0.0
 71
     5
 72
     1
  1
25
  7
SEISA
 73
     1
 44
1.0
  0
POINT
  5
69C5
330
5B17
100
AcDbEntity
  8
Defpoints
 62
     0
100
AcDbPoint
 10
1203.885319899476
 20
1034.590763880208
 30
0.0
  0
POINT
  5
69C6
330
5B17
100
AcDbEntity
  8
Defpoints
 62
     0
100
AcDbPoint
 10
1178.885319899475
 20
1034.590763880208
 30
0.0
  0
POINT
  5
69C7
330
5B17
100
AcDbEntity
  8
Defpoints
 62
     0
100
AcDbPoint
 10
1178.885319899475
 20
943.4622825785607
 30
0.0
  0
ENDBLK
  5
5B19
330
5B17
100
AcDbEntity
  8
0
100
AcDbBlockEnd
  0
BLOCK
  5
5B34
330
5B33
100
AcDbEntity
  8
0
100
AcDbBlockBegin
  2
*D24
 70
     1
 10
0.0
 20
0.0
 30
0.0
  3
*D24
  1

  0
LINE
  5
69C8
330
5B33
100
AcDbEntity
  8
AM_5 寸法線
 62
     3
100
AcDbLine
 10
1203.885319899476
 20
1030.840763880209
 30
0.0
 11
1203.885319899476
 21
939.712282578561
 31
0.0
  0
LINE
  5
69C9
330
5B33
100
AcDbEntity
  8
AM_5 寸法線
 62
     3
100
AcDbLine
 10
1228.885319899476
 20
1030.840763880209
 30
0.0
 11
1228.885319899476
 21
939.712282578561
 31
0.0
  0
LINE
  5
69CA
330
5B33
100
AcDbEntity
  8
AM_5 寸法線
 62
     3
100
AcDbLine
 10
1188.885319899475
 20
943.4622825785607
 30
0.0
 11
1173.885319899476
 21
943.4622825785607
 31
0.0
  0
LINE
  5
69CB
330
5B33
100
AcDbEntity
  8
AM_5 寸法線
 62
     3
100
AcDbLine
 10
1243.885319899475
 20
943.4622825785607
 30
0.0
 11
1307.485319899475
 21
943.4622825785607
 31
0.0
  0
LINE
  5
69CC
330
5B33
100
AcDbEntity
  8
AM_5 寸法線
 62
     3
100
AcDbLine
 10
1203.885319899476
 20
943.4622825785607
 30
0.0
 11
1228.885319899476
 21
943.4622825785607
 31
0.0
  0
INSERT
  5
69CD
330
5B33
100
AcDbEntity
  8
AM_5 寸法線
 62
     3
100
AcDbBlockReference
  2
GENDOT
 10
1203.885319899476
 20
943.4622825785607
 30
0.0
 41
15.0
 42
15.0
 43
15.0
  0
INSERT
  5
69CE
330
5B33
100
AcDbEntity
  8
AM_5 寸法線
 62
     3
100
AcDbBlockReference
  2
_Open30
 10
1228.885319899476
 20
943.4622825785607
 30
0.0
 41
15.0
 42
15.0
 43
15.0
 50
180.0
  0
MTEXT
  5
69CF
330
5B33
100
AcDbEntity
  8
AM_5 寸法線
 62
     3
100
AcDbMText
 10
1283.185319899476
 20
962.962282578561
 30
0.0
 40
21.0
 41
0.0
 46
0.0
 71
     5
 72
     1
  1
25
  7
SEISA
 73
     1
 44
1.0
  0
POINT
  5
69D0
330
5B33
100
AcDbEntity
  8
Defpoints
 62
     0
100
AcDbPoint
 10
1203.885319899476
 20
1034.590763880208
 30
0.0
  0
POINT
  5
69D1
330
5B33
100
AcDbEntity
  8
Defpoints
 62
     0
100
AcDbPoint
 10
1228.885319899476
 20
1034.590763880208
 30
0.0
  0
POINT
  5
69D2
330
5B33
100
AcDbEntity
  8
Defpoints
 62
     0
100
AcDbPoint
 10
1228.885319899476
 20
943.4622825785607
 30
0.0
  0
ENDBLK
  5
5B35
330
5B33
100
AcDbEntity
  8
0
100
AcDbBlockEnd
  0
BLOCK
  5
5BC2
330
5BC1
100
AcDbEntity
  8
0
100
AcDbBlockBegin
  2
*D25
 70
     1
 10
0.0
 20
0.0
 30
0.0
  3
*D25
  1

  0
LINE
  5
7D5C
330
5BC1
100
AcDbEntity
  8
AM_5 寸法線
 62
     3
100
AcDbLine
 10
1371.885319899476
 20
1067.840763880208
 30
0.0
 11
1371.885319899476
 21
891.7122825785609
 31
0.0
  0
LINE
  5
7D5D
330
5BC1
100
AcDbEntity
  8
AM_5 寸法線
 62
     3
100
AcDbLine
 10
1035.885319899475
 20
1067.840763880208
 30
0.0
 11
1035.885319899475
 21
891.7122825785609
 31
0.0
  0
LINE
  5
7D5E
330
5BC1
100
AcDbEntity
  8
AM_5 寸法線
 62
     3
100
AcDbLine
 10
1356.885319899476
 20
895.4622825785611
 30
0.0
 11
1050.885319899475
 21
895.4622825785611
 31
0.0
  0
INSERT
  5
7D5F
330
5BC1
100
AcDbEntity
  8
AM_5 寸法線
 62
     3
100
AcDbBlockReference
  2
_Open30
 10
1371.885319899476
 20
895.4622825785611
 30
0.0
 41
15.0
 42
15.0
 43
15.0
  0
INSERT
  5
7D60
330
5BC1
100
AcDbEntity
  8
AM_5 寸法線
 62
     3
100
AcDbBlockReference
  2
_Open30
 10
1035.885319899475
 20
895.4622825785611
 30
0.0
 41
15.0
 42
15.0
 43
15.0
 50
180.0
  0
MTEXT
  5
7D61
330
5BC1
100
AcDbEntity
  8
AM_5 寸法線
 62
     3
100
AcDbMText
 10
1203.885319899476
 20
914.9622825785613
 30
0.0
 40
21.0
 41
0.0
 46
0.0
 71
     5
 72
     1
  1
336
  7
SEISA
 73
     1
 44
1.0
  0
POINT
  5
7D62
330
5BC1
100
AcDbEntity
  8
Defpoints
 62
     0
100
AcDbPoint
 10
1371.885319899476
 20
1071.590763880208
 30
0.0
  0
POINT
  5
7D63
330
5BC1
100
AcDbEntity
  8
Defpoints
 62
     0
100
AcDbPoint
 10
1035.885319899475
 20
1071.590763880208
 30
0.0
  0
POINT
  5
7D64
330
5BC1
100
AcDbEntity
  8
Defpoints
 62
     0
100
AcDbPoint
 10
1035.885319899475
 20
895.4622825785611
 30
0.0
  0
ENDBLK
  5
5BC3
330
5BC1
100
AcDbEntity
  8
0
100
AcDbBlockEnd
  0
BLOCK
  5
5C58
330
5C57
100
AcDbEntity
  8
0
100
AcDbBlockBegin
  2
*D26
 70
     1
 10
0.0
 20
0.0
 30
0.0
  3
*D26
  1

  0
LINE
  5
69F7
330
5C57
100
AcDbEntity
  8
AM_5 寸法線
 62
     3
100
AcDbLine
 10
1450.885319899476
 20
1119.340763880209
 30
0.0
 11
1450.885319899476
 21
843.7122825785611
 31
0.0
  0
LINE
  5
69F8
330
5C57
100
AcDbEntity
  8
AM_5 寸法線
 62
     3
100
AcDbLine
 10
956.8853198994755
 20
1119.340763880209
 30
0.0
 11
956.8853198994755
 21
843.7122825785611
 31
0.0
  0
LINE
  5
69F9
330
5C57
100
AcDbEntity
  8
AM_5 寸法線
 62
     3
100
AcDbLine
 10
1435.885319899475
 20
847.4622825785612
 30
0.0
 11
971.8853198994755
 21
847.4622825785612
 31
0.0
  0
INSERT
  5
69FA
330
5C57
100
AcDbEntity
  8
AM_5 寸法線
 62
     3
100
AcDbBlockReference
  2
_Open30
 10
1450.885319899476
 20
847.4622825785612
 30
0.0
 41
15.0
 42
15.0
 43
15.0
  0
INSERT
  5
69FB
330
5C57
100
AcDbEntity
  8
AM_5 寸法線
 62
     3
100
AcDbBlockReference
  2
_Open30
 10
956.8853198994755
 20
847.4622825785612
 30
0.0
 41
15.0
 42
15.0
 43
15.0
 50
180.0
  0
MTEXT
  5
69FC
330
5C57
100
AcDbEntity
  8
AM_5 寸法線
 62
     3
100
AcDbMText
 10
1203.885319899476
 20
866.9622825785609
 30
0.0
 40
21.0
 41
0.0
 46
0.0
 71
     5
 72
     1
  1
494
  7
SEISA
 73
     1
 44
1.0
  0
POINT
  5
69FD
330
5C57
100
AcDbEntity
  8
Defpoints
 62
     0
100
AcDbPoint
 10
1450.885319899476
 20
1123.090763880209
 30
0.0
  0
POINT
  5
69FE
330
5C57
100
AcDbEntity
  8
Defpoints
 62
     0
100
AcDbPoint
 10
956.8853198994755
 20
1123.090763880209
 30
0.0
  0
POINT
  5
69FF
330
5C57
100
AcDbEntity
  8
Defpoints
 62
     0
100
AcDbPoint
 10
956.8853198994755
 20
847.4622825785612
 30
0.0
  0
ENDBLK
  5
5C59
330
5C57
100
AcDbEntity
  8
0
100
AcDbBlockEnd
  0
BLOCK
  5
72FC
330
72FB
100
AcDbEntity
  8
0
100
AcDbBlockBegin
  2
ロッカクアナツキプラグB R1／2
 70
     0
 10
0.0
 20
0.0
 30
0.0
  3
ロッカクアナツキプラグB R1／2
  1

  0
LINE
  5
72FE
330
72FB
100
AcDbEntity
  8
AM_0 外形線1
100
AcDbLine
 10
10.66397700000016
 20
-1.5
 30
0.0
 11
10.2623880000001
 21
-13.0
 31
0.0
  0
LINE
  5
72FF
330
72FB
100
AcDbEntity
  8
AM_4 細線
100
AcDbLine
 10
9.541186000000379
 20
-0.3772080000001097
 30
0.0
 11
9.076479000000288
 21
-13.68468499999994
 31
0.0
  0
LINE
  5
7300
330
72FB
100
AcDbEntity
  8
AM_0 外形線1
100
AcDbLine
 10
-10.2623880000001
 20
-13.0
 30
0.0
 11
-10.66397700000016
 21
-1.5
 31
0.0
  0
LINE
  5
7301
330
72FB
100
AcDbEntity
  8
AM_4 細線
100
AcDbLine
 10
-9.541185000000039
 20
-0.3772080000001097
 30
0.0
 11
-9.076477999999953
 21
-13.68468499999994
 31
0.0
  0
LINE
  5
7302
330
72FB
100
AcDbEntity
  8
AM_7 中心線
 48
0.5
100
AcDbLine
 10
0.0
 20
5.364789999999856
 30
0.0
 11
0.0
 21
-22.81425800000011
 31
0.0
  0
LINE
  5
7303
330
72FB
100
AcDbEntity
  8
AM_0 外形線1
100
AcDbLine
 10
6.798287000000073
 20
-15.0
 30
0.0
 11
-6.798286000000188
 21
-15.0
 31
0.0
  0
LINE
  5
7304
330
72FB
100
AcDbEntity
  8
AM_0 外形線1
100
AcDbLine
 10
10.2623880000001
 20
-13.0
 30
0.0
 11
-10.2623880000001
 21
-13.0
 31
0.0
  0
LINE
  5
7305
330
72FB
100
AcDbEntity
  8
AM_0 外形線1
100
AcDbLine
 10
-6.798286000000188
 20
-15.0
 30
0.0
 11
-10.2623880000001
 21
-13.0
 31
0.0
  0
LINE
  5
7306
330
72FB
100
AcDbEntity
  8
AM_0 外形線1
100
AcDbLine
 10
10.2623880000001
 20
-13.0
 30
0.0
 11
6.798287000000073
 21
-15.0
 31
0.0
  0
LINE
  5
7307
330
72FB
100
AcDbEntity
  8
AM_0 外形線1
100
AcDbLine
 10
10.66397700000016
 20
-1.5
 30
0.0
 11
-10.66397700000016
 21
-1.5
 31
0.0
  0
LINE
  5
7308
330
72FB
100
AcDbEntity
  8
AM_0 外形線1
100
AcDbLine
 10
-10.66397700000016
 20
-1.5
 30
0.0
 11
-9.163977000000159
 21
0.0
 31
0.0
  0
LINE
  5
7309
330
72FB
100
AcDbEntity
  8
AM_0 外形線1
100
AcDbLine
 10
9.163977000000159
 20
0.0
 30
0.0
 11
10.66397700000016
 21
-1.5
 31
0.0
  0
LINE
  5
730A
330
72FB
100
AcDbEntity
  8
AM_0 外形線1
100
AcDbLine
 10
-9.163977000000159
 20
0.0
 30
0.0
 11
9.163977000000159
 21
0.0
 31
0.0
  0
ENDBLK
  5
72FD
330
72FB
100
AcDbEntity
  8
0
100
AcDbBlockEnd
  0
BLOCK
  5
790D
330
790C
100
AcDbEntity
  8
0
100
AcDbBlockBegin
  2
*D28
 70
     1
 10
0.0
 20
0.0
 30
0.0
  3
*D28
  1

  0
LINE
  5
792C
330
790C
100
AcDbEntity
  8
AM_5 寸法線
 62
     3
100
AcDbLine
 10
1061.885319899475
 20
1447.840763880209
 30
0.0
 11
1061.885319899475
 21
1410.125085837164
 31
0.0
  0
LINE
  5
792D
330
790C
100
AcDbEntity
  8
AM_5 寸法線
 62
     3
100
AcDbLine
 10
1124.885319899475
 20
1446.340763880209
 30
0.0
 11
1124.885319899475
 21
1410.125085837164
 31
0.0
  0
LINE
  5
792E
330
790C
100
AcDbEntity
  8
AM_5 寸法線
 62
     3
100
AcDbLine
 10
1076.885319899475
 20
1413.875085837165
 30
0.0
 11
1109.885319899476
 21
1413.875085837165
 31
0.0
  0
INSERT
  5
792F
330
790C
100
AcDbEntity
  8
AM_5 寸法線
 62
     3
100
AcDbBlockReference
  2
_Open30
 10
1061.885319899475
 20
1413.875085837165
 30
0.0
 41
15.0
 42
15.0
 43
15.0
 50
180.0
  0
INSERT
  5
7930
330
790C
100
AcDbEntity
  8
AM_5 寸法線
 62
     3
100
AcDbBlockReference
  2
_Open30
 10
1124.885319899475
 20
1413.875085837165
 30
0.0
 41
15.0
 42
15.0
 43
15.0
  0
MTEXT
  5
7931
330
790C
100
AcDbEntity
  8
AM_5 寸法線
 62
     3
100
AcDbMText
 10
1093.385319899476
 20
1433.375085837164
 30
0.0
 40
21.0
 41
0.0
 46
0.0
 71
     5
 72
     1
  1
63
  7
SEISA
 73
     1
 44
1.0
  0
POINT
  5
7932
330
790C
100
AcDbEntity
  8
Defpoints
 62
     0
100
AcDbPoint
 10
1061.885319899475
 20
1451.590763880209
 30
0.0
  0
POINT
  5
7933
102
{ACAD_REACTORS
330
7943
102
}
330
790C
100
AcDbEntity
  8
Defpoints
 62
     0
100
AcDbPoint
 10
1124.885319899475
 20
1450.090763880209
 30
0.0
  0
POINT
  5
7934
330
790C
100
AcDbEntity
  8
Defpoints
 62
     0
100
AcDbPoint
 10
1124.885319899475
 20
1413.875085837165
 30
0.0
  0
ENDBLK
  5
790E
330
790C
100
AcDbEntity
  8
0
100
AcDbBlockEnd
  0
BLOCK
  5
7937
330
7936
100
AcDbEntity
  8
0
100
AcDbBlockBegin
  2
*D29
 70
     1
 10
0.0
 20
0.0
 30
0.0
  3
*D29
  1

  0
LINE
  5
795F
330
7936
100
AcDbEntity
  8
AM_5 寸法線
 62
     3
100
AcDbLine
 10
1124.885319899475
 20
1446.340763880209
 30
0.0
 11
1124.885319899475
 21
1410.125085837165
 31
0.0
  0
LINE
  5
7960
330
7936
100
AcDbEntity
  8
AM_5 寸法線
 62
     3
100
AcDbLine
 10
1192.885319899476
 20
1444.840763880208
 30
0.0
 11
1192.885319899476
 21
1410.125085837165
 31
0.0
  0
LINE
  5
7961
330
7936
100
AcDbEntity
  8
AM_5 寸法線
 62
     3
100
AcDbLine
 10
1139.885319899476
 20
1413.875085837165
 30
0.0
 11
1177.885319899475
 21
1413.875085837165
 31
0.0
  0
INSERT
  5
7962
330
7936
100
AcDbEntity
  8
AM_5 寸法線
 62
     3
100
AcDbBlockReference
  2
_Open30
 10
1124.885319899475
 20
1413.875085837165
 30
0.0
 41
15.0
 42
15.0
 43
15.0
 50
180.0
  0
INSERT
  5
7963
330
7936
100
AcDbEntity
  8
AM_5 寸法線
 62
     3
100
AcDbBlockReference
  2
_Open30
 10
1192.885319899476
 20
1413.875085837165
 30
0.0
 41
15.0
 42
15.0
 43
15.0
  0
MTEXT
  5
7964
330
7936
100
AcDbEntity
  8
AM_5 寸法線
 62
     3
100
AcDbMText
 10
1158.885319899475
 20
1433.375085837165
 30
0.0
 40
21.0
 41
0.0
 46
0.0
 71
     5
 72
     1
  1
68
  7
SEISA
 73
     1
 44
1.0
  0
POINT
  5
7965
330
7936
100
AcDbEntity
  8
Defpoints
 62
     0
100
AcDbPoint
 10
1124.885319899475
 20
1450.090763880209
 30
0.0
  0
POINT
  5
7966
330
7936
100
AcDbEntity
  8
Defpoints
 62
     0
100
AcDbPoint
 10
1192.885319899476
 20
1448.590763880209
 30
0.0
  0
POINT
  5
7967
330
7936
100
AcDbEntity
  8
Defpoints
 62
     0
100
AcDbPoint
 10
1192.885319899476
 20
1413.875085837165
 30
0.0
  0
ENDBLK
  5
7938
330
7936
100
AcDbEntity
  8
0
100
AcDbBlockEnd
  0
ENDSEC
  0
SECTION
  2
ENTITIES
  0
LINE
  5
44CD
330
1F
100
AcDbEntity
  8
AM_0 外形線1
100
AcDbLine
 10
1203.885319899476
 20
1283.590763880209
 30
0.0
 11
1203.885319899476
 21
1034.590763880208
 31
0.0
  0
LINE
  5
455E
330
1F
100
AcDbEntity
  8
AM_7 中心線
100
AcDbLine
 10
934.8604675057703
 20
1283.590763880209
 30
0.0
 11
1455.885319899476
 21
1283.590763880209
 31
0.0
  0
LINE
  5
4565
330
1F
100
AcDbEntity
  8
AM_0 外形線1
100
AcDbLine
 10
1192.885319899476
 20
1426.840763880209
 30
0.0
 11
1192.885319899476
 21
1283.590763880209
 31
0.0
  0
LINE
  5
4567
330
1F
100
AcDbEntity
  8
AM_0 外形線1
100
AcDbLine
 10
1214.885319899476
 20
1426.840763880209
 30
0.0
 11
1214.885319899476
 21
1283.590763880209
 31
0.0
  0
LINE
  5
45EF
330
1F
100
AcDbEntity
  8
AM_0 外形線1
100
AcDbLine
 10
1192.885319899476
 20
1426.090763880208
 30
0.0
 11
1192.885319899476
 21
1436.090763880209
 31
0.0
  0
LINE
  5
4617
330
1F
100
AcDbEntity
  8
AM_0 外形線1
100
AcDbLine
 10
1228.885319899476
 20
1525.590763880209
 30
0.0
 11
1228.885319899476
 21
1503.590763880209
 31
0.0
  0
INSERT
  5
4D69
102
{ACAD_REACTORS
330
5A97
330
5B4D
102
}
330
1F
100
AcDbEntity
  8
AM_0 外形線1
100
AcDbBlockReference
  2
ケースＡ CCMH500
 10
1203.885319899476
 20
1283.590763880209
 30
0.0
  0
INSERT
  5
4EF8
102
{ACAD_REACTORS
330
5B31
330
5B4D
102
}
330
1F
100
AcDbEntity
  8
AM_0 外形線1
100
AcDbBlockReference
  2
ケースＢ CCMH500
 10
1203.885319899476
 20
1283.590763880209
 30
0.0
  0
INSERT
  5
4FF9
102
{ACAD_REACTORS
330
592E
330
5946
330
5A55
330
5C6D
102
}
330
1F
100
AcDbEntity
  8
AM_0 外形線1
100
AcDbBlockReference
  2
センタＡ CCMH500
 10
1214.885319899476
 20
1283.590763880209
 30
0.0
  0
INSERT
  5
50D1
102
{ACAD_REACTORS
330
584D
330
5896
330
5912
330
592E
330
5C6D
330
7919
330
7943
102
}
330
1F
100
AcDbEntity
  8
AM_0 外形線1
100
AcDbBlockReference
  2
センタＢ CCMH500
 10
1192.885319899476
 20
1283.590763880209
 30
0.0
  0
INSERT
  5
5287
330
1F
100
AcDbEntity
  8
AM_0 外形線1
100
AcDbBlockReference
  2
リーマボルト CCMH500 M20
 10
1228.885319899476
 20
1514.590763880208
 30
0.0
  0
INSERT
  5
540F
102
{ACAD_REACTORS
330
5A7F
102
}
330
1F
100
AcDbEntity
  8
AM_0 外形線1
100
AcDbBlockReference
  2
ＧＣサイドカバ－A CCMH500
 10
1355.885319899476
 20
1283.590763880209
 30
0.0
  0
INSERT
  5
5529
102
{ACAD_REACTORS
330
5896
330
5BD7
102
}
330
1F
100
AcDbEntity
  8
AM_0 外形線1
100
AcDbBlockReference
  2
ＧＣサイドカバ－Ｂ CCMH500
 10
1051.885319899475
 20
1283.590763880209
 30
0.0
  0
DIMENSION
  5
5836
102
{ACAD_XDICTIONARY
360
5843
102
}
102
{ACAD_REACTORS
330
584D
102
}
330
1F
100
AcDbEntity
  8
AM_5 寸法線
100
AcDbDimension
  2
*D15
 10
866.8853198994757
 20
1116.090763880208
 30
0.0
 11
866.8853198994757
 21
1307.43730547561
 31
0.0
 70
   160
  1
%%c<>
 71
     5
 42
335.0
 73
     0
 74
     0
 75
     0
  3
SEISA$0
100
AcDbAlignedDimension
 13
1012.885319899476
 23
1451.090763880208
 33
0.0
 14
1012.885319899476
 24
1116.090763880208
 34
0.0
 50
90.0
100
AcDbRotatedDimension
1001
ACAD_DSTYLE_DIMINSPECT
1070
   396
1000
100%
1070
   395
1000

1070
   394
1070
    33
1070
   393
1070
     0
  0
DIMENSION
  5
587B
102
{ACAD_XDICTIONARY
360
588A
102
}
102
{ACAD_REACTORS
330
5896
330
7919
102
}
330
1F
100
AcDbEntity
  8
AM_5 寸法線
100
AcDbDimension
  2
*D16
 10
1055.885319899475
 20
1413.875085837163
 30
0.0
 11
1011.035319899475
 21
1433.375085837163
 31
0.0
 70
    32
 71
     5
 42
6.0
 73
     0
 74
     0
 75
     0
  3
SEISA$0
100
AcDbAlignedDimension
 13
1061.885319899475
 23
1451.590763880209
 33
0.0
 14
1055.885319899475
 24
1451.090763880208
 34
0.0
100
AcDbRotatedDimension
1001
ACAD
1000
DSTYLE
1002
{
1070
   279
1070
     0
1002
}
  0
DIMENSION
  5
58FB
102
{ACAD_XDICTIONARY
360
5908
102
}
102
{ACAD_REACTORS
330
5912
102
}
330
1F
100
AcDbEntity
  8
AM_5 寸法線
100
AcDbDimension
  2
*D17
 10
956.8853198994755
 20
1315.936801880208
 30
0.0
 11
1074.885319899475
 21
1335.436801880208
 31
0.0
 70
    32
 71
     5
 42
236.0
 73
     0
 74
     0
 75
     0
  3
SEISA$0
100
AcDbAlignedDimension
 13
1192.885319899476
 23
1283.590763880209
 33
0.0
 14
956.8853198994755
 24
1283.590763880209
 34
0.0
100
AcDbRotatedDimension
  0
DIMENSION
  5
5913
102
{ACAD_XDICTIONARY
360
5922
102
}
102
{ACAD_REACTORS
330
592E
102
}
330
1F
100
AcDbEntity
  8
AM_5 寸法線
100
AcDbDimension
  2
*D18
 10
1214.885319899476
 20
1315.936801880208
 30
0.0
 11
1248.805524336909
 21
1335.118151799641
 31
0.0
 70
   160
 71
     5
 42
22.0
 73
     0
 74
     0
 75
     0
  3
SEISA$0
100
AcDbAlignedDimension
 13
1192.885319899476
 23
1283.590763880209
 33
0.0
 14
1214.885319899476
 24
1283.590763880209
 34
0.0
100
AcDbRotatedDimension
1001
ACAD
1000
DSTYLE
1002
{
1070
   279
1070
     2
1002
}
  0
DIMENSION
  5
592F
102
{ACAD_XDICTIONARY
360
593C
102
}
102
{ACAD_REACTORS
330
5946
102
}
330
1F
100
AcDbEntity
  8
AM_5 寸法線
100
AcDbDimension
  2
*D19
 10
1450.885319899476
 20
1315.936801880208
 30
0.0
 11
1332.885319899476
 21
1335.436801880208
 31
0.0
 70
    32
 71
     5
 42
236.0
 73
     0
 74
     0
 75
     0
  3
SEISA$0
100
AcDbAlignedDimension
 13
1214.885319899476
 23
1283.590763880209
 33
0.0
 14
1450.885319899476
 24
1283.590763880209
 34
0.0
100
AcDbRotatedDimension
  0
DIMENSION
  5
5A3E
102
{ACAD_XDICTIONARY
360
5A4B
102
}
102
{ACAD_REACTORS
330
5A55
102
}
330
1F
100
AcDbEntity
  8
AM_5 寸法線
100
AcDbDimension
  2
*D20
 10
1540.885319899476
 20
1116.090763880208
 30
0.0
 11
1521.385319899475
 21
1283.590763880209
 31
0.0
 70
    32
  1
%%c<>
 71
     5
 42
335.0
 73
     0
 74
     0
 75
     0
  3
SEISA$0
100
AcDbAlignedDimension
 13
1394.885319899475
 23
1451.090763880208
 33
0.0
 14
1394.885319899475
 24
1116.090763880208
 34
0.0
 50
90.0
100
AcDbRotatedDimension
1001
ACAD_DSTYLE_DIMINSPECT
1070
   396
1000
100%
1070
   395
1000

1070
   394
1070
    33
1070
   393
1070
     0
1001
ACAD
1000
DSTYLE
1002
{
1070
   279
1070
     0
1002
}
  0
DIMENSION
  5
5A68
102
{ACAD_XDICTIONARY
360
5A75
102
}
102
{ACAD_REACTORS
330
5A7F
102
}
330
1F
100
AcDbEntity
  8
AM_5 寸法線
100
AcDbDimension
  2
*D21
 10
1588.885319899476
 20
1071.590763880208
 30
0.0
 11
1588.885319899476
 21
1283.590763880209
 31
0.0
 70
   160
  1
%%c<>
 71
     5
 42
424.0
 73
     0
 74
     0
 75
     0
  3
SEISA$0
100
AcDbAlignedDimension
 13
1371.885319899476
 23
1495.590763880209
 33
0.0
 14
1371.885319899473
 24
1071.590763880208
 34
0.0
 50
90.0
100
AcDbRotatedDimension
1001
ACAD_DSTYLE_DIMINSPECT
1070
   396
1000
100%
1070
   395
1000

1070
   394
1070
    33
1070
   393
1070
     0
1001
ACAD
1000
DSTYLE
1002
{
1070
   279
1070
     0
1002
}
  0
DIMENSION
  5
5A80
102
{ACAD_XDICTIONARY
360
5A8D
102
}
102
{ACAD_REACTORS
330
5A97
102
}
330
1F
100
AcDbEntity
  8
AM_5 寸法線
100
AcDbDimension
  2
*D22
 10
1636.885319899476
 20
1033.590763880208
 30
0.0
 11
1636.885319899476
 21
1283.590763880209
 31
0.0
 70
   160
  1
%%c<>
 71
     5
 42
500.0
 73
     0
 74
     0
 75
     0
  3
SEISA$0
100
AcDbAlignedDimension
 13
1227.885319899475
 23
1533.590763880209
 33
0.0
 14
1227.885319899475
 24
1033.590763880209
 34
0.0
 50
90.0
100
AcDbRotatedDimension
1001
ACAD_DSTYLE_DIMINSPECT
1070
   396
1000
100%
1070
   395
1000

1070
   394
1070
    33
1070
   393
1070
     0
1001
ACAD
1000
DSTYLE
1002
{
1070
   279
1070
     0
1002
}
  0
DIMENSION
  5
5B16
102
{ACAD_XDICTIONARY
360
5B25
102
}
102
{ACAD_REACTORS
330
5B31
102
}
330
1F
100
AcDbEntity
  8
AM_5 寸法線
100
AcDbDimension
  2
*D23
 10
1178.885319899475
 20
943.4622825785607
 30
0.0
 11
1124.585319899475
 21
943.4622825785607
 31
0.0
 70
   160
 71
     5
 42
25.0
 73
     0
 74
     0
 75
     0
  3
SEISA$0
100
AcDbAlignedDimension
 13
1203.885319899476
 23
1034.590763880208
 33
0.0
 14
1178.885319899475
 24
1034.590763880208
 34
0.0
100
AcDbRotatedDimension
1001
ACAD_DSTYLE_DIMINSPECT
1070
   396
1000
100%
1070
   395
1000

1070
   394
1070
    33
1070
   393
1070
     0
1001
ACAD
1000
DSTYLE
1002
{
1070
   279
1070
     0
1070
   173
1070
     1
1070
   342
1005
0
1070
   343
1005
3A85
1070
   344
1005
69
1002
}
  0
DIMENSION
  5
5B32
102
{ACAD_XDICTIONARY
360
5B41
102
}
102
{ACAD_REACTORS
330
5B4D
102
}
330
1F
100
AcDbEntity
  8
AM_5 寸法線
100
AcDbDimension
  2
*D24
 10
1228.885319899476
 20
943.4622825785607
 30
0.0
 11
1283.185319899476
 21
943.4622825785607
 31
0.0
 70
   160
 71
     5
 42
25.0
 73
     0
 74
     0
 75
     0
  3
SEISA$0
100
AcDbAlignedDimension
 13
1203.885319899476
 23
1034.590763880208
 33
0.0
 14
1228.885319899476
 24
1034.590763880208
 34
0.0
100
AcDbRotatedDimension
1001
ACAD_DSTYLE_DIMINSPECT
1070
   396
1000
100%
1070
   395
1000

1070
   394
1070
    33
1070
   393
1070
     0
1001
ACAD
1000
DSTYLE
1002
{
1070
   279
1070
     0
1070
   173
1070
     1
1070
   342
1005
0
1070
   343
1005
3A85
1070
   344
1005
69
1002
}
  0
DIMENSION
  5
5BC0
102
{ACAD_XDICTIONARY
360
5BCD
102
}
102
{ACAD_REACTORS
330
5BD7
102
}
330
1F
100
AcDbEntity
  8
AM_5 寸法線
100
AcDbDimension
  2
*D25
 10
1035.885319899475
 20
895.4622825785611
 30
0.0
 11
1203.885319899476
 21
914.9622825785613
 31
0.0
 70
    32
 71
     5
 42
336.0
 73
     0
 74
     0
 75
     0
  3
SEISA$0
100
AcDbAlignedDimension
 13
1371.885319899476
 23
1071.590763880208
 33
0.0
 14
1035.885319899475
 24
1071.590763880208
 34
0.0
100
AcDbRotatedDimension
1001
ACAD
1000
DSTYLE
1002
{
1070
   279
1070
     0
1002
}
  0
DIMENSION
  5
5C56
102
{ACAD_XDICTIONARY
360
5C63
102
}
102
{ACAD_REACTORS
330
5C6D
102
}
330
1F
100
AcDbEntity
  8
AM_5 寸法線
100
AcDbDimension
  2
*D26
 10
956.8853198994755
 20
847.4622825785612
 30
0.0
 11
1203.885319899476
 21
847.4622825785612
 31
0.0
 70
   160
 71
     5
 42
494.0
 73
     0
 74
     0
 75
     0
  3
SEISA$0
100
AcDbAlignedDimension
 13
1450.885319899476
 23
1123.090763880209
 33
0.0
 14
956.8853198994755
 24
1123.090763880209
 34
0.0
100
AcDbRotatedDimension
1001
ACAD
1000
DSTYLE
1002
{
1070
   279
1070
     0
1002
}
  0
TEXT
  5
77C4
330
1F
100
AcDbEntity
  8
AM_6 文字
100
AcDbText
 10
1624.738307502079
 20
803.3736564967309
 30
0.0
 40
11.15616
  1
　
 41
0.9
  7
SEISA
100
AcDbText
  0
TEXT
  5
77C5
330
1F
100
AcDbEntity
  8
AM_6 文字
100
AcDbText
 10
1635.543845330651
 20
793.2328929927307
 30
0.0
 40
24.000247008
  1
 
 41
0.1
  7
SEISA
100
AcDbText
  0
TEXT
  5
77C8
330
1F
100
AcDbEntity
  8
AM_6 文字
100
AcDbText
 10
1865.463870031451
 20
803.3808564967307
 30
0.0
 40
11.11296
  1
 
 41
0.9
  7
SEISA
100
AcDbText
  0
TEXT
  5
77CB
330
1F
100
AcDbEntity
  8
AM_6 文字
100
AcDbText
 10
1633.378307502078
 20
753.2328106567307
 30
0.0
 40
24.0
  1
 
 41
0.2
  7
SEISA
100
AcDbText
  0
TEXT
  5
77CD
330
1F
100
AcDbEntity
  8
AM_6 文字
100
AcDbText
 10
1777.652593216365
 20
753.2328106567307
 30
0.0
 40
24.0
  1
　
 41
0.7
  7
SEISA
100
AcDbText
  0
TEXT
  5
77CE
330
1F
100
AcDbEntity
  8
AM_6 文字
100
AcDbText
 10
1797.812593216365
 20
753.2328106567307
 30
0.0
 40
24.0
  1
　　
 41
0.9
  7
SEISA
100
AcDbText
  0
TEXT
  5
77CF
330
1F
100
AcDbEntity
  8
AM_6 文字
100
AcDbText
 10
1849.652593216365
 20
753.2328106567307
 30
0.0
 40
24.0
  1
 
 41
0.6
  7
SEISA
100
AcDbText
  0
MTEXT
  5
790A
330
1F
100
AcDbEntity
  8
AM_6 文字
100
AcDbMText
 10
1487.121574066563
 20
994.1865085189879
 30
0.0
 40
21.0
 41
377.2883330788592
 46
78.58143603386221
 71
     1
 72
     5
  1
{\W0.6;TYPE:CCM500/CCMH500\PSHAFT DIA:MAX/MIN φ250/φ170}
  7
SEISA
 73
     1
 44
1.0
  0
DIMENSION
  5
790B
102
{ACAD_XDICTIONARY
360
7918
102
}
102
{ACAD_REACTORS
330
7919
330
7943
102
}
330
1F
100
AcDbEntity
  8
AM_5 寸法線
100
AcDbDimension
  2
*D28
 10
1124.885319899475
 20
1413.875085837165
 30
0.0
 11
1093.385319899476
 21
1433.375085837164
 31
0.0
 70
    32
 71
     5
 42
63.0
 73
     0
 74
     0
 75
     0
  3
SEISA$0
100
AcDbAlignedDimension
 13
1061.885319899475
 23
1451.590763880209
 33
0.0
 14
1124.885319899475
 24
1450.090763880209
 34
0.0
 50
0.0000000000001132
100
AcDbRotatedDimension
1001
ACAD_DSTYLE_DIMINSPECT
1070
   396
1000
100%
1070
   395
1000

1070
   394
1070
    33
1070
   393
1070
     0
  0
DIMENSION
  5
7935
102
{ACAD_XDICTIONARY
360
7942
102
}
102
{ACAD_REACTORS
330
7943
102
}
330
1F
100
AcDbEntity
  8
AM_5 寸法線
100
AcDbDimension
  2
*D29
 10
1192.885319899476
 20
1413.875085837165
 30
0.0
 11
1158.885319899475
 21
1433.375085837165
 31
0.0
 70
    32
 71
     5
 42
68.0
 73
     0
 74
     0
 75
     0
  3
SEISA$0
100
AcDbAlignedDimension
 13
1124.885319899475
 23
1450.090763880209
 33
0.0
 14
1192.885319899476
 24
1448.590763880209
 34
0.0
 50
0.0000000000001132
100
AcDbRotatedDimension
1001
ACAD_DSTYLE_DIMINSPECT
1070
   396
1000
100%
1070
   395
1000

1070
   394
1070
    33
1070
   393
1070
     0
  0
ENDSEC
  0
SECTION
  2
OBJECTS
  0
DICTIONARY
  5
C
330
0
100
AcDbDictionary
281
     1
  3
ACAD_COLOR
350
C5
  3
ACAD_GROUP
350
D
  3
ACAD_LAYOUT
350
1A
  3
ACAD_MATERIAL
350
C4
  3
ACAD_MLEADERSTYLE
350
2D5
  3
ACAD_MLINESTYLE
350
17
  3
ACAD_PLOTSETTINGS
350
19
  3
ACAD_PLOTSTYLENAME
350
E
  3
ACAD_SCALELIST
350
2B3
  3
ACAD_TABLESTYLE
350
121
  3
ACAD_VISUALSTYLE
350
27F
  3
ACDB_RECOMPOSE_DATA
350
2F7
  3
AcDbVariableDictionary
350
34
  3
AcmDictionary
350
49
  3
AMG
350
2B
  3
AMGSNAPSETTINGS
350
1DE
  0
DICTIONARY
  5
BF
330
2
100
AcDbDictionary
280
     1
281
     1
  3
ACAD_LAYERSTATES
360
3B58
  3
AMLAYER_GROUPCOLORS
360
C0
  0
DICTIONARY
  5
29F7
330
10
100
AcDbDictionary
280
     1
281
     1
  3
ADSK_XREC_LAYER_RECONCILED
360
29F8
  0
DICTIONARY
  5
29F9
330
81
100
AcDbDictionary
280
     1
281
     1
  3
ADSK_XREC_LAYER_RECONCILED
360
29FA
  0
DICTIONARY
  5
82
330
1F
100
AcDbDictionary
280
     1
281
     1
  3
ACAD_SORTENTS
360
A41
  0
DICTIONARY
  5
380D
330
380C
100
AcDbDictionary
280
     1
281
     1
  3
ACAD_SORTENTS
360
7318
  0
DICTIONARY
  5
4DF4
330
4D27
100
AcDbDictionary
280
     1
281
     1
  3
ACAD_SORTENTS
360
6DC3
  0
DICTIONARY
  5
4F73
330
4EC2
100
AcDbDictionary
280
     1
281
     1
  3
ACAD_SORTENTS
360
6E3D
  0
DICTIONARY
  5
5049
330
4FD2
100
AcDbDictionary
280
     1
281
     1
  3
ACAD_SORTENTS
360
7D0B
  0
DICTIONARY
  5
5121
330
50AA
100
AcDbDictionary
280
     1
281
     1
  3
ACAD_SORTENTS
360
7CC4
  0
DICTIONARY
  5
52E8
330
525A
100
AcDbDictionary
280
     1
281
     1
  3
ACAD_SORTENTS
360
6F50
  0
DICTIONARY
  5
5480
330
53DA
100
AcDbDictionary
280
     1
281
     1
  3
ACAD_SORTENTS
360
7031
  0
DICTIONARY
  5
559C
330
54F7
100
AcDbDictionary
280
     1
281
     1
  3
ACAD_SORTENTS
360
70A8
  0
DICTIONARY
  5
734F
330
72FB
100
AcDbDictionary
280
     1
281
     1
  3
ACAD_SORTENTS
360
7350
  0
DICTIONARY
  5
5843
330
5836
100
AcDbDictionary
280
     1
281
     1
  3
ACAD_DIMASSOC
360
584D
  0
DICTIONARY
  5
588A
330
587B
100
AcDbDictionary
280
     1
281
     1
  3
ACAD_DIMASSOC
360
5896
  0
DICTIONARY
  5
5908
330
58FB
100
AcDbDictionary
280
     1
281
     1
  3
ACAD_DIMASSOC
360
5912
  0
DICTIONARY
  5
5922
330
5913
100
AcDbDictionary
280
     1
281
     1
  3
ACAD_DIMASSOC
360
592E
  0
DICTIONARY
  5
593C
330
592F
100
AcDbDictionary
280
     1
281
     1
  3
ACAD_DIMASSOC
360
5946
  0
DICTIONARY
  5
5A4B
330
5A3E
100
AcDbDictionary
280
     1
281
     1
  3
ACAD_DIMASSOC
360
5A55
  0
DICTIONARY
  5
5A75
330
5A68
100
AcDbDictionary
280
     1
281
     1
  3
ACAD_DIMASSOC
360
5A7F
  0
DICTIONARY
  5
5A8D
330
5A80
100
AcDbDictionary
280
     1
281
     1
  3
ACAD_DIMASSOC
360
5A97
  0
DICTIONARY
  5
5B25
330
5B16
100
AcDbDictionary
280
     1
281
     1
  3
ACAD_DIMASSOC
360
5B31
  0
DICTIONARY
  5
5B41
330
5B32
100
AcDbDictionary
280
     1
281
     1
  3
ACAD_DIMASSOC
360
5B4D
  0
DICTIONARY
  5
5BCD
330
5BC0
100
AcDbDictionary
280
     1
281
     1
  3
ACAD_DIMASSOC
360
5BD7
  0
DICTIONARY
  5
5C63
330
5C56
100
AcDbDictionary
280
     1
281
     1
  3
ACAD_DIMASSOC
360
5C6D
  0
DICTIONARY
  5
7918
330
790B
100
AcDbDictionary
280
     1
281
     1
  3
ACAD_DIMASSOC
360
7919
  0
DICTIONARY
  5
7942
330
7935
100
AcDbDictionary
280
     1
281
     1
  3
ACAD_DIMASSOC
360
7943
  0
DICTIONARY
  5
C5
102
{ACAD_REACTORS
330
C
102
}
330
C
100
AcDbDictionary
281
     1
  0
DICTIONARY
  5
D
102
{ACAD_REACTORS
330
C
102
}
330
C
100
AcDbDictionary
281
     1
  0
DICTIONARY
  5
1A
102
{ACAD_REACTORS
330
C
102
}
330
C
100
AcDbDictionary
281
     1
  3
Model
350
22
  3
レイアウト1
350
1E
  3
レイアウト2
350
26
  0
DICTIONARY
  5
C4
102
{ACAD_REACTORS
330
C
102
}
330
C
100
AcDbDictionary
281
     1
  3
ByBlock
350
27D
  3
ByLayer
350
27C
  3
Global
350
27E
  0
DICTIONARY
  5
2D5
102
{ACAD_REACTORS
330
C
102
}
330
C
100
AcDbDictionary
281
     1
  3
Standard
350
2D6
  0
DICTIONARY
  5
17
102
{ACAD_REACTORS
330
C
102
}
330
C
100
AcDbDictionary
281
     1
  3
Standard
350
18
  0
DICTIONARY
  5
19
102
{ACAD_REACTORS
330
C
102
}
330
C
100
AcDbDictionary
281
     1
  3
SEISA基本
350
1C7E
  0
ACDBDICTIONARYWDFLT
  5
E
102
{ACAD_REACTORS
330
C
102
}
330
C
100
AcDbDictionary
281
     1
  3
Normal
350
F
100
AcDbDictionaryWithDefault
340
F
  0
DICTIONARY
  5
2B3
102
{ACAD_REACTORS
330
C
102
}
330
C
100
AcDbDictionary
281
     1
  3
*A1
350
2A1F
  3
*A2
350
78FF
  3
*A3
350
7900
  3
*A4
350
7901
  3
A0
350
2B4
  3
A1
350
2B5
  3
A2
350
2B6
  3
A3
350
2B7
  3
A4
350
2B8
  3
A5
350
2B9
  3
A6
350
2BA
  3
A7
350
2BB
  3
A8
350
2BC
  3
A9
350
2BD
  3
B0
350
2BE
  3
B1
350
2BF
  3
B2
350
2C0
  3
B3
350
2C1
  3
B4
350
2C2
  3
B5
350
2C3
  3
B6
350
2C4
  3
B7
350
2C5
  3
B8
350
2C6
  3
B9
350
2C7
  3
C0
350
2C8
  3
C1
350
2C9
  3
C2
350
2CA
  3
C3
350
2CB
  3
C4
350
2CC
  3
C5
350
2CD
  3
C6
350
2CE
  3
C7
350
2CF
  3
C8
350
2D0
  3
C9
350
2D1
  3
D0
350
2D2
  3
D1
350
2D3
  3
D2
350
2D4
  0
DICTIONARY
  5
121
102
{ACAD_REACTORS
330
C
102
}
330
C
100
AcDbDictionary
281
     1
  3
Standard
350
122
  0
DICTIONARY
  5
27F
102
{ACAD_REACTORS
330
C
102
}
330
C
100
AcDbDictionary
281
     1
  3
2dWireframe
350
285
  3
3D Hidden
350
287
  3
3dWireframe
350
286
  3
Basic
350
284
  3
Brighten
350
28B
  3
ColorChange
350
28F
  3
Conceptual
350
288
  3
Dim
350
28A
  3
Facepattern
350
28E
  3
Flat
350
280
  3
FlatWithEdges
350
281
  3
Gouraud
350
282
  3
GouraudWithEdges
350
283
  3
Linepattern
350
28D
  3
Realistic
350
289
  3
Thicken
350
28C
  0
XRECORD
  5
2F7
102
{ACAD_REACTORS
330
C
102
}
330
C
100
AcDbXrecord
280
     1
 90
        1
330
122
  0
DICTIONARY
  5
34
102
{ACAD_REACTORS
330
C
102
}
330
C
100
AcDbDictionary
281
     1
  3
CANNOSCALE
350
2FA
  3
CMLEADERSTYLE
350
2F8
  3
CTABLESTYLE
350
140
  3
DIMASSOC
350
AC
  3
INDEXCTL
350
35
  3
LAYEREVAL
350
7168
  3
LAYERNOTIFY
350
7169
  3
LIGHTINGUNITS
350
2FB
  3
MSLTSCALE
350
2F9
  0
DICTIONARY
  5
49
102
{ACAD_REACTORS
330
C
102
}
330
C
100
AcDbDictionary
281
     1
  3
AcmBOM
350
161B
  3
AcmStdDictionary
350
4A
  3
AMDTSECTSYM_ARROWCOLOR
350
12B
  0
DICTIONARY
  5
2B
102
{ACAD_REACTORS
330
C
102
}
330
C
100
AcDbDictionary
281
     1
  0
DICTIONARY
  5
1DE
102
{ACAD_REACTORS
330
C
102
}
330
C
100
AcDbDictionary
281
     1
  0
DICTIONARY
  5
3B58
102
{ACAD_REACTORS
330
BF
102
}
330
BF
100
AcDbDictionary
281
     1
  0
DICTIONARY
  5
C0
102
{ACAD_REACTORS
330
BF
102
}
330
BF
100
AcDbDictionary
280
     1
281
     1
  0
XRECORD
  5
29F8
102
{ACAD_REACTORS
330
29F7
102
}
330
29F7
100
AcDbXrecord
280
     1
290
     1
  0
XRECORD
  5
29FA
102
{ACAD_REACTORS
330
29F9
102
}
330
29F9
100
AcDbXrecord
280
     1
290
     1
  0
SORTENTSTABLE
  5
A41
102
{ACAD_REACTORS
330
82
102
}
330
82
100
AcDbSortentsTable
330
1F
331
5B16
  5
5C88
331
58FB
  5
5A80
331
77CF
  5
77C7
331
5836
  5
5A1B
331
4565
  5
4565
331
77CB
  5
77C3
331
7935
  5
7935
331
587B
  5
5A3E
331
4EF8
  5
5713
331
5BC0
  5
5E4B
331
4617
  5
4617
331
45EF
  5
45EF
331
5A3E
  5
5B16
331
77C4
  5
6B28
331
44CD
  5
44CD
331
455E
  5
455E
331
77C8
  5
77BC
331
5287
  5
57BF
331
4567
  5
4567
331
50D1
  5
5746
331
540F
  5
57C8
331
77CD
  5
77C5
331
5A80
  5
5BC0
331
77C5
  5
6B2A
331
790A
  5
790A
331
592F
  5
5B0B
331
5C56
  5
5F15
331
5A68
  5
5B32
331
77CE
  5
77C6
331
4D69
  5
56CE
331
5529
  5
57C9
331
5913
  5
5B0A
331
4FF9
  5
5744
331
790B
  5
790B
331
5B32
  5
5CA4
  0
SORTENTSTABLE
  5
7318
102
{ACAD_REACTORS
330
380D
102
}
330
380D
100
AcDbSortentsTable
330
380C
  0
SORTENTSTABLE
  5
6DC3
102
{ACAD_REACTORS
330
4DF4
102
}
330
4DF4
100
AcDbSortentsTable
330
4D27
  0
SORTENTSTABLE
  5
6E3D
102
{ACAD_REACTORS
330
4F73
102
}
330
4F73
100
AcDbSortentsTable
330
4EC2
  0
SORTENTSTABLE
  5
7D0B
102
{ACAD_REACTORS
330
5049
102
}
330
5049
100
AcDbSortentsTable
330
4FD2
331
4FF3
  5
4FF5
331
4FD5
  5
4FD7
331
7CEA
  5
4FD5
331
4FE2
  5
4FE4
331
4FEA
  5
4FEC
331
4FDB
  5
4FDD
331
4FF2
  5
4FF4
331
4FE1
  5
4FE3
331
4FE9
  5
4FEB
331
4FDA
  5
4FDC
331
4FF1
  5
4FF3
331
4FE0
  5
4FE2
331
4FD9
  5
4FDB
331
4FF0
  5
4FF2
331
4FE7
  5
4FEA
331
4FD8
  5
4FDA
331
4FEF
  5
4FF1
331
4FEE
  5
4FF0
331
4FDF
  5
4FE1
331
4FE5
  5
4FE9
331
4FED
  5
4FEF
331
4FDE
  5
4FE0
331
4FF5
  5
7CEA
331
4FD7
  5
4FD9
331
4FE4
  5
4FE7
331
4FEC
  5
4FEE
331
4FDD
  5
4FDF
331
7C0B
  5
4FD6
331
4FF4
  5
7C0B
331
4FD6
  5
4FD8
331
4FE3
  5
4FE5
331
4FEB
  5
4FED
331
4FDC
  5
4FDE
  0
SORTENTSTABLE
  5
7CC4
102
{ACAD_REACTORS
330
5121
102
}
330
5121
100
AcDbSortentsTable
330
50AA
331
50B0
  5
50B2
331
50B8
  5
50BA
331
50C0
  5
50C2
331
50C8
  5
50CA
331
50B7
  5
50B9
331
50BF
  5
50C1
331
7AAE
  5
50AD
331
50C7
  5
50C9
331
50B6
  5
50B8
331
50BE
  5
50C0
331
7AAD
  5
50B0
331
50C6
  5
50C8
331
50B5
  5
50B7
331
50BD
  5
50BF
331
50C5
  5
50C7
331
50CD
  5
7AAE
331
50B4
  5
50B6
331
50BC
  5
50BE
331
50C4
  5
50C6
331
50CC
  5
7AAD
331
50B3
  5
50B5
331
50BB
  5
50BD
331
50C3
  5
50C5
331
50CB
  5
50CD
331
50B2
  5
50B4
331
50BA
  5
50BC
331
50C2
  5
50C4
331
50CA
  5
50CC
331
50B1
  5
50B3
331
50AD
  5
50B1
331
50B9
  5
50BB
331
50C1
  5
50C3
331
50C9
  5
50CB
  0
SORTENTSTABLE
  5
6F50
102
{ACAD_REACTORS
330
52E8
102
}
330
52E8
100
AcDbSortentsTable
330
525A
  0
SORTENTSTABLE
  5
7031
102
{ACAD_REACTORS
330
5480
102
}
330
5480
100
AcDbSortentsTable
330
53DA
331
53F6
  5
53F7
331
53E2
  5
53E3
331
53F5
  5
53F6
331
53E1
  5
53E2
331
53F4
  5
53F5
331
53E0
  5
53E1
331
53F3
  5
53F4
331
53F2
  5
53F3
331
53F1
  5
53F2
331
547F
  5
544D
331
53F0
  5
53F1
331
547E
  5
544C
331
53DF
  5
53E0
331
53DE
  5
53DF
331
53DD
  5
53DE
331
5407
  5
5408
331
5405
  5
5407
331
5403
  5
5405
331
544E
  5
547F
331
53EF
  5
53F0
331
5402
  5
5403
331
544D
  5
547E
331
53EE
  5
53EF
331
5401
  5
5402
331
544C
  5
544E
331
53ED
  5
53EE
331
540E
  5
544B
331
5400
  5
5401
331
544B
  5
53DD
331
540D
  5
540E
331
53FF
  5
5400
331
53EB
  5
53ED
331
540C
  5
540D
331
53FE
  5
53FF
331
53EA
  5
53EB
331
540B
  5
540C
331
53FD
  5
53FE
331
53E9
  5
53EA
331
540A
  5
540B
331
53FC
  5
53FD
331
53E8
  5
53E9
331
5409
  5
540A
331
53FB
  5
53FC
331
53E7
  5
53E8
331
5408
  5
5409
331
53FA
  5
53FB
331
53E6
  5
53E7
331
53F9
  5
53FA
331
53E5
  5
53E6
331
53F8
  5
53F9
331
53E4
  5
53E5
331
53F7
  5
53F8
331
53E3
  5
53E4
  0
SORTENTSTABLE
  5
70A8
102
{ACAD_REACTORS
330
559C
102
}
330
559C
100
AcDbSortentsTable
330
54F7
331
550B
  5
550C
331
551D
  5
551E
331
5526
  5
5527
331
5528
  5
5594
331
5596
  5
5597
331
5510
  5
5511
331
5522
  5
5523
331
5519
  5
551A
331
550C
  5
550D
331
5598
  5
5599
331
5527
  5
5528
331
551E
  5
551F
331
5515
  5
5516
331
5597
  5
5598
331
5523
  5
5524
331
551A
  5
551B
331
5511
  5
5512
331
5599
  5
559A
331
551F
  5
5520
331
5516
  5
5517
331
550D
  5
550E
331
5512
  5
5513
331
5524
  5
5525
331
551B
  5
551C
331
559A
  5
550B
331
550E
  5
550F
331
5520
  5
5521
331
5517
  5
5518
331
5594
  5
5595
331
5525
  5
5526
331
551C
  5
551D
331
5513
  5
5515
331
5595
  5
5596
331
5521
  5
5522
331
5518
  5
5519
331
550F
  5
5510
  0
SORTENTSTABLE
  5
7350
102
{ACAD_REACTORS
330
734F
102
}
330
734F
100
AcDbSortentsTable
330
72FB
  0
DIMASSOC
  5
584D
102
{ACAD_REACTORS
330
5843
102
}
330
5843
100
AcDbDimAssoc
330
5836
 90
        3
 70
     0
 71
     0
  1
AcDbOsnapPointRef
 72
     1
331
50D1
331
50B7
 73
     2
 91
        0
 40
0.9999999999999998
 10
0.0
 20
0.0
 30
2.000000000000000E+50
 75
     0
  1
AcDbOsnapPointRef
 72
    13
331
50D1
331
50B1
 73
     2
 91
        0
 40
0.0
 10
0.0
 20
0.0
 30
2.000000000000000E+50
 75
     0
  0
DIMASSOC
  5
5896
102
{ACAD_REACTORS
330
588A
102
}
330
588A
100
AcDbDimAssoc
330
587B
 90
        3
 70
     0
 71
     0
  1
AcDbOsnapPointRef
 72
     1
331
50D1
331
50BC
 73
     2
 91
        0
 40
6.283185307179585
 10
0.0
 20
0.0
 30
2.000000000000000E+50
 75
     0
  1
AcDbOsnapPointRef
 72
     1
331
5529
331
5509
 73
     2
 91
        0
 40
1.0
 10
0.0
 20
0.0
 30
2.000000000000000E+50
 75
     0
  0
DIMASSOC
  5
5912
102
{ACAD_REACTORS
330
5908
102
}
330
5908
100
AcDbDimAssoc
330
58FB
 90
        3
 70
     0
 71
     0
  1
AcDbOsnapPointRef
 72
     1
331
50D1
331
50BE
 73
     2
 91
        0
 40
1.0
 10
0.0
 20
0.0
 30
2.000000000000000E+50
 75
     0
  1
AcDbOsnapPointRef
 72
     2
331
50D1
331
50B0
 73
     2
 91
        0
 40
0.5
 10
0.0
 20
0.0
 30
0.0
 75
     0
  0
DIMASSOC
  5
592E
102
{ACAD_REACTORS
330
5922
102
}
330
5922
100
AcDbDimAssoc
330
5913
 90
        3
 70
     0
 71
     0
  1
AcDbOsnapPointRef
 72
     1
331
50D1
331
50BE
 73
     2
 91
        0
 40
1.0
 10
0.0
 20
0.0
 30
2.000000000000000E+50
 75
     0
  1
AcDbOsnapPointRef
 72
     1
331
4FF9
331
4FD7
 73
     2
 91
        0
 40
1.0
 10
0.0
 20
0.0
 30
2.000000000000000E+50
 75
     0
  0
DIMASSOC
  5
5946
102
{ACAD_REACTORS
330
593C
102
}
330
593C
100
AcDbDimAssoc
330
592F
 90
        3
 70
     0
 71
     0
  1
AcDbOsnapPointRef
 72
     1
331
4FF9
331
4FD7
 73
     2
 91
        0
 40
1.0
 10
0.0
 20
0.0
 30
2.000000000000000E+50
 75
     0
  1
AcDbOsnapPointRef
 72
     2
331
4FF9
331
4FF2
 73
     2
 91
        0
 40
0.5
 10
0.0
 20
0.0
 30
0.0
 75
     0
  0
DIMASSOC
  5
5A55
102
{ACAD_REACTORS
330
5A4B
102
}
330
5A4B
100
AcDbDimAssoc
330
5A3E
 90
        3
 70
     0
 71
     0
  1
AcDbOsnapPointRef
 72
    13
331
4FF9
331
4FED
 73
     2
 91
        0
 40
0.0
 10
0.0
 20
0.0
 30
2.000000000000000E+50
 75
     0
  1
AcDbOsnapPointRef
 72
    13
331
4FF9
331
4FDD
 73
     2
 91
        0
 40
0.0
 10
0.0
 20
0.0
 30
2.000000000000000E+50
 75
     0
  0
DIMASSOC
  5
5A7F
102
{ACAD_REACTORS
330
5A75
102
}
330
5A75
100
AcDbDimAssoc
330
5A68
 90
        3
 70
     0
 71
     0
  1
AcDbOsnapPointRef
 72
    13
331
540F
331
5402
 73
     2
 91
        0
 40
0.0
 10
0.0
 20
0.0
 30
2.000000000000000E+50
 75
     0
  1
AcDbOsnapPointRef
 72
     8
331
540F
331
53DF
 73
     2
 91
        0
 40
0.999999999999815
 10
0.0
 20
0.0
 30
0.0
 75
     1
  1
AcDbOsnapPointRef
 72
    13
331
540F
331
5402
 73
     2
 91
        0
 40
0.0
 10
0.0
 20
0.0
 30
2.000000000000000E+50
 75
     0
  0
DIMASSOC
  5
5A97
102
{ACAD_REACTORS
330
5A8D
102
}
330
5A8D
100
AcDbDimAssoc
330
5A80
 90
        3
 70
     0
 71
     0
  1
AcDbOsnapPointRef
 72
     1
331
4D69
331
4D5F
 73
     2
 91
        0
 40
1.0
 10
0.0
 20
0.0
 30
2.000000000000000E+50
 75
     0
  1
AcDbOsnapPointRef
 72
     1
331
4D69
331
4D62
 73
     2
 91
        0
 40
1.0
 10
0.0
 20
0.0
 30
2.000000000000000E+50
 75
     0
  0
DIMASSOC
  5
5B31
102
{ACAD_REACTORS
330
5B25
102
}
330
5B25
100
AcDbDimAssoc
330
5B16
 90
        3
 70
     0
 71
     0
  1
AcDbOsnapPointRef
 72
    13
331
4EF8
331
4EF5
 73
     2
 91
        0
 40
0.0
 10
0.0
 20
0.0
 30
2.000000000000000E+50
 75
     0
  1
AcDbOsnapPointRef
 72
    13
331
4EF8
331
4EC5
 73
     2
 91
        0
 40
0.0
 10
0.0
 20
0.0
 30
2.000000000000000E+50
 75
     0
  0
DIMASSOC
  5
5B4D
102
{ACAD_REACTORS
330
5B41
102
}
330
5B41
100
AcDbDimAssoc
330
5B32
 90
        3
 70
     0
 71
     0
  1
AcDbOsnapPointRef
 72
    13
331
4EF8
331
4EF5
 73
     2
 91
        0
 40
0.0
 10
0.0
 20
0.0
 30
2.000000000000000E+50
 75
     0
  1
AcDbOsnapPointRef
 72
    13
331
4D69
331
4D2A
 73
     2
 91
        0
 40
0.0
 10
0.0
 20
0.0
 30
2.000000000000000E+50
 75
     0
  0
DIMASSOC
  5
5BD7
102
{ACAD_REACTORS
330
5BCD
102
}
330
5BCD
100
AcDbDimAssoc
330
5BC0
 90
        2
 70
     0
 71
     0
  1
AcDbOsnapPointRef
 72
    13
331
5529
331
54FC
 73
     2
 91
        0
 40
0.0
 10
0.0
 20
0.0
 30
2.000000000000000E+50
 75
     0
  0
DIMASSOC
  5
5C6D
102
{ACAD_REACTORS
330
5C63
102
}
330
5C63
100
AcDbDimAssoc
330
5C56
 90
        3
 70
     0
 71
     0
  1
AcDbOsnapPointRef
 72
    13
331
4FF9
331
4FF2
 73
     2
 91
        0
 40
0.0
 10
0.0
 20
0.0
 30
2.000000000000000E+50
 75
     0
  1
AcDbOsnapPointRef
 72
    13
331
50D1
331
50B0
 73
     2
 91
        0
 40
0.0
 10
0.0
 20
0.0
 30
2.000000000000000E+50
 75
     0
  0
DIMASSOC
  5
7919
102
{ACAD_REACTORS
330
7918
102
}
330
7918
100
AcDbDimAssoc
330
790B
 90
        3
 70
     0
 71
     0
  1
AcDbOsnapPointRef
 72
     4
331
587B
331
6970
 73
     0
 91
        0
 40
0.0
 10
0.0
 20
0.0
 30
0.0
 75
     0
  1
AcDbOsnapPointRef
 72
     1
331
50D1
331
50C9
 73
     0
 91
        0
 40
0.0
 10
0.0
 20
0.0
 30
2.000000000000000E+50
 75
     0
  0
DIMASSOC
  5
7943
102
{ACAD_REACTORS
330
7942
102
}
330
7942
100
AcDbDimAssoc
330
7935
 90
        3
 70
     0
 71
     0
  1
AcDbOsnapPointRef
 72
     4
331
790B
331
7933
 73
     0
 91
        0
 40
0.0
 10
0.0
 20
0.0
 30
0.0
 75
     0
  1
AcDbOsnapPointRef
 72
    13
331
50D1
331
50CB
 73
     0
 91
        0
 40
0.0
 10
0.0
 20
0.0
 30
2.000000000000000E+50
 75
     0
  0
LAYOUT
  5
22
102
{ACAD_REACTORS
330
1A
102
}
330
1A
100
AcDbPlotSettings
  1

  2
KONICA MINOLTA 501 PCL
  4
A4
  6

 40
5.027082920074462
 41
5.027085781097412
 42
5.027069091796875
 43
5.027069091796875
 44
209.9733276367186
 45
296.9259948730469
 46
0.0000000000000142
 47
4.278494293758767
 48
0.0
 49
0.0
140
0.0
141
0.0
142
1.0
143
3.452633529115694
 70
 11956
 72
     1
 73
     1
 74
     1
  7
SEISA.ctb
 75
     0
147
0.2896339827459547
 76
     0
 77
     2
 78
   300
148
-836.8341144354499
149
-843.415473655793
100
AcDbLayout
  1
Model
 70
     1
 71
     0
 10
0.0
 20
0.0
 11
12.0
 21
9.0
 12
0.0
 22
0.0
 32
0.0
 14
0.0
 24
0.0
 34
0.0
 15
0.0
 25
0.0
 35
0.0
146
0.0
 13
0.0
 23
0.0
 33
0.0
 16
1.0
 26
0.0
 36
0.0
 17
0.0
 27
1.0
 37
0.0
 76
     0
330
1F
331
27A
1001
ACAD_PSEXT
1000
KONICA MINOLTA 501 PCL
1000
KONICA MINOLTA 501/421/361PCL
1000
IP_192.168.20.231_(1)
1000

1070
     0
  0
LAYOUT
  5
1E
102
{ACAD_REACTORS
330
1A
102
}
330
1A
100
AcDbPlotSettings
  1

  2
none_device
  4
Letter_(8.50_x_11.00_Inches)
  6

 40
6.349999904632567
 41
6.349999904632567
 42
6.350006103515625
 43
6.350006103515625
 44
215.8999938964844
 45
279.3999938964844
 46
0.0
 47
0.0
 48
0.0
 49
0.0
140
0.0
141
0.0
142
1.0
143
1.0
 70
 15024
 72
     1
 73
     1
 74
     5
  7
SEISA.ctb
 75
    16
147
1.0
 76
     0
 77
     2
 78
   300
148
0.0
149
0.0
100
AcDbLayout
  1
レイアウト1
 70
     1
 71
     1
 10
0.0
 20
0.0
 11
420.0
 21
297.0
 12
0.0
 22
0.0
 32
0.0
 14
1.000000000000000E+20
 24
1.000000000000000E+20
 34
1.000000000000000E+20
 15
-1.000000000000000E+20
 25
-1.000000000000000E+20
 35
-1.000000000000000E+20
146
0.0
 13
0.0
 23
0.0
 33
0.0
 16
1.0
 26
0.0
 36
0.0
 17
0.0
 27
1.0
 37
0.0
 76
     0
330
1B
  0
LAYOUT
  5
26
102
{ACAD_REACTORS
330
1A
102
}
330
1A
100
AcDbPlotSettings
  1

  2
none_device
  4
Letter_(8.50_x_11.00_Inches)
  6

 40
6.349999904632567
 41
6.349999904632567
 42
6.350006103515625
 43
6.350006103515625
 44
215.8999938964844
 45
279.3999938964844
 46
0.0
 47
0.0
 48
0.0
 49
0.0
140
0.0
141
0.0
142
1.0
143
1.0
 70
 15024
 72
     1
 73
     1
 74
     5
  7
SEISA.ctb
 75
    16
147
1.0
 76
     0
 77
     2
 78
   300
148
0.0
149
0.0
100
AcDbLayout
  1
レイアウト2
 70
     1
 71
     2
 10
0.0
 20
0.0
 11
12.0
 21
9.0
 12
0.0
 22
0.0
 32
0.0
 14
0.0
 24
0.0
 34
0.0
 15
0.0
 25
0.0
 35
0.0
146
0.0
 13
0.0
 23
0.0
 33
0.0
 16
1.0
 26
0.0
 36
0.0
 17
0.0
 27
1.0
 37
0.0
 76
     0
330
23
  0
MATERIAL
  5
27D
102
{ACAD_REACTORS
330
C4
102
}
330
C4
100
AcDbMaterial
  1
ByBlock
 73
     1
 78
     1
172
     1
176
     1
270
     1
274
     1
 94
       63
  0
MATERIAL
  5
27C
102
{ACAD_REACTORS
330
C4
102
}
330
C4
100
AcDbMaterial
  1
ByLayer
 73
     1
 78
     1
172
     1
176
     1
270
     1
274
     1
 94
       63
  0
MATERIAL
  5
27E
102
{ACAD_REACTORS
330
C4
102
}
330
C4
100
AcDbMaterial
  1
Global
 73
     1
 78
     1
172
     1
176
     1
270
     1
274
     1
 94
       63
  0
MLEADERSTYLE
  5
2D6
102
{ACAD_REACTORS
330
2D5
102
}
330
2D5
100
AcDbMLeaderStyle
170
     2
171
     1
172
     0
 90
        2
 40
0.0
 41
0.0
173
     1
 91
-1056964608
340
14
 92
       -2
290
     1
 42
2.0
291
     1
 43
0.36
  3
Standard
 44
4.0
300

342
11
174
     1
178
     6
175
     1
176
     0
 93
-1056964608
 45
4.0
292
     0
297
     0
 46
4.0
 94
-1056964608
 47
1.0
 49
1.0
140
1.0
293
     1
141
0.0
294
     1
177
     0
142
1.0
295
     0
296
     0
143
0.125
1001
ACAD_MLEADERVER
1070
     2
  0
MLINESTYLE
  5
18
102
{ACAD_REACTORS
330
17
102
}
330
17
100
AcDbMlineStyle
  2
STANDARD
 70
     0
  3

 62
   256
 51
90.0
 52
90.0
 71
     2
 49
0.5
 62
   256
  6
BYLAYER
 49
-0.5
 62
   256
  6
BYLAYER
  0
PLOTSETTINGS
  5
1C7E
102
{ACAD_REACTORS
330
19
102
}
330
19
100
AcDbPlotSettings
  1
SEISA基本
  2
none_device
  4
Letter_(8.50_x_11.00_Inches)
  6

 40
6.349999904632567
 41
6.349999904632567
 42
6.350006103515625
 43
6.350006103515625
 44
215.8999938964844
 45
279.3999938964844
 46
7.302498226506357
 47
0.0
 48
0.0
 49
0.0
140
0.0
141
0.0
142
1.0
143
1.574803221122935
 70
 11956
 72
     1
 73
     1
 74
     2
  7
SEISA.ctb
 75
     0
147
0.6349999711627054
 76
     0
 77
     2
 78
   300
148
0.0
149
0.0
1001
ACAD_PSEXT
1000
なし
1000
なし
1000
適切ではありません
1000
新しいプロッタ環境設定名を選択しない限り、レイアウトは印刷されません。
1070
     0
  0
ACDBPLACEHOLDER
  5
F
102
{ACAD_REACTORS
330
E
102
}
330
E
  0
SCALE
  5
2A1F
102
{ACAD_REACTORS
330
2B3
102
}
330
2B3
100
AcDbScale
 70
     0
300
1:6
140
1.0
141
6.0
290
     0
  0
SCALE
  5
78FF
102
{ACAD_REACTORS
330
2B3
102
}
330
2B3
100
AcDbScale
 70
     0
300
1:3
140
1.0
141
3.0
290
     0
  0
SCALE
  5
7900
102
{ACAD_REACTORS
330
2B3
102
}
330
2B3
100
AcDbScale
 70
     0
300
1:2.5
140
1.0
141
2.5
290
     0
  0
SCALE
  5
7901
102
{ACAD_REACTORS
330
2B3
102
}
330
2B3
100
AcDbScale
 70
     0
300
1:1.5
140
1.0
141
1.5
290
     0
  0
SCALE
  5
2B4
102
{ACAD_REACTORS
330
2B3
102
}
330
2B3
100
AcDbScale
 70
     0
300
1:1
140
1.0
141
1.0
290
     1
  0
SCALE
  5
2B5
102
{ACAD_REACTORS
330
2B3
102
}
330
2B3
100
AcDbScale
 70
     0
300
1:2
140
1.0
141
2.0
290
     0
  0
SCALE
  5
2B6
102
{ACAD_REACTORS
330
2B3
102
}
330
2B3
100
AcDbScale
 70
     0
300
1:4
140
1.0
141
4.0
290
     0
  0
SCALE
  5
2B7
102
{ACAD_REACTORS
330
2B3
102
}
330
2B3
100
AcDbScale
 70
     0
300
1:5
140
1.0
141
5.0
290
     0
  0
SCALE
  5
2B8
102
{ACAD_REACTORS
330
2B3
102
}
330
2B3
100
AcDbScale
 70
     0
300
1:8
140
1.0
141
8.0
290
     0
  0
SCALE
  5
2B9
102
{ACAD_REACTORS
330
2B3
102
}
330
2B3
100
AcDbScale
 70
     0
300
1:10
140
1.0
141
10.0
290
     0
  0
SCALE
  5
2BA
102
{ACAD_REACTORS
330
2B3
102
}
330
2B3
100
AcDbScale
 70
     0
300
1:16
140
1.0
141
16.0
290
     0
  0
SCALE
  5
2BB
102
{ACAD_REACTORS
330
2B3
102
}
330
2B3
100
AcDbScale
 70
     0
300
1:20
140
1.0
141
20.0
290
     0
  0
SCALE
  5
2BC
102
{ACAD_REACTORS
330
2B3
102
}
330
2B3
100
AcDbScale
 70
     0
300
1:30
140
1.0
141
30.0
290
     0
  0
SCALE
  5
2BD
102
{ACAD_REACTORS
330
2B3
102
}
330
2B3
100
AcDbScale
 70
     0
300
1:40
140
1.0
141
40.0
290
     0
  0
SCALE
  5
2BE
102
{ACAD_REACTORS
330
2B3
102
}
330
2B3
100
AcDbScale
 70
     0
300
1:50
140
1.0
141
50.0
290
     0
  0
SCALE
  5
2BF
102
{ACAD_REACTORS
330
2B3
102
}
330
2B3
100
AcDbScale
 70
     0
300
1:100
140
1.0
141
100.0
290
     0
  0
SCALE
  5
2C0
102
{ACAD_REACTORS
330
2B3
102
}
330
2B3
100
AcDbScale
 70
     0
300
2:1
140
2.0
141
1.0
290
     0
  0
SCALE
  5
2C1
102
{ACAD_REACTORS
330
2B3
102
}
330
2B3
100
AcDbScale
 70
     0
300
4:1
140
4.0
141
1.0
290
     0
  0
SCALE
  5
2C2
102
{ACAD_REACTORS
330
2B3
102
}
330
2B3
100
AcDbScale
 70
     0
300
8:1
140
8.0
141
1.0
290
     0
  0
SCALE
  5
2C3
102
{ACAD_REACTORS
330
2B3
102
}
330
2B3
100
AcDbScale
 70
     0
300
10:1
140
10.0
141
1.0
290
     0
  0
SCALE
  5
2C4
102
{ACAD_REACTORS
330
2B3
102
}
330
2B3
100
AcDbScale
 70
     0
300
100:1
140
100.0
141
1.0
290
     0
  0
SCALE
  5
2C5
102
{ACAD_REACTORS
330
2B3
102
}
330
2B3
100
AcDbScale
 70
     0
300
1/128" = 1'-0"
140
0.0078125
141
12.0
290
     0
  0
SCALE
  5
2C6
102
{ACAD_REACTORS
330
2B3
102
}
330
2B3
100
AcDbScale
 70
     0
300
1/64" = 1'-0"
140
0.015625
141
12.0
290
     0
  0
SCALE
  5
2C7
102
{ACAD_REACTORS
330
2B3
102
}
330
2B3
100
AcDbScale
 70
     0
300
1/32" = 1'-0"
140
0.03125
141
12.0
290
     0
  0
SCALE
  5
2C8
102
{ACAD_REACTORS
330
2B3
102
}
330
2B3
100
AcDbScale
 70
     0
300
1/16" = 1'-0"
140
0.0625
141
12.0
290
     0
  0
SCALE
  5
2C9
102
{ACAD_REACTORS
330
2B3
102
}
330
2B3
100
AcDbScale
 70
     0
300
3/32" = 1'-0"
140
0.09375
141
12.0
290
     0
  0
SCALE
  5
2CA
102
{ACAD_REACTORS
330
2B3
102
}
330
2B3
100
AcDbScale
 70
     0
300
1/8" = 1'-0"
140
0.125
141
12.0
290
     0
  0
SCALE
  5
2CB
102
{ACAD_REACTORS
330
2B3
102
}
330
2B3
100
AcDbScale
 70
     0
300
3/16" = 1'-0"
140
0.1875
141
12.0
290
     0
  0
SCALE
  5
2CC
102
{ACAD_REACTORS
330
2B3
102
}
330
2B3
100
AcDbScale
 70
     0
300
1/4" = 1'-0"
140
0.25
141
12.0
290
     0
  0
SCALE
  5
2CD
102
{ACAD_REACTORS
330
2B3
102
}
330
2B3
100
AcDbScale
 70
     0
300
3/8" = 1'-0"
140
0.375
141
12.0
290
     0
  0
SCALE
  5
2CE
102
{ACAD_REACTORS
330
2B3
102
}
330
2B3
100
AcDbScale
 70
     0
300
1/2" = 1'-0"
140
0.5
141
12.0
290
     0
  0
SCALE
  5
2CF
102
{ACAD_REACTORS
330
2B3
102
}
330
2B3
100
AcDbScale
 70
     0
300
3/4" = 1'-0"
140
0.75
141
12.0
290
     0
  0
SCALE
  5
2D0
102
{ACAD_REACTORS
330
2B3
102
}
330
2B3
100
AcDbScale
 70
     0
300
1" = 1'-0"
140
1.0
141
12.0
290
     0
  0
SCALE
  5
2D1
102
{ACAD_REACTORS
330
2B3
102
}
330
2B3
100
AcDbScale
 70
     0
300
1-1/2" = 1'-0"
140
1.5
141
12.0
290
     0
  0
SCALE
  5
2D2
102
{ACAD_REACTORS
330
2B3
102
}
330
2B3
100
AcDbScale
 70
     0
300
3" = 1'-0"
140
3.0
141
12.0
290
     0
  0
SCALE
  5
2D3
102
{ACAD_REACTORS
330
2B3
102
}
330
2B3
100
AcDbScale
 70
     0
300
6" = 1'-0"
140
6.0
141
12.0
290
     0
  0
SCALE
  5
2D4
102
{ACAD_REACTORS
330
2B3
102
}
330
2B3
100
AcDbScale
 70
     0
300
1'-0" = 1'-0"
140
12.0
141
12.0
290
     0
  0
TABLESTYLE
  5
122
102
{ACAD_XDICTIONARY
360
2F5
102
}
102
{ACAD_REACTORS
330
121
102
}
330
121
100
AcDbTableStyle
  3
Standard
 70
     0
 71
     0
 40
1.5
 41
1.5
280
     0
281
     0
  7
STANDARD
140
4.5
170
     2
 62
     0
 63
     7
283
     0
 90
      512
 91
        0
  1

274
    -2
284
     1
 64
     0
275
    -2
285
     1
 65
     0
276
    -2
286
     1
 66
     0
277
    -2
287
     1
 67
     0
278
    -2
288
     1
 68
     0
279
    -2
289
     1
 69
     0
  7
STANDARD
140
6.0
170
     5
 62
     0
 63
     7
283
     0
 90
      512
 91
        0
  1

274
    -2
284
     1
 64
     0
275
    -2
285
     1
 65
     0
276
    -2
286
     1
 66
     0
277
    -2
287
     1
 67
     0
278
    -2
288
     1
 68
     0
279
    -2
289
     1
 69
     0
  7
STANDARD
140
4.5
170
     5
 62
     0
 63
     7
283
     0
 90
      512
 91
        0
  1

274
    -2
284
     1
 64
     0
275
    -2
285
     1
 65
     0
276
    -2
286
     1
 66
     0
277
    -2
287
     1
 67
     0
278
    -2
288
     1
 68
     0
279
    -2
289
     1
 69
     0
  0
VISUALSTYLE
  5
285
102
{ACAD_REACTORS
330
27F
102
}
330
27F
100
AcDbVisualStyle
  2
2dWireframe
 70
     4
 71
     0
 72
     2
 73
     0
 90
        0
 40
-0.6
 41
-30.0
 62
     5
 63
     7
421
 16777215
 74
     1
 91
        4
 64
     7
 65
   257
 75
     1
175
     1
 42
1.0
 92
        0
 66
   257
 43
1.0
 76
     1
 77
     6
 78
     2
 67
     7
 79
     5
170
     0
171
     0
290
     0
174
     0
 93
        1
 44
0.0
173
     0
291
     0
 45
0.0
  0
VISUALSTYLE
  5
287
102
{ACAD_REACTORS
330
27F
102
}
330
27F
100
AcDbVisualStyle
  2
3D Hidden
 70
     6
 71
     1
 72
     2
 73
     2
 90
        0
 40
-0.6
 41
-30.0
 62
     5
 63
     7
421
 16777215
 74
     2
 91
        2
 64
     7
 65
   257
 75
     2
175
     1
 42
40.0
 92
        0
 66
   257
 43
1.0
 76
     1
 77
     6
 78
     2
 67
     7
 79
     3
170
     0
171
     0
290
     0
174
     0
 93
        1
 44
0.0
173
     0
291
     0
 45
0.0
  0
VISUALSTYLE
  5
286
102
{ACAD_REACTORS
330
27F
102
}
330
27F
100
AcDbVisualStyle
  2
3dWireframe
 70
     5
 71
     0
 72
     2
 73
     0
 90
        0
 40
-0.6
 41
-30.0
 62
     5
 63
     7
421
 16777215
 74
     1
 91
        4
 64
     7
 65
   257
 75
     1
175
     1
 42
1.0
 92
        0
 66
   257
 43
1.0
 76
     1
 77
     6
 78
     2
 67
     7
 79
     5
170
     0
171
     0
290
     0
174
     0
 93
        1
 44
0.0
173
     0
291
     0
 45
0.0
  0
VISUALSTYLE
  5
284
102
{ACAD_REACTORS
330
27F
102
}
330
27F
100
AcDbVisualStyle
  2
Basic
 70
     7
 71
     1
 72
     0
 73
     1
 90
        0
 40
-0.6
 41
-30.0
 62
     5
 63
     7
421
 16777215
 74
     0
 91
        4
 64
     7
 65
   257
 75
     1
175
     1
 42
1.0
 92
        8
 66
     7
 43
1.0
 76
     1
 77
     6
 78
     2
 67
     7
 79
     5
170
     0
171
     0
290
     0
174
     0
 93
        1
 44
0.0
173
     0
291
     1
 45
0.0
  0
VISUALSTYLE
  5
28B
102
{ACAD_REACTORS
330
27F
102
}
330
27F
100
AcDbVisualStyle
  2
Brighten
 70
    12
 71
     2
 72
     2
 73
     0
 90
        0
 40
-0.6
 41
-30.0
 62
     5
 63
     7
421
 16777215
 74
     1
 91
        4
 64
     7
 65
   257
 75
     1
175
     1
 42
1.0
 92
        8
 66
     7
 43
1.0
 76
     1
 77
     6
 78
     2
 67
     7
 79
     5
170
     0
171
     0
290
     0
174
     0
 93
        1
 44
50.0
173
     0
291
     1
 45
0.0
  0
VISUALSTYLE
  5
28F
102
{ACAD_REACTORS
330
27F
102
}
330
27F
100
AcDbVisualStyle
  2
ColorChange
 70
    16
 71
     2
 72
     2
 73
     3
 90
        0
 40
-0.6
 41
-30.0
 62
     5
 63
     8
421
  8421504
 74
     1
 91
        4
 64
     7
 65
   257
 75
     1
175
     1
 42
1.0
 92
        8
 66
     8
424
  8421504
 43
1.0
 76
     1
 77
     6
 78
     2
 67
     7
 79
     5
170
     0
171
     0
290
     0
174
     0
 93
        1
 44
0.0
173
     0
291
     1
 45
0.0
  0
VISUALSTYLE
  5
288
102
{ACAD_REACTORS
330
27F
102
}
330
27F
100
AcDbVisualStyle
  2
Conceptual
 70
     9
 71
     3
 72
     2
 73
     0
 90
        0
 40
-0.6
 41
-30.0
 62
     5
 63
     7
421
 16777215
 74
     2
 91
        2
 64
     7
 65
   257
 75
     1
175
     1
 42
40.0
 92
        8
 66
     7
 43
1.0
 76
     1
 77
     6
 78
     2
 67
     7
 79
     3
170
     0
171
     0
290
     0
174
     0
 93
        1
 44
0.0
173
     0
291
     0
 45
0.0
  0
VISUALSTYLE
  5
28A
102
{ACAD_REACTORS
330
27F
102
}
330
27F
100
AcDbVisualStyle
  2
Dim
 70
    11
 71
     2
 72
     2
 73
     0
 90
        0
 40
-0.6
 41
-30.0
 62
     5
 63
     7
421
 16777215
 74
     1
 91
        4
 64
     7
 65
   257
 75
     1
175
     1
 42
1.0
 92
        8
 66
     7
 43
1.0
 76
     1
 77
     6
 78
     2
 67
     7
 79
     5
170
     0
171
     0
290
     0
174
     0
 93
        1
 44
-50.0
173
     0
291
     1
 45
0.0
  0
VISUALSTYLE
  5
28E
102
{ACAD_REACTORS
330
27F
102
}
330
27F
100
AcDbVisualStyle
  2
Facepattern
 70
    15
 71
     2
 72
     2
 73
     0
 90
        0
 40
-0.6
 41
-30.0
 62
     5
 63
     7
421
 16777215
 74
     1
 91
        4
 64
     7
 65
   257
 75
     1
175
     1
 42
1.0
 92
        8
 66
     7
 43
1.0
 76
     1
 77
     6
 78
     2
 67
     7
 79
     5
170
     0
171
     0
290
     0
174
     0
 93
        1
 44
0.0
173
     0
291
     1
 45
0.0
  0
VISUALSTYLE
  5
280
102
{ACAD_REACTORS
330
27F
102
}
330
27F
100
AcDbVisualStyle
  2
Flat
 70
     0
 71
     2
 72
     1
 73
     1
 90
        2
 40
-0.6
 41
30.0
 62
     5
 63
     7
421
 16777215
 74
     0
 91
        4
 64
     7
 65
   257
 75
     1
175
     1
 42
1.0
 92
        8
 66
     7
 43
1.0
 76
     1
 77
     6
 78
     2
 67
     7
 79
     5
170
     0
171
     0
290
     0
174
     0
 93
       13
 44
0.0
173
     0
291
     1
 45
0.0
  0
VISUALSTYLE
  5
281
102
{ACAD_REACTORS
330
27F
102
}
330
27F
100
AcDbVisualStyle
  2
FlatWithEdges
 70
     1
 71
     2
 72
     1
 73
     1
 90
        2
 40
-0.6
 41
30.0
 62
     5
 63
     7
421
 16777215
 74
     1
 91
        4
 64
     7
 65
   257
 75
     1
175
     1
 42
1.0
 92
        0
 66
   257
 43
1.0
 76
     1
 77
     6
 78
     2
 67
     7
 79
     5
170
     0
171
     0
290
     0
174
     0
 93
       13
 44
0.0
173
     0
291
     1
 45
0.0
  0
VISUALSTYLE
  5
282
102
{ACAD_REACTORS
330
27F
102
}
330
27F
100
AcDbVisualStyle
  2
Gouraud
 70
     2
 71
     2
 72
     2
 73
     1
 90
        2
 40
-0.6
 41
30.0
 62
     5
 63
     7
421
 16777215
 74
     0
 91
        4
 64
     7
 65
   257
 75
     1
175
     1
 42
1.0
 92
        0
 66
     7
 43
1.0
 76
     1
 77
     6
 78
     2
 67
     7
 79
     5
170
     0
171
     0
290
     0
174
     0
 93
       13
 44
0.0
173
     0
291
     1
 45
0.0
  0
VISUALSTYLE
  5
283
102
{ACAD_REACTORS
330
27F
102
}
330
27F
100
AcDbVisualStyle
  2
GouraudWithEdges
 70
     3
 71
     2
 72
     2
 73
     1
 90
        2
 40
-0.6
 41
30.0
 62
     5
 63
     7
421
 16777215
 74
     1
 91
        4
 64
     7
 65
   257
 75
     1
175
     1
 42
1.0
 92
        0
 66
   257
 43
1.0
 76
     1
 77
     6
 78
     2
 67
     7
 79
     5
170
     0
171
     0
290
     0
174
     0
 93
       13
 44
0.0
173
     0
291
     1
 45
0.0
  0
VISUALSTYLE
  5
28D
102
{ACAD_REACTORS
330
27F
102
}
330
27F
100
AcDbVisualStyle
  2
Linepattern
 70
    14
 71
     2
 72
     2
 73
     0
 90
        0
 40
-0.6
 41
-30.0
 62
     5
 63
     7
421
 16777215
 74
     1
 91
        4
 64
     7
 65
   257
 75
     7
175
     7
 42
1.0
 92
        8
 66
     7
 43
1.0
 76
     1
 77
     6
 78
     2
 67
     7
 79
     5
170
     0
171
     0
290
     0
174
     0
 93
        1
 44
0.0
173
     0
291
     1
 45
0.0
  0
VISUALSTYLE
  5
289
102
{ACAD_REACTORS
330
27F
102
}
330
27F
100
AcDbVisualStyle
  2
Realistic
 70
     8
 71
     2
 72
     2
 73
     0
 90
        0
 40
-0.6
 41
-30.0
 62
     5
 63
     7
421
 16777215
 74
     1
 91
        0
 64
     7
 65
   257
 75
     1
175
     1
 42
1.0
 92
        8
 66
     8
424
  7895160
 43
1.0
 76
     1
 77
     6
 78
     2
 67
     7
 79
     5
170
     0
171
     0
290
     0
174
     0
 93
       13
 44
0.0
173
     0
291
     0
 45
0.0
  0
VISUALSTYLE
  5
28C
102
{ACAD_REACTORS
330
27F
102
}
330
27F
100
AcDbVisualStyle
  2
Thicken
 70
    13
 71
     2
 72
     2
 73
     0
 90
        0
 40
-0.6
 41
-30.0
 62
     5
 63
     7
421
 16777215
 74
     1
 91
        4
 64
     7
 65
   257
 75
     1
175
     1
 42
1.0
 92
       12
 66
     7
 43
1.0
 76
     1
 77
     6
 78
     2
 67
     7
 79
     5
170
     0
171
     0
290
     0
174
     0
 93
        1
 44
0.0
173
     0
291
     1
 45
0.0
  0
DICTIONARYVAR
  5
2FA
102
{ACAD_REACTORS
330
34
102
}
330
34
100
DictionaryVariables
280
     0
  1
1:6
  0
DICTIONARYVAR
  5
2F8
102
{ACAD_REACTORS
330
34
102
}
330
34
100
DictionaryVariables
280
     0
  1
STANDARD
  0
DICTIONARYVAR
  5
140
102
{ACAD_REACTORS
330
34
102
}
330
34
100
DictionaryVariables
280
     0
  1
STANDARD
  0
DICTIONARYVAR
  5
AC
102
{ACAD_REACTORS
330
34
102
}
330
34
100
DictionaryVariables
280
     0
  1
1
  0
DICTIONARYVAR
  5
35
102
{ACAD_REACTORS
330
34
102
}
330
34
100
DictionaryVariables
280
     0
  1
1
  0
DICTIONARYVAR
  5
7168
102
{ACAD_REACTORS
330
34
102
}
330
34
100
DictionaryVariables
280
     0
  1
1
  0
DICTIONARYVAR
  5
7169
102
{ACAD_REACTORS
330
34
102
}
330
34
100
DictionaryVariables
280
     0
  1
15
  0
DICTIONARYVAR
  5
2FB
102
{ACAD_REACTORS
330
34
102
}
330
34
100
DictionaryVariables
280
     0
  1
0
  0
DICTIONARYVAR
  5
2F9
102
{ACAD_REACTORS
330
34
102
}
330
34
100
DictionaryVariables
280
     0
  1
0
  0
DICTIONARY
  5
161B
102
{ACAD_REACTORS
330
49
102
}
330
49
100
AcDbDictionary
281
     1
  0
DICTIONARY
  5
4A
102
{ACAD_REACTORS
330
49
102
}
330
49
100
AcDbDictionary
281
     1
  0
XRECORD
  5
12B
102
{ACAD_REACTORS
330
49
102
}
330
49
100
AcDbXrecord
280
     1
 90
-1023410169
  0
DICTIONARY
  5
2F5
330
122
100
AcDbDictionary
280
     1
281
     1
  3
ACAD_ROUNDTRIP_2008_TABLESTYLE_CELLSTYLEMAP
360
7E5A
  0
CELLSTYLEMAP
  5
7E5A
102
{ACAD_REACTORS
330
2F5
102
}
330
2F5
100
AcDbCellStyleMap
 90
        3
300
CELLSTYLE
  1
TABLEFORMAT_BEGIN
 90
        5
170
     1
 91
        0
 92
    32768
 62
   257
 93
        1
300
CONTENTFORMAT
  1
CONTENTFORMAT_BEGIN
 90
        0
 91
        0
 92
      512
 93
        0
300

 40
0.0
140
1.0
 94
        5
 62
     0
340
11
144
6.0
309
CONTENTFORMAT_END
171
     1
301
MARGIN
  1
CELLMARGIN_BEGIN
 40
1.5
 40
1.5
 40
1.5
 40
1.5
 40
0.18
 40
0.18
309
CELLMARGIN_END
 94
        6
 95
        1
302
GRIDFORMAT
  1
GRIDFORMAT_BEGIN
 90
        0
 91
        1
 62
     0
 92
       -2
340
0
 93
        0
 40
0.045
309
GRIDFORMAT_END
 95
        2
302
GRIDFORMAT
  1
GRIDFORMAT_BEGIN
 90
        0
 91
        1
 62
     0
 92
       -2
340
0
 93
        0
 40
0.045
309
GRIDFORMAT_END
 95
        4
302
GRIDFORMAT
  1
GRIDFORMAT_BEGIN
 90
        0
 91
        1
 62
     0
 92
       -2
340
0
 93
        0
 40
0.045
309
GRIDFORMAT_END
 95
        8
302
GRIDFORMAT
  1
GRIDFORMAT_BEGIN
 90
        0
 91
        1
 62
     0
 92
       -2
340
0
 93
        0
 40
0.045
309
GRIDFORMAT_END
 95
       16
302
GRIDFORMAT
  1
GRIDFORMAT_BEGIN
 90
        0
 91
        1
 62
     0
 92
       -2
340
0
 93
        0
 40
0.045
309
GRIDFORMAT_END
 95
       32
302
GRIDFORMAT
  1
GRIDFORMAT_BEGIN
 90
        0
 91
        1
 62
     0
 92
       -2
340
0
 93
        0
 40
0.045
309
GRIDFORMAT_END
309
TABLEFORMAT_END
  1
CELLSTYLE_BEGIN
 90
        1
 91
        1
300
_TITLE
309
CELLSTYLE_END
300
CELLSTYLE
  1
TABLEFORMAT_BEGIN
 90
        5
170
     1
 91
        0
 92
        0
 62
   257
 93
        1
300
CONTENTFORMAT
  1
CONTENTFORMAT_BEGIN
 90
        0
 91
        0
 92
      512
 93
        0
300

 40
0.0
140
1.0
 94
        5
 62
     0
340
11
144
4.5
309
CONTENTFORMAT_END
171
     1
301
MARGIN
  1
CELLMARGIN_BEGIN
 40
1.5
 40
1.5
 40
1.5
 40
1.5
 40
0.18
 40
0.18
309
CELLMARGIN_END
 94
        6
 95
        1
302
GRIDFORMAT
  1
GRIDFORMAT_BEGIN
 90
        0
 91
        1
 62
     0
 92
       -2
340
0
 93
        0
 40
0.045
309
GRIDFORMAT_END
 95
        2
302
GRIDFORMAT
  1
GRIDFORMAT_BEGIN
 90
        0
 91
        1
 62
     0
 92
       -2
340
0
 93
        0
 40
0.045
309
GRIDFORMAT_END
 95
        4
302
GRIDFORMAT
  1
GRIDFORMAT_BEGIN
 90
        0
 91
        1
 62
     0
 92
       -2
340
0
 93
        0
 40
0.045
309
GRIDFORMAT_END
 95
        8
302
GRIDFORMAT
  1
GRIDFORMAT_BEGIN
 90
        0
 91
        1
 62
     0
 92
       -2
340
0
 93
        0
 40
0.045
309
GRIDFORMAT_END
 95
       16
302
GRIDFORMAT
  1
GRIDFORMAT_BEGIN
 90
        0
 91
        1
 62
     0
 92
       -2
340
0
 93
        0
 40
0.045
309
GRIDFORMAT_END
 95
       32
302
GRIDFORMAT
  1
GRIDFORMAT_BEGIN
 90
        0
 91
        1
 62
     0
 92
       -2
340
0
 93
        0
 40
0.045
309
GRIDFORMAT_END
309
TABLEFORMAT_END
  1
CELLSTYLE_BEGIN
 90
        2
 91
        1
300
_HEADER
309
CELLSTYLE_END
300
CELLSTYLE
  1
TABLEFORMAT_BEGIN
 90
        5
170
     1
 91
        0
 92
        0
 62
   257
 93
        1
300
CONTENTFORMAT
  1
CONTENTFORMAT_BEGIN
 90
        0
 91
        0
 92
      512
 93
        0
300

 40
0.0
140
1.0
 94
        2
 62
     0
340
11
144
4.5
309
CONTENTFORMAT_END
171
     1
301
MARGIN
  1
CELLMARGIN_BEGIN
 40
1.5
 40
1.5
 40
1.5
 40
1.5
 40
0.18
 40
0.18
309
CELLMARGIN_END
 94
        6
 95
        1
302
GRIDFORMAT
  1
GRIDFORMAT_BEGIN
 90
        0
 91
        1
 62
     0
 92
       -2
340
0
 93
        0
 40
0.045
309
GRIDFORMAT_END
 95
        2
302
GRIDFORMAT
  1
GRIDFORMAT_BEGIN
 90
        0
 91
        1
 62
     0
 92
       -2
340
0
 93
        0
 40
0.045
309
GRIDFORMAT_END
 95
        4
302
GRIDFORMAT
  1
GRIDFORMAT_BEGIN
 90
        0
 91
        1
 62
     0
 92
       -2
340
0
 93
        0
 40
0.045
309
GRIDFORMAT_END
 95
        8
302
GRIDFORMAT
  1
GRIDFORMAT_BEGIN
 90
        0
 91
        1
 62
     0
 92
       -2
340
0
 93
        0
 40
0.045
309
GRIDFORMAT_END
 95
       16
302
GRIDFORMAT
  1
GRIDFORMAT_BEGIN
 90
        0
 91
        1
 62
     0
 92
       -2
340
0
 93
        0
 40
0.045
309
GRIDFORMAT_END
 95
       32
302
GRIDFORMAT
  1
GRIDFORMAT_BEGIN
 90
        0
 91
        1
 62
     0
 92
       -2
340
0
 93
        0
 40
0.045
309
GRIDFORMAT_END
309
TABLEFORMAT_END
  1
CELLSTYLE_BEGIN
 90
        3
 91
        2
300
_DATA
309
CELLSTYLE_END
  0
ENDSEC
  0
EOF
