  0
SECTION
  2
HEADER
  9
$ACADVER
  1
AC1021
  9
$ACADMAINTVER
 70
    26
  9
$DWGCODEPAGE
  3
ANSI_932
  9
$LASTSAVEDBY
  1
Htm_Terada
  9
$CUSTOMPROPERTYTAG
  1
AmdtFileType
  9
$CUSTOMPROPERTY
  1
84
  9
$INSBASE
 10
0.0
 20
0.0
 30
0.0
  9
$EXTMIN
 10
706.9747991501089
 20
697.8611816539723
 30
-0.0015258207003583
  9
$EXTMAX
 10
1521.839909958702
 20
1311.361775732187
 30
0.0000000349246037
  9
$LIMMIN
 10
0.0000009571692772
 20
0.0000018469103225
  9
$LIMMAX
 10
2100.000000957169
 20
1485.00000184691
  9
$ORTHOMODE
 70
     1
  9
$REGENMODE
 70
     1
  9
$FILLMODE
 70
     1
  9
$QTEXTMODE
 70
     0
  9
$MIRRTEXT
 70
     1
  9
$LTSCALE
 40
5.0
  9
$ATTMODE
 70
     1
  9
$TEXTSIZE
 40
25.0
  9
$TRACEWID
 40
1.0
  9
$TEXTSTYLE
  7
SEISA
  9
$CLAYER
  8
AM_11 想像線
  9
$CELTYPE
  6
ByLayer
  9
$CECOLOR
 62
   256
  9
$CELTSCALE
 40
1.0
  9
$DISPSILH
 70
     0
  9
$DIMSCALE
 40
5.0
  9
$DIMASZ
 40
2.5
  9
$DIMEXO
 40
0.625
  9
$DIMDLI
 40
10.0
  9
$DIMRND
 40
0.0
  9
$DIMDLE
 40
0.0
  9
$DIMEXE
 40
0.625
  9
$DIMTP
 40
0.1
  9
$DIMTM
 40
0.1
  9
$DIMTXT
 40
3.5
  9
$DIMCEN
 40
0.0
  9
$DIMTSZ
 40
0.0
  9
$DIMTOL
 70
     0
  9
$DIMLIM
 70
     0
  9
$DIMTIH
 70
     0
  9
$DIMTOH
 70
     0
  9
$DIMSE1
 70
     0
  9
$DIMSE2
 70
     0
  9
$DIMTAD
 70
     3
  9
$DIMZIN
 70
     8
  9
$DIMBLK
  1
Open30
  9
$DIMASO
 70
     1
  9
$DIMSHO
 70
     1
  9
$DIMPOST
  1

  9
$DIMAPOST
  1
"
  9
$DIMALT
 70
     0
  9
$DIMALTD
 70
     2
  9
$DIMALTF
 40
0.0393701
  9
$DIMLFAC
 40
1.0
  9
$DIMTOFL
 70
     1
  9
$DIMTVP
 40
0.0
  9
$DIMTIX
 70
     0
  9
$DIMSOXD
 70
     0
  9
$DIMSAH
 70
     0
  9
$DIMBLK1
  1

  9
$DIMBLK2
  1

  9
$DIMSTYLE
  2
SEISA
  9
$DIMCLRD
 70
     3
  9
$DIMCLRE
 70
     3
  9
$DIMCLRT
 70
     3
  9
$DIMTFAC
 40
0.71
  9
$DIMGAP
 40
1.5
  9
$DIMJUST
 70
     0
  9
$DIMSD1
 70
     0
  9
$DIMSD2
 70
     0
  9
$DIMTOLJ
 70
     0
  9
$DIMTZIN
 70
     0
  9
$DIMALTZ
 70
     0
  9
$DIMALTTZ
 70
     8
  9
$DIMUPT
 70
     0
  9
$DIMDEC
 70
     2
  9
$DIMTDEC
 70
     2
  9
$DIMALTU
 70
     2
  9
$DIMALTTD
 70
     2
  9
$DIMTXSTY
  7
SEISA
  9
$DIMAUNIT
 70
     0
  9
$DIMADEC
 70
     0
  9
$DIMALTRND
 40
0.0
  9
$DIMAZIN
 70
     2
  9
$DIMDSEP
 70
    46
  9
$DIMATFIT
 70
     3
  9
$DIMFRAC
 70
     0
  9
$DIMLDRBLK
  1
Open30
  9
$DIMLUNIT
 70
     2
  9
$DIMLWD
 70
    -1
  9
$DIMLWE
 70
    -1
  9
$DIMTMOVE
 70
     0
  9
$DIMFXL
 40
1.0
  9
$DIMFXLON
 70
     0
  9
$DIMJOGANG
 40
0.7853981633974483
  9
$DIMTFILL
 70
     0
  9
$DIMTFILLCLR
 70
     0
  9
$DIMARCSYM
 70
     1
  9
$DIMLTYPE
  6

  9
$DIMLTEX1
  6

  9
$DIMLTEX2
  6

  9
$LUNITS
 70
     2
  9
$LUPREC
 70
     2
  9
$SKETCHINC
 40
1.0
  9
$FILLETRAD
 40
1.0
  9
$AUNITS
 70
     0
  9
$AUPREC
 70
     0
  9
$MENU
  1
.
  9
$ELEVATION
 40
0.0
  9
$PELEVATION
 40
0.0
  9
$THICKNESS
 40
0.0
  9
$LIMCHECK
 70
     0
  9
$CHAMFERA
 40
5.0
  9
$CHAMFERB
 40
5.0
  9
$CHAMFERC
 40
5.0
  9
$CHAMFERD
 40
0.7853981633974483
  9
$SKPOLY
 70
     0
  9
$TDCREATE
 40
2454936.492636562
  9
$TDUCREATE
 40
2454936.117636563
  9
$TDUPDATE
 40
2456479.691967049
  9
$TDUUPDATE
 40
2456479.316967049
  9
$TDINDWG
 40
1.2490485301
  9
$TDUSRTIMER
 40
1.2490302662
  9
$USRTIMER
 70
     1
  9
$ANGBASE
 50
0.0
  9
$ANGDIR
 70
     0
  9
$PDMODE
 70
     0
  9
$PDSIZE
 40
0.0
  9
$PLINEWID
 40
0.0
  9
$SPLFRAME
 70
     0
  9
$SPLINETYPE
 70
     6
  9
$SPLINESEGS
 70
     8
  9
$HANDSEED
  5
8213
  9
$SURFTAB1
 70
     6
  9
$SURFTAB2
 70
     6
  9
$SURFTYPE
 70
     6
  9
$SURFU
 70
     6
  9
$SURFV
 70
     6
  9
$UCSBASE
  2

  9
$UCSNAME
  2

  9
$UCSORG
 10
0.0
 20
0.0
 30
0.0
  9
$UCSXDIR
 10
1.0
 20
0.0
 30
0.0
  9
$UCSYDIR
 10
0.0
 20
1.0
 30
0.0
  9
$UCSORTHOREF
  2

  9
$UCSORTHOVIEW
 70
     0
  9
$UCSORGTOP
 10
0.0
 20
0.0
 30
0.0
  9
$UCSORGBOTTOM
 10
0.0
 20
0.0
 30
0.0
  9
$UCSORGLEFT
 10
0.0
 20
0.0
 30
0.0
  9
$UCSORGRIGHT
 10
0.0
 20
0.0
 30
0.0
  9
$UCSORGFRONT
 10
0.0
 20
0.0
 30
0.0
  9
$UCSORGBACK
 10
0.0
 20
0.0
 30
0.0
  9
$PUCSBASE
  2

  9
$PUCSNAME
  2

  9
$PUCSORG
 10
0.0
 20
0.0
 30
0.0
  9
$PUCSXDIR
 10
1.0
 20
0.0
 30
0.0
  9
$PUCSYDIR
 10
0.0
 20
1.0
 30
0.0
  9
$PUCSORTHOREF
  2

  9
$PUCSORTHOVIEW
 70
     0
  9
$PUCSORGTOP
 10
0.0
 20
0.0
 30
0.0
  9
$PUCSORGBOTTOM
 10
0.0
 20
0.0
 30
0.0
  9
$PUCSORGLEFT
 10
0.0
 20
0.0
 30
0.0
  9
$PUCSORGRIGHT
 10
0.0
 20
0.0
 30
0.0
  9
$PUCSORGFRONT
 10
0.0
 20
0.0
 30
0.0
  9
$PUCSORGBACK
 10
0.0
 20
0.0
 30
0.0
  9
$USERI1
 70
     0
  9
$USERI2
 70
     0
  9
$USERI3
 70
     0
  9
$USERI4
 70
     0
  9
$USERI5
 70
     0
  9
$USERR1
 40
0.0
  9
$USERR2
 40
0.0
  9
$USERR3
 40
0.0
  9
$USERR4
 40
0.0
  9
$USERR5
 40
0.0
  9
$WORLDVIEW
 70
     1
  9
$SHADEDGE
 70
     3
  9
$SHADEDIF
 70
    70
  9
$TILEMODE
 70
     1
  9
$MAXACTVP
 70
    64
  9
$PINSBASE
 10
0.0
 20
0.0
 30
0.0
  9
$PLIMCHECK
 70
     0
  9
$PEXTMIN
 10
1.000000000000000E+20
 20
1.000000000000000E+20
 30
1.000000000000000E+20
  9
$PEXTMAX
 10
-1.000000000000000E+20
 20
-1.000000000000000E+20
 30
-1.000000000000000E+20
  9
$PLIMMIN
 10
0.0
 20
0.0
  9
$PLIMMAX
 10
420.0
 20
297.0
  9
$UNITMODE
 70
     0
  9
$VISRETAIN
 70
     1
  9
$PLINEGEN
 70
     0
  9
$PSLTSCALE
 70
     1
  9
$TREEDEPTH
 70
  3020
  9
$CMLSTYLE
  2
Standard
  9
$CMLJUST
 70
     0
  9
$CMLSCALE
 40
20.0
  9
$PROXYGRAPHICS
 70
     1
  9
$MEASUREMENT
 70
     1
  9
$CELWEIGHT
370
    -1
  9
$ENDCAPS
280
     0
  9
$JOINSTYLE
280
     0
  9
$LWDISPLAY
290
     0
  9
$INSUNITS
 70
     4
  9
$HYPERLINKBASE
  1

  9
$STYLESHEET
  1
SEISA.CTB
  9
$XEDIT
290
     1
  9
$CEPSNTYPE
380
     0
  9
$PSTYLEMODE
290
     1
  9
$FINGERPRINTGUID
  2
{CC579132-B67B-4281-AB0C-6AA20D0D5B12}
  9
$VERSIONGUID
  2
{B7927FA3-A1B5-417F-A32D-BC3795774546}
  9
$EXTNAMES
290
     1
  9
$PSVPSCALE
 40
0.0
  9
$OLESTARTUP
290
     0
  9
$SORTENTS
280
   127
  9
$INDEXCTL
280
     0
  9
$HIDETEXT
280
     0
  9
$XCLIPFRAME
290
     0
  9
$HALOGAP
280
     0
  9
$OBSCOLOR
 70
   257
  9
$OBSLTYPE
280
     0
  9
$INTERSECTIONDISPLAY
280
     0
  9
$INTERSECTIONCOLOR
 70
   257
  9
$DIMASSOC
280
     2
  9
$PROJECTNAME
  1

  9
$CAMERADISPLAY
290
     0
  9
$LENSLENGTH
 40
50.0
  9
$CAMERAHEIGHT
 40
0.0
  9
$STEPSPERSEC
 40
2.0
  9
$STEPSIZE
 40
6.0
  9
$3DDWFPREC
 40
2.0
  9
$PSOLWIDTH
 40
0.25
  9
$PSOLHEIGHT
 40
4.0
  9
$LOFTANG1
 40
1.570796326794896
  9
$LOFTANG2
 40
1.570796326794896
  9
$LOFTMAG1
 40
0.0
  9
$LOFTMAG2
 40
0.0
  9
$LOFTPARAM
 70
     7
  9
$LOFTNORMALS
280
     1
  9
$LATITUDE
 40
37.795
  9
$LONGITUDE
 40
-122.394
  9
$NORTHDIRECTION
 40
0.0
  9
$TIMEZONE
 70
 -8000
  9
$LIGHTGLYPHDISPLAY
280
     1
  9
$TILEMODELIGHTSYNCH
280
     1
  9
$CMATERIAL
347
27C
  9
$SOLIDHIST
280
     1
  9
$SHOWHIST
280
     1
  9
$DWFFRAME
280
     2
  9
$DGNFRAME
280
     0
  9
$REALWORLDSCALE
290
     1
  9
$INTERFERECOLOR
 62
     1
  9
$INTERFEREOBJVS
345
289
  9
$INTERFEREVPVS
346
286
  9
$CSHADOW
280
     0
  9
$SHADOWPLANELOCATION
 40
0.0
  0
ENDSEC
  0
SECTION
  2
CLASSES
  0
CLASS
  1
ACDBDICTIONARYWDFLT
  2
AcDbDictionaryWithDefault
  3
ObjectDBX Classes
 90
        0
 91
        1
280
     0
281
     0
  0
CLASS
  1
AMGSETTINGSOBJ
  2
AmgSettingsObj
  3
"AcadM|Product Description: AutoCAD Mechanical|Company: Autodesk, Inc."
 90
     1024
 91
        2
280
     0
281
     0
  0
CLASS
  1
ACME_DOCUMENT
  2
AcMeDbDoc
  3
AcMeServices
 90
     1024
 91
        1
280
     0
281
     0
  0
CLASS
  1
ACMESCOPE
  2
AcMeScope
  3
AcMeServices
 90
     1024
 91
        1
280
     0
281
     0
  0
CLASS
  1
ACMECOMMANDHISTORY
  2
AcMeCommandHistory
  3
AcMeServices
 90
     1024
 91
        1
280
     0
281
     0
  0
CLASS
  1
DICTIONARYVAR
  2
AcDbDictionaryVar
  3
ObjectDBX Classes
 90
        0
 91
        9
280
     0
281
     0
  0
CLASS
  1
ACIMSYSVARMAN
  2
AcImSysVarManager
  3
AcMeServices
 90
     1024
 91
        5
280
     0
281
     0
  0
CLASS
  1
ACIMREALSYSVAR
  2
AcImRealSysVar
  3
AcMeServices
 90
     1024
 91
        1
280
     0
281
     0
  0
CLASS
  1
ACIMINTSYSVAR
  2
AcImIntSysVar
  3
AcMeServices
 90
     1024
 91
       27
280
     0
281
     0
  0
CLASS
  1
ACMEDRAWINGMAN
  2
AcMeDrawingMan
  3
AcMeServices
 90
     1024
 91
        1
280
     0
281
     0
  0
CLASS
  1
ACMEVIEW
  2
AcMeView
  3
AcMeServices
 90
     1024
 91
        1
280
     0
281
     0
  0
CLASS
  1
ACDBENTITYCACHE
  2
AcMeEntityCache
  3
AcMeServices
 90
     1024
 91
        1
280
     0
281
     0
  0
CLASS
  1
GSMANAGER
  2
AcMeGSManager
  3
AcMeServices
 90
     1024
 91
        1
280
     0
281
     0
  0
CLASS
  1
AMDTINTERNALREACTOR
  2
AmdtInternalReactor
  3
AcMeServices
 90
     1024
 91
        2
280
     0
281
     0
  0
CLASS
  1
ACMESTATEMGR
  2
AcMeStateMgr
  3
AcMeServices
 90
     1024
 91
        1
280
     0
281
     0
  0
CLASS
  1
ACGREFMASTER
  2
AcGrefMaster
  3
AcAttribServices
 90
     1024
 91
        1
280
     0
281
     0
  0
CLASS
  1
ACME_DATABASE
  2
AcMeDbDatabase
  3
AcMeServices
 90
     1024
 91
        1
280
     0
281
     0
  0
CLASS
  1
ACRFINSADJUSTERMGR
  2
AcRfInsAdjusterMgr
  3
AcMeServices
 90
     1024
 91
        1
280
     0
281
     0
  0
CLASS
  1
ACGREFACADMASTER
  2
AcGrefacadMaster
  3
AcGrefServices
 90
     1024
 91
        1
280
     0
281
     0
  0
CLASS
  1
AMIMASTER
  2
AmiMaster
  3
AmiServices
 90
     1024
 91
        1
280
     0
281
     0
  0
CLASS
  1
ACIMSTRSYSVAR
  2
AcImStrSysVar
  3
AcMeServices
 90
     1024
 91
        5
280
     0
281
     0
  0
CLASS
  1
ACMSTANDARDJIS
  2
AcmStandardJIS
  3
"Amdt_StdImp|Product Description: AutoCAD Mechanical|Company: Autodesk, Inc."
 90
     1024
 91
        0
280
     0
281
     0
  0
CLASS
  1
AMGOBJPROPCFG
  2
AmgObjPropCfg
  3
"AmgLay|Product Description: AutoCAD Mechanical|Company: Autodesk, Inc."
 90
     1025
 91
        1
280
     0
281
     0
  0
CLASS
  1
ACMSURFSTANDARDJIS
  2
AcmSurfTextStdJIS
  3
"Amdt_StdImp|Product Description: AutoCAD Mechanical|Company: Autodesk, Inc."
 90
     1024
 91
        0
280
     0
281
     0
  0
CLASS
  1
ACMFCFSTANDARDJIS
  2
AcmFCFStdJIS
  3
"Amdt_StdImp|Product Description: AutoCAD Mechanical|Company: Autodesk, Inc."
 90
     1024
 91
        0
280
     0
281
     0
  0
CLASS
  1
ACMWELDSTANDARDJIS
  2
AcmWeldingStdJIS
  3
"Amdt_StdImp|Product Description: AutoCAD Mechanical|Company: Autodesk, Inc."
 90
     1024
 91
        0
280
     0
281
     0
  0
CLASS
  1
ACMIDSTANDARDJIS
  2
AcmIdStdJIS
  3
"Amdt_StdImp|Product Description: AutoCAD Mechanical|Company: Autodesk, Inc."
 90
     1024
 91
        0
280
     0
281
     0
  0
CLASS
  1
ACMDATUMSTANDARDJIS
  2
AcmDatumStdJIS
  3
"Amdt_StdImp|Product Description: AutoCAD Mechanical|Company: Autodesk, Inc."
 90
     1024
 91
        0
280
     0
281
     0
  0
CLASS
  1
ACMBOMSTANDARDJIS
  2
AcmBOMStdJIS
  3
"Amdt_StdImp|Product Description: AutoCAD Mechanical|Company: Autodesk, Inc."
 90
     1024
 91
        0
280
     0
281
     0
  0
CLASS
  1
ACMDETAILSTANDARDJIS
  2
AmdtDetailSymStdJIS
  3
"Amdt_StdImp|Product Description: AutoCAD Mechanical|Company: Autodesk, Inc."
 90
     1024
 91
        0
280
     0
281
     0
  0
CLASS
  1
ACMSECTIONSTANDARDJIS
  2
AmdtSectionSymStdJIS
  3
"Amdt_StdImp|Product Description: AutoCAD Mechanical|Company: Autodesk, Inc."
 90
     1024
 91
        0
280
     0
281
     0
  0
CLASS
  1
ACMCENTERLINESTANDARDJIS
  2
AmdtCenterLineStdJIS
  3
"Amdt_StdImp|Product Description: AutoCAD Mechanical|Company: Autodesk, Inc."
 90
     1024
 91
        0
280
     0
281
     0
  0
CLASS
  1
ACMTHREADLINESTANDARDJIS
  2
AmdtThreadLineStdJIS
  3
"Amdt_StdImp|Product Description: AutoCAD Mechanical|Company: Autodesk, Inc."
 90
     1024
 91
        0
280
     0
281
     0
  0
CLASS
  1
ACAMGLAYSTD
  2
AcAmgLayStd
  3
"AmgLay|Product Description: AutoCAD Mechanical|Company: Autodesk, Inc."
 90
     1024
 91
        1
280
     0
281
     0
  0
CLASS
  1
ACAMGDIMSTD
  2
AcAmgDimStd
  3
"AmgDim|Product Description: AutoCAD Mechanical|Company: Autodesk, Inc."
 90
     1024
 91
        1
280
     0
281
     0
  0
CLASS
  1
ACAMGTITLESTD
  2
AcAmgTitleStd
  3
"AmgTitle|Product Description: AutoCAD Mechanical|Company: Autodesk, Inc."
 90
     4095
 91
        1
280
     0
281
     0
  0
CLASS
  1
ACMDATADICTIONARY
  2
AcmDataDictionary
  3
"AcmSymBB|Product Description: AutoCAD Mechanical|Company: Autodesk, Inc."
 90
     1024
 91
        1
280
     0
281
     0
  0
CLASS
  1
ACMDATAENTRYBLOCK
  2
AcmDataEntryBlock
  3
AcmSymBB|Product Description: AutoCAD Mechanical|Company: Autodesk, Inc.
 90
     1024
 91
        0
280
     0
281
     0
  0
CLASS
  1
LAYER_INDEX
  2
AcDbLayerIndex
  3
ObjectDBX Classes
 90
        0
 91
        0
280
     0
281
     0
  0
CLASS
  1
IDBUFFER
  2
AcDbIdBuffer
  3
ObjectDBX Classes
 90
        0
 91
        0
280
     0
281
     0
  0
CLASS
  1
ACMNOTESTANDARDJIS
  2
AmdtNoteStdJIS
  3
"Amdt_StdImp|Product Description: AutoCAD Mechanical|Company: Autodesk, Inc."
 90
     1024
 91
        0
280
     0
281
     0
  0
CLASS
  1
ACAMGHOLECHARTSTDJIS
  2
AcAmgHoleChartStdJIS
  3
AmgDim|Product Description: AutoCAD Mechanical|Company: Autodesk, Inc.
 90
     1024
 91
        0
280
     0
281
     0
  0
CLASS
  1
AM_DRAWING_MGR
  2
AcDmDwgMgr
  3
AcMechDwgViewMgmt
 90
     1024
 91
        1
280
     0
281
     0
  0
CLASS
  1
AM_DWG_DOCUMENT
  2
AcDmDwgDocument
  3
AcMechDwgViewMgmt
 90
     1024
 91
        1
280
     0
281
     0
  0
CLASS
  1
AM_DWG_SHEET
  2
AcDmSheet
  3
AcMechDwgViewMgmt
 90
     1024
 91
        2
280
     0
281
     0
  0
CLASS
  1
AM_VIEWDIMPARMAP
  2
AcDmViewDimParMap
  3
AcMechDwgViewMgmt
 90
     1024
 91
        2
280
     0
281
     0
  0
CLASS
  1
AM_DWGMGR_NAME
  2
AcDmDwgMgrName
  3
AcMechDwgViewMgmt
 90
     1024
 91
        1
280
     0
281
     0
  0
CLASS
  1
AMDTMENUSTATEMGR
  2
AmdtMenuStateMgr
  3
McadcomServices
 90
     1024
 91
        1
280
     0
281
     0
  0
CLASS
  1
AMDTMCOMMENUSTATE
  2
AmdtMcomMenuState
  3
McadcomServices
 90
     1024
 91
        1
280
     0
281
     0
  0
CLASS
  1
MAPIAMMOUDLE
  2
MApiAmModule
  3
MApiAmServices
 90
     1024
 91
        1
280
     0
281
     0
  0
CLASS
  1
AMDTADMENUSTATE
  2
AmdtAdMenuState
  3
DesignerServices
 90
     1024
 91
        1
280
     0
281
     0
  0
CLASS
  1
ADAPPL
  2
AcAdAppl
  3
DesignerServices
 90
     1024
 91
        1
280
     0
281
     0
  0
CLASS
  1
DEPMGR
  2
AcAdDepMgr
  3
DesignerServices
 90
     1024
 91
        1
280
     0
281
     0
  0
CLASS
  1
PARAMMGR
  2
AcAdParamMgr
  3
DesignerServices
 90
     1024
 91
        1
280
     0
281
     0
  0
CLASS
  1
PARAMSCOPE
  2
AcAdParamScope
  3
DesignerServices
 90
     1024
 91
        1
280
     0
281
     0
  0
CLASS
  1
NAMEDAPPL
  2
AcAdNamedAppl
  3
DesignerServices
 90
     1024
 91
        1
280
     0
281
     0
  0
CLASS
  1
AMDTDMMENUSTATE
  2
AmdtDmMenuState
  3
AcMechDwgViewMgmt
 90
     1024
 91
        1
280
     0
281
     0
  0
CLASS
  1
AMDTAMMENUSTATE
  2
AmdtAmMenuState
  3
DesignerAssemblies
 90
     1024
 91
        1
280
     0
281
     0
  0
CLASS
  1
ACAMPROJECT
  2
AcAmProject
  3
DesignerAssemblies
 90
     1024
 91
        1
280
     0
281
     0
  0
CLASS
  1
ACAMGRCOMPDEF
  2
AcAmGrCompDef
  3
DesignerAssemblies
 90
     1024
 91
        1
280
     0
281
     0
  0
CLASS
  1
ACCMCONTEXT
  2
AcCmContext
  3
DesignerAssemblies
 90
     1024
 91
        1
280
     0
281
     0
  0
CLASS
  1
ACAMCOMPDEF
  2
AcAmCompDef
  3
DesignerAssemblies
 90
     1024
 91
        1
280
     0
281
     0
  0
CLASS
  1
ACAMCOMPDEFMGR
  2
AcAmCompDefMgr
  3
DesignerAssemblies
 90
     1024
 91
        1
280
     0
281
     0
  0
CLASS
  1
AMCONTEXTMGR
  2
AcAmContextMgr
  3
DesignerAssemblies
 90
     1024
 91
        1
280
     0
281
     0
  0
CLASS
  1
ACAMCONTEXTMODELER
  2
AcAmContextModeler
  3
DesignerAssemblies
 90
     1024
 91
        1
280
     0
281
     0
  0
CLASS
  1
CATALOGSTATE
  2
AcAmCatalogState
  3
DesignerAssemblies
 90
     1024
 91
        1
280
     0
281
     0
  0
CLASS
  1
ACAMGRCOMPDEFSET
  2
AcAmGrCompDefSet
  3
DesignerAssemblies
 90
     1024
 91
        1
280
     0
281
     0
  0
CLASS
  1
AMDTBROWSERDBTAB
  2
AmdtBrowserDbTab
  3
McadcomServices
 90
     1024
 91
        1
280
     0
281
     0
  0
CLASS
  1
CBROWSERAPPOBJECT
  2
CBrowserAppObject
  3
McadcomServices
 90
     1024
 91
        3
280
     0
281
     0
  0
CLASS
  1
DM_PLACEHOLDER
  2
AcDmSelsetPlaceholder
  3
AcMechDwgViewMgmt
 90
     1024
 91
        1
280
     0
281
     0
  0
CLASS
  1
TABLESTYLE
  2
AcDbTableStyle
  3
ObjectDBX Classes
 90
     4095
 91
        1
280
     0
281
     0
  0
CLASS
  1
VAACXREFPANELOBJECT
  2
VaAcXREFPanelObject
  3
VAAC_ADDIN
 90
        0
 91
        0
280
     0
281
     0
  0
CLASS
  1
VAACIMAGEINVENTORY
  2
VaAcImageInventory
  3
VAAC_ADDIN
 90
        0
 91
        0
280
     0
281
     0
  0
CLASS
  1
AMDTNOTETEMPLATEDB
  2
AmdtNoteTemplateDB
  3
AcmSymBB|Product Description: AutoCAD Mechanical|Company: Autodesk, Inc.
 90
     1024
 91
        6
280
     0
281
     0
  0
CLASS
  1
ACAMGFILTERDAT
  2
AcAmgFilterDat
  3
"AcadM|Product Description: AutoCAD Mechanical|Company: Autodesk, Inc."
 90
     1024
 91
        0
280
     0
281
     0
  0
CLASS
  1
MATERIAL
  2
AcDbMaterial
  3
ObjectDBX Classes
 90
     1153
 91
        3
280
     0
281
     0
  0
CLASS
  1
VISUALSTYLE
  2
AcDbVisualStyle
  3
ObjectDBX Classes
 90
     4095
 91
       16
280
     0
281
     0
  0
CLASS
  1
ACRFATTGENMGR
  2
AcRfAttGeneralMgr
  3
AcAttribServices
 90
     1024
 91
        0
280
     0
281
     0
  0
CLASS
  1
ACRFOBJATTMGR
  2
AcRfObjAttGroupMgr
  3
AcAttribServices
 90
     1024
 91
        0
280
     0
281
     0
  0
CLASS
  1
ACRFMCADAPIATTHOLDER
  2
AcRfMCADAPIAttHolder
  3
AcAttribServices
 90
     1024
 91
        0
280
     0
281
     0
  0
CLASS
  1
AMDTSYSATTR
  2
AmdtSystemAttribute
  3
AcAttribServices
 90
     1024
 91
        0
280
     0
281
     0
  0
CLASS
  1
ACMTAPERSTANDARDJIS
  2
AcmTaperStdJIS
  3
"Amdt_StdImp|Product Description: AutoCAD Mechanical|Company: Autodesk, Inc."
 90
     1024
 91
        0
280
     0
281
     0
  0
CLASS
  1
CAMSSTRUCTBTNSTATE
  2
StructBtnState
  3
DesignerAssemblies
 90
     1024
 91
        0
280
     0
281
     0
  0
CLASS
  1
SCALE
  2
AcDbScale
  3
ObjectDBX Classes
 90
     1153
 91
       36
280
     0
281
     0
  0
CLASS
  1
MLEADERSTYLE
  2
AcDbMLeaderStyle
  3
ACDB_MLEADERSTYLE_CLASS
 90
     4095
 91
        1
280
     0
281
     0
  0
CLASS
  1
ACMANOOTATIONVIEWSTANDARDJIS
  2
AmdtAnViewStdJIS
  3
"Amdt_StdImp|Product Description: AutoCAD Mechanical|Company: Autodesk, Inc."
 90
     1024
 91
        0
280
     0
281
     0
  0
CLASS
  1
ACMSURFSTANDARDJIS2003
  2
AcmSurfTextStdJIS2003
  3
"Amdt_StdImp|Product Description: AutoCAD Mechanical|Company: Autodesk, Inc."
 90
     1024
 91
        0
280
     0
281
     0
  0
CLASS
  1
CELLSTYLEMAP
  2
AcDbCellStyleMap
  3
ObjectDBX Classes
 90
     1152
 91
        2
280
     0
281
     0
  0
CLASS
  1
ACMFCFSTANDARDJIS98
  2
AcmFCFStdJIS98
  3
"Amdt_StdImp|Product Description: AutoCAD Mechanical|Company: Autodesk, Inc."
 90
     1024
 91
        0
280
     0
281
     0
  0
CLASS
  1
SORTENTSTABLE
  2
AcDbSortentsTable
  3
ObjectDBX Classes
 90
        0
 91
       12
280
     0
281
     0
  0
CLASS
  1
DIMASSOC
  2
AcDbDimAssoc
  3
"AcDbDimAssoc|Product Desc:     AcDim ARX App For Dimension|Company:          Autodesk, Inc.|WEB Address:      www.autodesk.com"
 90
        0
 91
       10
280
     0
281
     0
  0
CLASS
  1
STDPART2D
  2
AmgStdPart
  3
AmgStdPart|Product Description: AutoCAD Mechanical|Company: Autodesk, Inc.
 90
     4095
 91
        0
280
     0
281
     1
  0
CLASS
  1
ACMDATAENTRYPART
  2
AcmDataEntryPart
  3
AcmSymBB|Product Description: AutoCAD Mechanical|Company: Autodesk, Inc.
 90
     1024
 91
        0
280
     0
281
     0
  0
CLASS
  1
ACMPARTREF
  2
AcmPartRef
  3
"AcmSymBB|Product Description: AutoCAD Mechanical|Company: Autodesk, Inc."
 90
     4095
 91
        0
280
     0
281
     1
  0
CLASS
  1
ACDBSTDPARTRES_LINE
  2
AcDbStdPartRes_Line
  3
AmgStdPart|Product Description: AutoCAD Mechanical|Company: Autodesk, Inc.
 90
     1024
 91
        0
280
     0
281
     0
  0
CLASS
  1
ACMBOM
  2
AcmBom
  3
"AcmSymBB|Product Description: AutoCAD Mechanical|Company: Autodesk, Inc."
 90
     1024
 91
        0
280
     0
281
     0
  0
CLASS
  1
AMDTFORMULAUPDATEDISPATCHER
  2
AmdtFormulaUpdateDispatcher
  3
AcMeServices
 90
     1024
 91
        0
280
     0
281
     0
  0
CLASS
  1
ACMBOMROW
  2
AcmBomRow
  3
"AcmSymBB|Product Description: AutoCAD Mechanical|Company: Autodesk, Inc."
 90
     1024
 91
        0
280
     0
281
     0
  0
CLASS
  1
ACMPARTLIST
  2
AcmPartList
  3
"AcmSymBB|Product Description: AutoCAD Mechanical|Company: Autodesk, Inc."
 90
     4095
 91
        0
280
     0
281
     1
  0
CLASS
  1
ACDBLINERES
  2
AcDbLineRes
  3
AcGrefServices
 90
     1024
 91
        0
280
     0
281
     0
  0
CLASS
  1
ACRFINSADJ
  2
AcRfInsAdjuster
  3
AcMeServices
 90
     1024
 91
        0
280
     0
281
     0
  0
CLASS
  1
ACMSTANDARDISO
  2
AcmStandardISO
  3
"Amdt_StdImp|Product Description: AutoCAD Mechanical|Company: Autodesk, Inc."
 90
     1024
 91
        1
280
     0
281
     0
  0
CLASS
  1
AMDTEDGESTANDARDISO13715
  2
AmdtEdgeStdISO13715
  3
"Amdt_StdImp|Product Description: AutoCAD Mechanical|Company: Autodesk, Inc."
 90
     1024
 91
        1
280
     0
281
     0
  0
CLASS
  1
ACMSURFSTANDARDISO2002
  2
AcmSurfTextStdISO2002
  3
"Amdt_StdImp|Product Description: AutoCAD Mechanical|Company: Autodesk, Inc."
 90
     1024
 91
        1
280
     0
281
     0
  0
CLASS
  1
ACMFCFSTANDARDISO
  2
AcmFCFStdISO
  3
"Amdt_StdImp|Product Description: AutoCAD Mechanical|Company: Autodesk, Inc."
 90
     1024
 91
        1
280
     0
281
     0
  0
CLASS
  1
ACMWELDSTANDARDISO
  2
AcmWeldingStdISO
  3
"Amdt_StdImp|Product Description: AutoCAD Mechanical|Company: Autodesk, Inc."
 90
     1024
 91
        1
280
     0
281
     0
  0
CLASS
  1
ACMIDSTANDARDISO
  2
AcmIdStdISO
  3
"Amdt_StdImp|Product Description: AutoCAD Mechanical|Company: Autodesk, Inc."
 90
     1024
 91
        1
280
     0
281
     0
  0
CLASS
  1
ACMDATUMSTANDARDISO
  2
AcmDatumStdISO
  3
"Amdt_StdImp|Product Description: AutoCAD Mechanical|Company: Autodesk, Inc."
 90
     1024
 91
        1
280
     0
281
     0
  0
CLASS
  1
ACMBOMSTANDARDISO
  2
AcmBOMStdISO
  3
"Amdt_StdImp|Product Description: AutoCAD Mechanical|Company: Autodesk, Inc."
 90
     1024
 91
        1
280
     0
281
     0
  0
CLASS
  1
ACMDETAILSTANDARDISO
  2
AmdtDetailSymStdISO
  3
"Amdt_StdImp|Product Description: AutoCAD Mechanical|Company: Autodesk, Inc."
 90
     1024
 91
        1
280
     0
281
     0
  0
CLASS
  1
ACMSECTIONSTANDARDISO2001
  2
AmdtSectionSymStdISO2001
  3
"Amdt_StdImp|Product Description: AutoCAD Mechanical|Company: Autodesk, Inc."
 90
     1024
 91
        1
280
     0
281
     0
  0
CLASS
  1
ACMCENTERLINESTANDARDISO
  2
AmdtCenterLineStdISO
  3
"Amdt_StdImp|Product Description: AutoCAD Mechanical|Company: Autodesk, Inc."
 90
     1024
 91
        1
280
     0
281
     0
  0
CLASS
  1
ACMTHREADLINESTANDARDISO
  2
AmdtThreadLineStdISO
  3
"Amdt_StdImp|Product Description: AutoCAD Mechanical|Company: Autodesk, Inc."
 90
     1024
 91
        1
280
     0
281
     0
  0
CLASS
  1
ACMNOTESTANDARDISO
  2
AmdtNoteStdISO
  3
"Amdt_StdImp|Product Description: AutoCAD Mechanical|Company: Autodesk, Inc."
 90
     1024
 91
        1
280
     0
281
     0
  0
CLASS
  1
ACMTAPERSTANDARDISO
  2
AcmTaperStdISO
  3
"Amdt_StdImp|Product Description: AutoCAD Mechanical|Company: Autodesk, Inc."
 90
     1024
 91
        1
280
     0
281
     0
  0
CLASS
  1
ACMANOOTATIONVIEWSTANDARDISO
  2
AmdtAnViewStdISO
  3
"Amdt_StdImp|Product Description: AutoCAD Mechanical|Company: Autodesk, Inc."
 90
     1024
 91
        1
280
     0
281
     0
  0
CLASS
  1
ACAMGHOLECHARTSTDISO
  2
AcAmgHoleChartStdISO
  3
AmgDim|Product Description: AutoCAD Mechanical|Company: Autodesk, Inc.
 90
     1024
 91
        1
280
     0
281
     0
  0
CLASS
  1
EXACXREFPANELOBJECT
  2
ExAcXREFPanelObject
  3
EXAC_ESW
 90
     1025
 91
        0
280
     0
281
     0
  0
CLASS
  1
NPOCOLLECTION
  2
AcDbImpNonPersistentObjectsCollection
  3
ObjectDBX Classes
 90
     1153
 91
        0
280
     0
281
     0
  0
CLASS
  1
ACDBSTDPARTRES_ARC
  2
AcDbStdPartRes_Arc
  3
AmgStdPart|Product Description: AutoCAD Mechanical|Company: Autodesk, Inc.
 90
     1024
 91
        0
280
     0
281
     0
  0
CLASS
  1
AMDTNOTE
  2
AmdtNote
  3
"AcmSymBB|Product Description: AutoCAD Mechanical|Company: Autodesk, Inc."
 90
     4095
 91
        0
280
     0
281
     1
  0
CLASS
  1
PLOTSETTINGS
  2
AcDbPlotSettings
  3
ObjectDBX Classes
 90
        0
 91
        1
280
     0
281
     0
  0
CLASS
  1
ACMSTANDARDANSI
  2
AcmStandardANSI
  3
"Amdt_StdImp|Product Description: AutoCAD Mechanical|Company: Autodesk, Inc."
 90
     1024
 91
        0
280
     0
281
     0
  0
CLASS
  1
ACMSURFSTANDARDANSI
  2
AcmSurfTextStdANSI
  3
"Amdt_StdImp|Product Description: AutoCAD Mechanical|Company: Autodesk, Inc."
 90
     1024
 91
        0
280
     0
281
     0
  0
CLASS
  1
ACMFCFSTANDARDANSI
  2
AcmFCFStdANSI
  3
"Amdt_StdImp|Product Description: AutoCAD Mechanical|Company: Autodesk, Inc."
 90
     1024
 91
        0
280
     0
281
     0
  0
CLASS
  1
ACMWELDSTANDARDANSI
  2
AcmWeldingStdANSI
  3
"Amdt_StdImp|Product Description: AutoCAD Mechanical|Company: Autodesk, Inc."
 90
     1024
 91
        0
280
     0
281
     0
  0
CLASS
  1
ACMIDSTANDARDANSI
  2
AcmIdStdANSI
  3
"Amdt_StdImp|Product Description: AutoCAD Mechanical|Company: Autodesk, Inc."
 90
     1024
 91
        0
280
     0
281
     0
  0
CLASS
  1
ACMDATUMSTANDARDANSI
  2
AcmDatumStdANSI
  3
"Amdt_StdImp|Product Description: AutoCAD Mechanical|Company: Autodesk, Inc."
 90
     1024
 91
        0
280
     0
281
     0
  0
CLASS
  1
ACMBOMSTANDARDANSI
  2
AcmBOMStdANSI
  3
"Amdt_StdImp|Product Description: AutoCAD Mechanical|Company: Autodesk, Inc."
 90
     1024
 91
        0
280
     0
281
     0
  0
CLASS
  1
ACMDETAILSTANDARDANSI
  2
AmdtDetailSymStdANSI
  3
"Amdt_StdImp|Product Description: AutoCAD Mechanical|Company: Autodesk, Inc."
 90
     1024
 91
        0
280
     0
281
     0
  0
CLASS
  1
ACMSECTIONSTANDARDANSI
  2
AmdtSectionSymStdANSI
  3
"Amdt_StdImp|Product Description: AutoCAD Mechanical|Company: Autodesk, Inc."
 90
     1024
 91
        0
280
     0
281
     0
  0
CLASS
  1
ACMCENTERLINESTANDARDANSI
  2
AmdtCenterLineStdANSI
  3
"Amdt_StdImp|Product Description: AutoCAD Mechanical|Company: Autodesk, Inc."
 90
     1024
 91
        0
280
     0
281
     0
  0
CLASS
  1
ACMTHREADLINESTANDARDANSI
  2
AmdtThreadLineStdANSI
  3
"Amdt_StdImp|Product Description: AutoCAD Mechanical|Company: Autodesk, Inc."
 90
     1024
 91
        0
280
     0
281
     0
  0
CLASS
  1
ACMNOTESTANDARDANSI
  2
AmdtNoteStdANSI
  3
"Amdt_StdImp|Product Description: AutoCAD Mechanical|Company: Autodesk, Inc."
 90
     1024
 91
        0
280
     0
281
     0
  0
CLASS
  1
ACMTAPERSTANDARDANSI
  2
AcmTaperStdANSI
  3
"Amdt_StdImp|Product Description: AutoCAD Mechanical|Company: Autodesk, Inc."
 90
     1024
 91
        0
280
     0
281
     0
  0
CLASS
  1
ACMANOOTATIONVIEWSTANDARDANSI
  2
AmdtAnViewStdANSI
  3
"Amdt_StdImp|Product Description: AutoCAD Mechanical|Company: Autodesk, Inc."
 90
     1024
 91
        0
280
     0
281
     0
  0
CLASS
  1
ACAMGHOLECHARTSTDANSI
  2
AcAmgHoleChartStdANSI
  3
AmgDim|Product Description: AutoCAD Mechanical|Company: Autodesk, Inc.
 90
     1024
 91
        0
280
     0
281
     0
  0
CLASS
  1
ACMSTANDARDBSI
  2
AcmStandardBSI
  3
"Amdt_StdImp|Product Description: AutoCAD Mechanical|Company: Autodesk, Inc."
 90
     1024
 91
        0
280
     0
281
     0
  0
CLASS
  1
ACMSURFSTANDARDBSI2002
  2
AcmSurfTextStdBSI2002
  3
"Amdt_StdImp|Product Description: AutoCAD Mechanical|Company: Autodesk, Inc."
 90
     1024
 91
        0
280
     0
281
     0
  0
CLASS
  1
ACMFCFSTANDARDBSI
  2
AcmFCFStdBSI
  3
"Amdt_StdImp|Product Description: AutoCAD Mechanical|Company: Autodesk, Inc."
 90
     1024
 91
        0
280
     0
281
     0
  0
CLASS
  1
ACMWELDSTANDARDBSI
  2
AcmWeldingStdBSI
  3
"Amdt_StdImp|Product Description: AutoCAD Mechanical|Company: Autodesk, Inc."
 90
     1024
 91
        0
280
     0
281
     0
  0
CLASS
  1
ACMIDSTANDARDBSI
  2
AcmIdStdBSI
  3
"Amdt_StdImp|Product Description: AutoCAD Mechanical|Company: Autodesk, Inc."
 90
     1024
 91
        0
280
     0
281
     0
  0
CLASS
  1
ACMDATUMSTANDARDBSI
  2
AcmDatumStdBSI
  3
"Amdt_StdImp|Product Description: AutoCAD Mechanical|Company: Autodesk, Inc."
 90
     1024
 91
        0
280
     0
281
     0
  0
CLASS
  1
ACMBOMSTANDARDBSI
  2
AcmBOMStdBSI
  3
"Amdt_StdImp|Product Description: AutoCAD Mechanical|Company: Autodesk, Inc."
 90
     1024
 91
        0
280
     0
281
     0
  0
CLASS
  1
ACMDETAILSTANDARDBSI
  2
AmdtDetailSymStdBSI
  3
"Amdt_StdImp|Product Description: AutoCAD Mechanical|Company: Autodesk, Inc."
 90
     1024
 91
        0
280
     0
281
     0
  0
CLASS
  1
ACMSECTIONSTANDARDBSI2001
  2
AmdtSectionSymStdBSI2001
  3
"Amdt_StdImp|Product Description: AutoCAD Mechanical|Company: Autodesk, Inc."
 90
     1024
 91
        0
280
     0
281
     0
  0
CLASS
  1
ACMCENTERLINESTANDARDBSI
  2
AmdtCenterLineStdBSI
  3
"Amdt_StdImp|Product Description: AutoCAD Mechanical|Company: Autodesk, Inc."
 90
     1024
 91
        0
280
     0
281
     0
  0
CLASS
  1
ACMTHREADLINESTANDARDBSI
  2
AmdtThreadLineStdBSI
  3
"Amdt_StdImp|Product Description: AutoCAD Mechanical|Company: Autodesk, Inc."
 90
     1024
 91
        0
280
     0
281
     0
  0
CLASS
  1
ACMNOTESTANDARDBSI
  2
AmdtNoteStdBSI
  3
"Amdt_StdImp|Product Description: AutoCAD Mechanical|Company: Autodesk, Inc."
 90
     1024
 91
        0
280
     0
281
     0
  0
CLASS
  1
ACMTAPERSTANDARDBSI
  2
AcmTaperStdBSI
  3
"Amdt_StdImp|Product Description: AutoCAD Mechanical|Company: Autodesk, Inc."
 90
     1024
 91
        0
280
     0
281
     0
  0
CLASS
  1
ACMANOOTATIONVIEWSTANDARDBSI
  2
AmdtAnViewStdBSI
  3
"Amdt_StdImp|Product Description: AutoCAD Mechanical|Company: Autodesk, Inc."
 90
     1024
 91
        0
280
     0
281
     0
  0
CLASS
  1
ACAMGHOLECHARTSTDBSI
  2
AcAmgHoleChartStdBSI
  3
AmgDim|Product Description: AutoCAD Mechanical|Company: Autodesk, Inc.
 90
     1024
 91
        0
280
     0
281
     0
  0
CLASS
  1
AMDTEDGESTANDARDJIS
  2
AmdtEdgeStdJIS
  3
"Amdt_StdImp|Product Description: AutoCAD Mechanical|Company: Autodesk, Inc."
 90
     1024
 91
        0
280
     0
281
     0
  0
CLASS
  1
ACMSURFSYM
  2
AcmSurfaceTexture
  3
"AcmSymBB|Product Description: AutoCAD Mechanical|Company: Autodesk, Inc."
 90
     4095
 91
        0
280
     0
281
     1
  0
CLASS
  1
ACDBDIMENSIONRES
  2
AcDbDimensionRes
  3
AcmSymBB|Product Description: AutoCAD Mechanical|Company: Autodesk, Inc.
 90
     1024
 91
        0
280
     0
281
     0
  0
CLASS
  1
ACDBCIRCARCRES
  2
AcDbCircArcRes
  3
AcGrefServices
 90
     1024
 91
        0
280
     0
281
     0
  0
CLASS
  1
AMDTACMWBLOCKBOMENTITY
  2
AmdtAcmWblockBomEntity
  3
"AcmSymBB|Product Description: AutoCAD Mechanical|Company: Autodesk, Inc."
 90
     4095
 91
        0
280
     0
281
     1
  0
CLASS
  1
ACDBOPPOLYLINERES
  2
AcDbOpPolylineRes
  3
AcGrefServices
 90
     1024
 91
        0
280
     0
281
     0
  0
CLASS
  1
ACDB_BLKREFOBJECTCONTEXTDATA_CLASS
  2
AcDbBlkRefObjectContextData
  3
ObjectDBX Classes
 90
     1153
 91
        0
280
     0
281
     0
  0
CLASS
  1
ACMBALLOON
  2
AcmBalloon
  3
"AcmSymBB|Product Description: AutoCAD Mechanical|Company: Autodesk, Inc."
 90
     4095
 91
        0
280
     0
281
     1
  0
CLASS
  1
ACMPICKOBJ
  2
AcmPickEnt
  3
"AcmSymBB|Product Description: AutoCAD Mechanical|Company: Autodesk, Inc."
 90
     1024
 91
        0
280
     0
281
     1
  0
ENDSEC
  0
SECTION
  2
TABLES
  0
TABLE
  2
VPORT
  5
8
330
0
100
AcDbSymbolTable
 70
     1
  0
VPORT
  5
27A
330
8
100
AcDbSymbolTableRecord
100
AcDbViewportTableRecord
  2
*Active
 70
     0
 10
0.0
 20
0.0
 11
1.0
 21
1.0
 12
1114.407354554405
 22
1004.61147869308
 13
0.0
 23
0.0
 14
12.5
 24
12.5
 15
50.0
 25
50.0
 16
0.0
 26
0.0
 36
1.0
 17
0.0
 27
0.0
 37
0.0
 40
618.1897705934623
 41
1.571428571428571
 42
50.0
 43
0.0
 44
0.0
 50
0.0
 51
0.0
 71
    16
 72
 20000
 73
     1
 74
     3
 75
     0
 76
     0
 77
     0
 78
     0
281
     0
 65
     0
110
0.0
120
0.0
130
0.0
111
1.0
121
0.0
131
0.0
112
0.0
122
1.0
132
0.0
 79
     0
146
0.0
348
285
 60
     3
 61
     5
292
     1
282
     0
141
0.0
142
0.0
 63
   250
421
  3355443
  0
ENDTAB
  0
TABLE
  2
LTYPE
  5
5
330
0
100
AcDbSymbolTable
 70
    22
  0
LTYPE
  5
14
330
5
100
AcDbSymbolTableRecord
100
AcDbLinetypeTableRecord
  2
ByBlock
 70
     0
  3

 72
    65
 73
     0
 40
0.0
  0
LTYPE
  5
15
330
5
100
AcDbSymbolTableRecord
100
AcDbLinetypeTableRecord
  2
ByLayer
 70
     0
  3

 72
    65
 73
     0
 40
0.0
  0
LTYPE
  5
16
330
5
100
AcDbSymbolTableRecord
100
AcDbLinetypeTableRecord
  2
Continuous
 70
     0
  3
Solid line
 72
    65
 73
     0
 40
0.0
  0
LTYPE
  5
4D
330
5
100
AcDbSymbolTableRecord
100
AcDbLinetypeTableRecord
  2
AM_ISO02W050
 70
     0
  3
__ __ __ __ __ __ __ __ __ __ __ __ __ __ __
 72
    65
 73
     2
 40
7.5
 49
6.0
 74
     0
 49
-1.5
 74
     0
  0
LTYPE
  5
4E
330
5
100
AcDbSymbolTableRecord
100
AcDbLinetypeTableRecord
  2
AM_ISO08W050
 70
     0
  3
____ . ____ . ____ . ____ . ____ . ____ . ____
 72
    65
 73
     4
 40
18.0
 49
12.0
 74
     0
 49
-1.5
 74
     0
 49
3.0
 74
     0
 49
-1.5
 74
     0
  0
LTYPE
  5
4F
330
5
100
AcDbSymbolTableRecord
100
AcDbLinetypeTableRecord
  2
AM_ISO09W050
 70
     0
  3
_____ . . _____ . . _____ . . ____ .. ____
 72
    65
 73
     6
 40
22.5
 49
12.0
 74
     0
 49
-1.5
 74
     0
 49
3.0
 74
     0
 49
-1.5
 74
     0
 49
3.0
 74
     0
 49
-1.5
 74
     0
  0
LTYPE
  5
50
330
5
100
AcDbSymbolTableRecord
100
AcDbLinetypeTableRecord
  2
Amconstr
 70
     0
  3
_______________________
 72
    65
 73
     2
 40
9999.0
 49
9999.0
 74
     0
 49
0.0
 74
     0
  0
LTYPE
  5
51
330
5
100
AcDbSymbolTableRecord
100
AcDbLinetypeTableRecord
  2
AM_ISO08W050x2
 70
     0
  3
__ . __ . __ . __ . __ . __
 72
    65
 73
     4
 40
9.0
 49
6.0
 74
     0
 49
-0.75
 74
     0
 49
1.5
 74
     0
 49
-0.75
 74
     0
  0
LTYPE
  5
52
330
5
100
AcDbSymbolTableRecord
100
AcDbLinetypeTableRecord
  2
AM_ISO02W050x2
 70
     0
  3
 _ _ _ _ _ _ _ _ _ _ _ _
 72
    65
 73
     2
 40
3.75
 49
3.0
 74
     0
 49
-0.75
 74
     0
  0
LTYPE
  5
55
330
5
100
AcDbSymbolTableRecord
100
AcDbLinetypeTableRecord
  2
Amzigzag
 70
     0
  3
/\/-/\/-/\/-/\/-/\/-/\/
 72
    65
 73
     2
 40
11.0001
 49
0.0001
 74
     4
 75
   136
340
23D
 46
0.04
 50
0.0
 44
0.0
 45
0.0
 49
-11.0
 74
     0
  0
LTYPE
  5
65
330
5
100
AcDbSymbolTableRecord
100
AcDbLinetypeTableRecord
  2
CENTER
 70
     0
  3
__ . __
 72
    65
 73
     4
 40
7.0
 49
4.0
 74
     0
 49
-1.0
 74
     0
 49
1.0
 74
     0
 49
-1.0
 74
     0
  0
LTYPE
  5
E0
330
5
100
AcDbSymbolTableRecord
100
AcDbLinetypeTableRecord
  2
HIDDEN
 70
     0
  3
Hidden __ __ __ __ __ __ __ __ __ __ __ __ __ _
 72
    65
 73
     2
 40
9.524999999999996
 49
6.349999999999998
 74
     0
 49
-3.174999999999998
 74
     0
  0
LTYPE
  5
E1
330
5
100
AcDbSymbolTableRecord
100
AcDbLinetypeTableRecord
  2
PHANTOM2
 70
     0
  3
Phantom (.5x) ___ _ _ ___ _ _ ___ _ _ ___ _ _
 72
    65
 73
     6
 40
31.75
 49
15.875
 74
     0
 49
-3.174999999999998
 74
     0
 49
3.174999999999998
 74
     0
 49
-3.174999999999998
 74
     0
 49
3.174999999999998
 74
     0
 49
-3.174999999999998
 74
     0
  0
LTYPE
  5
5A2
330
5
100
AcDbSymbolTableRecord
100
AcDbLinetypeTableRecord
  2
ACJISWELD
 70
     0
  3
_ _ _ _ _
 72
    65
 73
     2
 40
2.0
 49
2.0
 74
     0
 49
-1.0
 74
     0
  0
LTYPE
  5
81FE
330
5
100
AcDbSymbolTableRecord
100
AcDbLinetypeTableRecord
  2
ACISOWELD
 70
     0
  3
_ _ _ _ _
 72
    65
 73
     2
 40
2.0
 49
2.0
 74
     0
 49
-1.0
 74
     0
  0
LTYPE
  5
81FF
330
5
100
AcDbSymbolTableRecord
100
AcDbLinetypeTableRecord
  2
ACISOTGB
 70
     0
  3
__ . . __ . .
 72
    65
 73
     6
 40
9.0
 49
4.0
 74
     0
 49
-1.0
 74
     0
 49
1.0
 74
     0
 49
-1.0
 74
     0
 49
1.0
 74
     0
 49
-1.0
 74
     0
  0
LTYPE
  5
8200
330
5
100
AcDbSymbolTableRecord
100
AcDbLinetypeTableRecord
  2
ACISOTGL
 70
     0
  3
_ _ _ _ _
 72
    65
 73
     2
 40
3.0
 49
2.0
 74
     0
 49
-1.0
 74
     0
  0
ENDTAB
  0
TABLE
  2
LAYER
  5
2
102
{ACAD_XDICTIONARY
360
BF
102
}
330
0
100
AcDbSymbolTable
 70
    10
  0
LAYER
  5
10
102
{ACAD_XDICTIONARY
360
29F6
102
}
330
2
100
AcDbSymbolTableRecord
100
AcDbLayerTableRecord
  2
0
 70
     0
 62
     7
  6
Continuous
370
    -3
390
F
347
27E
  0
LAYER
  5
81
102
{ACAD_XDICTIONARY
360
29F8
102
}
330
2
100
AcDbSymbolTableRecord
100
AcDbLayerTableRecord
  2
AM_0 外形線1
 70
     0
 62
     7
  6
Continuous
370
    25
390
F
347
27E
  0
LAYER
  5
427
330
2
100
AcDbSymbolTableRecord
100
AcDbLayerTableRecord
  2
Defpoints
 70
     0
 62
     7
  6
Continuous
290
     0
370
    -3
390
F
347
27E
  0
LAYER
  5
2D7A
330
2
100
AcDbSymbolTableRecord
100
AcDbLayerTableRecord
  2
AM_5 寸法線
 70
     0
 62
     3
  6
Continuous
370
    13
390
F
347
27E
1001
AcAecLayerStandard
1000

1000

  0
LAYER
  5
2D7B
330
2
100
AcDbSymbolTableRecord
100
AcDbLayerTableRecord
  2
AM_4 細線
 70
     0
 62
     4
  6
Continuous
370
    13
390
F
347
27E
1001
AcAecLayerStandard
1000

1000

  0
LAYER
  5
2D7C
330
2
100
AcDbSymbolTableRecord
100
AcDbLayerTableRecord
  2
AM_7 中心線
 70
     0
 62
     1
  6
AM_ISO08W050
370
    13
390
F
347
27E
1001
AcAecLayerStandard
1000

1000

  0
LAYER
  5
2D7D
330
2
100
AcDbSymbolTableRecord
100
AcDbLayerTableRecord
  2
AM_3 隠れ線
 70
     0
 62
     8
  6
ACJISWELD
370
    13
390
F
347
27E
1001
AcAecLayerStandard
1000

1000

  0
LAYER
  5
2D80
330
2
100
AcDbSymbolTableRecord
100
AcDbLayerTableRecord
  2
AM_6 文字
 70
     0
 62
     2
  6
Continuous
370
    13
390
F
347
27E
1001
AcAecLayerStandard
1000

1000

  0
LAYER
  5
7CAA
330
2
100
AcDbSymbolTableRecord
100
AcDbLayerTableRecord
  2
AM_11 想像線
 70
     0
 62
     5
  6
AM_ISO09W050
370
    13
390
F
347
27E
1001
AcAecLayerStandard
1000

1000

  0
ENDTAB
  0
TABLE
  2
STYLE
  5
3
330
0
100
AcDbSymbolTable
 70
    10
  0
STYLE
  5
11
330
3
100
AcDbSymbolTableRecord
100
AcDbTextStyleTableRecord
  2
STANDARD
 70
     0
 40
0.0
 41
1.0
 50
0.0
 71
     0
 42
25.0
  3
ISOCP.SHX
  4
EXTFONT.SHX
  0
STYLE
  5
23D
330
3
100
AcDbSymbolTableRecord
100
AcDbTextStyleTableRecord
  2

 70
     1
 40
0.0
 41
1.0
 50
0.0
 71
     0
 42
2.5
  3
genltshp.shx
  4

  0
STYLE
  5
5D5
330
3
100
AcDbSymbolTableRecord
100
AcDbTextStyleTableRecord
  2
SEISA
 70
     0
 40
0.0
 41
0.9
 50
0.0
 71
     0
 42
25.0
  3
romans.shx
  4
extfont2.shx
  0
STYLE
  5
81EE
330
3
100
AcDbSymbolTableRecord
100
AcDbTextStyleTableRecord
  2
ACISOTS
 70
     0
 40
1.0
 41
1.0
 50
0.0
 71
     0
 42
25.0
  3
isocp.shx
  4
extfont.shx
  0
STYLE
  5
81FD
330
3
100
AcDbSymbolTableRecord
100
AcDbTextStyleTableRecord
  2
ACISOGDT
 70
     0
 40
0.0
 41
1.0
 50
0.0
 71
     0
 42
25.0
  3
amgdt.shx
  4

  0
ENDTAB
  0
TABLE
  2
VIEW
  5
6
330
0
100
AcDbSymbolTable
 70
     6
  0
VIEW
  5
91B
330
6
100
AcDbSymbolTableRecord
100
AcDbViewTableRecord
  2
AM_VIEW1
 70
     0
 40
742.4999999999998
 10
717.8109615483021
 20
1113.75000184691
 41
1435.621921182266
 11
0.0
 21
0.0
 31
1.0
 12
0.0
 22
0.0
 32
0.0
 42
50.0
 43
0.0
 44
0.0
 50
0.0
 71
    16
281
     0
 72
     0
 73
     0
  0
VIEW
  5
91C
330
6
100
AcDbSymbolTableRecord
100
AcDbViewTableRecord
  2
AM_VIEW2
 70
     0
 40
742.4999999999998
 10
1382.189040366036
 20
1113.75000184691
 41
1435.621921182266
 11
0.0
 21
0.0
 31
1.0
 12
0.0
 22
0.0
 32
0.0
 42
50.0
 43
0.0
 44
0.0
 50
0.0
 71
    16
281
     0
 72
     0
 73
     0
  0
VIEW
  5
91D
330
6
100
AcDbSymbolTableRecord
100
AcDbViewTableRecord
  2
AM_VIEW3
 70
     0
 40
742.4999999999998
 10
717.8109615483021
 20
371.2500018469103
 41
1435.621921182266
 11
0.0
 21
0.0
 31
1.0
 12
0.0
 22
0.0
 32
0.0
 42
50.0
 43
0.0
 44
0.0
 50
0.0
 71
    16
281
     0
 72
     0
 73
     0
  0
VIEW
  5
91E
330
6
100
AcDbSymbolTableRecord
100
AcDbViewTableRecord
  2
AM_VIEW4
 70
     0
 40
742.4999999999998
 10
1382.189040366036
 20
371.2500018469103
 41
1435.621921182266
 11
0.0
 21
0.0
 31
1.0
 12
0.0
 22
0.0
 32
0.0
 42
50.0
 43
0.0
 44
0.0
 50
0.0
 71
    16
281
     0
 72
     0
 73
     0
  0
VIEW
  5
91F
330
6
100
AcDbSymbolTableRecord
100
AcDbViewTableRecord
  2
AM_VIEW5
 70
     0
 40
742.5000000000001
 10
1050.000000957169
 20
742.5000018469104
 41
1435.621921182266
 11
0.0
 21
0.0
 31
1.0
 12
0.0
 22
0.0
 32
0.0
 42
50.0
 43
0.0
 44
0.0
 50
0.0
 71
    16
281
     0
 72
     0
 73
     0
  0
VIEW
  5
920
330
6
100
AcDbSymbolTableRecord
100
AcDbViewTableRecord
  2
AM_VIEW6
 70
     0
 40
1484.98515
 10
1050.000000957169
 20
742.5000018469102
 41
2871.215129926108
 11
0.0
 21
0.0
 31
1.0
 12
0.0
 22
0.0
 32
0.0
 42
50.0
 43
0.0
 44
0.0
 50
0.0
 71
    16
281
     0
 72
     0
 73
     0
  0
ENDTAB
  0
TABLE
  2
UCS
  5
7
330
0
100
AcDbSymbolTable
 70
     0
  0
ENDTAB
  0
TABLE
  2
APPID
  5
9
330
0
100
AcDbSymbolTable
 70
   396
  0
APPID
  5
12
330
9
100
AcDbSymbolTableRecord
100
AcDbRegAppTableRecord
  2
ACAD
 70
     0
  0
APPID
  5
30
330
9
100
AcDbSymbolTableRecord
100
AcDbRegAppTableRecord
  2
MCAD_NO_VIS
 70
     0
  0
APPID
  5
31
330
9
100
AcDbSymbolTableRecord
100
AcDbRegAppTableRecord
  2
ACAD_TEMP_GRAPHIC
 70
     0
  0
APPID
  5
44
330
9
100
AcDbSymbolTableRecord
100
AcDbRegAppTableRecord
  2
ACATTRIBSERVICES
 70
     0
  0
APPID
  5
F6
330
9
100
AcDbSymbolTableRecord
100
AcDbRegAppTableRecord
  2
AD_DRAW
 70
     0
  0
APPID
  5
114
330
9
100
AcDbSymbolTableRecord
100
AcDbRegAppTableRecord
  2
DESIGNERASSEMBLIES
 70
     0
  0
APPID
  5
118
330
9
100
AcDbSymbolTableRecord
100
AcDbRegAppTableRecord
  2
ACADM_DIM_EDIT
 70
     0
  0
APPID
  5
119
330
9
100
AcDbSymbolTableRecord
100
AcDbRegAppTableRecord
  2
AMDT_DM_ADJ
 70
     0
  0
APPID
  5
1AF
330
9
100
AcDbSymbolTableRecord
100
AcDbRegAppTableRecord
  2
ACAD_DSTYLE_DIMARC_LENGTH_SYMBOL
 70
     0
  0
APPID
  5
1B0
330
9
100
AcDbSymbolTableRecord
100
AcDbRegAppTableRecord
  2
ACAD_DSTYLE_DIMJOGGED_JOGANGLE_SYMBOL
 70
     0
  0
APPID
  5
2D7
330
9
100
AcDbSymbolTableRecord
100
AcDbRegAppTableRecord
  2
ACAD_MLEADERVER
 70
     0
  0
APPID
  5
355
330
9
100
AcDbSymbolTableRecord
100
AcDbRegAppTableRecord
  2
AcadAnnoPO
 70
     0
  0
APPID
  5
428
330
9
100
AcDbSymbolTableRecord
100
AcDbRegAppTableRecord
  2
ACAD_DSTYLE_DIMTEXT_FILL
 70
     0
  0
APPID
  5
429
330
9
100
AcDbSymbolTableRecord
100
AcDbRegAppTableRecord
  2
GENIUS_GENSCREG_15
 70
     0
  0
APPID
  5
42A
330
9
100
AcDbSymbolTableRecord
100
AcDbRegAppTableRecord
  2
GENIUS_GENOBJ-N-SDF_13
 70
     0
  0
APPID
  5
42B
330
9
100
AcDbSymbolTableRecord
100
AcDbRegAppTableRecord
  2
GENIUS_GENODEF_13
 70
     0
  0
APPID
  5
42C
330
9
100
AcDbSymbolTableRecord
100
AcDbRegAppTableRecord
  2
ACAD_EXEMPT_FROM_CAD_STANDARDS
 70
     0
  0
APPID
  5
42D
330
9
100
AcDbSymbolTableRecord
100
AcDbRegAppTableRecord
  2
AcAecLayerStandard
 70
     0
  0
APPID
  5
42E
330
9
100
AcDbSymbolTableRecord
100
AcDbRegAppTableRecord
  2
GENIUS_GENOBJ-N-CEN_13
 70
     0
  0
APPID
  5
42F
330
9
100
AcDbSymbolTableRecord
100
AcDbRegAppTableRecord
  2
GENIUS_GENCEN_19
 70
     0
  0
APPID
  5
430
330
9
100
AcDbSymbolTableRecord
100
AcDbRegAppTableRecord
  2
ACAD_DSTYLE_DIMINSPECT
 70
     0
  0
APPID
  5
431
330
9
100
AcDbSymbolTableRecord
100
AcDbRegAppTableRecord
  2
GENIUS_AMGTXT_16
 70
     0
  0
APPID
  5
432
330
9
100
AcDbSymbolTableRecord
100
AcDbRegAppTableRecord
  2
GENIUS_GENFIL_13
 70
     0
  0
APPID
  5
433
330
9
100
AcDbSymbolTableRecord
100
AcDbRegAppTableRecord
  2
GENIUS_GENOLIS_13
 70
     0
  0
APPID
  5
434
330
9
100
AcDbSymbolTableRecord
100
AcDbRegAppTableRecord
  2
GENIUS_GENOBJ-N-CHA_13
 70
     0
  0
APPID
  5
435
330
9
100
AcDbSymbolTableRecord
100
AcDbRegAppTableRecord
  2
GENIUS_GENOENT_13
 70
     0
  0
APPID
  5
436
330
9
100
AcDbSymbolTableRecord
100
AcDbRegAppTableRecord
  2
GENIUS_GENOREF_13
 70
     0
  0
APPID
  5
437
330
9
100
AcDbSymbolTableRecord
100
AcDbRegAppTableRecord
  2
GENIUS_GENOBJ-N-FIL_13
 70
     0
  0
APPID
  5
438
330
9
100
AcDbSymbolTableRecord
100
AcDbRegAppTableRecord
  2
GEVID1208829536
 70
     0
  0
APPID
  5
439
330
9
100
AcDbSymbolTableRecord
100
AcDbRegAppTableRecord
  2
GEVDC
 70
     0
  0
APPID
  5
43A
330
9
100
AcDbSymbolTableRecord
100
AcDbRegAppTableRecord
  2
GEVRADREF
 70
     0
  0
APPID
  5
43B
330
9
100
AcDbSymbolTableRecord
100
AcDbRegAppTableRecord
  2
GENIUS_GENBH_13
 70
     0
  0
APPID
  5
43C
330
9
100
AcDbSymbolTableRecord
100
AcDbRegAppTableRecord
  2
GENIUS_GENOBJ-NBEHI-BHF_13
 70
     0
  0
APPID
  5
43D
330
9
100
AcDbSymbolTableRecord
100
AcDbRegAppTableRecord
  2
GENIUS_GENOBJ-NBEHI-BHB_13
 70
     0
  0
APPID
  5
43E
330
9
100
AcDbSymbolTableRecord
100
AcDbRegAppTableRecord
  2
GEVID1208829537
 70
     0
  0
APPID
  5
43F
330
9
100
AcDbSymbolTableRecord
100
AcDbRegAppTableRecord
  2
ACAD_DSTYLE_DIMJAG
 70
     0
  0
APPID
  5
440
330
9
100
AcDbSymbolTableRecord
100
AcDbRegAppTableRecord
  2
ACAD_DSTYLE_DIMTALN
 70
     0
  0
APPID
  5
441
330
9
100
AcDbSymbolTableRecord
100
AcDbRegAppTableRecord
  2
AMG_2DHIDE
 70
     0
  0
APPID
  5
442
330
9
100
AcDbSymbolTableRecord
100
AcDbRegAppTableRecord
  2
AMG_2DSTRUCT_BTR
 70
     0
  0
APPID
  5
443
330
9
100
AcDbSymbolTableRecord
100
AcDbRegAppTableRecord
  2
GEVID1208845772
 70
     0
  0
APPID
  5
444
330
9
100
AcDbSymbolTableRecord
100
AcDbRegAppTableRecord
  2
GEVID1208845773
 70
     0
  0
APPID
  5
445
330
9
100
AcDbSymbolTableRecord
100
AcDbRegAppTableRecord
  2
ACADM_2DVIEW_IGN_NOTIFY
 70
     0
  0
APPID
  5
446
330
9
100
AcDbSymbolTableRecord
100
AcDbRegAppTableRecord
  2
GEVID1208845774
 70
     0
  0
APPID
  5
447
330
9
100
AcDbSymbolTableRecord
100
AcDbRegAppTableRecord
  2
GEVID1208845775
 70
     0
  0
APPID
  5
448
330
9
100
AcDbSymbolTableRecord
100
AcDbRegAppTableRecord
  2
GEVID1208845776
 70
     0
  0
APPID
  5
449
330
9
100
AcDbSymbolTableRecord
100
AcDbRegAppTableRecord
  2
GEVID1208845777
 70
     0
  0
APPID
  5
44A
330
9
100
AcDbSymbolTableRecord
100
AcDbRegAppTableRecord
  2
GEVCON
 70
     0
  0
APPID
  5
44B
330
9
100
AcDbSymbolTableRecord
100
AcDbRegAppTableRecord
  2
GENIUS_GENOBJ-F-SCPASSM_13
 70
     0
  0
APPID
  5
44C
330
9
100
AcDbSymbolTableRecord
100
AcDbRegAppTableRecord
  2
GEVID1208845778
 70
     0
  0
APPID
  5
44D
330
9
100
AcDbSymbolTableRecord
100
AcDbRegAppTableRecord
  2
GEVID1208845779
 70
     0
  0
APPID
  5
44E
330
9
100
AcDbSymbolTableRecord
100
AcDbRegAppTableRecord
  2
GEVID1208845780
 70
     0
  0
APPID
  5
44F
330
9
100
AcDbSymbolTableRecord
100
AcDbRegAppTableRecord
  2
GEVID1208845781
 70
     0
  0
APPID
  5
450
330
9
100
AcDbSymbolTableRecord
100
AcDbRegAppTableRecord
  2
GEVID1208845782
 70
     0
  0
APPID
  5
451
330
9
100
AcDbSymbolTableRecord
100
AcDbRegAppTableRecord
  2
GEVID1208845783
 70
     0
  0
APPID
  5
452
330
9
100
AcDbSymbolTableRecord
100
AcDbRegAppTableRecord
  2
GEVID1208845784
 70
     0
  0
APPID
  5
453
330
9
100
AcDbSymbolTableRecord
100
AcDbRegAppTableRecord
  2
GEVID1208845785
 70
     0
  0
APPID
  5
454
330
9
100
AcDbSymbolTableRecord
100
AcDbRegAppTableRecord
  2
GEVID1208845787
 70
     0
  0
APPID
  5
455
330
9
100
AcDbSymbolTableRecord
100
AcDbRegAppTableRecord
  2
GEVID1208845788
 70
     0
  0
APPID
  5
456
330
9
100
AcDbSymbolTableRecord
100
AcDbRegAppTableRecord
  2
GEVID1208845789
 70
     0
  0
APPID
  5
457
330
9
100
AcDbSymbolTableRecord
100
AcDbRegAppTableRecord
  2
GEVID1208845790
 70
     0
  0
APPID
  5
458
330
9
100
AcDbSymbolTableRecord
100
AcDbRegAppTableRecord
  2
GEVID1208845791
 70
     0
  0
APPID
  5
459
330
9
100
AcDbSymbolTableRecord
100
AcDbRegAppTableRecord
  2
GEVID1208845792
 70
     0
  0
APPID
  5
45A
330
9
100
AcDbSymbolTableRecord
100
AcDbRegAppTableRecord
  2
GEVID1208845793
 70
     0
  0
APPID
  5
45B
330
9
100
AcDbSymbolTableRecord
100
AcDbRegAppTableRecord
  2
GEVID1208845794
 70
     0
  0
APPID
  5
45C
330
9
100
AcDbSymbolTableRecord
100
AcDbRegAppTableRecord
  2
GEVID1208845795
 70
     0
  0
APPID
  5
45D
330
9
100
AcDbSymbolTableRecord
100
AcDbRegAppTableRecord
  2
GEVID1208845796
 70
     0
  0
APPID
  5
45E
330
9
100
AcDbSymbolTableRecord
100
AcDbRegAppTableRecord
  2
GEVID1208845797
 70
     0
  0
APPID
  5
45F
330
9
100
AcDbSymbolTableRecord
100
AcDbRegAppTableRecord
  2
GEVID1208845798
 70
     0
  0
APPID
  5
460
330
9
100
AcDbSymbolTableRecord
100
AcDbRegAppTableRecord
  2
GEVID1208845799
 70
     0
  0
APPID
  5
461
330
9
100
AcDbSymbolTableRecord
100
AcDbRegAppTableRecord
  2
GEVID1208845800
 70
     0
  0
APPID
  5
462
330
9
100
AcDbSymbolTableRecord
100
AcDbRegAppTableRecord
  2
GEVID1208845801
 70
     0
  0
APPID
  5
463
330
9
100
AcDbSymbolTableRecord
100
AcDbRegAppTableRecord
  2
GEVID1208845802
 70
     0
  0
APPID
  5
464
330
9
100
AcDbSymbolTableRecord
100
AcDbRegAppTableRecord
  2
GENIUS_GENOBJ-N-DIM_13
 70
     0
  0
APPID
  5
465
330
9
100
AcDbSymbolTableRecord
100
AcDbRegAppTableRecord
  2
GENIUS_GENDIM_13
 70
     0
  0
APPID
  5
466
330
9
100
AcDbSymbolTableRecord
100
AcDbRegAppTableRecord
  2
GENIUS_GENDIMSH_14
 70
     0
  0
APPID
  5
467
330
9
100
AcDbSymbolTableRecord
100
AcDbRegAppTableRecord
  2
GEVID1208845803
 70
     0
  0
APPID
  5
468
330
9
100
AcDbSymbolTableRecord
100
AcDbRegAppTableRecord
  2
GEVID1208845804
 70
     0
  0
APPID
  5
469
330
9
100
AcDbSymbolTableRecord
100
AcDbRegAppTableRecord
  2
GEVID1208845805
 70
     0
  0
APPID
  5
46A
330
9
100
AcDbSymbolTableRecord
100
AcDbRegAppTableRecord
  2
GEVID1208845806
 70
     0
  0
APPID
  5
46B
330
9
100
AcDbSymbolTableRecord
100
AcDbRegAppTableRecord
  2
GEVID1208845807
 70
     0
  0
APPID
  5
46C
330
9
100
AcDbSymbolTableRecord
100
AcDbRegAppTableRecord
  2
GEVID1208845808
 70
     0
  0
APPID
  5
46D
330
9
100
AcDbSymbolTableRecord
100
AcDbRegAppTableRecord
  2
GEVID1208845809
 70
     0
  0
APPID
  5
46E
330
9
100
AcDbSymbolTableRecord
100
AcDbRegAppTableRecord
  2
GEVID1208845810
 70
     0
  0
APPID
  5
46F
330
9
100
AcDbSymbolTableRecord
100
AcDbRegAppTableRecord
  2
GEVID1208845811
 70
     0
  0
APPID
  5
470
330
9
100
AcDbSymbolTableRecord
100
AcDbRegAppTableRecord
  2
GEVID1208845813
 70
     0
  0
APPID
  5
471
330
9
100
AcDbSymbolTableRecord
100
AcDbRegAppTableRecord
  2
GEVID1208845814
 70
     0
  0
APPID
  5
472
330
9
100
AcDbSymbolTableRecord
100
AcDbRegAppTableRecord
  2
GEVID1208845815
 70
     0
  0
APPID
  5
473
330
9
100
AcDbSymbolTableRecord
100
AcDbRegAppTableRecord
  2
GEVID1208845816
 70
     0
  0
APPID
  5
474
330
9
100
AcDbSymbolTableRecord
100
AcDbRegAppTableRecord
  2
GEVID1208845817
 70
     0
  0
APPID
  5
475
330
9
100
AcDbSymbolTableRecord
100
AcDbRegAppTableRecord
  2
GEVID1208845818
 70
     0
  0
APPID
  5
476
330
9
100
AcDbSymbolTableRecord
100
AcDbRegAppTableRecord
  2
GEVID1208845819
 70
     0
  0
APPID
  5
477
330
9
100
AcDbSymbolTableRecord
100
AcDbRegAppTableRecord
  2
GEVID1208845820
 70
     0
  0
APPID
  5
478
330
9
100
AcDbSymbolTableRecord
100
AcDbRegAppTableRecord
  2
GENIUS_GENOBJ-F-SHCL_13
 70
     0
  0
APPID
  5
479
330
9
100
AcDbSymbolTableRecord
100
AcDbRegAppTableRecord
  2
GENIUS_GEFMSH_13
 70
     0
  0
APPID
  5
47A
330
9
100
AcDbSymbolTableRecord
100
AcDbRegAppTableRecord
  2
GENIUS_GENOBJ-F-SHCA_13
 70
     0
  0
APPID
  5
47B
330
9
100
AcDbSymbolTableRecord
100
AcDbRegAppTableRecord
  2
GENIUS_GEFSH_13
 70
     0
  0
APPID
  5
47C
330
9
100
AcDbSymbolTableRecord
100
AcDbRegAppTableRecord
  2
GENIUS_GEFSHP_13
 70
     0
  0
APPID
  5
47D
330
9
100
AcDbSymbolTableRecord
100
AcDbRegAppTableRecord
  2
GENIUS_GEFSHP0_13
 70
     0
  0
APPID
  5
47E
330
9
100
AcDbSymbolTableRecord
100
AcDbRegAppTableRecord
  2
GENIUS_GEFSH0_13
 70
     0
  0
APPID
  5
47F
330
9
100
AcDbSymbolTableRecord
100
AcDbRegAppTableRecord
  2
GENIUS_GEFSHP1_13
 70
     0
  0
APPID
  5
480
330
9
100
AcDbSymbolTableRecord
100
AcDbRegAppTableRecord
  2
GENIUS_GEFSH1_13
 70
     0
  0
APPID
  5
481
330
9
100
AcDbSymbolTableRecord
100
AcDbRegAppTableRecord
  2
GEVID1208866337
 70
     0
  0
APPID
  5
482
330
9
100
AcDbSymbolTableRecord
100
AcDbRegAppTableRecord
  2
GEVID1208866338
 70
     0
  0
APPID
  5
483
330
9
100
AcDbSymbolTableRecord
100
AcDbRegAppTableRecord
  2
GEVID1208866339
 70
     0
  0
APPID
  5
484
330
9
100
AcDbSymbolTableRecord
100
AcDbRegAppTableRecord
  2
GEVID1208866340
 70
     0
  0
APPID
  5
485
330
9
100
AcDbSymbolTableRecord
100
AcDbRegAppTableRecord
  2
GEVID1208866341
 70
     0
  0
APPID
  5
486
330
9
100
AcDbSymbolTableRecord
100
AcDbRegAppTableRecord
  2
ACAD_PSEXT
 70
     0
  0
APPID
  5
487
330
9
100
AcDbSymbolTableRecord
100
AcDbRegAppTableRecord
  2
GEVID1208866342
 70
     0
  0
APPID
  5
488
330
9
100
AcDbSymbolTableRecord
100
AcDbRegAppTableRecord
  2
GEVID1208913836
 70
     0
  0
APPID
  5
489
330
9
100
AcDbSymbolTableRecord
100
AcDbRegAppTableRecord
  2
GEVID1208913837
 70
     0
  0
APPID
  5
48A
330
9
100
AcDbSymbolTableRecord
100
AcDbRegAppTableRecord
  2
GEVID1208913838
 70
     0
  0
APPID
  5
48B
330
9
100
AcDbSymbolTableRecord
100
AcDbRegAppTableRecord
  2
GEVID1208913839
 70
     0
  0
APPID
  5
48C
330
9
100
AcDbSymbolTableRecord
100
AcDbRegAppTableRecord
  2
GENIUS_GENDTOL_13
 70
     0
  0
APPID
  5
48D
330
9
100
AcDbSymbolTableRecord
100
AcDbRegAppTableRecord
  2
GEVID1208928889
 70
     0
  0
APPID
  5
48E
330
9
100
AcDbSymbolTableRecord
100
AcDbRegAppTableRecord
  2
GEVID1208928890
 70
     0
  0
APPID
  5
48F
330
9
100
AcDbSymbolTableRecord
100
AcDbRegAppTableRecord
  2
GEVID1208928891
 70
     0
  0
APPID
  5
490
330
9
100
AcDbSymbolTableRecord
100
AcDbRegAppTableRecord
  2
GEVID1208928892
 70
     0
  0
APPID
  5
491
330
9
100
AcDbSymbolTableRecord
100
AcDbRegAppTableRecord
  2
GEVID1208933827
 70
     0
  0
APPID
  5
492
330
9
100
AcDbSymbolTableRecord
100
AcDbRegAppTableRecord
  2
GEVID1208933829
 70
     0
  0
APPID
  5
493
330
9
100
AcDbSymbolTableRecord
100
AcDbRegAppTableRecord
  2
GEVID1208933830
 70
     0
  0
APPID
  5
494
330
9
100
AcDbSymbolTableRecord
100
AcDbRegAppTableRecord
  2
GEVID1208933831
 70
     0
  0
APPID
  5
495
330
9
100
AcDbSymbolTableRecord
100
AcDbRegAppTableRecord
  2
GEVID1208933832
 70
     0
  0
APPID
  5
496
330
9
100
AcDbSymbolTableRecord
100
AcDbRegAppTableRecord
  2
GEVID1208933833
 70
     0
  0
APPID
  5
497
330
9
100
AcDbSymbolTableRecord
100
AcDbRegAppTableRecord
  2
GEVID1208933834
 70
     0
  0
APPID
  5
498
330
9
100
AcDbSymbolTableRecord
100
AcDbRegAppTableRecord
  2
GEVID1208933835
 70
     0
  0
APPID
  5
499
330
9
100
AcDbSymbolTableRecord
100
AcDbRegAppTableRecord
  2
GEVID1208933836
 70
     0
  0
APPID
  5
49A
330
9
100
AcDbSymbolTableRecord
100
AcDbRegAppTableRecord
  2
GEVID1208933837
 70
     0
  0
APPID
  5
49B
330
9
100
AcDbSymbolTableRecord
100
AcDbRegAppTableRecord
  2
GEVID1208933838
 70
     0
  0
APPID
  5
49C
330
9
100
AcDbSymbolTableRecord
100
AcDbRegAppTableRecord
  2
GEVID1208933840
 70
     0
  0
APPID
  5
49D
330
9
100
AcDbSymbolTableRecord
100
AcDbRegAppTableRecord
  2
GEVID1208933842
 70
     0
  0
APPID
  5
49E
330
9
100
AcDbSymbolTableRecord
100
AcDbRegAppTableRecord
  2
GEVID1208933843
 70
     0
  0
APPID
  5
49F
330
9
100
AcDbSymbolTableRecord
100
AcDbRegAppTableRecord
  2
GEVID1208933844
 70
     0
  0
APPID
  5
4A0
330
9
100
AcDbSymbolTableRecord
100
AcDbRegAppTableRecord
  2
GEVID1208933845
 70
     0
  0
APPID
  5
4A1
330
9
100
AcDbSymbolTableRecord
100
AcDbRegAppTableRecord
  2
GEVID1208933846
 70
     0
  0
APPID
  5
4A2
330
9
100
AcDbSymbolTableRecord
100
AcDbRegAppTableRecord
  2
GEVID1208933847
 70
     0
  0
APPID
  5
4A3
330
9
100
AcDbSymbolTableRecord
100
AcDbRegAppTableRecord
  2
GEVID1208933848
 70
     0
  0
APPID
  5
4A4
330
9
100
AcDbSymbolTableRecord
100
AcDbRegAppTableRecord
  2
GEVID1208933849
 70
     0
  0
APPID
  5
4A5
330
9
100
AcDbSymbolTableRecord
100
AcDbRegAppTableRecord
  2
GEVID1208933850
 70
     0
  0
APPID
  5
4A6
330
9
100
AcDbSymbolTableRecord
100
AcDbRegAppTableRecord
  2
GEVID1208933851
 70
     0
  0
APPID
  5
4A7
330
9
100
AcDbSymbolTableRecord
100
AcDbRegAppTableRecord
  2
GEVID1208933852
 70
     0
  0
APPID
  5
4A8
330
9
100
AcDbSymbolTableRecord
100
AcDbRegAppTableRecord
  2
GEVID1208933853
 70
     0
  0
APPID
  5
4A9
330
9
100
AcDbSymbolTableRecord
100
AcDbRegAppTableRecord
  2
GEVID1208933854
 70
     0
  0
APPID
  5
4AA
330
9
100
AcDbSymbolTableRecord
100
AcDbRegAppTableRecord
  2
GEVID1208933855
 70
     0
  0
APPID
  5
4AB
330
9
100
AcDbSymbolTableRecord
100
AcDbRegAppTableRecord
  2
GEVID1208933856
 70
     0
  0
APPID
  5
4AC
330
9
100
AcDbSymbolTableRecord
100
AcDbRegAppTableRecord
  2
GEVID1208933857
 70
     0
  0
APPID
  5
4AD
330
9
100
AcDbSymbolTableRecord
100
AcDbRegAppTableRecord
  2
GEVID1208933858
 70
     0
  0
APPID
  5
4AE
330
9
100
AcDbSymbolTableRecord
100
AcDbRegAppTableRecord
  2
GEVID1208933859
 70
     0
  0
APPID
  5
4AF
330
9
100
AcDbSymbolTableRecord
100
AcDbRegAppTableRecord
  2
GEVID1208933860
 70
     0
  0
APPID
  5
4B0
330
9
100
AcDbSymbolTableRecord
100
AcDbRegAppTableRecord
  2
GEVID1208933861
 70
     0
  0
APPID
  5
4B1
330
9
100
AcDbSymbolTableRecord
100
AcDbRegAppTableRecord
  2
GEVID1208933862
 70
     0
  0
APPID
  5
4B2
330
9
100
AcDbSymbolTableRecord
100
AcDbRegAppTableRecord
  2
GEVID1208933863
 70
     0
  0
APPID
  5
4B3
330
9
100
AcDbSymbolTableRecord
100
AcDbRegAppTableRecord
  2
GEVID1208933864
 70
     0
  0
APPID
  5
4B4
330
9
100
AcDbSymbolTableRecord
100
AcDbRegAppTableRecord
  2
GEVID1208933865
 70
     0
  0
APPID
  5
4B5
330
9
100
AcDbSymbolTableRecord
100
AcDbRegAppTableRecord
  2
GEVID1208933866
 70
     0
  0
APPID
  5
4B6
330
9
100
AcDbSymbolTableRecord
100
AcDbRegAppTableRecord
  2
GEVID1208933867
 70
     0
  0
APPID
  5
4B7
330
9
100
AcDbSymbolTableRecord
100
AcDbRegAppTableRecord
  2
GEVID1208933868
 70
     0
  0
APPID
  5
4B8
330
9
100
AcDbSymbolTableRecord
100
AcDbRegAppTableRecord
  2
GEVID1208933869
 70
     0
  0
APPID
  5
4B9
330
9
100
AcDbSymbolTableRecord
100
AcDbRegAppTableRecord
  2
GEVID1208933870
 70
     0
  0
APPID
  5
4BA
330
9
100
AcDbSymbolTableRecord
100
AcDbRegAppTableRecord
  2
GEVID1208933871
 70
     0
  0
APPID
  5
4BB
330
9
100
AcDbSymbolTableRecord
100
AcDbRegAppTableRecord
  2
GEVID1208933872
 70
     0
  0
APPID
  5
4BC
330
9
100
AcDbSymbolTableRecord
100
AcDbRegAppTableRecord
  2
GEVID1208933873
 70
     0
  0
APPID
  5
4BD
330
9
100
AcDbSymbolTableRecord
100
AcDbRegAppTableRecord
  2
GEVID1208933874
 70
     0
  0
APPID
  5
4BE
330
9
100
AcDbSymbolTableRecord
100
AcDbRegAppTableRecord
  2
GEVID1208933875
 70
     0
  0
APPID
  5
4BF
330
9
100
AcDbSymbolTableRecord
100
AcDbRegAppTableRecord
  2
GEVID1208933876
 70
     0
  0
APPID
  5
4C0
330
9
100
AcDbSymbolTableRecord
100
AcDbRegAppTableRecord
  2
ACAD_DSTYLE_DIMRADIAL_EXTENSION
 70
     0
  0
APPID
  5
4C1
330
9
100
AcDbSymbolTableRecord
100
AcDbRegAppTableRecord
  2
GEVID1208999100
 70
     0
  0
APPID
  5
4C2
330
9
100
AcDbSymbolTableRecord
100
AcDbRegAppTableRecord
  2
GEVID1208999101
 70
     0
  0
APPID
  5
4C3
330
9
100
AcDbSymbolTableRecord
100
AcDbRegAppTableRecord
  2
GEVID1208999102
 70
     0
  0
APPID
  5
4C4
330
9
100
AcDbSymbolTableRecord
100
AcDbRegAppTableRecord
  2
GEVID1208999103
 70
     0
  0
APPID
  5
4C5
330
9
100
AcDbSymbolTableRecord
100
AcDbRegAppTableRecord
  2
GEVID1208999105
 70
     0
  0
APPID
  5
4C6
330
9
100
AcDbSymbolTableRecord
100
AcDbRegAppTableRecord
  2
GEVID1208999106
 70
     0
  0
APPID
  5
4C7
330
9
100
AcDbSymbolTableRecord
100
AcDbRegAppTableRecord
  2
GEVID1208999108
 70
     0
  0
APPID
  5
4C8
330
9
100
AcDbSymbolTableRecord
100
AcDbRegAppTableRecord
  2
GEVID1208999109
 70
     0
  0
APPID
  5
4C9
330
9
100
AcDbSymbolTableRecord
100
AcDbRegAppTableRecord
  2
GEVID1208999110
 70
     0
  0
APPID
  5
4CA
330
9
100
AcDbSymbolTableRecord
100
AcDbRegAppTableRecord
  2
GEVID1208999111
 70
     0
  0
APPID
  5
4CB
330
9
100
AcDbSymbolTableRecord
100
AcDbRegAppTableRecord
  2
GEVID1208999112
 70
     0
  0
APPID
  5
4CC
330
9
100
AcDbSymbolTableRecord
100
AcDbRegAppTableRecord
  2
GEVID1208999113
 70
     0
  0
APPID
  5
4CD
330
9
100
AcDbSymbolTableRecord
100
AcDbRegAppTableRecord
  2
GEVID1208999114
 70
     0
  0
APPID
  5
4CE
330
9
100
AcDbSymbolTableRecord
100
AcDbRegAppTableRecord
  2
GEVID1210218799
 70
     0
  0
APPID
  5
4CF
330
9
100
AcDbSymbolTableRecord
100
AcDbRegAppTableRecord
  2
GEVID1210218800
 70
     0
  0
APPID
  5
4D0
330
9
100
AcDbSymbolTableRecord
100
AcDbRegAppTableRecord
  2
GENIUS_GEFWELD_13
 70
     0
  0
APPID
  5
4D1
330
9
100
AcDbSymbolTableRecord
100
AcDbRegAppTableRecord
  2
GENIUS_GENOBJ-F-WELS_13
 70
     0
  0
APPID
  5
4D2
330
9
100
AcDbSymbolTableRecord
100
AcDbRegAppTableRecord
  2
AcadAnnotative
 70
     0
  0
APPID
  5
4D3
330
9
100
AcDbSymbolTableRecord
100
AcDbRegAppTableRecord
  2
GEVID1210145339
 70
     0
  0
APPID
  5
4D4
330
9
100
AcDbSymbolTableRecord
100
AcDbRegAppTableRecord
  2
ACAD_DSTYLE_DIMBREAK
 70
     0
  0
APPID
  5
4D5
330
9
100
AcDbSymbolTableRecord
100
AcDbRegAppTableRecord
  2
GEVID1210145340
 70
     0
  0
APPID
  5
4D6
330
9
100
AcDbSymbolTableRecord
100
AcDbRegAppTableRecord
  2
GEVID1210145341
 70
     0
  0
APPID
  5
4D7
330
9
100
AcDbSymbolTableRecord
100
AcDbRegAppTableRecord
  2
GEVID1210145342
 70
     0
  0
APPID
  5
4D8
330
9
100
AcDbSymbolTableRecord
100
AcDbRegAppTableRecord
  2
GEVID1210145343
 70
     0
  0
APPID
  5
4D9
330
9
100
AcDbSymbolTableRecord
100
AcDbRegAppTableRecord
  2
GEVID1210145344
 70
     0
  0
APPID
  5
4DA
330
9
100
AcDbSymbolTableRecord
100
AcDbRegAppTableRecord
  2
GEVID1210145345
 70
     0
  0
APPID
  5
4DB
330
9
100
AcDbSymbolTableRecord
100
AcDbRegAppTableRecord
  2
GEVID1210152816
 70
     0
  0
APPID
  5
4DC
330
9
100
AcDbSymbolTableRecord
100
AcDbRegAppTableRecord
  2
GEVID1210153850
 70
     0
  0
APPID
  5
4DD
330
9
100
AcDbSymbolTableRecord
100
AcDbRegAppTableRecord
  2
GEVID1210153851
 70
     0
  0
APPID
  5
4DE
330
9
100
AcDbSymbolTableRecord
100
AcDbRegAppTableRecord
  2
GEVID1210153852
 70
     0
  0
APPID
  5
4DF
330
9
100
AcDbSymbolTableRecord
100
AcDbRegAppTableRecord
  2
GEVID1210549898
 70
     0
  0
APPID
  5
4E0
330
9
100
AcDbSymbolTableRecord
100
AcDbRegAppTableRecord
  2
GEVID1210549899
 70
     0
  0
APPID
  5
4E1
330
9
100
AcDbSymbolTableRecord
100
AcDbRegAppTableRecord
  2
GEVID1210549900
 70
     0
  0
APPID
  5
4E2
330
9
100
AcDbSymbolTableRecord
100
AcDbRegAppTableRecord
  2
GEVID1210549901
 70
     0
  0
APPID
  5
4E3
330
9
100
AcDbSymbolTableRecord
100
AcDbRegAppTableRecord
  2
GEVID1210549902
 70
     0
  0
APPID
  5
4E4
330
9
100
AcDbSymbolTableRecord
100
AcDbRegAppTableRecord
  2
GEVID1210549903
 70
     0
  0
APPID
  5
4E5
330
9
100
AcDbSymbolTableRecord
100
AcDbRegAppTableRecord
  2
GEVID1210549904
 70
     0
  0
APPID
  5
4E6
330
9
100
AcDbSymbolTableRecord
100
AcDbRegAppTableRecord
  2
GEVID1210549905
 70
     0
  0
APPID
  5
4E7
330
9
100
AcDbSymbolTableRecord
100
AcDbRegAppTableRecord
  2
GEVID1210549906
 70
     0
  0
APPID
  5
4E8
330
9
100
AcDbSymbolTableRecord
100
AcDbRegAppTableRecord
  2
GEVID1210549907
 70
     0
  0
APPID
  5
4E9
330
9
100
AcDbSymbolTableRecord
100
AcDbRegAppTableRecord
  2
GEVID1210549908
 70
     0
  0
APPID
  5
4EA
330
9
100
AcDbSymbolTableRecord
100
AcDbRegAppTableRecord
  2
GEVID1210549909
 70
     0
  0
APPID
  5
4EB
330
9
100
AcDbSymbolTableRecord
100
AcDbRegAppTableRecord
  2
GEVID1210549910
 70
     0
  0
APPID
  5
4EC
330
9
100
AcDbSymbolTableRecord
100
AcDbRegAppTableRecord
  2
GEVID1210549911
 70
     0
  0
APPID
  5
4ED
330
9
100
AcDbSymbolTableRecord
100
AcDbRegAppTableRecord
  2
GEVID1210549912
 70
     0
  0
APPID
  5
4EE
330
9
100
AcDbSymbolTableRecord
100
AcDbRegAppTableRecord
  2
GEVID1210549913
 70
     0
  0
APPID
  5
4EF
330
9
100
AcDbSymbolTableRecord
100
AcDbRegAppTableRecord
  2
GEVID1210549914
 70
     0
  0
APPID
  5
4F0
330
9
100
AcDbSymbolTableRecord
100
AcDbRegAppTableRecord
  2
GEVID1210549915
 70
     0
  0
APPID
  5
4F1
330
9
100
AcDbSymbolTableRecord
100
AcDbRegAppTableRecord
  2
GEVID1210549916
 70
     0
  0
APPID
  5
4F2
330
9
100
AcDbSymbolTableRecord
100
AcDbRegAppTableRecord
  2
GEVID1210549917
 70
     0
  0
APPID
  5
4F3
330
9
100
AcDbSymbolTableRecord
100
AcDbRegAppTableRecord
  2
GENIUS_GENOBJ-N-CRS_13
 70
     0
  0
APPID
  5
4F4
330
9
100
AcDbSymbolTableRecord
100
AcDbRegAppTableRecord
  2
GEVID1210549918
 70
     0
  0
APPID
  5
4F5
330
9
100
AcDbSymbolTableRecord
100
AcDbRegAppTableRecord
  2
GENIUS_GENOBJ-N-CRC_13
 70
     0
  0
APPID
  5
4F6
330
9
100
AcDbSymbolTableRecord
100
AcDbRegAppTableRecord
  2
GENIUS_GENCRC_14
 70
     0
  0
APPID
  5
4F7
330
9
100
AcDbSymbolTableRecord
100
AcDbRegAppTableRecord
  2
GEVID1210549919
 70
     0
  0
APPID
  5
4F8
330
9
100
AcDbSymbolTableRecord
100
AcDbRegAppTableRecord
  2
GEVID1210549921
 70
     0
  0
APPID
  5
4F9
330
9
100
AcDbSymbolTableRecord
100
AcDbRegAppTableRecord
  2
GEVID1210549922
 70
     0
  0
APPID
  5
4FA
330
9
100
AcDbSymbolTableRecord
100
AcDbRegAppTableRecord
  2
GEVID1210635173
 70
     0
  0
APPID
  5
4FB
330
9
100
AcDbSymbolTableRecord
100
AcDbRegAppTableRecord
  2
GEVID1210635174
 70
     0
  0
APPID
  5
4FC
330
9
100
AcDbSymbolTableRecord
100
AcDbRegAppTableRecord
  2
GEVID1210635175
 70
     0
  0
APPID
  5
4FD
330
9
100
AcDbSymbolTableRecord
100
AcDbRegAppTableRecord
  2
GEVID1210635176
 70
     0
  0
APPID
  5
4FE
330
9
100
AcDbSymbolTableRecord
100
AcDbRegAppTableRecord
  2
GEVID1210635177
 70
     0
  0
APPID
  5
4FF
330
9
100
AcDbSymbolTableRecord
100
AcDbRegAppTableRecord
  2
GEVID1210635178
 70
     0
  0
APPID
  5
500
330
9
100
AcDbSymbolTableRecord
100
AcDbRegAppTableRecord
  2
GENIUS_GENIUS_GENBHEDTMP_13
 70
     0
  0
APPID
  5
501
330
9
100
AcDbSymbolTableRecord
100
AcDbRegAppTableRecord
  2
GEVID1210635179
 70
     0
  0
APPID
  5
502
330
9
100
AcDbSymbolTableRecord
100
AcDbRegAppTableRecord
  2
GEVID1210635180
 70
     0
  0
APPID
  5
503
330
9
100
AcDbSymbolTableRecord
100
AcDbRegAppTableRecord
  2
GEVID1210635181
 70
     0
  0
APPID
  5
504
330
9
100
AcDbSymbolTableRecord
100
AcDbRegAppTableRecord
  2
GEVID1210635182
 70
     0
  0
APPID
  5
505
330
9
100
AcDbSymbolTableRecord
100
AcDbRegAppTableRecord
  2
GEVID1210635184
 70
     0
  0
APPID
  5
506
330
9
100
AcDbSymbolTableRecord
100
AcDbRegAppTableRecord
  2
GEVID1210635185
 70
     0
  0
APPID
  5
507
330
9
100
AcDbSymbolTableRecord
100
AcDbRegAppTableRecord
  2
GEVID1210635186
 70
     0
  0
APPID
  5
508
330
9
100
AcDbSymbolTableRecord
100
AcDbRegAppTableRecord
  2
GEVID1210635187
 70
     0
  0
APPID
  5
509
330
9
100
AcDbSymbolTableRecord
100
AcDbRegAppTableRecord
  2
GEVID1210635188
 70
     0
  0
APPID
  5
50A
330
9
100
AcDbSymbolTableRecord
100
AcDbRegAppTableRecord
  2
GEVID1210635189
 70
     0
  0
APPID
  5
50B
330
9
100
AcDbSymbolTableRecord
100
AcDbRegAppTableRecord
  2
GEVID1210635190
 70
     0
  0
APPID
  5
50C
330
9
100
AcDbSymbolTableRecord
100
AcDbRegAppTableRecord
  2
GENIUS_GENREC_14
 70
     0
  0
APPID
  5
50D
330
9
100
AcDbSymbolTableRecord
100
AcDbRegAppTableRecord
  2
GENIUS_GENOBJ-N-REC_13
 70
     0
  0
APPID
  5
50E
330
9
100
AcDbSymbolTableRecord
100
AcDbRegAppTableRecord
  2
GEVID1210676655
 70
     0
  0
APPID
  5
50F
330
9
100
AcDbSymbolTableRecord
100
AcDbRegAppTableRecord
  2
GEVID1210676656
 70
     0
  0
APPID
  5
510
330
9
100
AcDbSymbolTableRecord
100
AcDbRegAppTableRecord
  2
GEVID1210676657
 70
     0
  0
APPID
  5
511
330
9
100
AcDbSymbolTableRecord
100
AcDbRegAppTableRecord
  2
GEVID1210676659
 70
     0
  0
APPID
  5
512
330
9
100
AcDbSymbolTableRecord
100
AcDbRegAppTableRecord
  2
GEVID1210676660
 70
     0
  0
APPID
  5
513
330
9
100
AcDbSymbolTableRecord
100
AcDbRegAppTableRecord
  2
GEVID1210676661
 70
     0
  0
APPID
  5
514
330
9
100
AcDbSymbolTableRecord
100
AcDbRegAppTableRecord
  2
GEVID1210676662
 70
     0
  0
APPID
  5
515
330
9
100
AcDbSymbolTableRecord
100
AcDbRegAppTableRecord
  2
GEVID1210721646
 70
     0
  0
APPID
  5
516
330
9
100
AcDbSymbolTableRecord
100
AcDbRegAppTableRecord
  2
GEVID1210721647
 70
     0
  0
APPID
  5
517
330
9
100
AcDbSymbolTableRecord
100
AcDbRegAppTableRecord
  2
GEVID1210721648
 70
     0
  0
APPID
  5
518
330
9
100
AcDbSymbolTableRecord
100
AcDbRegAppTableRecord
  2
GEVID1210721649
 70
     0
  0
APPID
  5
519
330
9
100
AcDbSymbolTableRecord
100
AcDbRegAppTableRecord
  2
GEVID1210721650
 70
     0
  0
APPID
  5
51A
330
9
100
AcDbSymbolTableRecord
100
AcDbRegAppTableRecord
  2
GEVID1210721651
 70
     0
  0
APPID
  5
51B
330
9
100
AcDbSymbolTableRecord
100
AcDbRegAppTableRecord
  2
GEVID1210721652
 70
     0
  0
APPID
  5
51C
330
9
100
AcDbSymbolTableRecord
100
AcDbRegAppTableRecord
  2
GEVID1210721653
 70
     0
  0
APPID
  5
51D
330
9
100
AcDbSymbolTableRecord
100
AcDbRegAppTableRecord
  2
PE_URL
 70
     0
  0
APPID
  5
51E
330
9
100
AcDbSymbolTableRecord
100
AcDbRegAppTableRecord
  2
GEVID1210825555
 70
     0
  0
APPID
  5
51F
330
9
100
AcDbSymbolTableRecord
100
AcDbRegAppTableRecord
  2
GEVID1210825556
 70
     0
  0
APPID
  5
520
330
9
100
AcDbSymbolTableRecord
100
AcDbRegAppTableRecord
  2
GEVID1210825557
 70
     0
  0
APPID
  5
521
330
9
100
AcDbSymbolTableRecord
100
AcDbRegAppTableRecord
  2
GEVID1210825558
 70
     0
  0
APPID
  5
522
330
9
100
AcDbSymbolTableRecord
100
AcDbRegAppTableRecord
  2
GEVID1210825559
 70
     0
  0
APPID
  5
523
330
9
100
AcDbSymbolTableRecord
100
AcDbRegAppTableRecord
  2
GEVID1210825560
 70
     0
  0
APPID
  5
524
330
9
100
AcDbSymbolTableRecord
100
AcDbRegAppTableRecord
  2
GEVID1210825561
 70
     0
  0
APPID
  5
525
330
9
100
AcDbSymbolTableRecord
100
AcDbRegAppTableRecord
  2
GEVID1210825562
 70
     0
  0
APPID
  5
526
330
9
100
AcDbSymbolTableRecord
100
AcDbRegAppTableRecord
  2
GEVID1210825563
 70
     0
  0
APPID
  5
527
330
9
100
AcDbSymbolTableRecord
100
AcDbRegAppTableRecord
  2
GEVID1210825564
 70
     0
  0
APPID
  5
528
330
9
100
AcDbSymbolTableRecord
100
AcDbRegAppTableRecord
  2
GEVID1210825565
 70
     0
  0
APPID
  5
529
330
9
100
AcDbSymbolTableRecord
100
AcDbRegAppTableRecord
  2
GEVID1210825566
 70
     0
  0
APPID
  5
52A
330
9
100
AcDbSymbolTableRecord
100
AcDbRegAppTableRecord
  2
GEVID1210825567
 70
     0
  0
APPID
  5
52B
330
9
100
AcDbSymbolTableRecord
100
AcDbRegAppTableRecord
  2
GENIUS_GENOBJ-N-ZOO_13
 70
     0
  0
APPID
  5
52C
330
9
100
AcDbSymbolTableRecord
100
AcDbRegAppTableRecord
  2
GENIUS_GENZOO_17
 70
     0
  0
APPID
  5
52D
330
9
100
AcDbSymbolTableRecord
100
AcDbRegAppTableRecord
  2
ACADANNOTATIVEDECOMPOSITION
 70
     0
  0
APPID
  5
52E
330
9
100
AcDbSymbolTableRecord
100
AcDbRegAppTableRecord
  2
GENIUS_GENOBJ-N-HTC_13
 70
     0
  0
APPID
  5
52F
330
9
100
AcDbSymbolTableRecord
100
AcDbRegAppTableRecord
  2
GENIUS_GENHATCH_13
 70
     0
  0
APPID
  5
530
330
9
100
AcDbSymbolTableRecord
100
AcDbRegAppTableRecord
  2
GEVID1210896020
 70
     0
  0
APPID
  5
531
330
9
100
AcDbSymbolTableRecord
100
AcDbRegAppTableRecord
  2
GEVID1210896021
 70
     0
  0
APPID
  5
532
330
9
100
AcDbSymbolTableRecord
100
AcDbRegAppTableRecord
  2
GEVID1209083540
 70
     0
  0
APPID
  5
533
330
9
100
AcDbSymbolTableRecord
100
AcDbRegAppTableRecord
  2
GEVMK
 70
     0
  0
APPID
  5
534
330
9
100
AcDbSymbolTableRecord
100
AcDbRegAppTableRecord
  2
GEVID1209083542
 70
     0
  0
APPID
  5
535
330
9
100
AcDbSymbolTableRecord
100
AcDbRegAppTableRecord
  2
GEVID1209083543
 70
     0
  0
APPID
  5
536
330
9
100
AcDbSymbolTableRecord
100
AcDbRegAppTableRecord
  2
GEVID1209083544
 70
     0
  0
APPID
  5
537
330
9
100
AcDbSymbolTableRecord
100
AcDbRegAppTableRecord
  2
GEVID1209083545
 70
     0
  0
APPID
  5
538
330
9
100
AcDbSymbolTableRecord
100
AcDbRegAppTableRecord
  2
GEVID1209083546
 70
     0
  0
APPID
  5
539
330
9
100
AcDbSymbolTableRecord
100
AcDbRegAppTableRecord
  2
GEVID1209083547
 70
     0
  0
APPID
  5
53A
330
9
100
AcDbSymbolTableRecord
100
AcDbRegAppTableRecord
  2
GEVID1209083548
 70
     0
  0
APPID
  5
53B
330
9
100
AcDbSymbolTableRecord
100
AcDbRegAppTableRecord
  2
GEVID1209083549
 70
     0
  0
APPID
  5
53C
330
9
100
AcDbSymbolTableRecord
100
AcDbRegAppTableRecord
  2
GEVID1209083550
 70
     0
  0
APPID
  5
53D
330
9
100
AcDbSymbolTableRecord
100
AcDbRegAppTableRecord
  2
GEVID1209083551
 70
     0
  0
APPID
  5
53E
330
9
100
AcDbSymbolTableRecord
100
AcDbRegAppTableRecord
  2
GEVID1209083552
 70
     0
  0
APPID
  5
53F
330
9
100
AcDbSymbolTableRecord
100
AcDbRegAppTableRecord
  2
GEVID1209083553
 70
     0
  0
APPID
  5
540
330
9
100
AcDbSymbolTableRecord
100
AcDbRegAppTableRecord
  2
GEVID1210896022
 70
     0
  0
APPID
  5
541
330
9
100
AcDbSymbolTableRecord
100
AcDbRegAppTableRecord
  2
GEVID1211508364
 70
     0
  0
APPID
  5
542
330
9
100
AcDbSymbolTableRecord
100
AcDbRegAppTableRecord
  2
GEVID1211414908
 70
     0
  0
APPID
  5
543
330
9
100
AcDbSymbolTableRecord
100
AcDbRegAppTableRecord
  2
GEVID1211414909
 70
     0
  0
APPID
  5
544
330
9
100
AcDbSymbolTableRecord
100
AcDbRegAppTableRecord
  2
GEVID1211508359
 70
     0
  0
APPID
  5
545
330
9
100
AcDbSymbolTableRecord
100
AcDbRegAppTableRecord
  2
GEVID1211508360
 70
     0
  0
APPID
  5
546
330
9
100
AcDbSymbolTableRecord
100
AcDbRegAppTableRecord
  2
GEVID1211508361
 70
     0
  0
APPID
  5
547
330
9
100
AcDbSymbolTableRecord
100
AcDbRegAppTableRecord
  2
GEVID1211508362
 70
     0
  0
APPID
  5
548
330
9
100
AcDbSymbolTableRecord
100
AcDbRegAppTableRecord
  2
GEVID1211508363
 70
     0
  0
APPID
  5
549
330
9
100
AcDbSymbolTableRecord
100
AcDbRegAppTableRecord
  2
GEVID1211878469
 70
     0
  0
APPID
  5
54A
330
9
100
AcDbSymbolTableRecord
100
AcDbRegAppTableRecord
  2
GEVID1212642819
 70
     0
  0
APPID
  5
54B
330
9
100
AcDbSymbolTableRecord
100
AcDbRegAppTableRecord
  2
GEVID1212642820
 70
     0
  0
APPID
  5
54C
330
9
100
AcDbSymbolTableRecord
100
AcDbRegAppTableRecord
  2
GEVID1212642821
 70
     0
  0
APPID
  5
54D
330
9
100
AcDbSymbolTableRecord
100
AcDbRegAppTableRecord
  2
GEVID1212642822
 70
     0
  0
APPID
  5
54E
330
9
100
AcDbSymbolTableRecord
100
AcDbRegAppTableRecord
  2
GEVID1212642823
 70
     0
  0
APPID
  5
54F
330
9
100
AcDbSymbolTableRecord
100
AcDbRegAppTableRecord
  2
GEVID1212642825
 70
     0
  0
APPID
  5
550
330
9
100
AcDbSymbolTableRecord
100
AcDbRegAppTableRecord
  2
GEVID1212642826
 70
     0
  0
APPID
  5
551
330
9
100
AcDbSymbolTableRecord
100
AcDbRegAppTableRecord
  2
GEVID1212642827
 70
     0
  0
APPID
  5
552
330
9
100
AcDbSymbolTableRecord
100
AcDbRegAppTableRecord
  2
GEVID1212642828
 70
     0
  0
APPID
  5
553
330
9
100
AcDbSymbolTableRecord
100
AcDbRegAppTableRecord
  2
GEVID1212642831
 70
     0
  0
APPID
  5
554
330
9
100
AcDbSymbolTableRecord
100
AcDbRegAppTableRecord
  2
GEVID1212642834
 70
     0
  0
APPID
  5
555
330
9
100
AcDbSymbolTableRecord
100
AcDbRegAppTableRecord
  2
GEVID1212642835
 70
     0
  0
APPID
  5
556
330
9
100
AcDbSymbolTableRecord
100
AcDbRegAppTableRecord
  2
GEVID1212642836
 70
     0
  0
APPID
  5
557
330
9
100
AcDbSymbolTableRecord
100
AcDbRegAppTableRecord
  2
GEVID1212642837
 70
     0
  0
APPID
  5
558
330
9
100
AcDbSymbolTableRecord
100
AcDbRegAppTableRecord
  2
GEVID1212642839
 70
     0
  0
APPID
  5
559
330
9
100
AcDbSymbolTableRecord
100
AcDbRegAppTableRecord
  2
GEVID1212642840
 70
     0
  0
APPID
  5
55A
330
9
100
AcDbSymbolTableRecord
100
AcDbRegAppTableRecord
  2
GEVID1212642841
 70
     0
  0
APPID
  5
55B
330
9
100
AcDbSymbolTableRecord
100
AcDbRegAppTableRecord
  2
GEVID1212655312
 70
     0
  0
APPID
  5
55C
330
9
100
AcDbSymbolTableRecord
100
AcDbRegAppTableRecord
  2
GEVID1212655313
 70
     0
  0
APPID
  5
55D
330
9
100
AcDbSymbolTableRecord
100
AcDbRegAppTableRecord
  2
GEVID1212656533
 70
     0
  0
APPID
  5
55E
330
9
100
AcDbSymbolTableRecord
100
AcDbRegAppTableRecord
  2
GEVID1212656534
 70
     0
  0
APPID
  5
55F
330
9
100
AcDbSymbolTableRecord
100
AcDbRegAppTableRecord
  2
GEVID1212656535
 70
     0
  0
APPID
  5
560
330
9
100
AcDbSymbolTableRecord
100
AcDbRegAppTableRecord
  2
GEVID1212656536
 70
     0
  0
APPID
  5
561
330
9
100
AcDbSymbolTableRecord
100
AcDbRegAppTableRecord
  2
GEVID1212656538
 70
     0
  0
APPID
  5
562
330
9
100
AcDbSymbolTableRecord
100
AcDbRegAppTableRecord
  2
GEVID1212656541
 70
     0
  0
APPID
  5
563
330
9
100
AcDbSymbolTableRecord
100
AcDbRegAppTableRecord
  2
GEVID1212656543
 70
     0
  0
APPID
  5
564
330
9
100
AcDbSymbolTableRecord
100
AcDbRegAppTableRecord
  2
GENIUS_GENOBJ-F-PFASSM_13
 70
     0
  0
APPID
  5
565
330
9
100
AcDbSymbolTableRecord
100
AcDbRegAppTableRecord
  2
GEVID1212656544
 70
     0
  0
APPID
  5
566
330
9
100
AcDbSymbolTableRecord
100
AcDbRegAppTableRecord
  2
GEVID1212656545
 70
     0
  0
APPID
  5
567
330
9
100
AcDbSymbolTableRecord
100
AcDbRegAppTableRecord
  2
GEVID1212656546
 70
     0
  0
APPID
  5
568
330
9
100
AcDbSymbolTableRecord
100
AcDbRegAppTableRecord
  2
GEVID1212656547
 70
     0
  0
APPID
  5
569
330
9
100
AcDbSymbolTableRecord
100
AcDbRegAppTableRecord
  2
GEVID1212656548
 70
     0
  0
APPID
  5
56A
330
9
100
AcDbSymbolTableRecord
100
AcDbRegAppTableRecord
  2
GEVID1212656549
 70
     0
  0
APPID
  5
56B
330
9
100
AcDbSymbolTableRecord
100
AcDbRegAppTableRecord
  2
GEVID1212656550
 70
     0
  0
APPID
  5
56C
330
9
100
AcDbSymbolTableRecord
100
AcDbRegAppTableRecord
  2
GEVID1212656552
 70
     0
  0
APPID
  5
56D
330
9
100
AcDbSymbolTableRecord
100
AcDbRegAppTableRecord
  2
GEVID1212656553
 70
     0
  0
APPID
  5
56E
330
9
100
AcDbSymbolTableRecord
100
AcDbRegAppTableRecord
  2
GEVID1212656554
 70
     0
  0
APPID
  5
56F
330
9
100
AcDbSymbolTableRecord
100
AcDbRegAppTableRecord
  2
GEVID1212656555
 70
     0
  0
APPID
  5
570
330
9
100
AcDbSymbolTableRecord
100
AcDbRegAppTableRecord
  2
GEVID1212656556
 70
     0
  0
APPID
  5
571
330
9
100
AcDbSymbolTableRecord
100
AcDbRegAppTableRecord
  2
GEVID1212656557
 70
     0
  0
APPID
  5
572
330
9
100
AcDbSymbolTableRecord
100
AcDbRegAppTableRecord
  2
GEVID1212656559
 70
     0
  0
APPID
  5
573
330
9
100
AcDbSymbolTableRecord
100
AcDbRegAppTableRecord
  2
GEVID1212656560
 70
     0
  0
APPID
  5
574
330
9
100
AcDbSymbolTableRecord
100
AcDbRegAppTableRecord
  2
GEVID1212656561
 70
     0
  0
APPID
  5
575
330
9
100
AcDbSymbolTableRecord
100
AcDbRegAppTableRecord
  2
GEVID1212656562
 70
     0
  0
APPID
  5
576
330
9
100
AcDbSymbolTableRecord
100
AcDbRegAppTableRecord
  2
GEVID1212656563
 70
     0
  0
APPID
  5
577
330
9
100
AcDbSymbolTableRecord
100
AcDbRegAppTableRecord
  2
GEVID1212711781
 70
     0
  0
APPID
  5
578
330
9
100
AcDbSymbolTableRecord
100
AcDbRegAppTableRecord
  2
GEVID1212711782
 70
     0
  0
APPID
  5
579
330
9
100
AcDbSymbolTableRecord
100
AcDbRegAppTableRecord
  2
GEVID1212711783
 70
     0
  0
APPID
  5
57A
330
9
100
AcDbSymbolTableRecord
100
AcDbRegAppTableRecord
  2
GEVID1212711784
 70
     0
  0
APPID
  5
57B
330
9
100
AcDbSymbolTableRecord
100
AcDbRegAppTableRecord
  2
GEVID1212711788
 70
     0
  0
APPID
  5
57C
330
9
100
AcDbSymbolTableRecord
100
AcDbRegAppTableRecord
  2
GEVID1212711789
 70
     0
  0
APPID
  5
57D
330
9
100
AcDbSymbolTableRecord
100
AcDbRegAppTableRecord
  2
GEVID1212711790
 70
     0
  0
APPID
  5
57E
330
9
100
AcDbSymbolTableRecord
100
AcDbRegAppTableRecord
  2
GEVID1212711791
 70
     0
  0
APPID
  5
57F
330
9
100
AcDbSymbolTableRecord
100
AcDbRegAppTableRecord
  2
GEVID1212711792
 70
     0
  0
APPID
  5
580
330
9
100
AcDbSymbolTableRecord
100
AcDbRegAppTableRecord
  2
GEVID1212711793
 70
     0
  0
APPID
  5
581
330
9
100
AcDbSymbolTableRecord
100
AcDbRegAppTableRecord
  2
GEVID1212711794
 70
     0
  0
APPID
  5
582
330
9
100
AcDbSymbolTableRecord
100
AcDbRegAppTableRecord
  2
GEVID1212711795
 70
     0
  0
APPID
  5
583
330
9
100
AcDbSymbolTableRecord
100
AcDbRegAppTableRecord
  2
GEVID1212711797
 70
     0
  0
APPID
  5
584
330
9
100
AcDbSymbolTableRecord
100
AcDbRegAppTableRecord
  2
GEVID1212711798
 70
     0
  0
APPID
  5
585
330
9
100
AcDbSymbolTableRecord
100
AcDbRegAppTableRecord
  2
GEVID1212711799
 70
     0
  0
APPID
  5
586
330
9
100
AcDbSymbolTableRecord
100
AcDbRegAppTableRecord
  2
GEVID1212711800
 70
     0
  0
APPID
  5
587
330
9
100
AcDbSymbolTableRecord
100
AcDbRegAppTableRecord
  2
GEVID1212711801
 70
     0
  0
APPID
  5
588
330
9
100
AcDbSymbolTableRecord
100
AcDbRegAppTableRecord
  2
GEVID1212711802
 70
     0
  0
APPID
  5
589
330
9
100
AcDbSymbolTableRecord
100
AcDbRegAppTableRecord
  2
GEVID1212711803
 70
     0
  0
APPID
  5
58A
330
9
100
AcDbSymbolTableRecord
100
AcDbRegAppTableRecord
  2
GEVID1212711804
 70
     0
  0
APPID
  5
58B
330
9
100
AcDbSymbolTableRecord
100
AcDbRegAppTableRecord
  2
GEVID1212711805
 70
     0
  0
APPID
  5
58C
330
9
100
AcDbSymbolTableRecord
100
AcDbRegAppTableRecord
  2
GEVID1212711806
 70
     0
  0
APPID
  5
58D
330
9
100
AcDbSymbolTableRecord
100
AcDbRegAppTableRecord
  2
GEVID1212711807
 70
     0
  0
APPID
  5
58E
330
9
100
AcDbSymbolTableRecord
100
AcDbRegAppTableRecord
  2
GEVID1212711808
 70
     0
  0
APPID
  5
58F
330
9
100
AcDbSymbolTableRecord
100
AcDbRegAppTableRecord
  2
GEVID1212711809
 70
     0
  0
APPID
  5
590
330
9
100
AcDbSymbolTableRecord
100
AcDbRegAppTableRecord
  2
GEVID1212711810
 70
     0
  0
APPID
  5
591
330
9
100
AcDbSymbolTableRecord
100
AcDbRegAppTableRecord
  2
GEVID1212711811
 70
     0
  0
APPID
  5
90A
330
9
100
AcDbSymbolTableRecord
100
AcDbRegAppTableRecord
  2
GENIUS_GENTRA_14
 70
     0
  0
APPID
  5
919
330
9
100
AcDbSymbolTableRecord
100
AcDbRegAppTableRecord
  2
GENIUS_GENOBJ-N-TIT_13
 70
     0
  0
APPID
  5
91A
330
9
100
AcDbSymbolTableRecord
100
AcDbRegAppTableRecord
  2
GENIUS_GENTITLE_13
 70
     0
  0
APPID
  5
949
330
9
100
AcDbSymbolTableRecord
100
AcDbRegAppTableRecord
  2
GENIUS_GENBLLY_14
 70
     0
  0
APPID
  5
DDD
330
9
100
AcDbSymbolTableRecord
100
AcDbRegAppTableRecord
  2
GEVID1213165152
 70
     0
  0
APPID
  5
12F9
330
9
100
AcDbSymbolTableRecord
100
AcDbRegAppTableRecord
  2
AcDbDynamicBlockTrueName
 70
     0
  0
APPID
  5
12FA
330
9
100
AcDbSymbolTableRecord
100
AcDbRegAppTableRecord
  2
ACDBBLOCKREPETAG
 70
     0
  0
APPID
  5
1C15
330
9
100
AcDbSymbolTableRecord
100
AcDbRegAppTableRecord
  2
GEVID1214872427
 70
     0
  0
APPID
  5
1C2A
330
9
100
AcDbSymbolTableRecord
100
AcDbRegAppTableRecord
  2
GEVID1214872428
 70
     0
  0
APPID
  5
1C2F
330
9
100
AcDbSymbolTableRecord
100
AcDbRegAppTableRecord
  2
GEVID1214872429
 70
     0
  0
APPID
  5
1C33
330
9
100
AcDbSymbolTableRecord
100
AcDbRegAppTableRecord
  2
GEVID1214872430
 70
     0
  0
APPID
  5
1C3F
330
9
100
AcDbSymbolTableRecord
100
AcDbRegAppTableRecord
  2
GEVID1214872432
 70
     0
  0
APPID
  5
1C4E
330
9
100
AcDbSymbolTableRecord
100
AcDbRegAppTableRecord
  2
GEVID1214872433
 70
     0
  0
APPID
  5
20DC
330
9
100
AcDbSymbolTableRecord
100
AcDbRegAppTableRecord
  2
AcDbDynamicBlockGUID
 70
     0
  0
APPID
  5
20FD
330
9
100
AcDbSymbolTableRecord
100
AcDbRegAppTableRecord
  2
GENIUS_GENOBJ-N-REV_13
 70
     0
  0
APPID
  5
20FE
330
9
100
AcDbSymbolTableRecord
100
AcDbRegAppTableRecord
  2
GENIUS_GENOBJ-N-RSSYM_13
 70
     0
  0
APPID
  5
20FF
330
9
100
AcDbSymbolTableRecord
100
AcDbRegAppTableRecord
  2
GENIUS_GENSYMENT_13
 70
     0
  0
APPID
  5
2100
330
9
100
AcDbSymbolTableRecord
100
AcDbRegAppTableRecord
  2
GENIUS_GENSCSYM_13
 70
     0
  0
APPID
  5
5673
330
9
100
AcDbSymbolTableRecord
100
AcDbRegAppTableRecord
  2
GEVID1239674430
 70
     0
  0
APPID
  5
567D
330
9
100
AcDbSymbolTableRecord
100
AcDbRegAppTableRecord
  2
GEVID1239674431
 70
     0
  0
APPID
  5
5689
330
9
100
AcDbSymbolTableRecord
100
AcDbRegAppTableRecord
  2
GEVID1239674432
 70
     0
  0
APPID
  5
6872
330
9
100
AcDbSymbolTableRecord
100
AcDbRegAppTableRecord
  2
GEVID1239674433
 70
     0
  0
ENDTAB
  0
TABLE
  2
DIMSTYLE
  5
A
330
0
100
AcDbSymbolTable
 70
    29
100
AcDbDimStyleTable
 71
     1
340
5AB
  0
DIMSTYLE
105
5AB
330
A
100
AcDbSymbolTableRecord
100
AcDbDimStyleTableRecord
  2
SEISA
 70
     0
  4
"
 40
5.0
 41
2.5
 42
0.625
 43
10.0
 44
0.625
 47
0.1
 48
0.1
 73
     0
 74
     0
 77
     3
 78
     8
 79
     2
 90
     1
140
3.5
141
0.0
143
0.0393701
146
0.71
147
1.5
172
     1
176
     3
177
     3
178
     3
271
     2
272
     2
283
     0
286
     8
340
5D5
341
69
342
69
371
    -1
372
    -1
1001
ACAD_DSTYLE_DIMJAG
1070
   388
1040
1.5
1001
ACAD_DSTYLE_DIMTALN
1070
   392
1070
     1
  0
DIMSTYLE
105
5E9
102
{ACAD_REACTORS
330
56E7
330
5736
330
5768
330
5780
330
596B
330
5987
330
59FA
330
5A2A
330
5DAE
330
5DC8
330
5DE0
330
7CDD
330
7CFE
330
7D2E
330
7EAF
102
}
330
A
100
AcDbSymbolTableRecord
100
AcDbDimStyleTableRecord
  2
SEISA$0
 70
     0
  4
"
 40
5.0
 41
2.5
 42
0.625
 43
10.0
 44
0.625
 47
0.1
 48
0.1
 73
     0
 74
     0
 77
     3
 78
     8
 79
     2
 90
     1
140
3.5
141
0.0
143
0.0393701
146
0.71
147
1.5
172
     1
176
     3
177
     3
178
     3
271
     2
272
     2
283
     0
286
     8
340
5D5
341
69
342
69
371
    -1
372
    -1
  0
DIMSTYLE
105
8209
330
A
100
AcDbSymbolTableRecord
100
AcDbDimStyleTableRecord
  2
AM_ISO
 70
     0
  4
"
 41
2.5
 42
1.0
 43
10.0
 44
1.0
 47
0.1
 48
0.1
 73
     0
 74
     0
 77
     1
 78
     8
 79
     2
 90
     1
140
3.5
141
0.0
143
0.0393701
146
0.71
147
1.5
172
     1
176
   256
177
   256
178
     2
271
     2
272
     3
274
     4
283
     0
284
     8
340
11
371
    -1
372
    -1
  0
DIMSTYLE
105
820A
330
A
100
AcDbSymbolTableRecord
100
AcDbDimStyleTableRecord
  2
AM_ISO$3
 70
     0
  4
"
 41
2.5
 42
1.0
 43
10.0
 44
1.0
 47
0.1
 48
0.1
 73
     0
 77
     1
 78
     8
 79
     2
 90
     1
140
3.5
141
0.0
143
0.0393701
146
0.71
147
1.5
176
   256
177
   256
178
     2
271
     2
272
     3
274
     4
283
     0
284
     8
288
     1
289
     0
340
11
371
    -1
372
    -1
  0
DIMSTYLE
105
820B
330
A
100
AcDbSymbolTableRecord
100
AcDbDimStyleTableRecord
  2
AM_ISO$4
 70
     0
  4
"
 41
2.5
 42
1.0
 43
10.0
 44
1.0
 47
0.1
 48
0.1
 73
     0
 77
     1
 78
     8
 79
     2
 90
     1
140
3.5
141
0.0
143
0.0393701
146
0.71
147
1.5
176
   256
177
   256
178
     2
271
     2
272
     3
274
     4
283
     0
284
     8
288
     1
289
     0
340
11
371
    -1
372
    -1
  0
DIMSTYLE
105
820C
330
A
100
AcDbSymbolTableRecord
100
AcDbDimStyleTableRecord
  2
AM_ISO$6
 70
     0
  4
"
 41
2.5
 42
1.0
 43
10.0
 44
1.0
 47
0.1
 48
0.1
 73
     0
 74
     0
 78
     8
 79
     2
 90
     1
140
3.5
141
0.0
143
0.0393701
146
0.71
147
1.5
172
     1
176
   256
177
   256
178
     2
271
     2
272
     3
274
     4
283
     0
284
     8
340
11
371
    -1
372
    -1
  0
DIMSTYLE
105
820D
330
A
100
AcDbSymbolTableRecord
100
AcDbDimStyleTableRecord
  2
AM_ISO$7
 70
     0
  4
"
 41
2.5
 42
1.0
 43
10.0
 44
1.0
 47
0.1
 48
0.1
 73
     0
 74
     0
 77
     1
 78
     8
 79
     2
 90
     1
140
5.0
141
0.0
143
0.0393701
146
0.71
147
1.5
172
     1
176
   256
177
   256
178
     2
271
     2
272
     3
274
     4
283
     0
284
     8
340
11
371
    -1
372
    -1
  0
DIMSTYLE
105
820E
330
A
100
AcDbSymbolTableRecord
100
AcDbDimStyleTableRecord
  2
AM_ISO$SF
 70
     0
  4
"
 41
2.5
 42
1.0
 43
10.0
 44
1.0
 47
0.1
 48
0.1
 73
     0
 74
     0
 75
     1
 76
     1
 77
     1
 78
     8
 79
     2
 90
     1
140
3.5
141
0.0
143
0.0393701
146
0.71
147
1.5
172
     1
176
   256
177
   256
178
     2
271
     2
272
     3
274
     4
283
     0
284
     8
340
11
371
    -1
372
    -1
  0
DIMSTYLE
105
820F
330
A
100
AcDbSymbolTableRecord
100
AcDbDimStyleTableRecord
  2
AM_ISO$SH
 70
     0
  4
"
 41
2.5
 42
1.0
 43
10.0
 44
1.0
 47
0.1
 48
0.1
 73
     0
 74
     0
 75
     1
 76
     1
 77
     1
 78
     8
 79
     2
 90
     1
140
3.5
141
0.0
143
0.0393701
144
2.0
146
0.71
147
1.5
172
     1
173
     1
176
   256
177
   256
178
     2
271
     2
272
     3
274
     4
283
     0
284
     8
340
11
343
74
371
    -1
372
    -1
  0
ENDTAB
  0
TABLE
  2
BLOCK_RECORD
  5
1
330
0
100
AcDbSymbolTable
 70
    33
  0
BLOCK_RECORD
  5
1F
102
{ACAD_XDICTIONARY
360
82
102
}
330
1
100
AcDbSymbolTableRecord
100
AcDbBlockTableRecord
  2
*Model_Space
340
22
 70
     0
280
     1
281
     0
  0
BLOCK_RECORD
  5
1B
330
1
100
AcDbSymbolTableRecord
100
AcDbBlockTableRecord
  2
*Paper_Space
340
1E
 70
     0
280
     1
281
     0
  0
BLOCK_RECORD
  5
23
330
1
100
AcDbSymbolTableRecord
100
AcDbBlockTableRecord
  2
*Paper_Space0
340
26
 70
     0
280
     1
281
     0
  0
BLOCK_RECORD
  5
69
330
1
100
AcDbSymbolTableRecord
100
AcDbBlockTableRecord
  2
_Open30
340
0
102
{BLKREFS
331
669B
331
669C
331
66A3
331
66A4
331
66CE
331
66D9
331
66F3
331
66F4
331
719B
331
719C
331
71A4
331
71A5
331
71AD
331
71AE
331
7804
331
7805
331
780D
331
780E
331
7D69
331
7D6A
331
7FFB
331
7FFC
331
814C
331
814D
331
8155
331
8156
331
815E
331
815F
102
}
 70
     0
280
     1
281
     0
  0
BLOCK_RECORD
  5
74
330
1
100
AcDbSymbolTableRecord
100
AcDbBlockTableRecord
  2
GENAXEH
340
0
 70
     0
280
     1
281
     0
  0
BLOCK_RECORD
  5
4B3B
102
{ACAD_XDICTIONARY
360
4B73
102
}
330
1
100
AcDbSymbolTableRecord
100
AcDbBlockTableRecord
  2
ロッカクアナツキプラグA R1／2
340
0
310
2800000020000000200000000100080000000000000400000000000000000000000000000000000000000000000080000080000000808000800000008000800080800000C0C0C000C0DCC000F0CAA6000020400000206000002080000020A0000020C0000020E00000400000004020000040400000406000004080000040A0
310
000040C0000040E00000600000006020000060400000606000006080000060A0000060C0000060E00000800000008020000080400000806000008080000080A0000080C0000080E00000A0000000A0200000A0400000A0600000A0800000A0A00000A0C00000A0E00000C0000000C0200000C0400000C0600000C0800000C0
310
A00000C0C00000C0E00000E0000000E0200000E0400000E0600000E0800000E0A00000E0C00000E0E00040000000400020004000400040006000400080004000A0004000C0004000E00040200000402020004020400040206000402080004020A0004020C0004020E000404000004040200040404000404060004040800040
310
40A0004040C0004040E00040600000406020004060400040606000406080004060A0004060C0004060E00040800000408020004080400040806000408080004080A0004080C0004080E00040A0000040A0200040A0400040A0600040A0800040A0A00040A0C00040A0E00040C0000040C0200040C0400040C0600040C08000
310
40C0A00040C0C00040C0E00040E0000040E0200040E0400040E0600040E0800040E0A00040E0C00040E0E00080000000800020008000400080006000800080008000A0008000C0008000E00080200000802020008020400080206000802080008020A0008020C0008020E00080400000804020008040400080406000804080
310
008040A0008040C0008040E00080600000806020008060400080606000806080008060A0008060C0008060E00080800000808020008080400080806000808080008080A0008080C0008080E00080A0000080A0200080A0400080A0600080A0800080A0A00080A0C00080A0E00080C0000080C0200080C0400080C0600080C0
310
800080C0A00080C0C00080C0E00080E0000080E0200080E0400080E0600080E0800080E0A00080E0C00080E0E000C0000000C0002000C0004000C0006000C0008000C000A000C000C000C000E000C0200000C0202000C0204000C0206000C0208000C020A000C020C000C020E000C0400000C0402000C0404000C0406000C0
310
408000C040A000C040C000C040E000C0600000C0602000C0604000C0606000C0608000C060A000C060C000C060E000C0800000C0802000C0804000C0806000C0808000C080A000C080C000C080E000C0A00000C0A02000C0A04000C0A06000C0A08000C0A0A000C0A0C000C0A0E000C0C00000C0C02000C0C04000C0C06000
310
C0C08000C0C0A000F0FBFF00A4A0A000808080000000FF0000FF000000FFFF00FF000000FF00FF00FFFF0000FFFFFF00000000000000000000000000000000000000000000000000000000000000000000000000000000000000000000000000F9000000000000000000000000000000000000000000000000000000000000
310
00F900000000000000000000000000000000000000000000000000000000000000F900000000000000000000000000000000000000000000000000000000000000F900000000000000000000000000000000000000000000000000000000000000F90000000000000000000000000000000000000000000000000000000000
310
0000F900000000000000000000000000000000000000FFFFFFFFFFFFFFFFFFFFFFFFF9FFFFFFFFFFFFFFFFFFFFFF00000000000000FFFF0000000000000000000000F900000000000000000000FFFF000000000000FFFF0000000000000000000000F900000000000000000000FFFF0000000000FFFFFFFFFFFFFFFFFFFFFF
310
FFFFFFF9FFFFFFFFFFFFFFFFFFFFFFFFFF00000000FF00FF0000000000000000000000F900000000000000000000FF000000000000FF00FF0000000000000000000000F900000000000000000000FF000000000000FF00FF0000000000000000000000F900000000000000000000FF000000000000FF00FF00000000000000
310
00000000F900000000000000000000FF000000000000FF00FF0000000000000000000000F900000000000000000000FF000000000000FF00FF0000000000000000000000F900000000000000000000FF000000000000FFFF000000000000000000000000F90000000000000000000000FF0000000000FFFF00000000000000
310
0000000000F90000000000000000000000FF0000000000FFFF000000000000000000000000F90000000000000000000000FF0000000000FFFF000000000000000000000000F90000000000000000000000FF0000000000FFFF000000000000000000000000F90000000000000000000000FF0000000000FFFF000000000000
310
000000000000F90000000000000000000000FF0000000000FFFF000000000000000000000000F90000000000000000000000FF0000000000FFFF000000000000000000000000F90000000000000000000000FF0000000000FFFFFFFFFFFFFFFFFFFFFFFFFFFFF9FFFFFFFFFFFFFFFFFFFFFFFFFF0000000000FF0000000000
310
00000000000000F90000000000000000000000FF00000000000000FF0000000000000000000000F900000000000000000000FF0000000000000000000000000000000000000000F900000000000000000000000000000000000000000000000000000000000000F90000000000000000000000000000000000000000000000
310
0000000000000000F90000000000000000000000000000000000000000000000000000000000000000000000000000000000000000000000
102
{BLKREFS
331
4D8E
102
}
 70
     4
280
     1
281
     0
  0
BLOCK_RECORD
  5
4D53
102
{ACAD_XDICTIONARY
360
4E0E
102
}
330
1
100
AcDbSymbolTableRecord
100
AcDbBlockTableRecord
  2
ケースＡ CCMH450
340
0
310
2800000020000000200000000100080000000000000400000000000000000000000000000000000000000000000080000080000000808000800000008000800080800000C0C0C000C0DCC000F0CAA6000020400000206000002080000020A0000020C0000020E00000400000004020000040400000406000004080000040A0
310
000040C0000040E00000600000006020000060400000606000006080000060A0000060C0000060E00000800000008020000080400000806000008080000080A0000080C0000080E00000A0000000A0200000A0400000A0600000A0800000A0A00000A0C00000A0E00000C0000000C0200000C0400000C0600000C0800000C0
310
A00000C0C00000C0E00000E0000000E0200000E0400000E0600000E0800000E0A00000E0C00000E0E00040000000400020004000400040006000400080004000A0004000C0004000E00040200000402020004020400040206000402080004020A0004020C0004020E000404000004040200040404000404060004040800040
310
40A0004040C0004040E00040600000406020004060400040606000406080004060A0004060C0004060E00040800000408020004080400040806000408080004080A0004080C0004080E00040A0000040A0200040A0400040A0600040A0800040A0A00040A0C00040A0E00040C0000040C0200040C0400040C0600040C08000
310
40C0A00040C0C00040C0E00040E0000040E0200040E0400040E0600040E0800040E0A00040E0C00040E0E00080000000800020008000400080006000800080008000A0008000C0008000E00080200000802020008020400080206000802080008020A0008020C0008020E00080400000804020008040400080406000804080
310
008040A0008040C0008040E00080600000806020008060400080606000806080008060A0008060C0008060E00080800000808020008080400080806000808080008080A0008080C0008080E00080A0000080A0200080A0400080A0600080A0800080A0A00080A0C00080A0E00080C0000080C0200080C0400080C0600080C0
310
800080C0A00080C0C00080C0E00080E0000080E0200080E0400080E0600080E0800080E0A00080E0C00080E0E000C0000000C0002000C0004000C0006000C0008000C000A000C000C000C000E000C0200000C0202000C0204000C0206000C0208000C020A000C020C000C020E000C0400000C0402000C0404000C0406000C0
310
408000C040A000C040C000C040E000C0600000C0602000C0604000C0606000C0608000C060A000C060C000C060E000C0800000C0802000C0804000C0806000C0808000C080A000C080C000C080E000C0A00000C0A02000C0A04000C0A06000C0A08000C0A0A000C0A0C000C0A0E000C0C00000C0C02000C0C04000C0C06000
310
C0C08000C0C0A000F0FBFF00A4A0A000808080000000FF0000FF000000FFFF00FF000000FF00FF00FFFF0000FFFFFF00000000000000000000000000000000000000000000000000000000000000000000000000000000000000000000FFFF000000000000000000000000000000000000000000000000000000000000FFFF
310
000000000000000000000000000000000000000000000000000000000000FFFF000000000000000000000000000000000000000000000000000000000000FFFFFFFFFFFFFFFFFFFF00000000000000000000000000000000000000000000FFFF00000000FFFFFF0000000000000000000000000000000000000000000000FF
310
FF00000000FFFFFF0000000000000000000000000000000000000000000000FFFF00000000FFFFFF0000000000000000000000000000000000000000000000FFFF00000000FFFFFF0000000000000000000000000000000000000000000000FFFF00000000FFFFFF0000000000000000000000000000000000000000000000
310
FFFF00000000FFFFFF0000000000000000000000000000000000000000000000FFFF00000000FFFFFF0000000000000000000000000000000000000000000000FFFF00000000FFFFFF0000000000000000000000000000000000000000000000FFFF00000000FFFFFF00000000000000000000000000000000000000000000
310
00FFFF00000000FFFFFF0000000000000000000000000000000000000000000000FFFF00000000FFFFFF0000000000000000000000000000000000000000000000FFFF00000000FFFFFF0000000000000000000000000000000000000000000000000000000000000000000000000000000000000000000000000000000000
310
00000000000000000000000000000000000000000000000000000000000000000000000000000000000000000000000000000000000000000000000000000000000000000000000000000000000000000000000000000000000000000000000000000000000000000000000000000000000000000000000000000000000000
310
000000000000000000000000000000000000000000000000000000000000000000000000000000000000000000000000000000000000000000000000000000000000000000000000000000000000000000000000000000000000000000000000000000000000F9FFA4A4A4FF00000000000000000000000000000000000000
310
000000FFFFFFFEF9FFFFFFFFFF0000000000000000000000000000000000000000000000FFFFFFFFFFFFFFFFFF00000000000000000000000000000000000000F9F9F9F9FFF9F9F90000000000000000000000000000000000000000000000000000FFFFFFFF00000000000000000000000000000000000000000000000000
310
0000000000FFFF00000000000000000000000000000000000000000000000000000000000000000000000000000000000000000000000000
102
{BLKREFS
331
4D8F
102
}
 70
     4
280
     1
281
     0
  0
BLOCK_RECORD
  5
4F2D
102
{ACAD_XDICTIONARY
360
4FD0
102
}
330
1
100
AcDbSymbolTableRecord
100
AcDbBlockTableRecord
  2
ケースＢ CCMH450
340
0
310
2800000020000000200000000100080000000000000400000000000000000000000000000000000000000000000080000080000000808000800000008000800080800000C0C0C000C0DCC000F0CAA6000020400000206000002080000020A0000020C0000020E00000400000004020000040400000406000004080000040A0
310
000040C0000040E00000600000006020000060400000606000006080000060A0000060C0000060E00000800000008020000080400000806000008080000080A0000080C0000080E00000A0000000A0200000A0400000A0600000A0800000A0A00000A0C00000A0E00000C0000000C0200000C0400000C0600000C0800000C0
310
A00000C0C00000C0E00000E0000000E0200000E0400000E0600000E0800000E0A00000E0C00000E0E00040000000400020004000400040006000400080004000A0004000C0004000E00040200000402020004020400040206000402080004020A0004020C0004020E000404000004040200040404000404060004040800040
310
40A0004040C0004040E00040600000406020004060400040606000406080004060A0004060C0004060E00040800000408020004080400040806000408080004080A0004080C0004080E00040A0000040A0200040A0400040A0600040A0800040A0A00040A0C00040A0E00040C0000040C0200040C0400040C0600040C08000
310
40C0A00040C0C00040C0E00040E0000040E0200040E0400040E0600040E0800040E0A00040E0C00040E0E00080000000800020008000400080006000800080008000A0008000C0008000E00080200000802020008020400080206000802080008020A0008020C0008020E00080400000804020008040400080406000804080
310
008040A0008040C0008040E00080600000806020008060400080606000806080008060A0008060C0008060E00080800000808020008080400080806000808080008080A0008080C0008080E00080A0000080A0200080A0400080A0600080A0800080A0A00080A0C00080A0E00080C0000080C0200080C0400080C0600080C0
310
800080C0A00080C0C00080C0E00080E0000080E0200080E0400080E0600080E0800080E0A00080E0C00080E0E000C0000000C0002000C0004000C0006000C0008000C000A000C000C000C000E000C0200000C0202000C0204000C0206000C0208000C020A000C020C000C020E000C0400000C0402000C0404000C0406000C0
310
408000C040A000C040C000C040E000C0600000C0602000C0604000C0606000C0608000C060A000C060C000C060E000C0800000C0802000C0804000C0806000C0808000C080A000C080C000C080E000C0A00000C0A02000C0A04000C0A06000C0A08000C0A0A000C0A0C000C0A0E000C0C00000C0C02000C0C04000C0C06000
310
C0C08000C0C0A000F0FBFF00A4A0A000808080000000FF0000FF000000FFFF00FF000000FF00FF00FFFF0000FFFFFF000000000000000000000000000000000000000000000000000000000000000000000000000000000000000000000000000000FFFF000000000000000000000000000000000000000000000000000000
310
000000FF000000000000000000000000000000000000000000000000000000000000F9F9F9F9F90000000000000000000000000000000000000000FFFFFFFFFFFFFFFFFF000000000000000000000000000000000000000000000000FFFFFF00000000FF000000000000000000000000000000000000000000000000FFFFFF
310
00000000FF000000000000000000000000000000000000000000000000FFFFFF00000000FF000000000000000000000000000000000000000000000000FFFFFF00000000FF000000000000000000000000000000000000000000000000FFFFFF00000000FF000000000000000000000000000000000000000000000000FFFF
310
FF00000000FF000000000000000000000000000000000000000000000000FFFFFF00000000FF000000000000000000000000000000000000000000000000FFFFFF00000000FF000000000000000000000000000000000000000000000000FFFFFF00000000FF000000000000000000000000000000000000000000000000FF
310
FFFF00000000FF000000000000000000000000000000000000000000000000FFFFFF00000000FF000000000000000000000000000000000000000000000000FFFFFF00000000FF0000000000000000000000000000000000000000000000000000000000000000000000000000000000000000000000000000000000000000
310
00000000000000000000000000000000000000000000000000000000000000000000000000000000000000000000000000000000000000000000000000000000000000000000000000000000000000000000000000000000000000000000000000000000000000000000000000000000000000000000000000000000000000
310
00000000000000000000000000000000000000000000000000000000000000000000000000000000000000000000000000000000000000000000000000000000000000000000000000000000000000000000000000000000000000000000000000FFA4A4A4FFF9000000000000000000000000000000000000000000000000
310
0000FFFFFFFFFFF9FFFFFF0000000000000000000000000000000000000000000000FFFFFFFFFFFFFFFF00000000000000000000000000000000000000000000000000000000000000FF00000000000000000000000000000000000000000000000000000000000000FF000000000000000000000000000000000000000000
310
00000000000000000000FFFF0000000000000000000000000000000000000000000000000000000000000000000000000000000000000000
102
{BLKREFS
331
4F5B
102
}
 70
     4
280
     1
281
     0
  0
BLOCK_RECORD
  5
5037
102
{ACAD_XDICTIONARY
360
50B3
102
}
330
1
100
AcDbSymbolTableRecord
100
AcDbBlockTableRecord
  2
センタＡ CCMH450
340
0
310
2800000020000000200000000100080000000000000400000000000000000000000000000000000000000000000080000080000000808000800000008000800080800000C0C0C000C0DCC000F0CAA6000020400000206000002080000020A0000020C0000020E00000400000004020000040400000406000004080000040A0
310
000040C0000040E00000600000006020000060400000606000006080000060A0000060C0000060E00000800000008020000080400000806000008080000080A0000080C0000080E00000A0000000A0200000A0400000A0600000A0800000A0A00000A0C00000A0E00000C0000000C0200000C0400000C0600000C0800000C0
310
A00000C0C00000C0E00000E0000000E0200000E0400000E0600000E0800000E0A00000E0C00000E0E00040000000400020004000400040006000400080004000A0004000C0004000E00040200000402020004020400040206000402080004020A0004020C0004020E000404000004040200040404000404060004040800040
310
40A0004040C0004040E00040600000406020004060400040606000406080004060A0004060C0004060E00040800000408020004080400040806000408080004080A0004080C0004080E00040A0000040A0200040A0400040A0600040A0800040A0A00040A0C00040A0E00040C0000040C0200040C0400040C0600040C08000
310
40C0A00040C0C00040C0E00040E0000040E0200040E0400040E0600040E0800040E0A00040E0C00040E0E00080000000800020008000400080006000800080008000A0008000C0008000E00080200000802020008020400080206000802080008020A0008020C0008020E00080400000804020008040400080406000804080
310
008040A0008040C0008040E00080600000806020008060400080606000806080008060A0008060C0008060E00080800000808020008080400080806000808080008080A0008080C0008080E00080A0000080A0200080A0400080A0600080A0800080A0A00080A0C00080A0E00080C0000080C0200080C0400080C0600080C0
310
800080C0A00080C0C00080C0E00080E0000080E0200080E0400080E0600080E0800080E0A00080E0C00080E0E000C0000000C0002000C0004000C0006000C0008000C000A000C000C000C000E000C0200000C0202000C0204000C0206000C0208000C020A000C020C000C020E000C0400000C0402000C0404000C0406000C0
310
408000C040A000C040C000C040E000C0600000C0602000C0604000C0606000C0608000C060A000C060C000C060E000C0800000C0802000C0804000C0806000C0808000C080A000C080C000C080E000C0A00000C0A02000C0A04000C0A06000C0A08000C0A0A000C0A0C000C0A0E000C0C00000C0C02000C0C04000C0C06000
310
C0C08000C0C0A000F0FBFF00A4A0A000808080000000FF0000FF000000FFFF00FF000000FF00FF00FFFF0000FFFFFF00000000000000000000000000000000000000000000000000000000000000000000000000000000000000000000000000000000FFFFFF00000000000000000000000000000000000000000000000000
310
000000000000FFFFFFFFFF000000000000000000000000000000000000000000000000000000FF000000FF000000000000000000000000000000000000000000000000000000FF000000FF000000000000000000000000000000000000000000000000000000FF000000FF0000000000000000000000000000000000000000
310
00000000000000FF000000FF000000000000000000000000000000000000000000000000000000FF000000FF000000000000000000000000000000000000000000000000000000FF000000FF000000000000000000000000000000000000000000000000000000FF000000FF00000000000000000000000000000000000000
310
0000000000000000FF000000FF000000000000000000000000000000000000000000000000000000FF000000FF000000000000000000000000000000000000000000000000000000FF000000FF000000000000000000000000000000000000000000000000000000FF000000FF000000000000000000000000000000000000
310
000000000000000000FF000000FF000000000000000000000000A4A4A4A4A4A4A40000000000000000FF0000FFFF000000000000000000000000A4A4A4A4A400000000000000000000000000FFFF000000000000000000000000FF0000000000000000000000000000000000FFFF000000000000000000000000FF00000000
310
00000000000000000000000000FFFF000000000000000000000000FF0000000000000000000000000000000000FFFF000000000000000000000000FF0000000000000000000000000000000000FFFF000000000000000000000000FF0000000000000000000000000000000000FFFF000000000000000000000000FF000000
310
0000000000000000000000000000FFFF000000000000000000000000FFFFFFFFFFFFFFFFFFFFFFFFFFFFFFFFFFFFFFFF000000000000000000000000FFFFFFFFFFFFFFFFFFFFFFFFFFFFFFFFFFFFFFFF000000000000000000000000FF000000000000000000000000000000000000FF000000000000000000000000FF0000
310
00000000000000000000000000000000FF000000000000000000000000FF000000000000000000000000000000000000FF000000000000000000000000FFFFFFFFFFFFFFFFF9FFFFFFFFFFFFFFFFFFFF00000000000000000000000000000000000000FFF9F9F9F9FF00000000000000000000000000000000000000000000
310
000000000000F900000000000000000000000000000000000000000000000000000000000000000000000000000000000000000000000000
102
{BLKREFS
331
505E
102
}
 70
     4
280
     1
281
     0
  0
BLOCK_RECORD
  5
5268
102
{ACAD_XDICTIONARY
360
537B
102
}
330
1
100
AcDbSymbolTableRecord
100
AcDbBlockTableRecord
  2
ＧＣサイドカバ－Ｂ CCMH450
340
0
310
2800000020000000200000000100080000000000000400000000000000000000000000000000000000000000000080000080000000808000800000008000800080800000C0C0C000C0DCC000F0CAA6000020400000206000002080000020A0000020C0000020E00000400000004020000040400000406000004080000040A0
310
000040C0000040E00000600000006020000060400000606000006080000060A0000060C0000060E00000800000008020000080400000806000008080000080A0000080C0000080E00000A0000000A0200000A0400000A0600000A0800000A0A00000A0C00000A0E00000C0000000C0200000C0400000C0600000C0800000C0
310
A00000C0C00000C0E00000E0000000E0200000E0400000E0600000E0800000E0A00000E0C00000E0E00040000000400020004000400040006000400080004000A0004000C0004000E00040200000402020004020400040206000402080004020A0004020C0004020E000404000004040200040404000404060004040800040
310
40A0004040C0004040E00040600000406020004060400040606000406080004060A0004060C0004060E00040800000408020004080400040806000408080004080A0004080C0004080E00040A0000040A0200040A0400040A0600040A0800040A0A00040A0C00040A0E00040C0000040C0200040C0400040C0600040C08000
310
40C0A00040C0C00040C0E00040E0000040E0200040E0400040E0600040E0800040E0A00040E0C00040E0E00080000000800020008000400080006000800080008000A0008000C0008000E00080200000802020008020400080206000802080008020A0008020C0008020E00080400000804020008040400080406000804080
310
008040A0008040C0008040E00080600000806020008060400080606000806080008060A0008060C0008060E00080800000808020008080400080806000808080008080A0008080C0008080E00080A0000080A0200080A0400080A0600080A0800080A0A00080A0C00080A0E00080C0000080C0200080C0400080C0600080C0
310
800080C0A00080C0C00080C0E00080E0000080E0200080E0400080E0600080E0800080E0A00080E0C00080E0E000C0000000C0002000C0004000C0006000C0008000C000A000C000C000C000E000C0200000C0202000C0204000C0206000C0208000C020A000C020C000C020E000C0400000C0402000C0404000C0406000C0
310
408000C040A000C040C000C040E000C0600000C0602000C0604000C0606000C0608000C060A000C060C000C060E000C0800000C0802000C0804000C0806000C0808000C080A000C080C000C080E000C0A00000C0A02000C0A04000C0A06000C0A08000C0A0A000C0A0C000C0A0E000C0C00000C0C02000C0C04000C0C06000
310
C0C08000C0C0A000F0FBFF00A4A0A000808080000000FF0000FF000000FFFF00FF000000FF00FF00FFFF0000FFFFFF00000000000000000000000000000000000000000000000000000000000000000000000000000000000000000000F9F9F9F9F9F900000000000000000000000000000000000000000000000000000000
310
00000000000000000000000000000000000000000000000000000000000000000000000000000000000000000000000000000000000000000000000000000000000000000000000000000000000000000000000000000000000000000000000000000000000000000000000000000000000000000000000000000000000000
310
00000000000000000000000000000000000000000000000000000000000000000000000000000000000000000000000000000000000000000000000000000000000000000000000000000000000000000000000000000000000000000000000000000000000000000000000000000000000000000000000000000000000000
310
00000000000000000000000000000000000000000000000000000000000000000000000000000000000000000000000000000000000000000000000000000000000000000000000000000000000000000000000000000000000000000000000000000000000000000000000000000000000000000000000000000000000000
310
00000000000000000000000000000000000000000000000000000000000000000000000000000000000000000000000000000000000000000000000000000000000000000000000000000000000000000000000000000000000000000000000000000000000000000000000000000000000000000000000000000000000000
310
00000000000000000000000000000000000000000000000000000000000000000000000000000000000000000000000000000000000000000000000000000000000000000000000000000000000000000000000000000000000000000000000000000000000000000000000000000000000000000000000000000000000000
310
00000000000000000000000000000000000000000000000000000000000000000000000000000000000000000000000000000000000000000000000000000000000000000000000000000000000000000000000000000000000000000000000000000000000000000000000000000000000000000000000000000000000000
310
0000000000FFFFFF0000000000000000000000000000000000000000000000000000000000FFFFFF0000000000000000000000000000000000000000000000000000000000FFFFFFFF000000000000000000000000000000000000000000000000000000F9FFFFFFFFF9000000000000000000000000000000000000000000
310
000000000000FFFFFF0000000000000000000000000000000000000000000000000000000000000000000000000000000000000000000000
102
{BLKREFS
331
5299
102
}
 70
     4
280
     1
281
     0
  0
BLOCK_RECORD
  5
5496
102
{ACAD_XDICTIONARY
360
553D
102
}
330
1
100
AcDbSymbolTableRecord
100
AcDbBlockTableRecord
  2
ＧＣサイドカバ－A CCMH450
340
0
310
2800000020000000200000000100080000000000000400000000000000000000000000000000000000000000000080000080000000808000800000008000800080800000C0C0C000C0DCC000F0CAA6000020400000206000002080000020A0000020C0000020E00000400000004020000040400000406000004080000040A0
310
000040C0000040E00000600000006020000060400000606000006080000060A0000060C0000060E00000800000008020000080400000806000008080000080A0000080C0000080E00000A0000000A0200000A0400000A0600000A0800000A0A00000A0C00000A0E00000C0000000C0200000C0400000C0600000C0800000C0
310
A00000C0C00000C0E00000E0000000E0200000E0400000E0600000E0800000E0A00000E0C00000E0E00040000000400020004000400040006000400080004000A0004000C0004000E00040200000402020004020400040206000402080004020A0004020C0004020E000404000004040200040404000404060004040800040
310
40A0004040C0004040E00040600000406020004060400040606000406080004060A0004060C0004060E00040800000408020004080400040806000408080004080A0004080C0004080E00040A0000040A0200040A0400040A0600040A0800040A0A00040A0C00040A0E00040C0000040C0200040C0400040C0600040C08000
310
40C0A00040C0C00040C0E00040E0000040E0200040E0400040E0600040E0800040E0A00040E0C00040E0E00080000000800020008000400080006000800080008000A0008000C0008000E00080200000802020008020400080206000802080008020A0008020C0008020E00080400000804020008040400080406000804080
310
008040A0008040C0008040E00080600000806020008060400080606000806080008060A0008060C0008060E00080800000808020008080400080806000808080008080A0008080C0008080E00080A0000080A0200080A0400080A0600080A0800080A0A00080A0C00080A0E00080C0000080C0200080C0400080C0600080C0
310
800080C0A00080C0C00080C0E00080E0000080E0200080E0400080E0600080E0800080E0A00080E0C00080E0E000C0000000C0002000C0004000C0006000C0008000C000A000C000C000C000E000C0200000C0202000C0204000C0206000C0208000C020A000C020C000C020E000C0400000C0402000C0404000C0406000C0
310
408000C040A000C040C000C040E000C0600000C0602000C0604000C0606000C0608000C060A000C060C000C060E000C0800000C0802000C0804000C0806000C0808000C080A000C080C000C080E000C0A00000C0A02000C0A04000C0A06000C0A08000C0A0A000C0A0C000C0A0E000C0C00000C0C02000C0C04000C0C06000
310
C0C08000C0C0A000F0FBFF00A4A0A000808080000000FF0000FF000000FFFF00FF000000FF00FF00FFFF0000FFFFFF00000000000000000000000000000000000000000000000000000000000000000000000000000000000000000000000000FFFF000000000000000000000000000000000000000000000000000000F9F9
310
F9F9F9F9000000000000000000000000000000000000000000000000000000000000FF00000000000000000000000000000000000000000000000000000000000000FF00000000000000000000000000000000000000000000000000000000000000FF00000000000000000000000000000000000000000000000000000000
310
000000FF00000000000000000000000000000000000000000000000000000000000000FF00000000000000000000000000000000000000000000000000000000000000FF00000000000000000000000000000000000000000000000000000000000000FF000000000000000000000000000000000000000000000000000000
310
00000000FF00000000000000000000000000000000000000000000000000000000000000FF00000000000000000000000000000000000000000000000000000000000000FF00000000000000000000000000000000000000000000000000000000000000FF0000000000000000000000000000000000000000000000000000
310
0000000000FF00000000000000000000000000000000000000000000000000000000000000FF00000000000000000000000000000000000000000000000000000000000000FF000000000000000000000000000000000000000000000000000000000000000000000000000000000000000000000000000000000000000000
310
00000000000000000000000000000000000000000000000000000000000000000000000000000000000000000000000000000000000000000000000000000000000000000000000000000000000000000000000000000000000000000000000000000000000000000000000000000000000000000000000000000000000000
310
00000000000000000000000000000000000000000000000000000000000000000000000000000000000000000000000000000000000000000000000000000000000000000000000000000000000000000000000000000000000000000000000000000000000000000000000000000000000000000000000000000000000000
310
000000000000FFFFFF0000000000000000000000000000000000000000000000000000000000FFFFFF00000000000000000000000000000000000000000000000000000000FFFFFFFF000000000000000000000000000000000000000000000000000000F9FFFFFFFFF9000000000000000000000000000000000000000000
310
00000000000000FFFFFF00000000000000000000000000000000000000000000000000000000000000000000000000000000000000000000
102
{BLKREFS
331
54C9
102
}
 70
     4
280
     1
281
     0
  0
BLOCK_RECORD
  5
56E8
330
1
100
AcDbSymbolTableRecord
100
AcDbBlockTableRecord
  2
*D12
340
0
 70
     0
280
     1
281
     0
  0
BLOCK_RECORD
  5
5737
330
1
100
AcDbSymbolTableRecord
100
AcDbBlockTableRecord
  2
*D13
340
0
 70
     0
280
     1
281
     0
  0
BLOCK_RECORD
  5
5769
330
1
100
AcDbSymbolTableRecord
100
AcDbBlockTableRecord
  2
*D14
340
0
 70
     0
280
     1
281
     0
  0
BLOCK_RECORD
  5
5781
330
1
100
AcDbSymbolTableRecord
100
AcDbBlockTableRecord
  2
*D15
340
0
 70
     0
280
     1
281
     0
  0
BLOCK_RECORD
  5
596C
330
1
100
AcDbSymbolTableRecord
100
AcDbBlockTableRecord
  2
*D16
340
0
 70
     0
280
     1
281
     0
  0
BLOCK_RECORD
  5
5988
330
1
100
AcDbSymbolTableRecord
100
AcDbBlockTableRecord
  2
*D17
340
0
 70
     0
280
     1
281
     0
  0
BLOCK_RECORD
  5
59FB
330
1
100
AcDbSymbolTableRecord
100
AcDbBlockTableRecord
  2
*D18
340
0
 70
     0
280
     1
281
     0
  0
BLOCK_RECORD
  5
5A2B
330
1
100
AcDbSymbolTableRecord
100
AcDbBlockTableRecord
  2
*D19
340
0
 70
     0
280
     1
281
     0
  0
BLOCK_RECORD
  5
5BD4
330
1
100
AcDbSymbolTableRecord
100
AcDbBlockTableRecord
  2
GENDOT
340
0
102
{BLKREFS
331
66CD
331
66D8
102
}
 70
     0
280
     1
281
     0
  0
BLOCK_RECORD
  5
5DAF
330
1
100
AcDbSymbolTableRecord
100
AcDbBlockTableRecord
  2
*D21
340
0
 70
     0
280
     1
281
     0
  0
BLOCK_RECORD
  5
5DC9
330
1
100
AcDbSymbolTableRecord
100
AcDbBlockTableRecord
  2
*D22
340
0
 70
     0
280
     1
281
     0
  0
BLOCK_RECORD
  5
5DE1
330
1
100
AcDbSymbolTableRecord
100
AcDbBlockTableRecord
  2
*D23
340
0
 70
     0
280
     1
281
     0
  0
BLOCK_RECORD
  5
60AE
102
{ACAD_XDICTIONARY
360
614E
102
}
330
1
100
AcDbSymbolTableRecord
100
AcDbBlockTableRecord
  2
リーマボルト CCMH450 M20
340
0
310
2800000020000000200000000100080000000000000400000000000000000000000000000000000000000000000080000080000000808000800000008000800080800000C0C0C000C0DCC000F0CAA6000020400000206000002080000020A0000020C0000020E00000400000004020000040400000406000004080000040A0
310
000040C0000040E00000600000006020000060400000606000006080000060A0000060C0000060E00000800000008020000080400000806000008080000080A0000080C0000080E00000A0000000A0200000A0400000A0600000A0800000A0A00000A0C00000A0E00000C0000000C0200000C0400000C0600000C0800000C0
310
A00000C0C00000C0E00000E0000000E0200000E0400000E0600000E0800000E0A00000E0C00000E0E00040000000400020004000400040006000400080004000A0004000C0004000E00040200000402020004020400040206000402080004020A0004020C0004020E000404000004040200040404000404060004040800040
310
40A0004040C0004040E00040600000406020004060400040606000406080004060A0004060C0004060E00040800000408020004080400040806000408080004080A0004080C0004080E00040A0000040A0200040A0400040A0600040A0800040A0A00040A0C00040A0E00040C0000040C0200040C0400040C0600040C08000
310
40C0A00040C0C00040C0E00040E0000040E0200040E0400040E0600040E0800040E0A00040E0C00040E0E00080000000800020008000400080006000800080008000A0008000C0008000E00080200000802020008020400080206000802080008020A0008020C0008020E00080400000804020008040400080406000804080
310
008040A0008040C0008040E00080600000806020008060400080606000806080008060A0008060C0008060E00080800000808020008080400080806000808080008080A0008080C0008080E00080A0000080A0200080A0400080A0600080A0800080A0A00080A0C00080A0E00080C0000080C0200080C0400080C0600080C0
310
800080C0A00080C0C00080C0E00080E0000080E0200080E0400080E0600080E0800080E0A00080E0C00080E0E000C0000000C0002000C0004000C0006000C0008000C000A000C000C000C000E000C0200000C0202000C0204000C0206000C0208000C020A000C020C000C020E000C0400000C0402000C0404000C0406000C0
310
408000C040A000C040C000C040E000C0600000C0602000C0604000C0606000C0608000C060A000C060C000C060E000C0800000C0802000C0804000C0806000C0808000C080A000C080C000C080E000C0A00000C0A02000C0A04000C0A06000C0A08000C0A0A000C0A0C000C0A0E000C0C00000C0C02000C0C04000C0C06000
310
C0C08000C0C0A000F0FBFF00A4A0A000808080000000FF0000FF000000FFFF00FF000000FF00FF00FFFF0000FFFFFF0000000000000000000000000000000000000000000000000000000000000000000000000000000000000000000000000000000000000000000000000000000000000000000000000000000000000000
310
00000000000000000000000000000000000000000000000000000000000000000000000000000000000000000000000000000000000000000000000000000000000000000000000000000000000000000000000000000000000000000000000000000000000000000000000000000000000000000000000000000000000000
310
00000000000000000000000000000000000000000000000000000000000000000000000000000000000000000000000000000000000000000000000000000000000000000000000000000000000000000000000000000000000000000000000000000000000000000000000000000000000000000000FFFFFFFFFFFF000000
310
00000000000000000000000000FFFFFFFF000000000000FF00000000FFFF000000000000000000000000000000000000FFFF000000FFFFFF00000000FFFFFFFF000000000000000000000000FFFF0000FFFF0000FFFEFEFFFFFFFFFFFFFEFEFE000000000000000000000000FFFFFFFFFFFF0000FFFF00FF00000000FF0000
310
FF000000000000000000000000FF000000FFFF0000FFFF00FF00000000FFFF00FF000000000000000000000000FF000000FFFF0000FFFF00FF00000000FFFF00FF000000000000000000000000FF000000FFFF0000FFFF00FF00000000FFFF00FF000000000000000000000000FF000000FFFF0000FFFEFEFFFFFFFFFFFFFE
310
FEFE000000000000000000000000FFFFFFFFFFFF000000FFFFFF00000000FFFFFFFF000000000000000000000000FFFF0000FFFF0000000000FF00000000FFFF000000000000000000000000000000000000FFFF0000000000FFFFFFFFFFFF00000000000000000000000000000000FFFFFFFF000000000000000000000000
310
00000000000000000000000000000000000000000000000000000000000000000000000000000000000000000000000000000000000000000000000000000000000000000000000000000000000000000000000000000000000000000000000000000000000000000000000000000000000000000000000000000000000000
310
00000000000000000000000000000000000000000000000000000000000000000000000000000000000000000000000000000000000000000000000000000000000000000000000000000000000000000000000000000000000000000000000000000000000000000000000000000000000000000000000000000000000000
310
0000000000000000000000000000000000000000000000000000000000000000000000000000000000000000000000000000000000000000
102
{BLKREFS
331
60E1
102
}
 70
     4
280
     1
281
     0
  0
BLOCK_RECORD
  5
72E5
102
{ACAD_XDICTIONARY
360
7336
102
}
330
1
100
AcDbSymbolTableRecord
100
AcDbBlockTableRecord
  2
ロッカクアナツキプラグB R1／2
340
0
102
{BLKREFS
331
4F5A
102
}
 70
     0
280
     1
281
     0
  0
BLOCK_RECORD
  5
7CDE
330
1
100
AcDbSymbolTableRecord
100
AcDbBlockTableRecord
  2
*D26
340
0
 70
     0
280
     1
281
     0
  0
BLOCK_RECORD
  5
7CFF
330
1
100
AcDbSymbolTableRecord
100
AcDbBlockTableRecord
  2
*D27
340
0
 70
     0
280
     1
281
     0
  0
BLOCK_RECORD
  5
7D2F
330
1
100
AcDbSymbolTableRecord
100
AcDbBlockTableRecord
  2
*D28
340
0
 70
     0
280
     1
281
     0
  0
BLOCK_RECORD
  5
7EB0
330
1
100
AcDbSymbolTableRecord
100
AcDbBlockTableRecord
  2
*D29
340
0
 70
     0
280
     1
281
     0
  0
BLOCK_RECORD
  5
80C7
330
1
100
AcDbSymbolTableRecord
100
AcDbBlockTableRecord
  2
ＧＣサイドカバ－Ｂ CCM450
340
0
310
2800000020000000200000000100080000000000000400000000000000000000000000000000000000000000000080000080000000808000800000008000800080800000C0C0C000C0DCC000F0CAA6000020400000206000002080000020A0000020C0000020E00000400000004020000040400000406000004080000040A0
310
000040C0000040E00000600000006020000060400000606000006080000060A0000060C0000060E00000800000008020000080400000806000008080000080A0000080C0000080E00000A0000000A0200000A0400000A0600000A0800000A0A00000A0C00000A0E00000C0000000C0200000C0400000C0600000C0800000C0
310
A00000C0C00000C0E00000E0000000E0200000E0400000E0600000E0800000E0A00000E0C00000E0E00040000000400020004000400040006000400080004000A0004000C0004000E00040200000402020004020400040206000402080004020A0004020C0004020E000404000004040200040404000404060004040800040
310
40A0004040C0004040E00040600000406020004060400040606000406080004060A0004060C0004060E00040800000408020004080400040806000408080004080A0004080C0004080E00040A0000040A0200040A0400040A0600040A0800040A0A00040A0C00040A0E00040C0000040C0200040C0400040C0600040C08000
310
40C0A00040C0C00040C0E00040E0000040E0200040E0400040E0600040E0800040E0A00040E0C00040E0E00080000000800020008000400080006000800080008000A0008000C0008000E00080200000802020008020400080206000802080008020A0008020C0008020E00080400000804020008040400080406000804080
310
008040A0008040C0008040E00080600000806020008060400080606000806080008060A0008060C0008060E00080800000808020008080400080806000808080008080A0008080C0008080E00080A0000080A0200080A0400080A0600080A0800080A0A00080A0C00080A0E00080C0000080C0200080C0400080C0600080C0
310
800080C0A00080C0C00080C0E00080E0000080E0200080E0400080E0600080E0800080E0A00080E0C00080E0E000C0000000C0002000C0004000C0006000C0008000C000A000C000C000C000E000C0200000C0202000C0204000C0206000C0208000C020A000C020C000C020E000C0400000C0402000C0404000C0406000C0
310
408000C040A000C040C000C040E000C0600000C0602000C0604000C0606000C0608000C060A000C060C000C060E000C0800000C0802000C0804000C0806000C0808000C080A000C080C000C080E000C0A00000C0A02000C0A04000C0A06000C0A08000C0A0A000C0A0C000C0A0E000C0C00000C0C02000C0C04000C0C06000
310
C0C08000C0C0A000F0FBFF00A4A0A000808080000000FF0000FF000000FFFF00FF000000FF00FF00FFFF0000FFFFFF000000000000000000000000000000000000000000000000000000000000000000000000000000000000FC0000FC00000000000000FC0000FC0000000000000000000000000000000000FCFCFCFC0000
310
0000000000FCFCFCFC0000000000000000000000000000000000FC0000FC00000000000000FC0000FC0000000000000000000000000000000000FC0000FC00000000000000FC0000FC0000000000000000000000000000000000FC0000FC00000000000000FC0000FC0000000000000000000000000000000000FC0000FCFC
310
FCFCFCFCFCFCFC0000FC0000000000000000000000000000000000FC00000000000000000000000000FC0000000000000000000000000000000000FC00000000000000000000000000FC0000000000000000000000000000000000FC00000000000000000000000000FC0000000000000000000000000000000000FC000000
310
00000000000000000000FC0000000000000000000000000000000000FC00000000000000000000000000FC0000000000000000000000000000000000FC00000000000000000000000000FC0000000000000000000000000000000000FC0000000000000000FCFCFCFCFCFC0000000000000000000000000000000000FC0000
310
000000000000FC00000000000000000000000000000000000000000000FC0000000000000000FC00000000000000000000000000000000000000000000FC0000000000000000FCFCFC0000000000000000000000000000000000000000FC00000000000000000000FC0000000000000000000000000000000000000000FC00
310
000000000000000000FC0000000000000000000000000000000000000000FC00000000000000000000FC0000000000000000000000000000000000000000FC00000000000000000000FC0000000000000000000000000000000000000000FC00000000000000000000FC00000000000000000000000000000000000000FCFC
310
FCFCFCFCFCFCFCFCFCFCFCFCFCFC0000000000000000000000000000000000FC00000000000000000000FC0000000000000000000000000000000000000000FC00000000000000000000FC0000000000000000000000000000000000000000FC00000000000000000000FC0000000000000000000000000000000000000000
310
FC00000000000000000000FC0000000000000000000000000000000000000000FC00000000000000000000FC0000000000000000000000000000000000000000FC00000000000000000000FC0000000000000000000000000000000000000000FC00000000000000000000FC00000000000000000000000000000000000000
310
00FCFCFCFCFCFCFCFCFCFCFCFC00000000000000000000000000000000000000000000000000000000000000000000000000000000000000
102
{BLKREFS
331
80DB
102
}
 70
     4
280
     1
281
     1
  0
BLOCK_RECORD
  5
8123
330
1
100
AcDbSymbolTableRecord
100
AcDbBlockTableRecord
  2
センタB CCMH450
340
0
310
2800000020000000200000000100080000000000000400000000000000000000000000000000000000000000000080000080000000808000800000008000800080800000C0C0C000C0DCC000F0CAA6000020400000206000002080000020A0000020C0000020E00000400000004020000040400000406000004080000040A0
310
000040C0000040E00000600000006020000060400000606000006080000060A0000060C0000060E00000800000008020000080400000806000008080000080A0000080C0000080E00000A0000000A0200000A0400000A0600000A0800000A0A00000A0C00000A0E00000C0000000C0200000C0400000C0600000C0800000C0
310
A00000C0C00000C0E00000E0000000E0200000E0400000E0600000E0800000E0A00000E0C00000E0E00040000000400020004000400040006000400080004000A0004000C0004000E00040200000402020004020400040206000402080004020A0004020C0004020E000404000004040200040404000404060004040800040
310
40A0004040C0004040E00040600000406020004060400040606000406080004060A0004060C0004060E00040800000408020004080400040806000408080004080A0004080C0004080E00040A0000040A0200040A0400040A0600040A0800040A0A00040A0C00040A0E00040C0000040C0200040C0400040C0600040C08000
310
40C0A00040C0C00040C0E00040E0000040E0200040E0400040E0600040E0800040E0A00040E0C00040E0E00080000000800020008000400080006000800080008000A0008000C0008000E00080200000802020008020400080206000802080008020A0008020C0008020E00080400000804020008040400080406000804080
310
008040A0008040C0008040E00080600000806020008060400080606000806080008060A0008060C0008060E00080800000808020008080400080806000808080008080A0008080C0008080E00080A0000080A0200080A0400080A0600080A0800080A0A00080A0C00080A0E00080C0000080C0200080C0400080C0600080C0
310
800080C0A00080C0C00080C0E00080E0000080E0200080E0400080E0600080E0800080E0A00080E0C00080E0E000C0000000C0002000C0004000C0006000C0008000C000A000C000C000C000E000C0200000C0202000C0204000C0206000C0208000C020A000C020C000C020E000C0400000C0402000C0404000C0406000C0
310
408000C040A000C040C000C040E000C0600000C0602000C0604000C0606000C0608000C060A000C060C000C060E000C0800000C0802000C0804000C0806000C0808000C080A000C080C000C080E000C0A00000C0A02000C0A04000C0A06000C0A08000C0A0A000C0A0C000C0A0E000C0C00000C0C02000C0C04000C0C06000
310
C0C08000C0C0A000F0FBFF00A4A0A000808080000000FF0000FF000000FFFF00FF000000FF00FF00FFFF0000FFFFFF00000000000000000000000000000000000000000000000000000000000000000000000000000000000000FFFFFF00000000000000000000000000000000000000000000000000FFFFFFFFFF00000000
310
0000000000000000000000000000000000000000000000FF000000FF000000000000000000000000000000000000000000000000000000FF000000FF000000000000000000000000000000000000000000000000000000FF000000FF000000000000000000000000000000000000000000000000000000FF000000FF000000
310
000000000000000000000000000000000000000000000000FF000000FF000000000000000000000000000000000000000000000000000000FF000000FF000000000000000000000000000000000000000000000000000000FF000000FF000000000000000000000000000000000000000000000000000000FF000000FF0000
310
00000000000000000000000000000000000000000000000000FF000000FF000000000000000000000000000000000000000000000000000000FF000000FF000000000000000000000000000000000000000000000000000000FF000000FF000000000000000000000000000000000000000000000000000000FF000000FF00
310
0000000000000000000000000000000000000000000000000000FF000000FF0000000000000000A4A4A4A4A4A4A4000000000000000000000000FF0000000000000000000000000000A4A4A4A4A4000000000000000000000000FF000000000000000000000000000000000000FF000000000000000000000000FF00000000
310
0000000000000000000000000000FF000000000000000000000000FF000000000000000000000000000000000000FF000000000000000000000000FF000000000000000000000000000000000000FF000000000000000000000000FF000000000000000000000000000000000000FF000000000000000000000000FF000000
310
000000000000000000000000000000FF000000000000000000000000FFFFFFFFFFFFFFFFFFFFFFFFFFFFFFFFFFFFFFFF000000000000000000000000FF000000000000000000000000000000000000FF000000000000000000000000FF000000000000000000000000000000000000FF000000000000000000000000FF0000
310
00000000000000000000000000000000FF000000000000000000000000FF000000000000000000000000000000000000FF00000000000000000000000000FFFFFFFFFFFFFFF9F9F9F9F9F9FFFFFFFFFFFF0000000000000000000000000000000000000000FFFFFFF9FFFF0000000000000000000000000000000000000000
310
000000000000000000F900000000000000000000000000000000000000000000000000000000000000000000000000000000000000000000
102
{BLKREFS
331
8164
102
}
 70
     4
280
     1
281
     1
  0
ENDTAB
  0
ENDSEC
  0
SECTION
  2
BLOCKS
  0
BLOCK
  5
20
330
1F
100
AcDbEntity
  8
0
100
AcDbBlockBegin
  2
*Model_Space
 70
     0
 10
0.0
 20
0.0
 30
0.0
  3
*Model_Space
  1

  0
ENDBLK
  5
21
330
1F
100
AcDbEntity
  8
0
100
AcDbBlockEnd
  0
BLOCK
  5
1C
330
1B
100
AcDbEntity
 67
     1
  8
0
100
AcDbBlockBegin
  2
*Paper_Space
 70
     0
 10
0.0
 20
0.0
 30
0.0
  3
*Paper_Space
  1

  0
ENDBLK
  5
1D
330
1B
100
AcDbEntity
 67
     1
  8
0
100
AcDbBlockEnd
  0
BLOCK
  5
24
330
23
100
AcDbEntity
 67
     1
  8
0
100
AcDbBlockBegin
  2
*Paper_Space0
 70
     0
 10
0.0
 20
0.0
 30
0.0
  3
*Paper_Space0
  1

  0
ENDBLK
  5
25
330
23
100
AcDbEntity
 67
     1
  8
0
100
AcDbBlockEnd
  0
BLOCK
  5
6D
330
69
100
AcDbEntity
  8
0
100
AcDbBlockBegin
  2
_Open30
 70
     0
 10
0.0
 20
0.0
 30
0.0
  3
_Open30
  1

  0
LINE
  5
6A
330
69
100
AcDbEntity
  8
0
  6
ByBlock
 62
     0
370
    -2
100
AcDbLine
 10
-1.0
 20
0.26794919
 30
0.0
 11
0.0
 21
0.0
 31
0.0
  0
LINE
  5
6B
330
69
100
AcDbEntity
  8
0
  6
ByBlock
 62
     0
370
    -2
100
AcDbLine
 10
0.0
 20
0.0
 30
0.0
 11
-1.0
 21
-0.26794919
 31
0.0
  0
LINE
  5
6C
330
69
100
AcDbEntity
  8
0
  6
ByBlock
 62
     0
370
    -2
100
AcDbLine
 10
0.0
 20
0.0
 30
0.0
 11
-1.0
 21
0.0
 31
0.0
  0
ENDBLK
  5
6E
330
69
100
AcDbEntity
  8
0
100
AcDbBlockEnd
  0
BLOCK
  5
76
330
74
100
AcDbEntity
  8
0
100
AcDbBlockBegin
  2
GENAXEH
 70
     0
 10
0.0
 20
0.0
 30
0.0
  3
GENAXEH
  1

  0
LINE
  5
75
330
74
100
AcDbEntity
  8
0
100
AcDbLine
 10
-1.0
 20
0.0
 30
0.0
 11
1.0
 21
0.0
 31
0.0
  0
ENDBLK
  5
77
330
74
100
AcDbEntity
  8
0
100
AcDbBlockEnd
  0
BLOCK
  5
4B3C
330
4B3B
100
AcDbEntity
  8
0
100
AcDbBlockBegin
  2
ロッカクアナツキプラグA R1／2
 70
     0
 10
0.0
 20
0.0
 30
0.0
  3
ロッカクアナツキプラグA R1／2
  1

  0
LINE
  5
4B75
330
4B3B
100
AcDbEntity
  8
AM_0 外形線1
100
AcDbLine
 10
9.107686999999712
 20
-15.00000000000023
 30
0.0
 11
-9.107688000000052
 21
-15.00000000000023
 31
0.0
  0
LINE
  5
4B76
330
4B3B
100
AcDbEntity
  8
AM_0 外形線1
100
AcDbLine
 10
10.65768399999979
 20
-1.680184000000508
 30
0.0
 11
-10.65768500000013
 21
-1.680184000000508
 31
0.0
  0
LINE
  5
4B77
330
4B3B
100
AcDbEntity
  8
AM_0 外形線1
100
AcDbLine
 10
10.2623880000001
 20
-13.00000000000023
 30
0.0
 11
-10.2623880000001
 21
-13.00000000000023
 31
0.0
  0
LINE
  5
4B78
330
4B3B
100
AcDbEntity
  8
AM_0 外形線1
100
AcDbLine
 10
-9.107688000000052
 20
-15.00000000000023
 30
0.0
 11
-10.2623880000001
 21
-13.00000000000023
 31
0.0
  0
LINE
  5
4B79
330
4B3B
100
AcDbEntity
  8
AM_0 外形線1
100
AcDbLine
 10
-10.2623880000001
 20
-13.00000000000023
 30
0.0
 11
-10.65768500000013
 21
-1.680184000000508
 31
0.0
  0
LINE
  5
4B7A
330
4B3B
100
AcDbEntity
  8
AM_0 外形線1
100
AcDbLine
 10
-10.65768500000013
 20
-1.680184000000508
 30
0.0
 11
-10.47749999999996
 21
-1.500000000000226
 31
0.0
  0
LINE
  5
4B7B
330
4B3B
100
AcDbEntity
  8
AM_0 外形線1
100
AcDbLine
 10
-10.47749999999996
 20
-1.500000000000226
 30
0.0
 11
-8.977499999999963
 21
-0.0000000000002274
 31
0.0
  0
LINE
  5
4B7C
330
4B3B
100
AcDbEntity
  8
AM_4 細線
100
AcDbLine
 10
-9.534894000000347
 20
-0.5573930000005021
 30
0.0
 11
-9.030546999999842
 21
-15.00000000000023
 31
0.0
  0
LINE
  5
4B7D
330
4B3B
100
AcDbEntity
  8
AM_0 外形線1
100
AcDbLine
 10
8.977499999999963
 20
-0.0000000000002274
 30
0.0
 11
10.65768399999979
 21
-1.680184000000508
 31
0.0
  0
LINE
  5
4B7E
330
4B3B
100
AcDbEntity
  8
AM_0 外形線1
100
AcDbLine
 10
10.2623880000001
 20
-13.00000000000023
 30
0.0
 11
9.107686999999712
 21
-15.00000000000023
 31
0.0
  0
LINE
  5
4B7F
330
4B3B
100
AcDbEntity
  8
AM_4 細線
100
AcDbLine
 10
9.534893000000009
 20
-0.5573930000005021
 30
0.0
 11
9.030545999999956
 21
-15.00000000000023
 31
0.0
  0
LINE
  5
4B80
330
4B3B
100
AcDbEntity
  8
AM_7 中心線
 48
0.5
100
AcDbLine
 10
0.0
 20
2.156880999999656
 30
0.0
 11
0.0
 21
-19.52988800000025
 31
0.0
  0
LINE
  5
4BF7
330
4B3B
100
AcDbEntity
  8
AM_0 外形線1
100
AcDbLine
 10
10.2623880000001
 20
-13.00000000000023
 30
0.0
 11
10.65768500000013
 21
-1.680184000000508
 31
0.0
  0
LINE
  5
4BF8
330
4B3B
100
AcDbEntity
  8
AM_0 外形線1
100
AcDbLine
 10
-8.977499999999963
 20
-0.0000000000002274
 30
0.0
 11
8.977499999999963
 21
-0.0000000000002274
 31
0.0
  0
ENDBLK
  5
4B3D
330
4B3B
100
AcDbEntity
  8
0
100
AcDbBlockEnd
  0
BLOCK
  5
4D54
330
4D53
100
AcDbEntity
  8
0
100
AcDbBlockBegin
  2
ケースＡ CCMH450
 70
     0
 10
0.0
 20
0.0
 30
0.0
  3
ケースＡ CCMH450
  1

  0
LINE
  5
4D56
330
4D53
100
AcDbEntity
  8
AM_0 外形線1
100
AcDbLine
 10
110.0
 20
-186.0000000000002
 30
0.0
 11
110.0
 21
0.0
 31
0.0
  0
LINE
  5
4D57
330
4D53
100
AcDbEntity
  8
AM_0 外形線1
100
AcDbLine
 10
131.0
 20
-186.0000000000002
 30
0.0
 11
131.0
 21
0.0
 31
0.0
  0
LINE
  5
4D58
330
4D53
100
AcDbEntity
  8
AM_0 外形線1
100
AcDbLine
 10
101.0
 20
-177.0000000000002
 30
0.0
 11
101.0
 21
0.0
 31
0.0
  0
LINE
  5
4D59
330
4D53
100
AcDbEntity
  8
AM_0 外形線1
100
AcDbLine
 10
25.0
 20
-224.0000000000002
 30
0.0
 11
25.0
 21
0.0
 31
0.0
  0
LINE
  5
4D5A
330
4D53
100
AcDbEntity
  8
AM_0 外形線1
100
AcDbLine
 10
0.0
 20
0.0
 30
0.0
 11
0.0
 21
-224.0000000000002
 31
0.0
  0
LINE
  5
4D5B
330
4D53
100
AcDbEntity
  8
AM_0 外形線1
100
AcDbLine
 10
31.0
 20
177.0
 30
0.0
 11
101.0
 21
177.0
 31
0.0
  0
LINE
  5
4D5C
330
4D53
100
AcDbEntity
  8
AM_0 外形線1
100
AcDbLine
 10
65.0
 20
160.0
 30
0.0
 11
130.0
 21
160.0
 31
0.0
  0
LINE
  5
4D5D
330
4D53
100
AcDbEntity
  8
AM_7 中心線
 48
0.5
100
AcDbLine
 10
63.0
 20
155.0
 30
0.0
 11
132.0
 21
155.0
 31
0.0
  0
LINE
  5
4D5E
330
4D53
100
AcDbEntity
  8
AM_3 隠れ線
100
AcDbLine
 10
126.0
 20
151.0
 30
0.0
 11
70.0
 21
151.0
 31
0.0
  0
LINE
  5
4D5F
330
4D53
100
AcDbEntity
  8
AM_0 外形線1
100
AcDbLine
 10
25.0
 20
183.0
 30
0.0
 11
25.0
 21
224.0
 31
0.0
  0
LINE
  5
4D60
330
4D53
100
AcDbEntity
  8
AM_0 外形線1
100
AcDbLine
 10
65.0
 20
152.0
 30
0.0
 11
65.0
 21
160.5
 31
0.0
  0
LINE
  5
4D61
330
4D53
100
AcDbEntity
  8
AM_0 外形線1
100
AcDbLine
 10
70.0
 20
151.0
 30
0.0
 11
66.0
 21
151.0
 31
0.0
  0
LINE
  5
4D62
330
4D53
100
AcDbEntity
  8
AM_0 外形線1
100
AcDbLine
 10
66.0
 20
151.0
 30
0.0
 11
65.0
 21
152.0
 31
0.0
  0
LINE
  5
4D63
330
4D53
100
AcDbEntity
  8
AM_0 外形線1
100
AcDbLine
 10
-7.0
 20
169.0
 30
0.0
 11
-6.0
 21
170.0
 31
0.0
  0
LINE
  5
4D64
330
4D53
100
AcDbEntity
  8
AM_0 外形線1
100
AcDbLine
 10
-6.0
 20
170.0
 30
0.0
 11
4.0
 21
170.0
 31
0.0
  0
LINE
  5
4D65
330
4D53
100
AcDbEntity
  8
AM_0 外形線1
100
AcDbLine
 10
0.0
 20
194.0
 30
0.0
 11
25.0
 21
194.0
 31
0.0
  0
LINE
  5
4D66
330
4D53
100
AcDbEntity
  8
AM_0 外形線1
100
AcDbLine
 10
64.0
 20
161.5
 30
0.0
 11
-7.0
 21
161.5
 31
0.0
  0
LINE
  5
4D67
330
4D53
100
AcDbEntity
  8
AM_7 中心線
100
AcDbLine
 10
43.0
 20
205.0
 30
0.0
 11
-58.0
 21
205.0
 31
0.0
  0
LINE
  5
4D68
330
4D53
100
AcDbEntity
  8
AM_0 外形線1
100
AcDbLine
 10
-7.0
 20
161.5
 30
0.0
 11
-7.0
 21
169.0
 31
0.0
  0
LINE
  5
4D69
330
4D53
100
AcDbEntity
  8
AM_0 外形線1
100
AcDbLine
 10
0.0
 20
177.2
 30
0.0
 11
0.0
 21
194.0
 31
0.0
  0
LINE
  5
4D6A
330
4D53
100
AcDbEntity
  8
AM_0 外形線1
100
AcDbLine
 10
4.5
 20
170.5
 30
0.0
 11
4.5
 21
176.7
 31
0.0
  0
LINE
  5
4D6B
330
4D53
100
AcDbEntity
  8
AM_0 外形線1
100
AcDbLine
 10
4.0
 20
177.2
 30
0.0
 11
0.0
 21
177.2
 31
0.0
  0
ARC
  5
4D6C
330
4D53
100
AcDbEntity
  8
AM_0 外形線1
100
AcDbCircle
 10
4.0
 20
170.5
 30
0.0
 40
0.5
100
AcDbArc
 50
270.0
 51
0.0
  0
ARC
  5
4D6D
330
4D53
100
AcDbEntity
  8
AM_0 外形線1
100
AcDbCircle
 10
4.0
 20
176.7
 30
0.0
 40
0.5
100
AcDbArc
 50
0.0
 51
90.0
  0
LWPOLYLINE
  5
4D6E
330
4D53
100
AcDbEntity
  8
AM_0 外形線1
100
AcDbPolyline
 90
       73
 70
     0
 43
0.0
 10
2.25
 20
170.0
 10
2.446100000000114
 20
170.0136989999998
 10
2.640707999999904
 20
170.0546919999999
 10
2.832343000000037
 20
170.1226669999998
 10
3.019545000000106
 20
170.2171069999996
 10
3.200890999999955
 20
170.3372919999999
 10
3.375
 20
170.482309
 10
3.54054700000006
 20
170.6510529999998
 10
3.696272000000134
 20
170.8422399999997
 10
3.840989999999692
 20
171.0544159999997
 10
3.973599999999805
 20
171.2859649999998
 10
4.093092000000068
 20
171.5351249999998
 10
4.198556999999708
 20
171.7999999999999
 10
4.289192000000183
 20
172.078575
 10
4.364308000000163
 20
172.3687279999999
 10
4.423332999999728
 20
172.6682519999999
 10
4.465817000000241
 20
172.9748669999999
 10
4.491438000000016
 20
173.2862399999999
 10
4.5
 20
173.5999999999999
 10
4.491438000000016
 20
173.9137609999998
 10
4.465817000000241
 20
174.225134
 10
4.423332999999728
 20
174.5317489999997
 10
4.364308000000163
 20
174.8312729999998
 10
4.289192000000183
 20
175.1214259999999
 10
4.198556999999708
 20
175.3999999999998
 10
4.093092000000068
 20
175.6648749999999
 10
3.973599999999805
 20
175.9140359999999
 10
3.840989999999692
 20
176.145585
 10
3.696272000000134
 20
176.3577599999998
 10
3.54054700000006
 20
176.5489479999999
 10
3.375
 20
176.7176919999999
 10
3.200890999999955
 20
176.8627079999999
 10
3.019545000000106
 20
176.982894
 10
2.832343000000037
 20
177.0773329999999
 10
2.640707999999904
 20
177.1453079999998
 10
2.446100000000114
 20
177.1863009999999
 10
2.25
 20
177.2
 10
2.053899
 20
177.1863009999999
 10
1.859290999999756
 20
177.1453079999998
 10
1.667656999999961
 20
177.0773329999999
 10
1.480454000000008
 20
176.982894
 10
1.299109000000044
 20
176.8627079999999
 10
1.125
 20
176.7176919999999
 10
0.9594529999999393
 20
176.5489479999999
 10
0.8037279999998645
 20
176.3577599999998
 10
0.6590100000003078
 20
176.145585
 10
0.5263999999997396
 20
175.9140359999999
 10
0.4069079999999305
 20
175.6648749999999
 10
0.3014430000002903
 20
175.3999999999998
 10
0.2108069999999316
 20
175.1214259999999
 10
0.1356909999999516
 20
174.8312729999998
 10
0.0766670000002705
 20
174.5317489999997
 10
0.0341819999998734
 20
174.225134
 10
0.0085619999999835
 20
173.9137609999998
 10
0.0
 20
173.5999999999999
 10
0.0085619999999835
 20
173.2862399999999
 10
0.0341819999998734
 20
172.9748669999999
 10
0.0766670000002705
 20
172.6682519999999
 10
0.1356909999999516
 20
172.3687279999999
 10
0.2108069999999316
 20
172.078575
 10
0.3014430000002903
 20
171.7999999999999
 10
0.4069079999999305
 20
171.5351249999998
 10
0.5263999999997396
 20
171.2859649999998
 10
0.6590100000003078
 20
171.0544159999997
 10
0.8037279999998645
 20
170.8422399999997
 10
0.9594529999999393
 20
170.6510529999998
 10
1.125
 20
170.482309
 10
1.299109000000044
 20
170.3372919999999
 10
1.480454000000008
 20
170.2171069999996
 10
1.667656999999961
 20
170.1226669999998
 10
1.859290999999756
 20
170.0546919999999
 10
2.053899
 20
170.0136989999998
 10
2.25
 20
170.0
  0
ARC
  5
4D6F
330
4D53
100
AcDbEntity
  8
AM_0 外形線1
100
AcDbCircle
 10
31.0
 20
183.0
 30
0.0
 40
6.0
100
AcDbArc
 50
180.0
 51
270.0
  0
ARC
  5
4D70
330
4D53
100
AcDbEntity
  8
AM_0 外形線1
100
AcDbCircle
 10
64.0
 20
160.5
 30
0.0
 40
1.0
100
AcDbArc
 50
0.0
 51
90.0
  0
LINE
  5
4D71
330
4D53
100
AcDbEntity
  8
AM_0 外形線1
100
AcDbLine
 10
59.53489300000001
 20
176.4426069999997
 30
0.0
 11
59.55435799999985
 21
177.0
 31
0.0
  0
LINE
  5
4D72
330
4D53
100
AcDbEntity
  8
AM_0 外形線1
100
AcDbLine
 10
60.65768399999979
 20
175.3198159999997
 30
0.0
 11
60.71635800000013
 21
177.0
 31
0.0
  0
LINE
  5
4D73
330
4D53
100
AcDbEntity
  8
AM_0 外形線1
100
AcDbLine
 10
60.26238800000011
 20
164.0
 30
0.0
 11
60.17508600000019
 21
161.5
 31
0.0
  0
LINE
  5
4D74
330
4D53
100
AcDbEntity
  8
AM_0 外形線1
100
AcDbLine
 10
40.46510599999964
 20
176.4426069999997
 30
0.0
 11
40.44564200000013
 21
177.0
 31
0.0
  0
LINE
  5
4D75
330
4D53
100
AcDbEntity
  8
AM_0 外形線1
100
AcDbLine
 10
40.96945300000014
 20
162.0
 30
0.0
 11
40.98691400000006
 21
161.5
 31
0.0
  0
LINE
  5
4D76
330
4D53
100
AcDbEntity
  8
AM_0 外形線1
100
AcDbLine
 10
39.34231499999987
 20
175.3198159999997
 30
0.0
 11
39.28364200000033
 21
177.0
 31
0.0
  0
LINE
  5
4D77
330
4D53
100
AcDbEntity
  8
AM_0 外形線1
100
AcDbLine
 10
39.7376119999999
 20
164.0
 30
0.0
 11
39.82491399999982
 21
161.5
 31
0.0
  0
LINE
  5
4D78
330
4D53
100
AcDbEntity
  8
AM_0 外形線1
100
AcDbLine
 10
0.0
 20
216.0
 30
0.0
 11
25.0
 21
216.0
 31
0.0
  0
LINE
  5
4D79
330
4D53
100
AcDbEntity
  8
AM_0 外形線1
100
AcDbLine
 10
0.0
 20
216.0
 30
0.0
 11
0.0
 21
224.0
 31
0.0
  0
LINE
  5
4D7A
330
4D53
100
AcDbEntity
  8
AM_0 外形線1
100
AcDbLine
 10
0.0
 20
224.0
 30
0.0
 11
1.0
 21
225.0
 31
0.0
  0
LINE
  5
4D7B
330
4D53
100
AcDbEntity
  8
AM_0 外形線1
100
AcDbLine
 10
1.0
 20
225.0
 30
0.0
 11
24.0
 21
225.0
 31
0.0
  0
LINE
  5
4D7C
330
4D53
100
AcDbEntity
  8
AM_0 外形線1
100
AcDbLine
 10
24.0
 20
225.0
 30
0.0
 11
25.0
 21
224.0
 31
0.0
  0
LINE
  5
4D7D
330
4D53
100
AcDbEntity
  8
AM_0 外形線1
100
AcDbLine
 10
130.0
 20
160.0
 30
0.0
 11
130.0
 21
152.0
 31
0.0
  0
LINE
  5
4D7E
330
4D53
100
AcDbEntity
  8
AM_0 外形線1
100
AcDbLine
 10
130.0
 20
152.0
 30
0.0
 11
129.0
 21
151.0
 31
0.0
  0
LINE
  5
4D7F
330
4D53
100
AcDbEntity
  8
AM_0 外形線1
100
AcDbLine
 10
126.0
 20
151.0
 30
0.0
 11
129.0
 21
151.0
 31
0.0
  0
LINE
  5
4D80
330
4D53
100
AcDbEntity
  8
AM_0 外形線1
100
AcDbLine
 10
135.0
 20
186.0
 30
0.0
 11
135.0
 21
180.0
 31
0.0
  0
LINE
  5
4D81
330
4D53
100
AcDbEntity
  8
AM_0 外形線1
100
AcDbLine
 10
101.0
 20
177.0
 30
0.0
 11
110.0
 21
186.0
 31
0.0
  0
ARC
  5
4D82
330
4D53
100
AcDbEntity
  8
AM_0 外形線1
100
AcDbCircle
 10
131.0
 20
160.5
 30
0.0
 40
1.0
100
AcDbArc
 50
90.0
 51
180.0
  0
LINE
  5
4D83
330
4D53
100
AcDbEntity
  8
AM_0 外形線1
100
AcDbLine
 10
130.0
 20
160.5
 30
0.0
 11
130.0
 21
160.0
 31
0.0
  0
LINE
  5
4D84
330
4D53
100
AcDbEntity
  8
AM_0 外形線1
100
AcDbLine
 10
135.0
 20
170.0
 30
0.0
 11
135.0
 21
161.5
 31
0.0
  0
LINE
  5
4D85
330
4D53
100
AcDbEntity
  8
AM_0 外形線1
100
AcDbLine
 10
135.0
 20
161.5
 30
0.0
 11
131.0
 21
161.5
 31
0.0
  0
LINE
  5
4D86
330
4D53
100
AcDbEntity
  8
AM_0 外形線1
100
AcDbLine
 10
110.0
 20
186.0
 30
0.0
 11
135.0
 21
186.0
 31
0.0
  0
LINE
  5
4D87
330
4D53
100
AcDbEntity
  8
AM_0 外形線1
100
AcDbLine
 10
31.0
 20
-177.0000000000002
 30
0.0
 11
101.0
 21
-177.0000000000002
 31
0.0
  0
LINE
  5
4D88
330
4D53
100
AcDbEntity
  8
AM_0 外形線1
100
AcDbLine
 10
0.0
 20
-224.0000000000002
 30
0.0
 11
1.0
 21
-225.0000000000002
 31
0.0
  0
LINE
  5
4D89
330
4D53
100
AcDbEntity
  8
AM_0 外形線1
100
AcDbLine
 10
1.0
 20
-225.0000000000002
 30
0.0
 11
24.0
 21
-225.0000000000002
 31
0.0
  0
LINE
  5
4D8A
330
4D53
100
AcDbEntity
  8
AM_0 外形線1
100
AcDbLine
 10
24.0
 20
-225.0000000000002
 30
0.0
 11
25.0
 21
-224.0000000000002
 31
0.0
  0
ARC
  5
4D8B
330
4D53
100
AcDbEntity
  8
AM_0 外形線1
100
AcDbCircle
 10
31.0
 20
-183.0000000000002
 30
0.0
 40
6.0
100
AcDbArc
 50
90.0
 51
180.0
  0
LINE
  5
4D8C
330
4D53
100
AcDbEntity
  8
AM_0 外形線1
100
AcDbLine
 10
101.0
 20
-177.0000000000002
 30
0.0
 11
110.0
 21
-186.0000000000002
 31
0.0
  0
LINE
  5
4D8D
330
4D53
100
AcDbEntity
  8
AM_0 外形線1
100
AcDbLine
 10
110.0
 20
-186.0000000000002
 30
0.0
 11
131.0000000000002
 21
-186.0000000000003
 31
0.0
  0
INSERT
  5
4D8E
330
4D53
100
AcDbEntity
  8
AM_5 寸法線
100
AcDbBlockReference
  2
ロッカクアナツキプラグA R1／2
 10
50.0
 20
177.0
 30
0.0
  0
ENDBLK
  5
4D55
330
4D53
100
AcDbEntity
  8
0
100
AcDbBlockEnd
  0
BLOCK
  5
4F2E
330
4F2D
100
AcDbEntity
  8
0
100
AcDbBlockBegin
  2
ケースＢ CCMH450
 70
     0
 10
0.0
 20
0.0
 30
0.0
  3
ケースＢ CCMH450
  1

  0
LINE
  5
4F30
330
4F2D
100
AcDbEntity
  8
AM_0 外形線1
100
AcDbLine
 10
-25.0
 20
-224.0000000000002
 30
0.0
 11
-25.0
 21
0.0
 31
0.0
  0
LINE
  5
4F31
330
4F2D
100
AcDbEntity
  8
AM_0 外形線1
100
AcDbLine
 10
-101.0
 20
-177.0000000000002
 30
0.0
 11
-101.0
 21
0.0
 31
0.0
  0
LINE
  5
4F32
330
4F2D
100
AcDbEntity
  8
AM_0 外形線1
100
AcDbLine
 10
-110.0
 20
-186.0000000000002
 30
0.0
 11
-110.0
 21
0.0
 31
0.0
  0
LINE
  5
4F33
330
4F2D
100
AcDbEntity
  8
AM_0 外形線1
100
AcDbLine
 10
-131.0
 20
-186.0000000000002
 30
0.0
 11
-131.0
 21
0.0
 31
0.0
  0
LINE
  5
4F34
330
4F2D
100
AcDbEntity
  8
AM_0 外形線1
100
AcDbLine
 10
-25.0
 20
183.0
 30
0.0
 11
-25.0
 21
224.0
 31
0.0
  0
LINE
  5
4F35
330
4F2D
100
AcDbEntity
  8
AM_0 外形線1
100
AcDbLine
 10
-65.0
 20
160.0
 30
0.0
 11
-130.0
 21
160.0
 31
0.0
  0
LINE
  5
4F36
330
4F2D
100
AcDbEntity
  8
AM_7 中心線
 48
0.5
100
AcDbLine
 10
-63.0
 20
155.0
 30
0.0
 11
-132.0
 21
155.0
 31
0.0
  0
LINE
  5
4F37
330
4F2D
100
AcDbEntity
  8
AM_3 隠れ線
100
AcDbLine
 10
-126.0
 20
151.0
 30
0.0
 11
-70.0
 21
151.0
 31
0.0
  0
LINE
  5
4F38
330
4F2D
100
AcDbEntity
  8
AM_0 外形線1
100
AcDbLine
 10
-31.0
 20
177.0
 30
0.0
 11
-101.0
 21
177.0
 31
0.0
  0
LINE
  5
4F39
330
4F2D
100
AcDbEntity
  8
AM_0 外形線1
100
AcDbLine
 10
-130.0
 20
160.5
 30
0.0
 11
-130.0
 21
152.0
 31
0.0
  0
LINE
  5
4F3A
330
4F2D
100
AcDbEntity
  8
AM_0 外形線1
100
AcDbLine
 10
-130.0
 20
152.0
 30
0.0
 11
-129.0
 21
151.0
 31
0.0
  0
LINE
  5
4F3B
330
4F2D
100
AcDbEntity
  8
AM_0 外形線1
100
AcDbLine
 10
-126.0
 20
151.0
 30
0.0
 11
-129.0
 21
151.0
 31
0.0
  0
LINE
  5
4F3C
330
4F2D
100
AcDbEntity
  8
AM_0 外形線1
100
AcDbLine
 10
-135.0
 20
186.0
 30
0.0
 11
-134.9999999999999
 21
180.0
 31
0.0
  0
LINE
  5
4F3D
330
4F2D
100
AcDbEntity
  8
AM_0 外形線1
100
AcDbLine
 10
-101.0
 20
177.0
 30
0.0
 11
-110.0
 21
186.0
 31
0.0
  0
ARC
  5
4F3E
330
4F2D
100
AcDbEntity
  8
AM_0 外形線1
100
AcDbCircle
 10
-131.0
 20
160.5
 30
0.0
 40
1.0
100
AcDbArc
 50
0.0
 51
90.0
  0
LINE
  5
4F3F
330
4F2D
100
AcDbEntity
  8
AM_0 外形線1
100
AcDbLine
 10
-135.0
 20
170.0
 30
0.0
 11
-135.0
 21
161.5
 31
0.0
  0
LINE
  5
4F40
330
4F2D
100
AcDbEntity
  8
AM_0 外形線1
100
AcDbLine
 10
-135.0
 20
161.5
 30
0.0
 11
-131.0
 21
161.5
 31
0.0
  0
LINE
  5
4F41
330
4F2D
100
AcDbEntity
  8
AM_0 外形線1
100
AcDbLine
 10
-110.0
 20
186.0
 30
0.0
 11
-135.0
 21
186.0
 31
0.0
  0
LINE
  5
4F42
330
4F2D
100
AcDbEntity
  8
AM_0 外形線1
100
AcDbLine
 10
-65.0
 20
152.0
 30
0.0
 11
-65.0
 21
160.5
 31
0.0
  0
LINE
  5
4F43
330
4F2D
100
AcDbEntity
  8
AM_0 外形線1
100
AcDbLine
 10
-66.0
 20
151.0
 30
0.0
 11
-65.0
 21
152.0
 31
0.0
  0
LINE
  5
4F44
330
4F2D
100
AcDbEntity
  8
AM_0 外形線1
100
AcDbLine
 10
-70.0
 20
151.0
 30
0.0
 11
-66.0
 21
151.0
 31
0.0
  0
LINE
  5
4F45
330
4F2D
100
AcDbEntity
  8
AM_0 外形線1
100
AcDbLine
 10
-64.0
 20
161.5
 30
0.0
 11
-8.0
 21
161.5
 31
0.0
  0
ARC
  5
4F46
330
4F2D
100
AcDbEntity
  8
AM_0 外形線1
100
AcDbCircle
 10
-64.0
 20
160.5
 30
0.0
 40
1.0
100
AcDbArc
 50
90.0
 51
180.0
  0
LINE
  5
4F47
330
4F2D
100
AcDbEntity
  8
AM_0 外形線1
100
AcDbLine
 10
-59.03054699999985
 20
162.0
 30
0.0
 11
-59.01308599999993
 21
161.5
 31
0.0
  0
LINE
  5
4F48
330
4F2D
100
AcDbEntity
  8
AM_0 外形線1
100
AcDbLine
 10
-60.26238800000011
 20
164.0
 30
0.0
 11
-60.17508600000019
 21
161.5
 31
0.0
  0
LINE
  5
4F49
330
4F2D
100
AcDbEntity
  8
AM_0 外形線1
100
AcDbLine
 10
-8.0
 20
161.5
 30
0.0
 11
-8.0
 21
170.0
 31
0.0
  0
LINE
  5
4F4A
330
4F2D
100
AcDbEntity
  8
AM_0 外形線1
100
AcDbLine
 10
-39.34231600000021
 20
175.3198159999997
 30
0.0
 11
-39.7376119999999
 21
164.0
 31
0.0
  0
LINE
  5
4F4B
330
4F2D
100
AcDbEntity
  8
AM_0 外形線1
100
AcDbLine
 10
-40.46510699999998
 20
176.4426069999997
 30
0.0
 11
-40.44564200000013
 21
177.0
 31
0.0
  0
LINE
  5
4F4C
330
4F2D
100
AcDbEntity
  8
AM_0 外形線1
100
AcDbLine
 10
-39.34231600000021
 20
175.3198159999997
 30
0.0
 11
-39.28364200000033
 21
177.0
 31
0.0
  0
ARC
  5
4F4D
330
4F2D
100
AcDbEntity
  8
AM_0 外形線1
100
AcDbCircle
 10
-31.0
 20
183.0
 30
0.0
 40
6.0
100
AcDbArc
 50
270.0
 51
0.0
  0
LINE
  5
4F4E
330
4F2D
100
AcDbEntity
  8
AM_0 外形線1
100
AcDbLine
 10
-1.0
 20
170.0
 30
0.0
 11
0.0
 21
171.0
 31
0.0
  0
LINE
  5
4F4F
330
4F2D
100
AcDbEntity
  8
AM_0 外形線1
100
AcDbLine
 10
-1.0
 20
225.0
 30
0.0
 11
-24.0
 21
225.0
 31
0.0
  0
LINE
  5
4F50
330
4F2D
100
AcDbEntity
  8
AM_0 外形線1
100
AcDbLine
 10
-24.0
 20
225.0
 30
0.0
 11
-25.0
 21
224.0
 31
0.0
  0
LINE
  5
4F51
330
4F2D
100
AcDbEntity
  8
AM_0 外形線1
100
AcDbLine
 10
0.0
 20
224.0
 30
0.0
 11
-1.0
 21
225.0
 31
0.0
  0
LINE
  5
4F52
330
4F2D
100
AcDbEntity
  8
AM_0 外形線1
100
AcDbLine
 10
-31.0
 20
-177.0000000000002
 30
0.0
 11
-101.0
 21
-177.0000000000002
 31
0.0
  0
LINE
  5
4F53
330
4F2D
100
AcDbEntity
  8
AM_0 外形線1
100
AcDbLine
 10
-101.0
 20
-177.0000000000002
 30
0.0
 11
-110.0
 21
-186.0000000000002
 31
0.0
  0
LINE
  5
4F55
330
4F2D
100
AcDbEntity
  8
AM_0 外形線1
100
AcDbLine
 10
-1.0
 20
-225.0000000000002
 30
0.0
 11
-24.0
 21
-225.0000000000002
 31
0.0
  0
LINE
  5
4F56
330
4F2D
100
AcDbEntity
  8
AM_0 外形線1
100
AcDbLine
 10
-24.0
 20
-225.0000000000002
 30
0.0
 11
-25.0
 21
-224.0000000000002
 31
0.0
  0
LINE
  5
4F57
330
4F2D
100
AcDbEntity
  8
AM_0 外形線1
100
AcDbLine
 10
0.0
 20
-224.0000000000002
 30
0.0
 11
-1.0
 21
-225.0000000000002
 31
0.0
  0
LINE
  5
4F58
330
4F2D
100
AcDbEntity
  8
AM_7 中心線
 48
0.5
100
AcDbLine
 10
29.87710077829433
 20
-205.0000000000002
 30
0.0
 11
-30.0
 21
-205.0000000000002
 31
0.0
  0
ARC
  5
4F59
330
4F2D
100
AcDbEntity
  8
AM_0 外形線1
100
AcDbCircle
 10
-31.0
 20
-183.0000000000002
 30
0.0
 40
6.0
100
AcDbArc
 50
0.0
 51
90.0
  0
INSERT
  5
4F5A
330
4F2D
100
AcDbEntity
  8
AM_5 寸法線
100
AcDbBlockReference
  2
ロッカクアナツキプラグB R1／2
 10
-50.0
 20
177.0000000000002
 30
0.0
  0
LINE
  5
4FC5
330
4F2D
100
AcDbEntity
  8
AM_0 外形線1
100
AcDbLine
 10
0.0
 20
216.0
 30
0.0
 11
-25.0
 21
216.0
 31
0.0
  0
LINE
  5
4FC6
330
4F2D
100
AcDbEntity
  8
AM_0 外形線1
100
AcDbLine
 10
0.0
 20
194.0
 30
0.0
 11
-25.0
 21
194.0
 31
0.0
  0
LINE
  5
4FC7
330
4F2D
100
AcDbEntity
  8
AM_0 外形線1
100
AcDbLine
 10
0.0
 20
224.0
 30
0.0
 11
0.0
 21
216.0
 31
0.0
  0
LINE
  5
4FC8
330
4F2D
100
AcDbEntity
  8
AM_0 外形線1
100
AcDbLine
 10
0.0
 20
194.0
 30
0.0
 11
0.0
 21
171.0
 31
0.0
  0
LINE
  5
4FC9
330
4F2D
100
AcDbEntity
  8
AM_0 外形線1
100
AcDbLine
 10
-1.0
 20
170.0
 30
0.0
 11
-8.0
 21
170.0
 31
0.0
  0
LINE
  5
4FCA
330
4F2D
100
AcDbEntity
  8
AM_0 外形線1
100
AcDbLine
 10
0.0
 20
0.0
 30
0.0
 11
0.0
 21
-224.0000000000002
 31
0.0
  0
LINE
  5
4FCC
330
4F2D
100
AcDbEntity
  8
AM_0 外形線1
100
AcDbLine
 10
-59.53489400000035
 20
176.4426069999997
 30
0.0
 11
-59.55435799999985
 21
177.0
 31
0.0
  0
LINE
  5
4FCD
330
4F2D
100
AcDbEntity
  8
AM_0 外形線1
100
AcDbLine
 10
-60.65768500000014
 20
175.3198159999997
 30
0.0
 11
-60.71635799999967
 21
177.0
 31
0.0
  0
LINE
  5
4FCE
330
4F2D
100
AcDbEntity
  8
AM_0 外形線1
100
AcDbLine
 10
-40.96945400000004
 20
162.0
 30
0.0
 11
-40.98691400000006
 21
161.5
 31
0.0
  0
LINE
  5
4FCF
330
4F2D
100
AcDbEntity
  8
AM_0 外形線1
100
AcDbLine
 10
-39.7376119999999
 20
164.0
 30
0.0
 11
-39.82491399999982
 21
161.5
 31
0.0
  0
LINE
  5
5309
330
4F2D
100
AcDbEntity
  8
AM_0 外形線1
100
AcDbLine
 10
-131.0
 20
-186.0000000000002
 30
0.0
 11
-110.0
 21
-186.0000000000002
 31
0.0
  0
ENDBLK
  5
4F2F
330
4F2D
100
AcDbEntity
  8
0
100
AcDbBlockEnd
  0
BLOCK
  5
5038
330
5037
100
AcDbEntity
  8
0
100
AcDbBlockBegin
  2
センタＡ CCMH450
 70
     0
 10
0.0
 20
0.0
 30
0.0
  3
センタＡ CCMH450
  1

  0
LINE
  5
503A
330
5037
100
AcDbEntity
  8
AM_0 外形線1
100
AcDbLine
 10
200.0
 20
-138.0000000000002
 30
0.0
 11
200.0
 21
138.0
 31
0.0
  0
LINE
  5
503B
330
5037
100
AcDbEntity
  8
AM_0 外形線1
100
AcDbLine
 10
0.0
 20
131.5
 30
0.0
 11
0.0
 21
0.0
 31
0.0
  0
LINE
  5
503C
330
5037
100
AcDbEntity
  8
AM_3 隠れ線
100
AcDbLine
 10
0.0
 20
8.75
 30
0.0
 11
52.0
 21
8.75
 31
0.0
  0
LINE
  5
503D
330
5037
100
AcDbEntity
  8
AM_3 隠れ線
100
AcDbLine
 10
0.0
 20
10.0
 30
0.0
 11
36.0
 21
10.0
 31
0.0
  0
LINE
  5
503E
330
5037
100
AcDbEntity
  8
AM_3 隠れ線
100
AcDbLine
 10
36.0
 20
10.0
 30
0.0
 11
36.72168800000009
 21
8.75
 31
0.0
  0
LINE
  5
503F
330
5037
100
AcDbEntity
  8
AM_3 隠れ線
100
AcDbLine
 10
52.0
 20
8.75
 30
0.0
 11
52.0
 21
0.0
 31
0.0
  0
LINE
  5
5040
330
5037
100
AcDbEntity
  8
AM_3 隠れ線
100
AcDbLine
 10
36.0
 20
10.0
 30
0.0
 11
36.0
 21
0.0
 31
0.0
  0
LINE
  5
5041
330
5037
100
AcDbEntity
  8
AM_3 隠れ線
100
AcDbLine
 10
36.72168800000009
 20
8.75
 30
0.0
 11
36.72168800000009
 21
0.0
 31
0.0
  0
LINE
  5
5042
330
5037
100
AcDbEntity
  8
AM_3 隠れ線
100
AcDbLine
 10
52.0
 20
8.75
 30
0.0
 11
57.0518149999998
 21
0.0
 31
0.0
  0
LINE
  5
5043
330
5037
100
AcDbEntity
  8
AM_0 外形線1
100
AcDbLine
 10
160.0
 20
-145.0000000000002
 30
0.0
 11
160.0
 21
0.0
 31
0.0
  0
LINE
  5
5044
330
5037
100
AcDbEntity
  8
AM_0 外形線1
100
AcDbLine
 10
163.0
 20
-144.0000000000002
 30
0.0
 11
163.0
 21
0.0
 31
0.0
  0
ARC
  5
5046
330
5037
100
AcDbEntity
  8
AM_0 外形線1
100
AcDbCircle
 10
89.0
 20
0.0
 30
0.0
 40
159.8
100
AcDbArc
 50
80.09063499998969
 51
99.90936500001033
  0
LINE
  5
5048
330
5037
100
AcDbEntity
  8
AM_0 外形線1
100
AcDbLine
 10
61.0
 20
156.8278109999999
 30
0.0
 11
61.0
 21
143.5
 31
0.0
  0
LINE
  5
5049
330
5037
100
AcDbEntity
  8
AM_0 外形線1
100
AcDbLine
 10
60.5
 20
143.0
 30
0.0
 11
1.0
 21
143.0
 31
0.0
  0
LINE
  5
504A
330
5037
100
AcDbEntity
  8
AM_0 外形線1
100
AcDbLine
 10
1.0
 20
143.0
 30
0.0
 11
0.0
 21
142.0
 31
0.0
  0
LINE
  5
504B
330
5037
100
AcDbEntity
  8
AM_0 外形線1
100
AcDbLine
 10
0.0
 20
142.0
 30
0.0
 11
0.0
 21
131.5
 31
0.0
  0
ARC
  5
504C
330
5037
100
AcDbEntity
  8
AM_0 外形線1
100
AcDbCircle
 10
60.5
 20
143.5
 30
0.0
 40
0.5
100
AcDbArc
 50
270.0
 51
0.0
  0
LINE
  5
504D
330
5037
100
AcDbEntity
  8
AM_0 外形線1
100
AcDbLine
 10
61.5
 20
157.415978
 30
0.0
 11
61.0
 21
156.8278109999999
 31
0.0
  0
LINE
  5
504E
330
5037
100
AcDbEntity
  8
AM_0 外形線1
100
AcDbLine
 10
117.0
 20
145.5
 30
0.0
 11
117.0
 21
156.8278109999999
 31
0.0
  0
LINE
  5
504F
330
5037
100
AcDbEntity
  8
AM_7 中心線
 48
0.5
100
AcDbLine
 10
89.0
 20
164.7999999999999
 30
0.0
 11
89.0
 21
145.0
 31
0.0
  0
LINE
  5
5050
330
5037
100
AcDbEntity
  8
AM_0 外形線1
100
AcDbLine
 10
160.0
 20
145.0
 30
0.0
 11
117.5
 21
145.0
 31
0.0
  0
ARC
  5
5051
330
5037
100
AcDbEntity
  8
AM_0 外形線1
100
AcDbCircle
 10
117.5
 20
145.5
 30
0.0
 40
0.5
100
AcDbArc
 50
180.0
 51
270.0
  0
ARC
  5
5052
330
5037
100
AcDbEntity
  8
AM_0 外形線1
100
AcDbCircle
 10
194.0
 20
138.0
 30
0.0
 40
6.0
100
AcDbArc
 50
0.0
 51
90.0
  0
LINE
  5
5053
330
5037
100
AcDbEntity
  8
AM_0 外形線1
100
AcDbLine
 10
163.0
 20
144.0
 30
0.0
 11
160.0
 21
145.0
 31
0.0
  0
LINE
  5
5054
330
5037
100
AcDbEntity
  8
AM_0 外形線1
100
AcDbLine
 10
194.0
 20
144.0
 30
0.0
 11
163.0
 21
144.0
 31
0.0
  0
LINE
  5
5055
330
5037
100
AcDbEntity
  8
AM_0 外形線1
100
AcDbLine
 10
117.0
 20
156.8278109999999
 30
0.0
 11
116.5
 21
157.415978
 31
0.0
  0
LINE
  5
5056
330
5037
100
AcDbEntity
  8
AM_0 外形線1
100
AcDbLine
 10
142.0
 20
-145.0000000000002
 30
0.0
 11
160.0
 21
-145.0000000000002
 31
0.0
  0
ARC
  5
5057
330
5037
100
AcDbEntity
  8
AM_0 外形線1
100
AcDbCircle
 10
194.0
 20
-138.0000000000002
 30
0.0
 40
6.0
100
AcDbArc
 50
270.0
 51
0.0
  0
LINE
  5
5058
330
5037
100
AcDbEntity
  8
AM_0 外形線1
100
AcDbLine
 10
160.0
 20
-145.0000000000002
 30
0.0
 11
163.0
 21
-144.0000000000002
 31
0.0
  0
LINE
  5
5059
330
5037
100
AcDbEntity
  8
AM_0 外形線1
100
AcDbLine
 10
163.0
 20
-144.0000000000002
 30
0.0
 11
194.0
 21
-144.0000000000002
 31
0.0
  0
LINE
  5
505A
330
5037
100
AcDbEntity
  8
AM_0 外形線1
100
AcDbLine
 10
0.0
 20
87.5
 30
0.0
 11
200.0
 21
87.5
 31
0.0
  0
ARC
  5
7DBF
330
5037
100
AcDbEntity
  8
AM_0 外形線1
100
AcDbCircle
 10
89.0
 20
0.0
 30
0.0
 40
149.9999999999998
100
AcDbArc
 50
79.24168177100089
 51
100.7583182289991
  0
ARC
  5
7F87
330
5037
100
AcDbEntity
  8
AM_7 中心線
 48
0.5
100
AcDbCircle
 10
89.0
 20
0.0
 30
0.0
 40
155.0
100
AcDbArc
 50
78.78893473095273
 51
101.2340664807579
  0
ENDBLK
  5
5039
330
5037
100
AcDbEntity
  8
0
100
AcDbBlockEnd
  0
BLOCK
  5
5269
330
5268
100
AcDbEntity
  8
0
100
AcDbBlockBegin
  2
ＧＣサイドカバ－Ｂ CCMH450
 70
     0
 10
0.0
 20
0.0
 30
0.0
  3
ＧＣサイドカバ－Ｂ CCMH450
  1

  0
LINE
  5
526B
330
5268
100
AcDbEntity
  8
AM_0 外形線1
100
AcDbLine
 10
-20.00000000000011
 20
146.5
 30
0.0
 11
-20.00000000000011
 21
186.0
 31
0.0
  0
LINE
  5
526C
330
5268
100
AcDbEntity
  8
AM_0 外形線1
100
AcDbLine
 10
-0.0000000000001137
 20
146.5
 30
0.0
 11
-0.0000000000001137
 21
161.5
 31
0.0
  0
LINE
  5
526D
330
5268
100
AcDbEntity
  8
AM_0 外形線1
100
AcDbLine
 10
-15.60000000000048
 20
152.0499999999999
 30
0.0
 11
-4.400000000000203
 21
152.0499999999999
 31
0.0
  0
LWPOLYLINE
  5
526E
330
5268
100
AcDbEntity
  8
AM_0 外形線1
100
AcDbPolyline
 90
       73
 70
     0
 43
0.0
 10
-4.400000000000203
 20
148.5249999999998
 10
-4.421310000000288
 20
148.8322239999997
 10
-4.485077000000386
 20
149.1371099999999
 10
-4.590816000000017
 20
149.4373369999998
 10
-4.737721999999961
 20
149.7306209999999
 10
-4.924677000000087
 20
150.0147299999999
 10
-5.150257999999779
 20
150.2874999999999
 10
-5.412749000000188
 20
150.5468569999998
 10
-5.710151000000337
 20
150.790827
 10
-6.040202000000249
 20
151.017552
 10
-6.400389999999902
 20
151.2253069999999
 10
-6.787972000000195
 20
151.4125109999997
 10
-7.199999999999931
 20
151.5777399999999
 10
-7.633338000000207
 20
151.7197349999999
 10
-8.084687000000142
 20
151.8374169999999
 10
-8.550613999999884
 20
151.9298889999998
 10
-9.027570000000306
 20
151.9964479999998
 10
-9.511928000000011
 20
152.0365869999998
 10
-10.00000000000011
 20
152.0499999999999
 10
-10.48807200000021
 20
152.0365869999998
 10
-10.97242999999991
 20
151.9964479999998
 10
-11.44938700000023
 20
151.9298889999998
 10
-11.91531300000008
 20
151.8374169999999
 10
-12.3666629999999
 20
151.7197349999999
 10
-12.80000000000029
 20
151.5777399999999
 10
-13.21202800000003
 20
151.4125109999997
 10
-13.59961100000021
 20
151.2253069999999
 10
-13.95979799999998
 20
151.017552
 10
-14.28984899999989
 20
150.790827
 10
-14.58725200000037
 20
150.5468569999998
 10
-14.84974200000045
 20
150.2874999999999
 10
-15.07532400000002
 20
150.0147299999999
 10
-15.26227900000015
 20
149.7306209999999
 10
-15.40918500000009
 20
149.4373369999998
 10
-15.51492400000018
 20
149.1371099999999
 10
-15.57869099999982
 20
148.8322239999997
 10
-15.60000000000048
 20
148.5249999999998
 10
-15.57869099999982
 20
148.2177759999999
 10
-15.51492400000018
 20
147.9128899999998
 10
-15.40918500000009
 20
147.6126629999999
 10
-15.26227900000015
 20
147.3193789999998
 10
-15.07532400000002
 20
147.035271
 10
-14.84974200000045
 20
146.7625
 10
-14.58725200000037
 20
146.5031429999999
 10
-14.28984899999989
 20
146.2591739999998
 10
-13.95979799999998
 20
146.0324489999998
 10
-13.59961100000021
 20
145.8246939999999
 10
-13.21202800000003
 20
145.6374889999999
 10
-12.80000000000029
 20
145.4722609999999
 10
-12.3666629999999
 20
145.3302649999998
 10
-11.91531300000008
 20
145.2125840000001
 10
-11.44938700000023
 20
145.1201119999998
 10
-10.97242999999991
 20
145.0535529999999
 10
-10.48807200000021
 20
145.0134139999998
 10
-10.00000000000011
 20
145.0
 10
-9.511928000000011
 20
145.0134139999998
 10
-9.027570000000306
 20
145.0535529999999
 10
-8.550613999999884
 20
145.1201119999998
 10
-8.084687000000142
 20
145.2125840000001
 10
-7.633338000000207
 20
145.3302649999998
 10
-7.199999999999931
 20
145.4722609999999
 10
-6.787972000000195
 20
145.6374889999999
 10
-6.400389999999902
 20
145.8246939999999
 10
-6.040202000000249
 20
146.0324489999998
 10
-5.710151000000337
 20
146.2591739999998
 10
-5.412749000000188
 20
146.5031429999999
 10
-5.150257999999779
 20
146.7625
 10
-4.924677000000087
 20
147.035271
 10
-4.737721999999961
 20
147.3193789999998
 10
-4.590816000000017
 20
147.6126629999999
 10
-4.485077000000386
 20
147.9128899999998
 10
-4.421310000000288
 20
148.2177759999999
 10
-4.400000000000203
 20
148.5249999999998
  0
LINE
  5
526F
330
5268
100
AcDbEntity
  8
AM_0 外形線1
100
AcDbLine
 10
-20.00000000000011
 20
146.5
 30
0.0
 11
-20.00000000000011
 21
145.0
 31
0.0
  0
LINE
  5
5270
330
5268
100
AcDbEntity
  8
AM_0 外形線1
100
AcDbLine
 10
-15.60000000000048
 20
146.5
 30
0.0
 11
-15.60000000000048
 21
145.0
 31
0.0
  0
LINE
  5
5271
330
5268
100
AcDbEntity
  8
AM_0 外形線1
100
AcDbLine
 10
-20.00000000000011
 20
146.5
 30
0.0
 11
-15.60000000000048
 21
146.5
 31
0.0
  0
LINE
  5
5272
330
5268
100
AcDbEntity
  8
AM_0 外形線1
100
AcDbLine
 10
-15.60000000000048
 20
146.5
 30
0.0
 11
-15.60000000000048
 21
152.0499999999999
 31
0.0
  0
LINE
  5
5273
330
5268
100
AcDbEntity
  8
AM_0 外形線1
100
AcDbLine
 10
-4.400000000000203
 20
146.5
 30
0.0
 11
-4.400000000000203
 21
145.0
 31
0.0
  0
LINE
  5
5274
330
5268
100
AcDbEntity
  8
AM_0 外形線1
100
AcDbLine
 10
-0.0000000000001137
 20
146.5
 30
0.0
 11
-0.0000000000001137
 21
145.0
 31
0.0
  0
LINE
  5
5275
330
5268
100
AcDbEntity
  8
AM_0 外形線1
100
AcDbLine
 10
-4.400000000000203
 20
146.5
 30
0.0
 11
-0.0000000000001137
 21
146.5
 31
0.0
  0
LINE
  5
5276
330
5268
100
AcDbEntity
  8
AM_0 外形線1
100
AcDbLine
 10
-4.400000000000203
 20
152.0499999999999
 30
0.0
 11
-4.400000000000203
 21
146.5
 31
0.0
  0
ARC
  5
5277
330
5268
100
AcDbEntity
  8
AM_0 外形線1
100
AcDbCircle
 10
-25.90000000000021
 20
182.3612159999998
 30
0.0
 40
3.6
100
AcDbArc
 50
137.3560800000028
 51
220.9874210000044
  0
LINE
  5
5278
330
5268
100
AcDbEntity
  8
AM_0 外形線1
100
AcDbLine
 10
-22.50000000000011
 20
184.7999999999999
 30
0.0
 11
-22.50000000000011
 21
165.2
 31
0.0
  0
LINE
  5
5279
330
5268
100
AcDbEntity
  8
AM_0 外形線1
100
AcDbLine
 10
-29.4997910000003
 20
183.4895469999999
 30
0.0
 11
-29.4997910000003
 21
166.5104539999999
 31
0.0
  0
LINE
  5
527A
330
5268
100
AcDbEntity
  8
AM_0 外形線1
100
AcDbLine
 10
-7.100000000000478
 20
166.7999999999999
 30
0.0
 11
-4.000000000000113
 21
166.7999999999999
 31
0.0
  0
LINE
  5
527B
330
5268
100
AcDbEntity
  8
AM_0 外形線1
100
AcDbLine
 10
0.0
 20
161.5
 30
0.0
 11
-7.100000000000478
 21
161.5
 31
0.0
  0
LINE
  5
527C
330
5268
100
AcDbEntity
  8
AM_0 外形線1
100
AcDbLine
 10
-20.00000000000011
 20
169.5
 30
0.0
 11
-4.000000000000113
 21
169.5
 31
0.0
  0
LINE
  5
527D
330
5268
100
AcDbEntity
  8
AM_0 外形線1
100
AcDbLine
 10
-20.00000000000011
 20
180.5
 30
0.0
 11
-4.000000000000113
 21
180.5
 31
0.0
  0
LINE
  5
527E
330
5268
100
AcDbEntity
  8
AM_7 中心線
 48
0.5
100
AcDbLine
 10
20.50134699999978
 20
175.0
 30
0.0
 11
-33.81931700000052
 21
175.0
 31
0.0
  0
LINE
  5
527F
330
5268
100
AcDbEntity
  8
AM_0 外形線1
100
AcDbLine
 10
-7.100000000000478
 20
161.5
 30
0.0
 11
-7.100000000000478
 21
166.7999999999999
 31
0.0
  0
LINE
  5
5280
330
5268
100
AcDbEntity
  8
AM_0 外形線1
100
AcDbLine
 10
-22.50000000000011
 20
180.0
 30
0.0
 11
-28.61747300000036
 21
180.0
 31
0.0
  0
LINE
  5
5281
330
5268
100
AcDbEntity
  8
AM_0 外形線1
100
AcDbLine
 10
-22.50000000000011
 20
165.2
 30
0.0
 11
-28.54808100000003
 21
165.2
 31
0.0
  0
LINE
  5
5282
330
5268
100
AcDbEntity
  8
AM_0 外形線1
100
AcDbLine
 10
-28.61747300000036
 20
170.0
 30
0.0
 11
-22.50000000000011
 21
170.0
 31
0.0
  0
LINE
  5
5283
330
5268
100
AcDbEntity
  8
AM_0 外形線1
100
AcDbLine
 10
-22.50000000000011
 20
166.5
 30
0.0
 11
-20.00000000000011
 21
166.5
 31
0.0
  0
LINE
  5
5284
330
5268
100
AcDbEntity
  8
AM_0 外形線1
100
AcDbLine
 10
-20.00000000000011
 20
177.25
 30
0.0
 11
-22.50000000000011
 21
174.75
 31
0.0
  0
LINE
  5
5285
330
5268
100
AcDbEntity
  8
AM_0 外形線1
100
AcDbLine
 10
-20.00000000000011
 20
175.25
 30
0.0
 11
-22.50000000000011
 21
172.75
 31
0.0
  0
ARC
  5
5286
330
5268
100
AcDbEntity
  8
AM_0 外形線1
100
AcDbCircle
 10
-25.90000000000021
 20
167.638784
 30
0.0
 40
3.6
100
AcDbArc
 50
139.0125789999956
 51
222.6439199999972
  0
LINE
  5
5287
330
5268
100
AcDbEntity
  8
AM_0 外形線1
100
AcDbLine
 10
-29.4997910000003
 20
166.5104539999999
 30
0.0
 11
-28.61747300000036
 21
165.2
 31
0.0
  0
ARC
  5
5288
330
5268
100
AcDbEntity
  8
AM_0 外形線1
100
AcDbCircle
 10
-14.89486500000032
 20
175.0
 30
0.0
 40
14.605136
100
AcDbArc
 50
159.9801710000019
 51
200.019828999998
  0
LINE
  5
5289
330
5268
100
AcDbEntity
  8
AM_0 外形線1
100
AcDbLine
 10
12.49999999999988
 20
179.25
 30
0.0
 11
15.99999999999988
 21
179.25
 31
0.0
  0
LINE
  5
528A
330
5268
100
AcDbEntity
  8
AM_0 外形線1
100
AcDbLine
 10
18.45373800000004
 20
175.0
 30
0.0
 11
15.99999999999988
 21
170.75
 31
0.0
  0
LINE
  5
528B
330
5268
100
AcDbEntity
  8
AM_0 外形線1
100
AcDbLine
 10
15.99999999999988
 20
170.75
 30
0.0
 11
12.49999999999988
 21
170.75
 31
0.0
  0
LINE
  5
528C
330
5268
100
AcDbEntity
  8
AM_0 外形線1
100
AcDbLine
 10
12.49999999999988
 20
170.75
 30
0.0
 11
12.49999999999988
 21
170.0
 31
0.0
  0
LINE
  5
528D
330
5268
100
AcDbEntity
  8
AM_0 外形線1
100
AcDbLine
 10
15.99999999999988
 20
179.25
 30
0.0
 11
15.99999999999988
 21
170.75
 31
0.0
  0
LINE
  5
528E
330
5268
100
AcDbEntity
  8
AM_0 外形線1
100
AcDbLine
 10
15.99999999999988
 20
179.25
 30
0.0
 11
18.45373800000004
 21
175.0
 31
0.0
  0
LINE
  5
528F
330
5268
100
AcDbEntity
  8
AM_0 外形線1
100
AcDbLine
 10
12.49999999999988
 20
170.75
 30
0.0
 11
12.49999999999988
 21
180.0
 31
0.0
  0
LINE
  5
5290
330
5268
100
AcDbEntity
  8
AM_0 外形線1
100
AcDbLine
 10
-4.000000000000113
 20
186.0
 30
0.0
 11
-20.00000000000011
 21
186.0
 31
0.0
  0
LINE
  5
5291
330
5268
100
AcDbEntity
  8
AM_0 外形線1
100
AcDbLine
 10
-22.50000000000011
 20
183.5
 30
0.0
 11
-20.00000000000011
 21
183.5
 31
0.0
  0
LINE
  5
5292
330
5268
100
AcDbEntity
  8
AM_0 外形線1
100
AcDbLine
 10
-28.54808100000003
 20
184.7999999999999
 30
0.0
 11
-22.50000000000011
 21
184.7999999999999
 31
0.0
  0
LINE
  5
5293
330
5268
100
AcDbEntity
  8
AM_0 外形線1
100
AcDbLine
 10
-29.4997910000003
 20
183.4895469999999
 30
0.0
 11
-28.61747300000036
 21
184.7999999999999
 31
0.0
  0
LINE
  5
5294
330
5268
100
AcDbEntity
  8
AM_7 中心線
 48
0.5
100
AcDbLine
 10
20.50134699999978
 20
-175.0000000000002
 30
0.0
 11
-33.81931700000052
 21
-175.0000000000002
 31
0.0
  0
LINE
  5
5295
330
5268
100
AcDbEntity
  8
AM_4 細線
100
AcDbLine
 10
12.49999999999988
 20
170.0
 30
0.0
 11
-20.00000000000011
 21
170.0
 31
0.0
  0
LINE
  5
5296
330
5268
100
AcDbEntity
  8
AM_4 細線
100
AcDbLine
 10
12.49999999999988
 20
180.0
 30
0.0
 11
-20.00000000000011
 21
180.0
 31
0.0
  0
LINE
  5
5297
330
5268
100
AcDbEntity
  8
AM_0 外形線1
100
AcDbLine
 10
12.49999999999988
 20
179.25
 30
0.0
 11
-20.00000000000011
 21
179.25
 31
0.0
  0
LINE
  5
5298
330
5268
100
AcDbEntity
  8
AM_0 外形線1
100
AcDbLine
 10
12.49999999999988
 20
170.75
 30
0.0
 11
-20.00000000000011
 21
170.75
 31
0.0
  0
LINE
  5
5348
330
5268
100
AcDbEntity
  8
AM_0 外形線1
100
AcDbLine
 10
0.0
 20
-186.0000000000002
 30
0.0
 11
-20.00000000000011
 21
-186.0000000000002
 31
0.0
  0
LINE
  5
5378
330
5268
100
AcDbEntity
  8
AM_0 外形線1
100
AcDbLine
 10
-0.0000000000001137
 20
-186.0000000000002
 30
0.0
 11
0.0
 21
0.0
 31
0.0
  0
LINE
  5
5379
330
5268
100
AcDbEntity
  8
AM_0 外形線1
100
AcDbLine
 10
-4.000000000000113
 20
186.0
 30
0.0
 11
-4.0
 21
180.0
 31
0.0
  0
LINE
  5
537A
330
5268
100
AcDbEntity
  8
AM_0 外形線1
100
AcDbLine
 10
-4.000000000000113
 20
166.7999999999999
 30
0.0
 11
-4.000000000000113
 21
170.0
 31
0.0
  0
LINE
  5
5428
330
5268
100
AcDbEntity
  8
AM_0 外形線1
100
AcDbLine
 10
-20.00000000000011
 20
-186.0000000000002
 30
0.0
 11
-20.00000000000011
 21
0.0
 31
0.0
  0
ELLIPSE
  5
64CF
330
5268
100
AcDbEntity
  8
AM_0 外形線1
100
AcDbEllipse
 10
-5.550000000000294
 20
164.1499999999998
 30
0.0
 11
0.0
 21
2.650000000000089
 31
0.0
210
0.0
220
0.0
230
1.0
 40
0.5849056603774071
 41
0.0
 42
6.283185307179585
  0
ENDBLK
  5
526A
330
5268
100
AcDbEntity
  8
0
100
AcDbBlockEnd
  0
BLOCK
  5
5497
330
5496
100
AcDbEntity
  8
0
100
AcDbBlockBegin
  2
ＧＣサイドカバ－A CCMH450
 70
     0
 10
0.0
 20
0.0
 30
0.0
  3
ＧＣサイドカバ－A CCMH450
  1

  0
LINE
  5
549A
330
5496
100
AcDbEntity
  8
AM_0 外形線1
100
AcDbLine
 10
20.0
 20
161.5665019999999
 30
0.0
 11
20.0
 21
146.5
 31
0.0
  0
LINE
  5
549B
330
5496
100
AcDbEntity
  8
AM_0 外形線1
100
AcDbLine
 10
0.0
 20
146.5
 30
0.0
 11
0.0
 21
161.5
 31
0.0
  0
LINE
  5
549C
330
5496
100
AcDbEntity
  8
AM_0 外形線1
100
AcDbLine
 10
15.59999999999991
 20
152.0499999999999
 30
0.0
 11
4.40000000000009
 21
152.0499999999999
 31
0.0
  0
LINE
  5
549D
330
5496
100
AcDbEntity
  8
AM_0 外形線1
100
AcDbLine
 10
20.0
 20
146.5
 30
0.0
 11
20.0
 21
145.0
 31
0.0
  0
LINE
  5
549E
330
5496
100
AcDbEntity
  8
AM_0 外形線1
100
AcDbLine
 10
15.59999999999991
 20
146.5
 30
0.0
 11
15.59999999999991
 21
145.0
 31
0.0
  0
LINE
  5
549F
330
5496
100
AcDbEntity
  8
AM_0 外形線1
100
AcDbLine
 10
4.40000000000009
 20
146.5
 30
0.0
 11
4.40000000000009
 21
145.0
 31
0.0
  0
LINE
  5
54A0
330
5496
100
AcDbEntity
  8
AM_0 外形線1
100
AcDbLine
 10
0.0
 20
146.5
 30
0.0
 11
0.0
 21
145.0
 31
0.0
  0
LINE
  5
54A1
330
5496
100
AcDbEntity
  8
AM_0 外形線1
100
AcDbLine
 10
4.40000000000009
 20
146.5
 30
0.0
 11
0.0
 21
146.5
 31
0.0
  0
LINE
  5
54A2
330
5496
100
AcDbEntity
  8
AM_0 外形線1
100
AcDbLine
 10
20.0
 20
146.5
 30
0.0
 11
15.59999999999991
 21
146.5
 31
0.0
  0
LINE
  5
54A3
330
5496
100
AcDbEntity
  8
AM_0 外形線1
100
AcDbLine
 10
15.59999999999991
 20
146.5
 30
0.0
 11
15.59999999999991
 21
152.0499999999999
 31
0.0
  0
LINE
  5
54A4
330
5496
100
AcDbEntity
  8
AM_0 外形線1
100
AcDbLine
 10
4.40000000000009
 20
152.0499999999999
 30
0.0
 11
4.40000000000009
 21
146.5
 31
0.0
  0
LWPOLYLINE
  5
54A5
330
5496
100
AcDbEntity
  8
AM_0 外形線1
100
AcDbPolyline
 90
       73
 70
     0
 43
0.0
 10
4.40000000000009
 20
148.5249999999998
 10
4.421308999999836
 20
148.2177759999999
 10
4.485075999999934
 20
147.9128899999998
 10
4.590815000000019
 20
147.6126629999999
 10
4.737720999999963
 20
147.3193789999998
 10
4.92467600000009
 20
147.035271
 10
5.15025800000012
 20
146.7625
 10
5.412747999999737
 20
146.5031429999999
 10
5.710151000000222
 20
146.2591739999998
 10
6.040202000000134
 20
146.0324489999998
 10
6.400388999999903
 20
145.8246939999999
 10
6.78797200000008
 20
145.6374889999999
 10
7.199999999999817
 20
145.4722609999999
 10
7.633337000000209
 20
145.3302649999998
 10
8.084687000000029
 20
145.2125840000001
 10
8.550612999999884
 20
145.1201119999998
 10
9.027570000000196
 20
145.0535529999999
 10
9.511927999999898
 20
145.0134139999998
 10
10.0
 20
145.0
 10
10.4880720000001
 20
145.0134139999998
 10
10.9724299999998
 20
145.0535529999999
 10
11.44938600000023
 20
145.1201119999998
 10
11.91531299999997
 20
145.2125840000001
 10
12.3666619999999
 20
145.3302649999998
 10
12.80000000000018
 20
145.4722609999999
 10
13.21202799999992
 20
145.6374889999999
 10
13.59961000000021
 20
145.8246939999999
 10
13.95979799999986
 20
146.0324489999998
 10
14.28984899999977
 20
146.2591739999998
 10
14.58725099999992
 20
146.5031429999999
 10
14.84974199999988
 20
146.7625
 10
15.07532300000002
 20
147.035271
 10
15.26227800000015
 20
147.3193789999998
 10
15.40918400000009
 20
147.6126629999999
 10
15.51492299999972
 20
147.9128899999998
 10
15.57869000000028
 20
148.2177759999999
 10
15.59999999999991
 20
148.5249999999998
 10
15.57869000000028
 20
148.8322239999997
 10
15.51492299999972
 20
149.1371099999999
 10
15.40918400000009
 20
149.4373369999998
 10
15.26227800000015
 20
149.7306209999999
 10
15.07532300000002
 20
150.0147299999999
 10
14.84974199999988
 20
150.2874999999999
 10
14.58725099999992
 20
150.5468569999998
 10
14.28984899999977
 20
150.790827
 10
13.95979799999986
 20
151.017552
 10
13.59961000000021
 20
151.2253069999999
 10
13.21202799999992
 20
151.4125109999997
 10
12.80000000000018
 20
151.5777399999999
 10
12.3666619999999
 20
151.7197349999999
 10
11.91531299999997
 20
151.8374169999999
 10
11.44938600000023
 20
151.9298889999998
 10
10.9724299999998
 20
151.9964479999998
 10
10.4880720000001
 20
152.0365869999998
 10
10.0
 20
152.0499999999999
 10
9.511927999999898
 20
152.0365869999998
 10
9.027570000000196
 20
151.9964479999998
 10
8.550612999999884
 20
151.9298889999998
 10
8.084687000000029
 20
151.8374169999999
 10
7.633337000000209
 20
151.7197349999999
 10
7.199999999999817
 20
151.5777399999999
 10
6.78797200000008
 20
151.4125109999997
 10
6.400388999999903
 20
151.2253069999999
 10
6.040202000000134
 20
151.017552
 10
5.710151000000222
 20
150.790827
 10
5.412747999999737
 20
150.5468569999998
 10
5.15025800000012
 20
150.2874999999999
 10
4.92467600000009
 20
150.0147299999999
 10
4.737720999999963
 20
149.7306209999999
 10
4.590815000000019
 20
149.4373369999998
 10
4.485075999999934
 20
149.1371099999999
 10
4.421308999999836
 20
148.8322239999997
 10
4.40000000000009
 20
148.5249999999998
  0
ARC
  5
54A6
330
5496
100
AcDbEntity
  8
AM_0 外形線1
100
AcDbCircle
 10
25.90000000000009
 20
182.3612159999998
 30
0.0
 40
3.6
100
AcDbArc
 50
319.0125789999957
 51
42.64391999999722
  0
LINE
  5
54A7
330
5496
100
AcDbEntity
  8
AM_0 外形線1
100
AcDbLine
 10
20.0
 20
186.0
 30
0.0
 11
20.0
 21
161.5665019999999
 31
0.0
  0
LINE
  5
54A8
330
5496
100
AcDbEntity
  8
AM_0 外形線1
100
AcDbLine
 10
22.5
 20
184.7999999999999
 30
0.0
 11
22.5
 21
165.2
 31
0.0
  0
LINE
  5
54A9
330
5496
100
AcDbEntity
  8
AM_0 外形線1
100
AcDbLine
 10
29.49979100000019
 20
183.4895469999999
 30
0.0
 11
29.49979100000019
 21
166.5104539999999
 31
0.0
  0
LINE
  5
54AA
330
5496
100
AcDbEntity
  8
AM_4 細線
100
AcDbLine
 10
-12.5
 20
170.0
 30
0.0
 11
20.0
 21
170.0
 31
0.0
  0
LINE
  5
54AB
330
5496
100
AcDbEntity
  8
AM_4 細線
100
AcDbLine
 10
-12.5
 20
180.0
 30
0.0
 11
20.0
 21
180.0
 31
0.0
  0
LINE
  5
54AC
330
5496
100
AcDbEntity
  8
AM_0 外形線1
100
AcDbLine
 10
-12.5
 20
179.25
 30
0.0
 11
20.0
 21
179.25
 31
0.0
  0
LINE
  5
54AD
330
5496
100
AcDbEntity
  8
AM_0 外形線1
100
AcDbLine
 10
-12.5
 20
170.75
 30
0.0
 11
20.0
 21
170.75
 31
0.0
  0
LINE
  5
54AE
330
5496
100
AcDbEntity
  8
AM_7 中心線
 48
0.5
100
AcDbLine
 10
-20.50134800000023
 20
175.0
 30
0.0
 11
33.81931699999995
 21
175.0
 31
0.0
  0
LINE
  5
54AF
330
5496
100
AcDbEntity
  8
AM_0 外形線1
100
AcDbLine
 10
-12.5
 20
179.25
 30
0.0
 11
-16.0
 21
179.25
 31
0.0
  0
LINE
  5
54B0
330
5496
100
AcDbEntity
  8
AM_0 外形線1
100
AcDbLine
 10
-18.45373900000003
 20
175.0
 30
0.0
 11
-16.0
 21
170.75
 31
0.0
  0
LINE
  5
54B1
330
5496
100
AcDbEntity
  8
AM_0 外形線1
100
AcDbLine
 10
-16.0
 20
170.75
 30
0.0
 11
-12.5
 21
170.75
 31
0.0
  0
LINE
  5
54B2
330
5496
100
AcDbEntity
  8
AM_0 外形線1
100
AcDbLine
 10
-12.5
 20
170.75
 30
0.0
 11
-12.5
 21
170.0
 31
0.0
  0
LINE
  5
54B3
330
5496
100
AcDbEntity
  8
AM_0 外形線1
100
AcDbLine
 10
-16.0
 20
179.25
 30
0.0
 11
-18.45373900000003
 21
175.0
 31
0.0
  0
LINE
  5
54B4
330
5496
100
AcDbEntity
  8
AM_0 外形線1
100
AcDbLine
 10
-12.5
 20
170.75
 30
0.0
 11
-12.5
 21
180.0
 31
0.0
  0
LINE
  5
54B5
330
5496
100
AcDbEntity
  8
AM_0 外形線1
100
AcDbLine
 10
-16.0
 20
179.25
 30
0.0
 11
-16.0
 21
170.75
 31
0.0
  0
LINE
  5
54B6
330
5496
100
AcDbEntity
  8
AM_0 外形線1
100
AcDbLine
 10
22.5
 20
180.0
 30
0.0
 11
28.61747299999979
 21
180.0
 31
0.0
  0
LINE
  5
54B7
330
5496
100
AcDbEntity
  8
AM_0 外形線1
100
AcDbLine
 10
22.5
 20
166.5
 30
0.0
 11
20.0
 21
166.5
 31
0.0
  0
LINE
  5
54B8
330
5496
100
AcDbEntity
  8
AM_0 外形線1
100
AcDbLine
 10
28.61747299999979
 20
170.0
 30
0.0
 11
22.5
 21
170.0
 31
0.0
  0
ARC
  5
54B9
330
5496
100
AcDbEntity
  8
AM_0 外形線1
100
AcDbCircle
 10
25.90000000000009
 20
167.638784
 30
0.0
 40
3.6
100
AcDbArc
 50
317.3560800000028
 51
40.98742100000436
  0
LINE
  5
54BA
330
5496
100
AcDbEntity
  8
AM_0 外形線1
100
AcDbLine
 10
22.5
 20
165.2
 30
0.0
 11
28.54808099999991
 21
165.2
 31
0.0
  0
LINE
  5
54BB
330
5496
100
AcDbEntity
  8
AM_0 外形線1
100
AcDbLine
 10
29.49979100000019
 20
166.5104539999999
 30
0.0
 11
28.61747299999979
 21
165.2
 31
0.0
  0
ARC
  5
54BC
330
5496
100
AcDbEntity
  8
AM_0 外形線1
100
AcDbCircle
 10
14.89486399999987
 20
175.0
 30
0.0
 40
14.605136
100
AcDbArc
 50
339.9801710000019
 51
20.01982899999803
  0
LINE
  5
54BD
330
5496
100
AcDbEntity
  8
AM_0 外形線1
100
AcDbLine
 10
0.0
 20
161.5
 30
0.0
 11
7.099999999999909
 21
161.5
 31
0.0
  0
LINE
  5
54BE
330
5496
100
AcDbEntity
  8
AM_0 外形線1
100
AcDbLine
 10
7.099999999999909
 20
161.5
 30
0.0
 11
7.099999999999909
 21
166.7999999999999
 31
0.0
  0
LINE
  5
54BF
330
5496
100
AcDbEntity
  8
AM_0 外形線1
100
AcDbLine
 10
7.099999999999909
 20
166.7999999999999
 30
0.0
 11
4.0
 21
166.7999999999999
 31
0.0
  0
LINE
  5
54C0
330
5496
100
AcDbEntity
  8
AM_0 外形線1
100
AcDbLine
 10
20.0
 20
180.5
 30
0.0
 11
4.0
 21
180.5
 31
0.0
  0
LINE
  5
54C1
330
5496
100
AcDbEntity
  8
AM_0 外形線1
100
AcDbLine
 10
20.0
 20
169.5
 30
0.0
 11
4.0
 21
169.5
 31
0.0
  0
LINE
  5
54C2
330
5496
100
AcDbEntity
  8
AM_0 外形線1
100
AcDbLine
 10
22.5
 20
183.5
 30
0.0
 11
20.0
 21
183.5
 31
0.0
  0
LINE
  5
54C3
330
5496
100
AcDbEntity
  8
AM_0 外形線1
100
AcDbLine
 10
28.61747299999979
 20
184.7999999999999
 30
0.0
 11
22.5
 21
184.7999999999999
 31
0.0
  0
LINE
  5
54C4
330
5496
100
AcDbEntity
  8
AM_0 外形線1
100
AcDbLine
 10
29.49979100000019
 20
183.4895469999999
 30
0.0
 11
28.61747299999979
 21
184.7999999999999
 31
0.0
  0
LINE
  5
54C5
330
5496
100
AcDbEntity
  8
AM_0 外形線1
100
AcDbLine
 10
4.0
 20
186.0
 30
0.0
 11
20.0
 21
186.0
 31
0.0
  0
LINE
  5
54C6
330
5496
100
AcDbEntity
  8
AM_0 外形線1
100
AcDbLine
 10
20.0
 20
-186.0000000000002
 30
0.0
 11
20.0
 21
0.0
 31
0.0
  0
LINE
  5
54C7
330
5496
100
AcDbEntity
  8
AM_0 外形線1
100
AcDbLine
 10
0.0
 20
-186.0000000000003
 30
0.0
 11
20.0
 21
-186.0000000000002
 31
0.0
  0
LINE
  5
54C8
330
5496
100
AcDbEntity
  8
AM_7 中心線
 48
0.5
100
AcDbLine
 10
-20.50134800000023
 20
-175.0000000000002
 30
0.0
 11
33.81931699999995
 21
-175.0000000000002
 31
0.0
  0
LINE
  5
5538
330
5496
100
AcDbEntity
  8
AM_0 外形線1
100
AcDbLine
 10
0.0
 20
-185.4314918546981
 30
0.0
 11
0.0
 21
0.0
 31
0.0
  0
LINE
  5
5539
330
5496
100
AcDbEntity
  8
AM_0 外形線1
100
AcDbLine
 10
4.0
 20
166.7999999999999
 30
0.0
 11
4.0
 21
170.0
 31
0.0
  0
LINE
  5
553A
330
5496
100
AcDbEntity
  8
AM_0 外形線1
100
AcDbLine
 10
4.0
 20
180.0
 30
0.0
 11
4.0
 21
186.0
 31
0.0
  0
LINE
  5
553B
330
5496
100
AcDbEntity
  8
AM_0 外形線1
100
AcDbLine
 10
22.5
 20
177.25
 30
0.0
 11
20.0
 21
174.75
 31
0.0
  0
LINE
  5
553C
330
5496
100
AcDbEntity
  8
AM_0 外形線1
100
AcDbLine
 10
22.5
 20
175.25
 30
0.0
 11
20.0
 21
172.75
 31
0.0
  0
ELLIPSE
  5
645B
330
5496
100
AcDbEntity
  8
AM_0 外形線1
100
AcDbEllipse
 10
5.549999999999953
 20
164.1499999999998
 30
0.0
 11
0.0
 21
2.650000000000089
 31
0.0
210
0.0
220
0.0
230
1.0
 40
0.5849056603773213
 41
0.0
 42
6.283185307179585
  0
ENDBLK
  5
5498
330
5496
100
AcDbEntity
  8
0
100
AcDbBlockEnd
  0
BLOCK
  5
56E9
330
56E8
100
AcDbEntity
  8
0
100
AcDbBlockBegin
  2
*D12
 70
     1
 10
0.0
 20
0.0
 30
0.0
  3
*D12
  1

  0
LINE
  5
7801
330
56E8
100
AcDbEntity
  8
AM_5 寸法線
 62
     3
100
AcDbLine
 10
851.7740904167194
 20
1211.286746686617
 30
0.0
 11
728.9306821469091
 21
1211.286746686617
 31
0.0
  0
LINE
  5
7802
330
56E8
100
AcDbEntity
  8
AM_5 寸法線
 62
     3
100
AcDbLine
 10
851.7740904167196
 20
921.2867466866162
 30
0.0
 11
728.9306821469091
 21
921.2867466866166
 31
0.0
  0
LINE
  5
7803
330
56E8
100
AcDbEntity
  8
AM_5 寸法線
 62
     3
100
AcDbLine
 10
732.0556821469091
 20
1198.786746686616
 30
0.0
 11
732.0556821469091
 21
933.7867466866166
 31
0.0
  0
INSERT
  5
7804
330
56E8
100
AcDbEntity
  8
AM_5 寸法線
 62
     3
100
AcDbBlockReference
  2
_Open30
 10
732.0556821469091
 20
1211.286746686617
 30
0.0
 41
12.5
 42
12.5
 43
12.5
 50
90.0
  0
INSERT
  5
7805
330
56E8
100
AcDbEntity
  8
AM_5 寸法線
 62
     3
100
AcDbBlockReference
  2
_Open30
 10
732.0556821469091
 20
921.2867466866166
 30
0.0
 41
12.5
 42
12.5
 43
12.5
 50
270.0
  0
MTEXT
  5
7806
330
56E8
100
AcDbEntity
  8
AM_5 寸法線
 62
     3
100
AcDbMText
 10
715.8056821469091
 20
1086.009577763653
 30
0.0
 40
17.5
 41
0.0
 46
0.0
 71
     5
 72
     1
  1
%%c290
  7
SEISA
 11
0.0000000000000001
 21
1.0
 31
0.0
 73
     1
 44
1.0
  0
POINT
  5
7807
330
56E8
100
AcDbEntity
  8
Defpoints
 62
     0
100
AcDbPoint
 10
854.8990904167194
 20
1211.286746686617
 30
0.0
  0
POINT
  5
7808
330
56E8
100
AcDbEntity
  8
Defpoints
 62
     0
100
AcDbPoint
 10
854.8990904167196
 20
921.2867466866162
 30
0.0
  0
POINT
  5
7809
330
56E8
100
AcDbEntity
  8
Defpoints
 62
     0
100
AcDbPoint
 10
732.0556821469091
 20
921.2867466866166
 30
0.0
  0
ENDBLK
  5
56EA
330
56E8
100
AcDbEntity
  8
0
100
AcDbBlockEnd
  0
BLOCK
  5
5738
330
5737
100
AcDbEntity
  8
0
100
AcDbBlockBegin
  2
*D13
 70
     1
 10
0.0
 20
0.0
 30
0.0
  3
*D13
  1

  0
LINE
  5
6695
330
5737
100
AcDbEntity
  8
AM_5 寸法線
 62
     3
100
AcDbLine
 10
1032.899090416719
 20
1069.411746686617
 30
0.0
 11
1032.899090416719
 21
1098.635876686616
 31
0.0
  0
LINE
  5
6696
330
5737
100
AcDbEntity
  8
AM_5 寸法線
 62
     3
100
AcDbLine
 10
1014.899090416719
 20
1069.411746686617
 30
0.0
 11
1014.899090416719
 21
1098.635876686616
 31
0.0
  0
LINE
  5
6697
330
5737
100
AcDbEntity
  8
AM_5 寸法線
 62
     3
100
AcDbLine
 10
1045.399090416719
 20
1095.510876686616
 30
0.0
 11
1057.899090416719
 21
1095.510876686616
 31
0.0
  0
LINE
  5
6698
330
5737
100
AcDbEntity
  8
AM_5 寸法線
 62
     3
100
AcDbLine
 10
1002.399090416719
 20
1095.510876686616
 30
0.0
 11
989.8990904167192
 21
1095.510876686616
 31
0.0
  0
MTEXT
  5
6699
330
5737
100
AcDbEntity
  8
AM_5 寸法線
 62
     3
100
AcDbMText
 10
1058.706212752633
 20
1110.368913344563
 30
0.0
 40
17.5
 41
0.0
 46
0.0
 71
     5
 72
     1
  1
18
  7
SEISA
 73
     1
 44
1.0
  0
LINE
  5
669A
330
5737
100
AcDbEntity
  8
AM_5 寸法線
 62
     3
100
AcDbLine
 10
1032.899090416719
 20
1095.510876686616
 30
0.0
 11
1014.899090416719
 21
1095.510876686616
 31
0.0
  0
INSERT
  5
669B
330
5737
100
AcDbEntity
  8
AM_5 寸法線
 62
     3
100
AcDbBlockReference
  2
_Open30
 10
1032.899090416719
 20
1095.510876686616
 30
0.0
 41
12.5
 42
12.5
 43
12.5
 50
180.0
  0
INSERT
  5
669C
330
5737
100
AcDbEntity
  8
AM_5 寸法線
 62
     3
100
AcDbBlockReference
  2
_Open30
 10
1014.899090416719
 20
1095.510876686616
 30
0.0
 41
12.5
 42
12.5
 43
12.5
  0
POINT
  5
669D
330
5737
100
AcDbEntity
  8
Defpoints
 62
     0
100
AcDbPoint
 10
1032.899090416719
 20
1066.286746686617
 30
0.0
  0
POINT
  5
669E
330
5737
100
AcDbEntity
  8
Defpoints
 62
     0
100
AcDbPoint
 10
1014.899090416719
 20
1066.286746686617
 30
0.0
  0
POINT
  5
669F
330
5737
100
AcDbEntity
  8
Defpoints
 62
     0
100
AcDbPoint
 10
1014.899090416719
 20
1095.510876686616
 30
0.0
  0
ENDBLK
  5
5739
330
5737
100
AcDbEntity
  8
0
100
AcDbBlockEnd
  0
BLOCK
  5
576A
330
5769
100
AcDbEntity
  8
0
100
AcDbBlockBegin
  2
*D14
 70
     1
 10
0.0
 20
0.0
 30
0.0
  3
*D14
  1

  0
LINE
  5
66A0
330
5769
100
AcDbEntity
  8
AM_5 寸法線
 62
     3
100
AcDbLine
 10
1232.899090416719
 20
1069.411746686617
 30
0.0
 11
1232.899090416719
 21
1098.635876686616
 31
0.0
  0
LINE
  5
66A1
330
5769
100
AcDbEntity
  8
AM_5 寸法線
 62
     3
100
AcDbLine
 10
1032.899090416719
 20
1069.411746686617
 30
0.0
 11
1032.899090416719
 21
1098.635876686616
 31
0.0
  0
LINE
  5
66A2
330
5769
100
AcDbEntity
  8
AM_5 寸法線
 62
     3
100
AcDbLine
 10
1220.399090416719
 20
1095.510876686616
 30
0.0
 11
1045.399090416719
 21
1095.510876686616
 31
0.0
  0
INSERT
  5
66A3
330
5769
100
AcDbEntity
  8
AM_5 寸法線
 62
     3
100
AcDbBlockReference
  2
_Open30
 10
1232.899090416719
 20
1095.510876686616
 30
0.0
 41
12.5
 42
12.5
 43
12.5
  0
INSERT
  5
66A4
330
5769
100
AcDbEntity
  8
AM_5 寸法線
 62
     3
100
AcDbBlockReference
  2
_Open30
 10
1032.899090416719
 20
1095.510876686616
 30
0.0
 41
12.5
 42
12.5
 43
12.5
 50
180.0
  0
MTEXT
  5
66A5
330
5769
100
AcDbEntity
  8
AM_5 寸法線
 62
     3
100
AcDbMText
 10
1132.899090416719
 20
1111.760876686616
 30
0.0
 40
17.5
 41
0.0
 46
0.0
 71
     5
 72
     1
  1
200
  7
SEISA
 73
     1
 44
1.0
  0
POINT
  5
66A6
330
5769
100
AcDbEntity
  8
Defpoints
 62
     0
100
AcDbPoint
 10
1232.899090416719
 20
1066.286746686617
 30
0.0
  0
POINT
  5
66A7
330
5769
100
AcDbEntity
  8
Defpoints
 62
     0
100
AcDbPoint
 10
1032.899090416719
 20
1066.286746686617
 30
0.0
  0
POINT
  5
66A8
330
5769
100
AcDbEntity
  8
Defpoints
 62
     0
100
AcDbPoint
 10
1032.899090416719
 20
1095.510876686616
 30
0.0
  0
ENDBLK
  5
576B
330
5769
100
AcDbEntity
  8
0
100
AcDbBlockEnd
  0
BLOCK
  5
5782
330
5781
100
AcDbEntity
  8
0
100
AcDbBlockBegin
  2
*D15
 70
     1
 10
0.0
 20
0.0
 30
0.0
  3
*D15
  1

  0
LINE
  5
780A
330
5781
100
AcDbEntity
  8
AM_5 寸法線
 62
     3
100
AcDbLine
 10
1014.899090416719
 20
1069.411746686617
 30
0.0
 11
1014.899090416719
 21
1098.635876686616
 31
0.0
  0
LINE
  5
780B
330
5781
100
AcDbEntity
  8
AM_5 寸法線
 62
     3
100
AcDbLine
 10
814.8990904167192
 20
1069.411746686617
 30
0.0
 11
814.8990904167192
 21
1098.635876686616
 31
0.0
  0
LINE
  5
780C
330
5781
100
AcDbEntity
  8
AM_5 寸法線
 62
     3
100
AcDbLine
 10
1002.399090416719
 20
1095.510876686616
 30
0.0
 11
827.3990904167192
 21
1095.510876686616
 31
0.0
  0
INSERT
  5
780D
330
5781
100
AcDbEntity
  8
AM_5 寸法線
 62
     3
100
AcDbBlockReference
  2
_Open30
 10
1014.899090416719
 20
1095.510876686616
 30
0.0
 41
12.5
 42
12.5
 43
12.5
  0
INSERT
  5
780E
330
5781
100
AcDbEntity
  8
AM_5 寸法線
 62
     3
100
AcDbBlockReference
  2
_Open30
 10
814.8990904167192
 20
1095.510876686616
 30
0.0
 41
12.5
 42
12.5
 43
12.5
 50
180.0
  0
MTEXT
  5
780F
330
5781
100
AcDbEntity
  8
AM_5 寸法線
 62
     3
100
AcDbMText
 10
914.8990904167192
 20
1111.760876686616
 30
0.0
 40
17.5
 41
0.0
 46
0.0
 71
     5
 72
     1
  1
200
  7
SEISA
 73
     1
 44
1.0
  0
POINT
  5
7810
330
5781
100
AcDbEntity
  8
Defpoints
 62
     0
100
AcDbPoint
 10
1014.899090416719
 20
1066.286746686617
 30
0.0
  0
POINT
  5
7811
330
5781
100
AcDbEntity
  8
Defpoints
 62
     0
100
AcDbPoint
 10
814.8990904167192
 20
1066.286746686617
 30
0.0
  0
POINT
  5
7812
330
5781
100
AcDbEntity
  8
Defpoints
 62
     0
100
AcDbPoint
 10
814.8990904167192
 20
1095.510876686616
 30
0.0
  0
ENDBLK
  5
5783
330
5781
100
AcDbEntity
  8
0
100
AcDbBlockEnd
  0
BLOCK
  5
596D
330
596C
100
AcDbEntity
  8
0
100
AcDbBlockBegin
  2
*D16
 70
     1
 10
0.0
 20
0.0
 30
0.0
  3
*D16
  1

  0
LINE
  5
66C8
330
596C
100
AcDbEntity
  8
AM_5 寸法線
 62
     3
100
AcDbLine
 10
1023.899090416719
 20
839.1617466866161
 30
0.0
 11
1023.899090416719
 21
778.1617466866163
 31
0.0
  0
LINE
  5
66C9
330
596C
100
AcDbEntity
  8
AM_5 寸法線
 62
     3
100
AcDbLine
 10
998.8990904167192
 20
839.1617466866161
 30
0.0
 11
998.8990904167192
 21
778.1617466866163
 31
0.0
  0
LINE
  5
66CA
330
596C
100
AcDbEntity
  8
AM_5 寸法線
 62
     3
100
AcDbLine
 10
1036.399090416719
 20
781.2867466866163
 30
0.0
 11
1048.899090416719
 21
781.2867466866163
 31
0.0
  0
LINE
  5
66CB
330
596C
100
AcDbEntity
  8
AM_5 寸法線
 62
     3
100
AcDbLine
 10
986.3990904167192
 20
781.2867466866163
 30
0.0
 11
933.3990904167192
 21
781.2867466866163
 31
0.0
  0
LINE
  5
66CC
330
596C
100
AcDbEntity
  8
AM_5 寸法線
 62
     3
100
AcDbLine
 10
1023.899090416719
 20
781.2867466866163
 30
0.0
 11
998.8990904167192
 21
781.2867466866163
 31
0.0
  0
INSERT
  5
66CD
330
596C
100
AcDbEntity
  8
AM_5 寸法線
 62
     3
100
AcDbBlockReference
  2
GENDOT
 10
1023.899090416719
 20
781.2867466866163
 30
0.0
 41
12.5
 42
12.5
 43
12.5
 50
180.0
  0
INSERT
  5
66CE
330
596C
100
AcDbEntity
  8
AM_5 寸法線
 62
     3
100
AcDbBlockReference
  2
_Open30
 10
998.8990904167192
 20
781.2867466866163
 30
0.0
 41
12.5
 42
12.5
 43
12.5
  0
MTEXT
  5
66CF
330
596C
100
AcDbEntity
  8
AM_5 寸法線
 62
     3
100
AcDbMText
 10
953.6490904167196
 20
797.5367466866162
 30
0.0
 40
17.5
 41
0.0
 46
0.0
 71
     5
 72
     1
  1
25
  7
SEISA
 73
     1
 44
1.0
  0
POINT
  5
66D0
330
596C
100
AcDbEntity
  8
Defpoints
 62
     0
100
AcDbPoint
 10
1023.899090416719
 20
842.2867466866161
 30
0.0
  0
POINT
  5
66D1
330
596C
100
AcDbEntity
  8
Defpoints
 62
     0
100
AcDbPoint
 10
998.8990904167192
 20
842.2867466866161
 30
0.0
  0
POINT
  5
66D2
330
596C
100
AcDbEntity
  8
Defpoints
 62
     0
100
AcDbPoint
 10
998.8990904167192
 20
781.2867466866163
 30
0.0
  0
ENDBLK
  5
596E
330
596C
100
AcDbEntity
  8
0
100
AcDbBlockEnd
  0
BLOCK
  5
5989
330
5988
100
AcDbEntity
  8
0
100
AcDbBlockBegin
  2
*D17
 70
     1
 10
0.0
 20
0.0
 30
0.0
  3
*D17
  1

  0
LINE
  5
66D3
330
5988
100
AcDbEntity
  8
AM_5 寸法線
 62
     3
100
AcDbLine
 10
1023.899090416719
 20
839.1617466866161
 30
0.0
 11
1023.899090416719
 21
778.1617466866163
 31
0.0
  0
LINE
  5
66D4
330
5988
100
AcDbEntity
  8
AM_5 寸法線
 62
     3
100
AcDbLine
 10
1048.899090416719
 20
839.1617466866161
 30
0.0
 11
1048.899090416719
 21
778.1617466866163
 31
0.0
  0
LINE
  5
66D5
330
5988
100
AcDbEntity
  8
AM_5 寸法線
 62
     3
100
AcDbLine
 10
1011.399090416719
 20
781.2867466866163
 30
0.0
 11
998.8990904167192
 21
781.2867466866163
 31
0.0
  0
LINE
  5
66D6
330
5988
100
AcDbEntity
  8
AM_5 寸法線
 62
     3
100
AcDbLine
 10
1061.399090416719
 20
781.2867466866163
 30
0.0
 11
1114.399090416719
 21
781.2867466866163
 31
0.0
  0
LINE
  5
66D7
330
5988
100
AcDbEntity
  8
AM_5 寸法線
 62
     3
100
AcDbLine
 10
1023.899090416719
 20
781.2867466866163
 30
0.0
 11
1048.899090416719
 21
781.2867466866163
 31
0.0
  0
INSERT
  5
66D8
330
5988
100
AcDbEntity
  8
AM_5 寸法線
 62
     3
100
AcDbBlockReference
  2
GENDOT
 10
1023.899090416719
 20
781.2867466866163
 30
0.0
 41
12.5
 42
12.5
 43
12.5
  0
INSERT
  5
66D9
330
5988
100
AcDbEntity
  8
AM_5 寸法線
 62
     3
100
AcDbBlockReference
  2
_Open30
 10
1048.899090416719
 20
781.2867466866163
 30
0.0
 41
12.5
 42
12.5
 43
12.5
 50
180.0
  0
MTEXT
  5
66DA
330
5988
100
AcDbEntity
  8
AM_5 寸法線
 62
     3
100
AcDbMText
 10
1094.149090416719
 20
797.5367466866162
 30
0.0
 40
17.5
 41
0.0
 46
0.0
 71
     5
 72
     1
  1
25
  7
SEISA
 73
     1
 44
1.0
  0
POINT
  5
66DB
330
5988
100
AcDbEntity
  8
Defpoints
 62
     0
100
AcDbPoint
 10
1023.899090416719
 20
842.2867466866161
 30
0.0
  0
POINT
  5
66DC
330
5988
100
AcDbEntity
  8
Defpoints
 62
     0
100
AcDbPoint
 10
1048.899090416719
 20
842.2867466866161
 30
0.0
  0
POINT
  5
66DD
330
5988
100
AcDbEntity
  8
Defpoints
 62
     0
100
AcDbPoint
 10
1048.899090416719
 20
781.2867466866163
 30
0.0
  0
ENDBLK
  5
598A
330
5988
100
AcDbEntity
  8
0
100
AcDbBlockEnd
  0
BLOCK
  5
59FC
330
59FB
100
AcDbEntity
  8
0
100
AcDbBlockBegin
  2
*D18
 70
     1
 10
0.0
 20
0.0
 30
0.0
  3
*D18
  1

  0
LINE
  5
7FF8
330
59FB
100
AcDbEntity
  8
AM_5 寸法線
 62
     3
100
AcDbLine
 10
1174.899090416719
 20
877.1617466866162
 30
0.0
 11
1174.899090416719
 21
738.1617466866162
 31
0.0
  0
LINE
  5
7FF9
330
59FB
100
AcDbEntity
  8
AM_5 寸法線
 62
     3
100
AcDbLine
 10
872.8990904167194
 20
877.1617466866162
 30
0.0
 11
872.8990904167194
 21
738.1617466866162
 31
0.0
  0
LINE
  5
7FFA
330
59FB
100
AcDbEntity
  8
AM_5 寸法線
 62
     3
100
AcDbLine
 10
1162.399090416719
 20
741.2867466866162
 30
0.0
 11
885.3990904167194
 21
741.2867466866162
 31
0.0
  0
INSERT
  5
7FFB
330
59FB
100
AcDbEntity
  8
AM_5 寸法線
 62
     3
100
AcDbBlockReference
  2
_Open30
 10
1174.899090416719
 20
741.2867466866162
 30
0.0
 41
12.5
 42
12.5
 43
12.5
  0
INSERT
  5
7FFC
330
59FB
100
AcDbEntity
  8
AM_5 寸法線
 62
     3
100
AcDbBlockReference
  2
_Open30
 10
872.8990904167194
 20
741.2867466866162
 30
0.0
 41
12.5
 42
12.5
 43
12.5
 50
180.0
  0
MTEXT
  5
7FFD
330
59FB
100
AcDbEntity
  8
AM_5 寸法線
 62
     3
100
AcDbMText
 10
1023.899090416719
 20
757.5367466866163
 30
0.0
 40
17.5
 41
0.0
 46
0.0
 71
     5
 72
     1
  1
302
  7
SEISA
 73
     1
 44
1.0
  0
POINT
  5
7FFE
330
59FB
100
AcDbEntity
  8
Defpoints
 62
     0
100
AcDbPoint
 10
1174.899090416719
 20
880.2867466866162
 30
0.0
  0
POINT
  5
7FFF
330
59FB
100
AcDbEntity
  8
Defpoints
 62
     0
100
AcDbPoint
 10
872.8990904167194
 20
880.2867466866162
 30
0.0
  0
POINT
  5
8000
330
59FB
100
AcDbEntity
  8
Defpoints
 62
     0
100
AcDbPoint
 10
872.8990904167194
 20
741.2867466866162
 30
0.0
  0
ENDBLK
  5
59FD
330
59FB
100
AcDbEntity
  8
0
100
AcDbBlockEnd
  0
BLOCK
  5
5A2C
330
5A2B
100
AcDbEntity
  8
0
100
AcDbBlockBegin
  2
*D19
 70
     1
 10
0.0
 20
0.0
 30
0.0
  3
*D19
  1

  0
LINE
  5
66F0
330
5A2B
100
AcDbEntity
  8
AM_5 寸法線
 62
     3
100
AcDbLine
 10
814.8990904167192
 20
925.1617466866163
 30
0.0
 11
814.8990904167192
 21
698.1617466866163
 31
0.0
  0
LINE
  5
66F1
330
5A2B
100
AcDbEntity
  8
AM_5 寸法線
 62
     3
100
AcDbLine
 10
1232.899090416719
 20
925.1617466866163
 30
0.0
 11
1232.899090416719
 21
698.1617466866163
 31
0.0
  0
LINE
  5
66F2
330
5A2B
100
AcDbEntity
  8
AM_5 寸法線
 62
     3
100
AcDbLine
 10
827.3990904167192
 20
701.2867466866163
 30
0.0
 11
1220.399090416719
 21
701.2867466866163
 31
0.0
  0
INSERT
  5
66F3
330
5A2B
100
AcDbEntity
  8
AM_5 寸法線
 62
     3
100
AcDbBlockReference
  2
_Open30
 10
814.8990904167192
 20
701.2867466866163
 30
0.0
 41
12.5
 42
12.5
 43
12.5
 50
180.0
  0
INSERT
  5
66F4
330
5A2B
100
AcDbEntity
  8
AM_5 寸法線
 62
     3
100
AcDbBlockReference
  2
_Open30
 10
1232.899090416719
 20
701.2867466866163
 30
0.0
 41
12.5
 42
12.5
 43
12.5
  0
MTEXT
  5
66F5
330
5A2B
100
AcDbEntity
  8
AM_5 寸法線
 62
     3
100
AcDbMText
 10
1023.899090416719
 20
717.5367466866163
 30
0.0
 40
17.5
 41
0.0
 46
0.0
 71
     5
 72
     1
  1
418
  7
SEISA
 73
     1
 44
1.0
  0
POINT
  5
66F6
330
5A2B
100
AcDbEntity
  8
Defpoints
 62
     0
100
AcDbPoint
 10
814.8990904167192
 20
928.2867466866163
 30
0.0
  0
POINT
  5
66F7
330
5A2B
100
AcDbEntity
  8
Defpoints
 62
     0
100
AcDbPoint
 10
1232.899090416719
 20
928.2867466866163
 30
0.0
  0
POINT
  5
66F8
330
5A2B
100
AcDbEntity
  8
Defpoints
 62
     0
100
AcDbPoint
 10
1232.899090416719
 20
701.2867466866163
 30
0.0
  0
ENDBLK
  5
5A2D
330
5A2B
100
AcDbEntity
  8
0
100
AcDbBlockEnd
  0
BLOCK
  5
5BD7
330
5BD4
100
AcDbEntity
  8
0
100
AcDbBlockBegin
  2
GENDOT
 70
     0
 10
0.0
 20
0.0
 30
0.0
  3
GENDOT
  1

  0
LINE
  5
5BD5
330
5BD4
100
AcDbEntity
  8
0
100
AcDbLine
 10
0.0
 20
0.0
 30
0.0
 11
-1.0
 21
0.0
 31
0.0
  0
LWPOLYLINE
  5
5BD6
330
5BD4
100
AcDbEntity
  8
0
100
AcDbPolyline
 90
        2
 70
     1
 43
0.25
 10
-0.125
 20
0.0
 42
1.0
 10
0.125
 20
0.0
 42
1.0
  0
ENDBLK
  5
5BD8
330
5BD4
100
AcDbEntity
  8
0
100
AcDbBlockEnd
  0
BLOCK
  5
5DB0
330
5DAF
100
AcDbEntity
  8
0
100
AcDbBlockBegin
  2
*D21
 70
     1
 10
0.0
 20
0.0
 30
0.0
  3
*D21
  1

  0
LINE
  5
7198
330
5DAF
100
AcDbEntity
  8
AM_5 寸法線
 62
     3
100
AcDbLine
 10
1196.024090416719
 20
1211.286746686617
 30
0.0
 11
1311.024090416719
 21
1211.286746686617
 31
0.0
  0
LINE
  5
7199
330
5DAF
100
AcDbEntity
  8
AM_5 寸法線
 62
     3
100
AcDbLine
 10
1196.024090416719
 20
921.2867466866162
 30
0.0
 11
1311.024090416719
 21
921.2867466866162
 31
0.0
  0
LINE
  5
719A
330
5DAF
100
AcDbEntity
  8
AM_5 寸法線
 62
     3
100
AcDbLine
 10
1307.899090416719
 20
1198.786746686616
 30
0.0
 11
1307.899090416719
 21
933.7867466866162
 31
0.0
  0
INSERT
  5
719B
330
5DAF
100
AcDbEntity
  8
AM_5 寸法線
 62
     3
100
AcDbBlockReference
  2
_Open30
 10
1307.899090416719
 20
1211.286746686617
 30
0.0
 41
12.5
 42
12.5
 43
12.5
 50
90.0
  0
INSERT
  5
719C
330
5DAF
100
AcDbEntity
  8
AM_5 寸法線
 62
     3
100
AcDbBlockReference
  2
_Open30
 10
1307.899090416719
 20
921.2867466866162
 30
0.0
 41
12.5
 42
12.5
 43
12.5
 50
270.0
  0
MTEXT
  5
719D
330
5DAF
100
AcDbEntity
  8
AM_5 寸法線
 62
     3
100
AcDbMText
 10
1291.649090416719
 20
1066.286746686617
 30
0.0
 40
17.5
 41
0.0
 46
0.0
 71
     5
 72
     1
  1
%%c290
  7
SEISA
 11
0.0000000000000001
 21
1.0
 31
0.0
 73
     1
 44
1.0
  0
POINT
  5
719E
330
5DAF
100
AcDbEntity
  8
Defpoints
 62
     0
100
AcDbPoint
 10
1192.899090416719
 20
1211.286746686617
 30
0.0
  0
POINT
  5
719F
330
5DAF
100
AcDbEntity
  8
Defpoints
 62
     0
100
AcDbPoint
 10
1192.899090416719
 20
921.2867466866162
 30
0.0
  0
POINT
  5
71A0
330
5DAF
100
AcDbEntity
  8
Defpoints
 62
     0
100
AcDbPoint
 10
1307.899090416719
 20
921.2867466866162
 30
0.0
  0
ENDBLK
  5
5DB1
330
5DAF
100
AcDbEntity
  8
0
100
AcDbBlockEnd
  0
BLOCK
  5
5DCA
330
5DC9
100
AcDbEntity
  8
0
100
AcDbBlockBegin
  2
*D22
 70
     1
 10
0.0
 20
0.0
 30
0.0
  3
*D22
  1

  0
LINE
  5
71A1
330
5DC9
100
AcDbEntity
  8
AM_5 寸法線
 62
     3
100
AcDbLine
 10
1178.024090416719
 20
1252.286746686616
 30
0.0
 11
1351.02409041672
 21
1252.286746686616
 31
0.0
  0
LINE
  5
71A2
330
5DC9
100
AcDbEntity
  8
AM_5 寸法線
 62
     3
100
AcDbLine
 10
1178.024090416719
 20
880.2867466866162
 30
0.0
 11
1351.02409041672
 21
880.2867466866162
 31
0.0
  0
LINE
  5
71A3
330
5DC9
100
AcDbEntity
  8
AM_5 寸法線
 62
     3
100
AcDbLine
 10
1347.89909041672
 20
1239.786746686617
 30
0.0
 11
1347.89909041672
 21
892.7867466866162
 31
0.0
  0
INSERT
  5
71A4
330
5DC9
100
AcDbEntity
  8
AM_5 寸法線
 62
     3
100
AcDbBlockReference
  2
_Open30
 10
1347.89909041672
 20
1252.286746686616
 30
0.0
 41
12.5
 42
12.5
 43
12.5
 50
90.0
  0
INSERT
  5
71A5
330
5DC9
100
AcDbEntity
  8
AM_5 寸法線
 62
     3
100
AcDbBlockReference
  2
_Open30
 10
1347.89909041672
 20
880.2867466866162
 30
0.0
 41
12.5
 42
12.5
 43
12.5
 50
270.0
  0
MTEXT
  5
71A6
330
5DC9
100
AcDbEntity
  8
AM_5 寸法線
 62
     3
100
AcDbMText
 10
1331.649090416719
 20
1066.286746686617
 30
0.0
 40
17.5
 41
0.0
 46
0.0
 71
     5
 72
     1
  1
%%c372
  7
SEISA
 11
0.0000000000000001
 21
1.0
 31
0.0
 73
     1
 44
1.0
  0
POINT
  5
71A7
330
5DC9
100
AcDbEntity
  8
Defpoints
 62
     0
100
AcDbPoint
 10
1174.899090416719
 20
1252.286746686616
 30
0.0
  0
POINT
  5
71A8
330
5DC9
100
AcDbEntity
  8
Defpoints
 62
     0
100
AcDbPoint
 10
1174.899090416719
 20
880.2867466866162
 30
0.0
  0
POINT
  5
71A9
330
5DC9
100
AcDbEntity
  8
Defpoints
 62
     0
100
AcDbPoint
 10
1347.89909041672
 20
880.2867466866162
 30
0.0
  0
ENDBLK
  5
5DCB
330
5DC9
100
AcDbEntity
  8
0
100
AcDbBlockEnd
  0
BLOCK
  5
5DE2
330
5DE1
100
AcDbEntity
  8
0
100
AcDbBlockBegin
  2
*D23
 70
     1
 10
0.0
 20
0.0
 30
0.0
  3
*D23
  1

  0
LINE
  5
71AA
330
5DE1
100
AcDbEntity
  8
AM_5 寸法線
 62
     3
100
AcDbLine
 10
1051.024090416719
 20
1291.286746686617
 30
0.0
 11
1391.024090416719
 21
1291.286746686617
 31
0.0
  0
LINE
  5
71AB
330
5DE1
100
AcDbEntity
  8
AM_5 寸法線
 62
     3
100
AcDbLine
 10
1051.024090416719
 20
841.2867466866162
 30
0.0
 11
1391.024090416719
 21
841.2867466866162
 31
0.0
  0
LINE
  5
71AC
330
5DE1
100
AcDbEntity
  8
AM_5 寸法線
 62
     3
100
AcDbLine
 10
1387.899090416719
 20
1278.786746686616
 30
0.0
 11
1387.899090416719
 21
853.7867466866162
 31
0.0
  0
INSERT
  5
71AD
330
5DE1
100
AcDbEntity
  8
AM_5 寸法線
 62
     3
100
AcDbBlockReference
  2
_Open30
 10
1387.899090416719
 20
1291.286746686617
 30
0.0
 41
12.5
 42
12.5
 43
12.5
 50
90.0
  0
INSERT
  5
71AE
330
5DE1
100
AcDbEntity
  8
AM_5 寸法線
 62
     3
100
AcDbBlockReference
  2
_Open30
 10
1387.899090416719
 20
841.2867466866162
 30
0.0
 41
12.5
 42
12.5
 43
12.5
 50
270.0
  0
MTEXT
  5
71AF
330
5DE1
100
AcDbEntity
  8
AM_5 寸法線
 62
     3
100
AcDbMText
 10
1371.649090416719
 20
1066.286746686617
 30
0.0
 40
17.5
 41
0.0
 46
0.0
 71
     5
 72
     1
  1
%%c450
  7
SEISA
 11
0.0000000000000001
 21
1.0
 31
0.0
 73
     1
 44
1.0
  0
POINT
  5
71B0
330
5DE1
100
AcDbEntity
  8
Defpoints
 62
     0
100
AcDbPoint
 10
1047.899090416719
 20
1291.286746686617
 30
0.0
  0
POINT
  5
71B1
330
5DE1
100
AcDbEntity
  8
Defpoints
 62
     0
100
AcDbPoint
 10
1047.899090416719
 20
841.2867466866162
 30
0.0
  0
POINT
  5
71B2
330
5DE1
100
AcDbEntity
  8
Defpoints
 62
     0
100
AcDbPoint
 10
1387.899090416719
 20
841.2867466866162
 30
0.0
  0
ENDBLK
  5
5DE3
330
5DE1
100
AcDbEntity
  8
0
100
AcDbBlockEnd
  0
BLOCK
  5
60AF
330
60AE
100
AcDbEntity
  8
0
100
AcDbBlockBegin
  2
リーマボルト CCMH450 M20
 70
     0
 10
0.0
 20
0.0
 30
0.0
  3
リーマボルト CCMH450 M20
  1

  0
ARC
  5
60B1
330
60AE
100
AcDbEntity
  8
AM_0 外形線1
100
AcDbCircle
 10
5.309455000000069
 20
12.98012699999981
 30
0.0
 40
7.690544999999998
100
AcDbArc
 50
325.8257089999927
 51
34.17429100000724
  0
LINE
  5
60B2
330
60AE
100
AcDbEntity
  8
AM_0 外形線1
100
AcDbLine
 10
13.0
 20
15.0
 30
0.0
 11
13.0
 21
-15.0
 31
0.0
  0
ARC
  5
60B3
330
60AE
100
AcDbEntity
  8
AM_0 外形線1
100
AcDbCircle
 10
-63.40945499999998
 20
12.98012699999981
 30
0.0
 40
7.690544999999998
100
AcDbArc
 50
145.8257089999927
 51
214.1742910000072
  0
LINE
  5
60B4
330
60AE
100
AcDbEntity
  8
AM_0 外形線1
100
AcDbLine
 10
-76.0
 20
10.0
 30
0.0
 11
-78.0
 21
8.0
 31
0.0
  0
LINE
  5
60B5
330
60AE
100
AcDbEntity
  8
AM_0 外形線1
100
AcDbLine
 10
-44.73205099999995
 20
10.0
 30
0.0
 11
-44.73205099999995
 21
-10.0
 31
0.0
  0
LINE
  5
60B6
330
60AE
100
AcDbEntity
  8
AM_0 外形線1
100
AcDbLine
 10
-2.5
 20
-11.0
 30
0.0
 11
-2.5
 21
11.0
 31
0.0
  0
LINE
  5
60B7
330
60AE
100
AcDbEntity
  8
AM_0 外形線1
100
AcDbLine
 10
-43.0
 20
11.0
 30
0.0
 11
-43.0
 21
-11.0
 31
0.0
  0
LINE
  5
60B8
330
60AE
100
AcDbEntity
  8
AM_0 外形線1
100
AcDbLine
 10
-71.10000000000036
 20
15.0
 30
0.0
 11
-71.10000000000036
 21
-15.0
 31
0.0
  0
LINE
  5
60B9
330
60AE
100
AcDbEntity
  8
AM_0 外形線1
100
AcDbLine
 10
-55.10000000000037
 20
-17.29999999999995
 30
0.0
 11
-55.10000000000037
 21
17.29999999999995
 31
0.0
  0
LINE
  5
60BA
330
60AE
100
AcDbEntity
  8
AM_0 外形線1
100
AcDbLine
 10
-76.0
 20
10.0
 30
0.0
 11
-76.0
 21
-10.0
 31
0.0
  0
LINE
  5
60BB
330
60AE
100
AcDbEntity
  8
AM_4 細線
100
AcDbLine
 10
-71.10000000000036
 20
9.0
 30
0.0
 11
-77.0
 21
9.0
 31
0.0
  0
LINE
  5
60BC
330
60AE
100
AcDbEntity
  8
AM_0 外形線1
100
AcDbLine
 10
-76.0
 20
-10.0
 30
0.0
 11
-71.10000000000036
 21
-10.0
 31
0.0
  0
LINE
  5
60BD
330
60AE
100
AcDbEntity
  8
AM_4 細線
100
AcDbLine
 10
-71.10000000000036
 20
-9.0
 30
0.0
 11
-77.0
 21
-9.0
 31
0.0
  0
LINE
  5
60BE
330
60AE
100
AcDbEntity
  8
AM_0 外形線1
100
AcDbLine
 10
-78.0
 20
-8.0
 30
0.0
 11
-76.0
 21
-10.0
 31
0.0
  0
LINE
  5
60BF
330
60AE
100
AcDbEntity
  8
AM_0 外形線1
100
AcDbLine
 10
-78.0
 20
8.0
 30
0.0
 11
-78.0
 21
-8.0
 31
0.0
  0
LINE
  5
60C0
330
60AE
100
AcDbEntity
  8
AM_4 細線
100
AcDbLine
 10
-50.0
 20
9.0
 30
0.0
 11
-44.73205099999995
 21
9.0
 31
0.0
  0
LINE
  5
60C1
330
60AE
100
AcDbEntity
  8
AM_0 外形線1
100
AcDbLine
 10
-55.10000000000037
 20
8.660253999999895
 30
0.0
 11
-69.77209500000026
 21
8.660253999999895
 31
0.0
  0
LINE
  5
60C2
330
60AE
100
AcDbEntity
  8
AM_0 外形線1
100
AcDbLine
 10
-44.73205099999995
 20
-10.0
 30
0.0
 11
-43.0
 21
-11.0
 31
0.0
  0
LINE
  5
60C3
330
60AE
100
AcDbEntity
  8
AM_0 外形線1
100
AcDbLine
 10
-50.0
 20
-14.0
 30
0.0
 11
-55.10000000000037
 21
-14.0
 31
0.0
  0
LINE
  5
60C4
330
60AE
100
AcDbEntity
  8
AM_0 外形線1
100
AcDbLine
 10
-44.73205099999995
 20
-10.0
 30
0.0
 11
-50.0
 21
-10.0
 31
0.0
  0
LINE
  5
60C5
330
60AE
100
AcDbEntity
  8
AM_4 細線
100
AcDbLine
 10
-50.0
 20
-9.0
 30
0.0
 11
-44.73205099999995
 21
-9.0
 31
0.0
  0
LINE
  5
60C6
330
60AE
100
AcDbEntity
  8
AM_0 外形線1
100
AcDbLine
 10
-71.10000000000036
 20
-15.0
 30
0.0
 11
-69.77209500000026
 21
-17.29999999999995
 31
0.0
  0
ARC
  5
60C7
330
60AE
100
AcDbEntity
  8
AM_0 外形線1
100
AcDbCircle
 10
-63.40945499999998
 20
-12.98012700000026
 30
0.0
 40
7.690544999999998
100
AcDbArc
 50
145.8257089999927
 51
214.1742910000072
  0
LINE
  5
60C8
330
60AE
100
AcDbEntity
  8
AM_0 外形線1
100
AcDbLine
 10
-69.77209500000026
 20
-17.29999999999995
 30
0.0
 11
-55.10000000000037
 21
-17.29999999999995
 31
0.0
  0
LINE
  5
60C9
330
60AE
100
AcDbEntity
  8
AM_0 外形線1
100
AcDbLine
 10
-55.10000000000037
 20
-8.66025400000012
 30
0.0
 11
-69.77209500000026
 21
-8.66025400000012
 31
0.0
  0
ARC
  5
60CA
330
60AE
100
AcDbEntity
  8
AM_0 外形線1
100
AcDbCircle
 10
-42.19608900000003
 20
0.0
 30
0.0
 40
28.903912
100
AcDbArc
 50
162.5650859999968
 51
197.4349140000031
  0
LINE
  5
60CB
330
60AE
100
AcDbEntity
  8
AM_0 外形線1
100
AcDbLine
 10
-50.0
 20
3.399999999999863
 30
0.0
 11
-55.10000000000037
 21
-1.700000000000045
 31
0.0
  0
LINE
  5
60CC
330
60AE
100
AcDbEntity
  8
AM_0 外形線1
100
AcDbLine
 10
-50.0
 20
1.700000000000045
 30
0.0
 11
-55.10000000000037
 21
-3.40000000000009
 31
0.0
  0
LINE
  5
60CD
330
60AE
100
AcDbEntity
  8
AM_0 外形線1
100
AcDbLine
 10
13.0
 20
-15.0
 30
0.0
 11
11.67209400000001
 21
-17.29999999999995
 31
0.0
  0
ARC
  5
60CE
330
60AE
100
AcDbEntity
  8
AM_0 外形線1
100
AcDbCircle
 10
5.309455000000069
 20
-12.98012700000026
 30
0.0
 40
7.690544999999998
100
AcDbArc
 50
325.8257089999927
 51
34.17429100000724
  0
ARC
  5
60CF
330
60AE
100
AcDbEntity
  8
AM_0 外形線1
100
AcDbCircle
 10
-15.90391199999976
 20
0.0
 30
0.0
 40
28.903912
100
AcDbArc
 50
342.5650859999968
 51
17.43491400000317
  0
LINE
  5
60D0
330
60AE
100
AcDbEntity
  8
AM_0 外形線1
100
AcDbLine
 10
0.0
 20
8.660253999999895
 30
0.0
 11
11.67209400000001
 21
8.660253999999895
 31
0.0
  0
LINE
  5
60D1
330
60AE
100
AcDbEntity
  8
AM_0 外形線1
100
AcDbLine
 10
11.67209400000001
 20
-17.29999999999995
 30
0.0
 11
0.0
 21
-17.29999999999995
 31
0.0
  0
LINE
  5
60D2
330
60AE
100
AcDbEntity
  8
AM_0 外形線1
100
AcDbLine
 10
0.0
 20
-8.66025400000012
 30
0.0
 11
11.67209400000001
 21
-8.66025400000012
 31
0.0
  0
LINE
  5
60D3
330
60AE
100
AcDbEntity
  8
AM_0 外形線1
100
AcDbLine
 10
-1.0
 20
-10.0
 30
0.0
 11
-1.5
 21
-10.0
 31
0.0
  0
ARC
  5
60D4
330
60AE
100
AcDbEntity
  8
AM_0 外形線1
100
AcDbCircle
 10
-1.5
 20
-11.0
 30
0.0
 40
1.0
100
AcDbArc
 50
90.0
 51
180.0
  0
ARC
  5
60D5
330
60AE
100
AcDbEntity
  8
AM_0 外形線1
100
AcDbCircle
 10
-1.0
 20
-11.0
 30
0.0
 40
1.0
100
AcDbArc
 50
0.0
 51
90.0
  0
LINE
  5
60D6
330
60AE
100
AcDbEntity
  8
AM_0 外形線1
100
AcDbLine
 10
-71.10000000000036
 20
10.0
 30
0.0
 11
-76.0
 21
10.0
 31
0.0
  0
LINE
  5
60D7
330
60AE
100
AcDbEntity
  8
AM_0 外形線1
100
AcDbLine
 10
-43.0
 20
11.0
 30
0.0
 11
-44.73205099999995
 21
10.0
 31
0.0
  0
LINE
  5
60D8
330
60AE
100
AcDbEntity
  8
AM_0 外形線1
100
AcDbLine
 10
-55.10000000000037
 20
14.0
 30
0.0
 11
-50.0
 21
14.0
 31
0.0
  0
LINE
  5
60D9
330
60AE
100
AcDbEntity
  8
AM_0 外形線1
100
AcDbLine
 10
-44.73205099999995
 20
10.0
 30
0.0
 11
-50.0
 21
10.0
 31
0.0
  0
LINE
  5
60DA
330
60AE
100
AcDbEntity
  8
AM_0 外形線1
100
AcDbLine
 10
-69.77209500000026
 20
17.29999999999995
 30
0.0
 11
-71.10000000000036
 21
15.0
 31
0.0
  0
LINE
  5
60DB
330
60AE
100
AcDbEntity
  8
AM_0 外形線1
100
AcDbLine
 10
-55.10000000000037
 20
17.29999999999995
 30
0.0
 11
-69.77209500000026
 21
17.29999999999995
 31
0.0
  0
LINE
  5
60DC
330
60AE
100
AcDbEntity
  8
AM_0 外形線1
100
AcDbLine
 10
11.67209400000001
 20
17.29999999999995
 30
0.0
 11
13.0
 21
15.0
 31
0.0
  0
LINE
  5
60DD
330
60AE
100
AcDbEntity
  8
AM_0 外形線1
100
AcDbLine
 10
0.0
 20
17.29999999999995
 30
0.0
 11
11.67209400000001
 21
17.29999999999995
 31
0.0
  0
LINE
  5
60DE
330
60AE
100
AcDbEntity
  8
AM_0 外形線1
100
AcDbLine
 10
-1.0
 20
10.0
 30
0.0
 11
-1.5
 21
10.0
 31
0.0
  0
ARC
  5
60DF
330
60AE
100
AcDbEntity
  8
AM_0 外形線1
100
AcDbCircle
 10
-1.5
 20
11.0
 30
0.0
 40
1.0
100
AcDbArc
 50
180.0
 51
270.0
  0
ARC
  5
60E0
330
60AE
100
AcDbEntity
  8
AM_0 外形線1
100
AcDbCircle
 10
-1.0
 20
11.0
 30
0.0
 40
1.0
100
AcDbArc
 50
270.0
 51
0.0
  0
LINE
  5
614A
330
60AE
100
AcDbEntity
  8
AM_0 外形線1
100
AcDbLine
 10
-2.5
 20
11.0
 30
0.0
 11
-43.0
 21
11.0
 31
0.0
  0
LINE
  5
614B
330
60AE
100
AcDbEntity
  8
AM_0 外形線1
100
AcDbLine
 10
-2.500000000000681
 20
-11.00000000000204
 30
0.0
 11
-43.00000000000067
 21
-10.99999999999954
 31
0.0
  0
LINE
  5
614C
330
60AE
100
AcDbEntity
  8
AM_0 外形線1
100
AcDbLine
 10
0.0
 20
17.29999999999995
 30
0.0
 11
0.0
 21
-17.29999999999995
 31
0.0
  0
LINE
  5
614D
330
60AE
100
AcDbEntity
  8
AM_0 外形線1
100
AcDbLine
 10
-50.0
 20
14.0
 30
0.0
 11
-50.0
 21
-14.0
 31
0.0
  0
ENDBLK
  5
60B0
330
60AE
100
AcDbEntity
  8
0
100
AcDbBlockEnd
  0
BLOCK
  5
72E6
330
72E5
100
AcDbEntity
  8
0
100
AcDbBlockBegin
  2
ロッカクアナツキプラグB R1／2
 70
     0
 10
0.0
 20
0.0
 30
0.0
  3
ロッカクアナツキプラグB R1／2
  1

  0
LINE
  5
72E8
330
72E5
100
AcDbEntity
  8
AM_0 外形線1
100
AcDbLine
 10
9.107686999999712
 20
-15.00000000000023
 30
0.0
 11
-9.107688000000052
 21
-15.00000000000023
 31
0.0
  0
LINE
  5
72E9
330
72E5
100
AcDbEntity
  8
AM_0 外形線1
100
AcDbLine
 10
10.65768399999979
 20
-1.680184000000508
 30
0.0
 11
-10.65768500000013
 21
-1.680184000000508
 31
0.0
  0
LINE
  5
72EA
330
72E5
100
AcDbEntity
  8
AM_0 外形線1
100
AcDbLine
 10
10.2623880000001
 20
-13.00000000000023
 30
0.0
 11
-10.2623880000001
 21
-13.00000000000023
 31
0.0
  0
LINE
  5
72EB
330
72E5
100
AcDbEntity
  8
AM_0 外形線1
100
AcDbLine
 10
-9.107688000000052
 20
-15.00000000000023
 30
0.0
 11
-10.2623880000001
 21
-13.00000000000023
 31
0.0
  0
LINE
  5
72EC
330
72E5
100
AcDbEntity
  8
AM_0 外形線1
100
AcDbLine
 10
-10.2623880000001
 20
-13.00000000000023
 30
0.0
 11
-10.65768500000013
 21
-1.680184000000508
 31
0.0
  0
LINE
  5
72ED
330
72E5
100
AcDbEntity
  8
AM_0 外形線1
100
AcDbLine
 10
-10.65768500000013
 20
-1.680184000000508
 30
0.0
 11
-10.47749999999996
 21
-1.500000000000226
 31
0.0
  0
LINE
  5
72EE
330
72E5
100
AcDbEntity
  8
AM_0 外形線1
100
AcDbLine
 10
-10.47749999999996
 20
-1.500000000000226
 30
0.0
 11
-8.977499999999963
 21
-0.0000000000002274
 31
0.0
  0
LINE
  5
72EF
330
72E5
100
AcDbEntity
  8
AM_4 細線
100
AcDbLine
 10
-9.534894000000347
 20
-0.5573930000005021
 30
0.0
 11
-9.030546999999842
 21
-15.00000000000023
 31
0.0
  0
LINE
  5
72F0
330
72E5
100
AcDbEntity
  8
AM_0 外形線1
100
AcDbLine
 10
8.977499999999963
 20
-0.0000000000002274
 30
0.0
 11
10.65768399999979
 21
-1.680184000000508
 31
0.0
  0
LINE
  5
72F1
330
72E5
100
AcDbEntity
  8
AM_0 外形線1
100
AcDbLine
 10
10.2623880000001
 20
-13.00000000000023
 30
0.0
 11
9.107686999999712
 21
-15.00000000000023
 31
0.0
  0
LINE
  5
72F2
330
72E5
100
AcDbEntity
  8
AM_4 細線
100
AcDbLine
 10
9.534893000000009
 20
-0.5573930000005021
 30
0.0
 11
9.030545999999956
 21
-15.00000000000023
 31
0.0
  0
LINE
  5
72F3
330
72E5
100
AcDbEntity
  8
AM_7 中心線
 48
0.5
100
AcDbLine
 10
0.0
 20
2.156880999999656
 30
0.0
 11
0.0
 21
-19.52988800000025
 31
0.0
  0
LINE
  5
72F4
330
72E5
100
AcDbEntity
  8
AM_0 外形線1
100
AcDbLine
 10
10.2623880000001
 20
-13.00000000000023
 30
0.0
 11
10.65768500000013
 21
-1.680184000000508
 31
0.0
  0
LINE
  5
72F5
330
72E5
100
AcDbEntity
  8
AM_0 外形線1
100
AcDbLine
 10
-8.977499999999963
 20
-0.0000000000002274
 30
0.0
 11
8.977499999999963
 21
-0.0000000000002274
 31
0.0
  0
ENDBLK
  5
72E7
330
72E5
100
AcDbEntity
  8
0
100
AcDbBlockEnd
  0
BLOCK
  5
7CDF
330
7CDE
100
AcDbEntity
  8
0
100
AcDbBlockBegin
  2
*D26
 70
     1
 10
0.0
 20
0.0
 30
0.0
  3
*D26
  1

  0
LINE
  5
8152
330
7CDE
100
AcDbEntity
  8
AM_5 寸法線
 62
     3
100
AcDbLine
 10
897.8990904167194
 20
1208.661746686616
 30
0.0
 11
897.8990904167194
 21
1172.851284884577
 31
0.0
  0
LINE
  5
8153
330
7CDE
100
AcDbEntity
  8
AM_5 寸法線
 62
     3
100
AcDbLine
 10
953.8990904167192
 20
1208.661746686616
 30
0.0
 11
953.8990904167192
 21
1172.851284884577
 31
0.0
  0
LINE
  5
8154
330
7CDE
100
AcDbEntity
  8
AM_5 寸法線
 62
     3
100
AcDbLine
 10
910.3990904167194
 20
1175.976284884577
 30
0.0
 11
941.3990904167192
 21
1175.976284884577
 31
0.0
  0
INSERT
  5
8155
330
7CDE
100
AcDbEntity
  8
AM_5 寸法線
 62
     3
100
AcDbBlockReference
  2
_Open30
 10
897.8990904167194
 20
1175.976284884577
 30
0.0
 41
12.5
 42
12.5
 43
12.5
 50
180.0
  0
INSERT
  5
8156
330
7CDE
100
AcDbEntity
  8
AM_5 寸法線
 62
     3
100
AcDbBlockReference
  2
_Open30
 10
953.8990904167192
 20
1175.976284884577
 30
0.0
 41
12.5
 42
12.5
 43
12.5
  0
MTEXT
  5
8157
330
7CDE
100
AcDbEntity
  8
AM_5 寸法線
 62
     3
100
AcDbMText
 10
925.8990904167196
 20
1192.226284884577
 30
0.0
 40
17.5
 41
0.0
 46
0.0
 71
     5
 72
     1
  1
56
  7
SEISA
 73
     1
 44
1.0
  0
POINT
  5
8158
330
7CDE
100
AcDbEntity
  8
Defpoints
 62
     0
100
AcDbPoint
 10
897.8990904167194
 20
1211.786746686617
 30
0.0
  0
POINT
  5
8159
330
7CDE
100
AcDbEntity
  8
Defpoints
 62
     0
100
AcDbPoint
 10
953.8990904167192
 20
1211.786746686617
 30
0.0
  0
POINT
  5
815A
330
7CDE
100
AcDbEntity
  8
Defpoints
 62
     0
100
AcDbPoint
 10
953.8990904167192
 20
1175.976284884577
 30
0.0
  0
ENDBLK
  5
7CE0
330
7CDE
100
AcDbEntity
  8
0
100
AcDbBlockEnd
  0
BLOCK
  5
7D00
330
7CFF
100
AcDbEntity
  8
0
100
AcDbBlockBegin
  2
*D27
 70
     1
 10
0.0
 20
0.0
 30
0.0
  3
*D27
  1

  0
LINE
  5
7D63
330
7CFF
100
AcDbEntity
  8
AM_5 寸法線
 62
     3
100
AcDbLine
 10
892.8990904167195
 20
1208.161746686617
 30
0.0
 11
892.8990904167195
 21
1172.851284884576
 31
0.0
  0
LINE
  5
7D64
330
7CFF
100
AcDbEntity
  8
AM_5 寸法線
 62
     3
100
AcDbLine
 10
897.8990904167194
 20
1208.661746686616
 30
0.0
 11
897.8990904167194
 21
1172.851284884576
 31
0.0
  0
LINE
  5
7D65
330
7CFF
100
AcDbEntity
  8
AM_5 寸法線
 62
     3
100
AcDbLine
 10
880.3990904167195
 20
1175.976284884576
 30
0.0
 11
867.8990904167195
 21
1175.976284884576
 31
0.0
  0
LINE
  5
7D66
330
7CFF
100
AcDbEntity
  8
AM_5 寸法線
 62
     3
100
AcDbLine
 10
910.3990904167194
 20
1175.976284884576
 30
0.0
 11
922.8990904167194
 21
1175.976284884576
 31
0.0
  0
MTEXT
  5
7D67
330
7CFF
100
AcDbEntity
  8
AM_5 寸法線
 62
     3
100
AcDbMText
 10
876.6386864849982
 20
1191.031894500458
 30
0.0
 40
17.5
 41
0.0
 46
0.0
 71
     5
 72
     1
  1
5
  7
SEISA
 73
     1
 44
1.0
  0
LINE
  5
7D68
330
7CFF
100
AcDbEntity
  8
AM_5 寸法線
 62
     3
100
AcDbLine
 10
892.8990904167195
 20
1175.976284884576
 30
0.0
 11
897.8990904167194
 21
1175.976284884576
 31
0.0
  0
INSERT
  5
7D69
330
7CFF
100
AcDbEntity
  8
AM_5 寸法線
 62
     3
100
AcDbBlockReference
  2
_Open30
 10
892.8990904167195
 20
1175.976284884576
 30
0.0
 41
12.5
 42
12.5
 43
12.5
  0
INSERT
  5
7D6A
330
7CFF
100
AcDbEntity
  8
AM_5 寸法線
 62
     3
100
AcDbBlockReference
  2
_Open30
 10
897.8990904167194
 20
1175.976284884576
 30
0.0
 41
12.5
 42
12.5
 43
12.5
 50
180.0
  0
POINT
  5
7D6B
330
7CFF
100
AcDbEntity
  8
Defpoints
 62
     0
100
AcDbPoint
 10
892.8990904167195
 20
1211.286746686617
 30
0.0
  0
POINT
  5
7D6C
330
7CFF
100
AcDbEntity
  8
Defpoints
 62
     0
100
AcDbPoint
 10
897.8990904167194
 20
1211.786746686617
 30
0.0
  0
POINT
  5
7D6D
330
7CFF
100
AcDbEntity
  8
Defpoints
 62
     0
100
AcDbPoint
 10
897.8990904167194
 20
1175.976284884576
 30
0.0
  0
ENDBLK
  5
7D01
330
7CFF
100
AcDbEntity
  8
0
100
AcDbBlockEnd
  0
BLOCK
  5
7D30
330
7D2F
100
AcDbEntity
  8
0
100
AcDbBlockBegin
  2
*D28
 70
     1
 10
0.0
 20
0.0
 30
0.0
  3
*D28
  1

  0
LINE
  5
815B
330
7D2F
100
AcDbEntity
  8
AM_5 寸法線
 62
     3
100
AcDbLine
 10
953.8990904167192
 20
1206.661746686616
 30
0.0
 11
953.8990904167192
 21
1172.851284884576
 31
0.0
  0
LINE
  5
815C
330
7D2F
100
AcDbEntity
  8
AM_5 寸法線
 62
     3
100
AcDbLine
 10
1014.899090416719
 20
1205.161746686617
 30
0.0
 11
1014.899090416719
 21
1172.851284884576
 31
0.0
  0
LINE
  5
815D
330
7D2F
100
AcDbEntity
  8
AM_5 寸法線
 62
     3
100
AcDbLine
 10
966.3990904167192
 20
1175.976284884576
 30
0.0
 11
1002.399090416719
 21
1175.976284884576
 31
0.0
  0
INSERT
  5
815E
330
7D2F
100
AcDbEntity
  8
AM_5 寸法線
 62
     3
100
AcDbBlockReference
  2
_Open30
 10
953.8990904167192
 20
1175.976284884576
 30
0.0
 41
12.5
 42
12.5
 43
12.5
 50
180.0
  0
INSERT
  5
815F
330
7D2F
100
AcDbEntity
  8
AM_5 寸法線
 62
     3
100
AcDbBlockReference
  2
_Open30
 10
1014.899090416719
 20
1175.976284884576
 30
0.0
 41
12.5
 42
12.5
 43
12.5
  0
MTEXT
  5
8160
330
7D2F
100
AcDbEntity
  8
AM_5 寸法線
 62
     3
100
AcDbMText
 10
984.3990904167194
 20
1192.226284884576
 30
0.0
 40
17.5
 41
0.0
 46
0.0
 71
     5
 72
     1
  1
61
  7
SEISA
 73
     1
 44
1.0
  0
POINT
  5
8161
330
7D2F
100
AcDbEntity
  8
Defpoints
 62
     0
100
AcDbPoint
 10
953.8990904167192
 20
1209.786746686617
 30
0.0
  0
POINT
  5
8162
330
7D2F
100
AcDbEntity
  8
Defpoints
 62
     0
100
AcDbPoint
 10
1014.899090416719
 20
1208.286746686616
 30
0.0
  0
POINT
  5
8163
330
7D2F
100
AcDbEntity
  8
Defpoints
 62
     0
100
AcDbPoint
 10
1014.899090416719
 20
1175.976284884576
 30
0.0
  0
ENDBLK
  5
7D31
330
7D2F
100
AcDbEntity
  8
0
100
AcDbBlockEnd
  0
BLOCK
  5
7EB1
330
7EB0
100
AcDbEntity
  8
0
100
AcDbBlockBegin
  2
*D29
 70
     1
 10
0.0
 20
0.0
 30
0.0
  3
*D29
  1

  0
LINE
  5
8147
330
7EB0
100
AcDbEntity
  8
AM_5 寸法線
 62
     3
100
AcDbLine
 10
808.8990904167191
 20
1255.411746686617
 30
0.0
 11
808.8990904167191
 21
1289.411746686617
 31
0.0
  0
LINE
  5
8148
330
7EB0
100
AcDbEntity
  8
AM_5 寸法線
 62
     3
100
AcDbLine
 10
814.8990904167192
 20
1207.411746686616
 30
0.0
 11
814.8990904167192
 21
1289.411746686617
 31
0.0
  0
LINE
  5
8149
330
7EB0
100
AcDbEntity
  8
AM_5 寸法線
 62
     3
100
AcDbLine
 10
796.3990904167192
 20
1286.286746686617
 30
0.0
 11
783.8990904167192
 21
1286.286746686617
 31
0.0
  0
LINE
  5
814A
330
7EB0
100
AcDbEntity
  8
AM_5 寸法線
 62
     3
100
AcDbLine
 10
827.3990904167192
 20
1286.286746686617
 30
0.0
 11
864.6490904167192
 21
1286.286746686617
 31
0.0
  0
LINE
  5
814B
330
7EB0
100
AcDbEntity
  8
AM_5 寸法線
 62
     3
100
AcDbLine
 10
808.8990904167191
 20
1286.286746686617
 30
0.0
 11
814.8990904167192
 21
1286.286746686617
 31
0.0
  0
INSERT
  5
814C
330
7EB0
100
AcDbEntity
  8
AM_5 寸法線
 62
     3
100
AcDbBlockReference
  2
_Open30
 10
808.8990904167191
 20
1286.286746686617
 30
0.0
 41
12.5
 42
12.5
 43
12.5
  0
INSERT
  5
814D
330
7EB0
100
AcDbEntity
  8
AM_5 寸法線
 62
     3
100
AcDbBlockReference
  2
_Open30
 10
814.8990904167192
 20
1286.286746686617
 30
0.0
 41
12.5
 42
12.5
 43
12.5
 50
180.0
  0
MTEXT
  5
814E
330
7EB0
100
AcDbEntity
  8
AM_5 寸法線
 62
     3
100
AcDbMText
 10
852.2740904167195
 20
1302.536746686616
 30
0.0
 40
17.5
 41
0.0
 46
0.0
 71
     5
 72
     1
  1
6
  7
SEISA
 73
     1
 44
1.0
  0
POINT
  5
814F
330
7EB0
100
AcDbEntity
  8
Defpoints
 62
     0
100
AcDbPoint
 10
808.8990904167191
 20
1252.286746686616
 30
0.0
  0
POINT
  5
8150
330
7EB0
100
AcDbEntity
  8
Defpoints
 62
     0
100
AcDbPoint
 10
814.8990904167192
 20
1204.286746686616
 30
0.0
  0
POINT
  5
8151
330
7EB0
100
AcDbEntity
  8
Defpoints
 62
     0
100
AcDbPoint
 10
814.8990904167192
 20
1286.286746686617
 30
0.0
  0
ENDBLK
  5
7EB2
330
7EB0
100
AcDbEntity
  8
0
100
AcDbBlockEnd
  0
BLOCK
  5
80C8
330
80C7
100
AcDbEntity
  8
0
100
AcDbBlockBegin
  2
ＧＣサイドカバ－Ｂ CCM450
 70
     0
 10
0.0
 20
0.0
 30
0.0
  3
ＧＣサイドカバ－Ｂ CCM450
  1

  0
LINE
  5
80CA
330
80C7
100
AcDbEntity
  8
AM_11 想像線
 48
0.1
100
AcDbLine
 10
-16.0
 20
-39.5
 30
0.0
 11
-16.0
 21
0.0
 31
0.0
  0
LINE
  5
80CB
330
80C7
100
AcDbEntity
  8
AM_11 想像線
 48
0.1
100
AcDbLine
 10
4.0
 20
-39.5
 30
0.0
 11
4.0
 21
-24.5
 31
0.0
  0
LINE
  5
80CC
330
80C7
100
AcDbEntity
  8
AM_11 想像線
 48
0.1
100
AcDbLine
 10
-11.60000000000036
 20
-33.95000000000005
 30
0.0
 11
-0.400000000000091
 21
-33.95000000000005
 31
0.0
  0
LINE
  5
80CD
330
80C7
100
AcDbEntity
  8
AM_11 想像線
 48
0.1
100
AcDbLine
 10
-16.0
 20
-39.5
 30
0.0
 11
-16.0
 21
-41.0
 31
0.0
  0
LINE
  5
80CE
330
80C7
100
AcDbEntity
  8
AM_11 想像線
 48
0.1
100
AcDbLine
 10
-11.60000000000036
 20
-39.5
 30
0.0
 11
-11.60000000000036
 21
-41.0
 31
0.0
  0
LINE
  5
80CF
330
80C7
100
AcDbEntity
  8
AM_11 想像線
 48
0.1
100
AcDbLine
 10
-16.0
 20
-39.5
 30
0.0
 11
-11.60000000000036
 21
-39.5
 31
0.0
  0
LINE
  5
80D0
330
80C7
100
AcDbEntity
  8
AM_11 想像線
 48
0.1
100
AcDbLine
 10
-11.60000000000036
 20
-39.5
 30
0.0
 11
-11.60000000000036
 21
-33.95000000000005
 31
0.0
  0
LINE
  5
80D1
330
80C7
100
AcDbEntity
  8
AM_11 想像線
 48
0.1
100
AcDbLine
 10
-0.400000000000091
 20
-39.5
 30
0.0
 11
-0.400000000000091
 21
-41.0
 31
0.0
  0
LINE
  5
80D2
330
80C7
100
AcDbEntity
  8
AM_11 想像線
 48
0.1
100
AcDbLine
 10
4.0
 20
-39.5
 30
0.0
 11
4.0
 21
-41.0
 31
0.0
  0
LINE
  5
80D3
330
80C7
100
AcDbEntity
  8
AM_11 想像線
 48
0.1
100
AcDbLine
 10
-0.400000000000091
 20
-39.5
 30
0.0
 11
4.0
 21
-39.5
 31
0.0
  0
LINE
  5
80D4
330
80C7
100
AcDbEntity
  8
AM_11 想像線
 48
0.1
100
AcDbLine
 10
-0.400000000000091
 20
-33.95000000000005
 30
0.0
 11
-0.400000000000091
 21
-39.5
 31
0.0
  0
LINE
  5
80D5
330
80C7
100
AcDbEntity
  8
AM_11 想像線
 48
0.1
100
AcDbLine
 10
-3.100000000000362
 20
-19.20000000000004
 30
0.0
 11
0.0
 21
-19.20000000000004
 31
0.0
  0
LINE
  5
80D6
330
80C7
100
AcDbEntity
  8
AM_11 想像線
 48
0.1
100
AcDbLine
 10
4.000000000000113
 20
-24.5
 30
0.0
 11
-3.100000000000362
 21
-24.5
 31
0.0
  0
LINE
  5
80D7
330
80C7
100
AcDbEntity
  8
AM_11 想像線
 48
0.1
100
AcDbLine
 10
4.902897539566197
 20
-11.0
 30
0.0
 11
-18.2584948860914
 21
-11.0
 31
0.0
  0
LINE
  5
80D8
330
80C7
100
AcDbEntity
  8
AM_11 想像線
 48
0.1
100
AcDbLine
 10
-3.100000000000362
 20
-24.5
 30
0.0
 11
-3.100000000000362
 21
-19.20000000000004
 31
0.0
  0
LINE
  5
80D9
330
80C7
100
AcDbEntity
  8
AM_11 想像線
 48
0.1
100
AcDbLine
 10
0.0
 20
0.0
 30
0.0
 11
-16.0
 21
0.0
 31
0.0
  0
LINE
  5
80DA
330
80C7
100
AcDbEntity
  8
AM_11 想像線
 48
0.1
100
AcDbLine
 10
0.0
 20
0.0
 30
0.0
 11
0.0
 21
-19.20000000000004
 31
0.0
  0
ENDBLK
  5
80C9
330
80C7
100
AcDbEntity
  8
0
100
AcDbBlockEnd
  0
BLOCK
  5
8124
330
8123
100
AcDbEntity
  8
0
100
AcDbBlockBegin
  2
センタB CCMH450
 70
     0
 10
0.0
 20
0.0
 30
0.0
  3
センタB CCMH450
  1

  0
LINE
  5
8126
330
8123
100
AcDbEntity
  8
AM_0 外形線1
100
AcDbLine
 10
0.0
 20
54.5
 30
0.0
 11
0.0
 21
-87.5
 31
0.0
  0
LINE
  5
8127
330
8123
100
AcDbEntity
  8
AM_0 外形線1
100
AcDbLine
 10
-200.0
 20
-87.5
 30
0.0
 11
-200.0
 21
50.5
 31
0.0
  0
LINE
  5
8128
330
8123
100
AcDbEntity
  8
AM_0 外形線1
100
AcDbLine
 10
-160.0
 20
-232.5000000000002
 30
0.0
 11
-160.0
 21
-87.5
 31
0.0
  0
LINE
  5
8129
330
8123
100
AcDbEntity
  8
AM_0 外形線1
100
AcDbLine
 10
-163.0
 20
-231.5000000000002
 30
0.0
 11
-163.0
 21
-87.5
 31
0.0
  0
LINE
  5
812A
330
8123
100
AcDbEntity
  8
AM_3 隠れ線
100
AcDbLine
 10
0.0
 20
-78.75
 30
0.0
 11
-52.0
 21
-78.75
 31
0.0
  0
LINE
  5
812B
330
8123
100
AcDbEntity
  8
AM_3 隠れ線
100
AcDbLine
 10
-52.0
 20
-78.75
 30
0.0
 11
-52.0
 21
-87.5
 31
0.0
  0
LINE
  5
812C
330
8123
100
AcDbEntity
  8
AM_3 隠れ線
100
AcDbLine
 10
-52.0
 20
-78.75
 30
0.0
 11
-57.0518149999998
 21
-87.5
 31
0.0
  0
LINE
  5
812D
330
8123
100
AcDbEntity
  8
AM_3 隠れ線
100
AcDbLine
 10
-36.0
 20
-77.5
 30
0.0
 11
-36.72168800000009
 21
-78.75
 31
0.0
  0
LINE
  5
812E
330
8123
100
AcDbEntity
  8
AM_3 隠れ線
100
AcDbLine
 10
-36.72168800000009
 20
-78.75
 30
0.0
 11
-36.72168800000009
 21
-87.5
 31
0.0
  0
LINE
  5
812F
330
8123
100
AcDbEntity
  8
AM_3 隠れ線
100
AcDbLine
 10
-36.0
 20
-77.5
 30
0.0
 11
-36.0
 21
-87.5
 31
0.0
  0
LINE
  5
8130
330
8123
100
AcDbEntity
  8
AM_3 隠れ線
100
AcDbLine
 10
0.0
 20
-77.5
 30
0.0
 11
-36.0
 21
-77.5
 31
0.0
  0
ARC
  5
8131
330
8123
100
AcDbEntity
  8
AM_0 外形線1
100
AcDbCircle
 10
-89.0
 20
-87.5
 30
0.0
 40
159.8
100
AcDbArc
 50
80.09063499998969
 51
99.90936500001033
  0
LINE
  5
8132
330
8123
100
AcDbEntity
  8
AM_0 外形線1
100
AcDbLine
 10
-117.0
 20
58.0
 30
0.0
 11
-117.0
 21
69.32781099999989
 31
0.0
  0
LINE
  5
8133
330
8123
100
AcDbEntity
  8
AM_7 中心線
 48
0.5
100
AcDbLine
 10
-89.0
 20
77.29999999999995
 30
0.0
 11
-89.0
 21
57.5
 31
0.0
  0
LINE
  5
8134
330
8123
100
AcDbEntity
  8
AM_0 外形線1
100
AcDbLine
 10
-194.0
 20
56.5
 30
0.0
 11
-163.0
 21
56.5
 31
0.0
  0
ARC
  5
8135
330
8123
100
AcDbEntity
  8
AM_0 外形線1
100
AcDbCircle
 10
-194.0
 20
50.5
 30
0.0
 40
6.0
100
AcDbArc
 50
90.0
 51
180.0
  0
LINE
  5
8136
330
8123
100
AcDbEntity
  8
AM_0 外形線1
100
AcDbLine
 10
-160.0
 20
57.5
 30
0.0
 11
-117.5
 21
57.5
 31
0.0
  0
LINE
  5
8137
330
8123
100
AcDbEntity
  8
AM_0 外形線1
100
AcDbLine
 10
-163.0
 20
56.5
 30
0.0
 11
-160.0
 21
57.5
 31
0.0
  0
ARC
  5
8138
330
8123
100
AcDbEntity
  8
AM_0 外形線1
100
AcDbCircle
 10
-117.5
 20
58.0
 30
0.0
 40
0.5
100
AcDbArc
 50
270.0
 51
0.0
  0
LINE
  5
8139
330
8123
100
AcDbEntity
  8
AM_0 外形線1
100
AcDbLine
 10
-117.0
 20
69.32781099999989
 30
0.0
 11
-116.5
 21
69.915978
 31
0.0
  0
LINE
  5
813A
330
8123
100
AcDbEntity
  8
AM_0 外形線1
100
AcDbLine
 10
-61.0
 20
69.32781099999989
 30
0.0
 11
-61.0
 21
56.0
 31
0.0
  0
LINE
  5
813B
330
8123
100
AcDbEntity
  8
AM_0 外形線1
100
AcDbLine
 10
-60.5
 20
55.5
 30
0.0
 11
-1.0
 21
55.5
 31
0.0
  0
ARC
  5
813C
330
8123
100
AcDbEntity
  8
AM_0 外形線1
100
AcDbCircle
 10
-60.5
 20
56.0
 30
0.0
 40
0.5
100
AcDbArc
 50
180.0
 51
270.0
  0
LINE
  5
813D
330
8123
100
AcDbEntity
  8
AM_0 外形線1
100
AcDbLine
 10
-1.0
 20
55.5
 30
0.0
 11
0.0
 21
54.5
 31
0.0
  0
LINE
  5
813E
330
8123
100
AcDbEntity
  8
AM_0 外形線1
100
AcDbLine
 10
-61.5
 20
69.915978
 30
0.0
 11
-61.0
 21
69.32781099999989
 31
0.0
  0
LINE
  5
813F
330
8123
100
AcDbEntity
  8
AM_0 外形線1
100
AcDbLine
 10
-163.0
 20
-231.5000000000002
 30
0.0
 11
-194.0
 21
-231.5000000000002
 31
0.0
  0
ARC
  5
8140
330
8123
100
AcDbEntity
  8
AM_0 外形線1
100
AcDbCircle
 10
-194.0
 20
-225.5000000000002
 30
0.0
 40
6.0
100
AcDbArc
 50
180.0
 51
270.0
  0
LINE
  5
8141
330
8123
100
AcDbEntity
  8
AM_0 外形線1
100
AcDbLine
 10
-160.0
 20
-232.5000000000002
 30
0.0
 11
-163.0
 21
-231.5000000000002
 31
0.0
  0
LINE
  5
8142
330
8123
100
AcDbEntity
  8
AM_0 外形線1
100
AcDbLine
 10
-142.0
 20
-232.5000000000002
 30
0.0
 11
-160.0
 21
-232.5000000000002
 31
0.0
  0
LINE
  5
8143
330
8123
100
AcDbEntity
  8
AM_0 外形線1
100
AcDbLine
 10
0.0
 20
0.0
 30
0.0
 11
-200.0
 21
0.0
 31
0.0
  0
LINE
  5
8144
330
8123
100
AcDbEntity
  8
AM_0 外形線1
100
AcDbLine
 10
-200.0
 20
-225.5000000000002
 30
0.0
 11
-200.0
 21
-87.5
 31
0.0
  0
ARC
  5
8145
330
8123
100
AcDbEntity
  8
AM_0 外形線1
100
AcDbCircle
 10
-89.0
 20
-87.5
 30
0.0
 40
149.9999999999998
100
AcDbArc
 50
79.24168177100728
 51
100.7583182289927
  0
ARC
  5
8146
330
8123
100
AcDbEntity
  8
AM_7 中心線
 48
0.5
100
AcDbCircle
 10
-89.0
 20
-87.5
 30
0.0
 40
155.0
100
AcDbArc
 50
78.76593351924213
 51
101.2110652690472
  0
ENDBLK
  5
8125
330
8123
100
AcDbEntity
  8
0
100
AcDbBlockEnd
  0
ENDSEC
  0
SECTION
  2
ENTITIES
  0
LINE
  5
43D1
330
1F
100
AcDbEntity
  8
AM_0 外形線1
100
AcDbLine
 10
1032.899090416719
 20
1188.786746686616
 30
0.0
 11
1032.899090416719
 21
1066.286746686617
 31
0.0
  0
LINE
  5
43D7
102
{ACAD_REACTORS
330
577F
102
}
330
1F
100
AcDbEntity
  8
AM_7 中心線
100
AcDbLine
 10
795.4040982972637
 20
1066.286746686617
 30
0.0
 11
1250.188963279417
 21
1066.286746686617
 31
0.0
  0
LINE
  5
43DC
330
1F
100
AcDbEntity
  8
AM_0 外形線1
100
AcDbLine
 10
1032.899090416719
 20
1090.510876686616
 30
0.0
 11
1032.899090416719
 21
1108.786746686616
 31
0.0
  0
LINE
  5
43DD
330
1F
100
AcDbEntity
  8
AM_0 外形線1
100
AcDbLine
 10
1014.899090416719
 20
1090.510876686616
 30
0.0
 11
1014.899090416719
 21
1108.786746686616
 31
0.0
  0
LINE
  5
43DE
330
1F
100
AcDbEntity
  8
AM_0 外形線1
100
AcDbLine
 10
1014.899090416719
 20
1090.510876686616
 30
0.0
 11
1014.899090416719
 21
1108.786746686616
 31
0.0
  0
LINE
  5
43DF
330
1F
100
AcDbEntity
  8
AM_0 外形線1
100
AcDbLine
 10
1032.899090416719
 20
1090.510876686616
 30
0.0
 11
1032.899090416719
 21
1108.786746686616
 31
0.0
  0
LINE
  5
44C5
330
1F
100
AcDbEntity
  8
AM_0 外形線1
100
AcDbLine
 10
1082.929636416719
 20
1228.286746686616
 30
0.0
 11
1082.912176416719
 21
1227.786746686617
 31
0.0
  0
INSERT
  5
4D8F
102
{ACAD_REACTORS
330
59A2
330
5DF7
102
}
330
1F
100
AcDbEntity
  8
AM_0 外形線1
100
AcDbBlockReference
  2
ケースＡ CCMH450
 10
1023.899090416719
 20
1066.286746686617
 30
0.0
  0
INSERT
  5
4F5B
102
{ACAD_REACTORS
330
5986
330
59A2
102
}
330
1F
100
AcDbEntity
  8
AM_0 外形線1
100
AcDbBlockReference
  2
ケースＢ CCMH450
 10
1023.899090416719
 20
1066.286746686617
 30
0.0
  0
INSERT
  5
505E
102
{ACAD_REACTORS
330
5751
330
577F
330
5A41
330
5DC5
102
}
330
1F
100
AcDbEntity
  8
AM_0 外形線1
100
AcDbBlockReference
  2
センタＡ CCMH450
 10
1032.899090416719
 20
1066.286746686617
 30
0.0
  0
INSERT
  5
5299
102
{ACAD_REACTORS
330
5A11
330
7D0E
102
}
330
1F
100
AcDbEntity
  8
AM_0 外形線1
100
AcDbBlockReference
  2
ＧＣサイドカバ－Ｂ CCMH450
 10
892.8990904167195
 20
1066.286746686617
 30
0.0
  0
INSERT
  5
54C9
102
{ACAD_REACTORS
330
5DDF
102
}
330
1F
100
AcDbEntity
  8
AM_0 外形線1
100
AcDbBlockReference
  2
ＧＣサイドカバ－A CCMH450
 10
1154.899090416719
 20
1066.286746686617
 30
0.0
  0
DIMENSION
  5
56E7
330
1F
100
AcDbEntity
  8
AM_5 寸法線
100
AcDbDimension
  2
*D12
 10
732.0556821469091
 20
921.2867466866166
 30
0.0
 11
732.0556821469091
 21
1086.009577763653
 31
0.0
 70
   160
  1
%%c<>
 71
     5
 42
290.0000000000002
 73
     0
 74
     0
 75
     0
  3
SEISA$0
100
AcDbAlignedDimension
 13
854.8990904167194
 23
1211.286746686617
 33
0.0
 14
854.8990904167196
 24
921.2867466866162
 34
0.0
 50
90.0
100
AcDbRotatedDimension
1001
ACAD_DSTYLE_DIMINSPECT
1070
   396
1000
100%
1070
   395
1000

1070
   394
1070
    33
1070
   393
1070
     0
  0
DIMENSION
  5
5736
102
{ACAD_XDICTIONARY
360
5745
102
}
102
{ACAD_REACTORS
330
5751
102
}
330
1F
100
AcDbEntity
  8
AM_5 寸法線
100
AcDbDimension
  2
*D13
 10
1014.899090416719
 20
1095.510876686616
 30
0.0
 11
1058.706212752633
 21
1110.368913344563
 31
0.0
 70
   160
 71
     5
 42
18.0
 73
     0
 74
     0
 75
     0
  3
SEISA$0
100
AcDbAlignedDimension
 13
1032.899090416719
 23
1066.286746686617
 33
0.0
 14
1014.899090416719
 24
1066.286746686617
 34
0.0
100
AcDbRotatedDimension
1001
ACAD
1000
DSTYLE
1002
{
1070
   279
1070
     2
1002
}
  0
DIMENSION
  5
5768
102
{ACAD_XDICTIONARY
360
5775
102
}
102
{ACAD_REACTORS
330
577F
102
}
330
1F
100
AcDbEntity
  8
AM_5 寸法線
100
AcDbDimension
  2
*D14
 10
1032.899090416719
 20
1095.510876686616
 30
0.0
 11
1132.899090416719
 21
1111.760876686616
 31
0.0
 70
    32
 71
     5
 42
200.0
 73
     0
 74
     0
 75
     0
  3
SEISA$0
100
AcDbAlignedDimension
 13
1232.899090416719
 23
1066.286746686617
 33
0.0
 14
1032.899090416719
 24
1066.286746686617
 34
0.0
100
AcDbRotatedDimension
  0
DIMENSION
  5
5780
330
1F
100
AcDbEntity
  8
AM_5 寸法線
100
AcDbDimension
  2
*D15
 10
814.8990904167192
 20
1095.510876686616
 30
0.0
 11
914.8990904167192
 21
1111.760876686616
 31
0.0
 70
    32
 71
     5
 42
200.0
 73
     0
 74
     0
 75
     0
  3
SEISA$0
100
AcDbAlignedDimension
 13
1014.899090416719
 23
1066.286746686617
 33
0.0
 14
814.8990904167192
 24
1066.286746686617
 34
0.0
100
AcDbRotatedDimension
  0
DIMENSION
  5
596B
102
{ACAD_XDICTIONARY
360
597A
102
}
102
{ACAD_REACTORS
330
5986
102
}
330
1F
100
AcDbEntity
  8
AM_5 寸法線
100
AcDbDimension
  2
*D16
 10
998.8990904167192
 20
781.2867466866163
 30
0.0
 11
953.6490904167196
 21
797.5367466866162
 31
0.0
 70
    32
 71
     5
 42
25.0
 73
     0
 74
     0
 75
     0
  3
SEISA$0
100
AcDbAlignedDimension
 13
1023.899090416719
 23
842.2867466866161
 33
0.0
 14
998.8990904167192
 24
842.2867466866161
 34
0.0
100
AcDbRotatedDimension
1001
ACAD_DSTYLE_DIMINSPECT
1070
   396
1000
100%
1070
   395
1000

1070
   394
1070
    33
1070
   393
1070
     0
1001
ACAD
1000
DSTYLE
1002
{
1070
   173
1070
     1
1070
   342
1005
0
1070
   343
1005
5BD4
1070
   344
1005
69
1002
}
  0
DIMENSION
  5
5987
102
{ACAD_XDICTIONARY
360
5996
102
}
102
{ACAD_REACTORS
330
59A2
102
}
330
1F
100
AcDbEntity
  8
AM_5 寸法線
100
AcDbDimension
  2
*D17
 10
1048.899090416719
 20
781.2867466866163
 30
0.0
 11
1094.149090416719
 21
797.5367466866162
 31
0.0
 70
    32
 71
     5
 42
25.0
 73
     0
 74
     0
 75
     0
  3
SEISA$0
100
AcDbAlignedDimension
 13
1023.899090416719
 23
842.2867466866161
 33
0.0
 14
1048.899090416719
 24
842.2867466866161
 34
0.0
100
AcDbRotatedDimension
1001
ACAD_DSTYLE_DIMINSPECT
1070
   396
1000
100%
1070
   395
1000

1070
   394
1070
    33
1070
   393
1070
     0
1001
ACAD
1000
DSTYLE
1002
{
1070
   173
1070
     1
1070
   342
1005
0
1070
   343
1005
5BD4
1070
   344
1005
69
1002
}
  0
DIMENSION
  5
59FA
102
{ACAD_XDICTIONARY
360
5A07
102
}
102
{ACAD_REACTORS
330
5A11
102
}
330
1F
100
AcDbEntity
  8
AM_5 寸法線
100
AcDbDimension
  2
*D18
 10
872.8990904167194
 20
741.2867466866162
 30
0.0
 11
1023.899090416719
 21
757.5367466866163
 31
0.0
 70
    32
 71
     5
 42
302.0
 73
     0
 74
     0
 75
     0
  3
SEISA$0
100
AcDbAlignedDimension
 13
1174.899090416719
 23
880.2867466866162
 33
0.0
 14
872.8990904167194
 24
880.2867466866162
 34
0.0
100
AcDbRotatedDimension
  0
DIMENSION
  5
5A2A
102
{ACAD_XDICTIONARY
360
5A37
102
}
102
{ACAD_REACTORS
330
5A41
102
}
330
1F
100
AcDbEntity
  8
AM_5 寸法線
100
AcDbDimension
  2
*D19
 10
1232.899090416719
 20
701.2867466866163
 30
0.0
 11
1023.899090416719
 21
717.5367466866163
 31
0.0
 70
    32
 71
     5
 42
418.0
 73
     0
 74
     0
 75
     0
  3
SEISA$0
100
AcDbAlignedDimension
 13
814.8990904167192
 23
928.2867466866163
 33
0.0
 14
1232.899090416719
 24
928.2867466866163
 34
0.0
100
AcDbRotatedDimension
  0
DIMENSION
  5
5DAE
102
{ACAD_XDICTIONARY
360
5DBB
102
}
102
{ACAD_REACTORS
330
5DC5
102
}
330
1F
100
AcDbEntity
  8
AM_5 寸法線
100
AcDbDimension
  2
*D21
 10
1307.899090416719
 20
921.2867466866162
 30
0.0
 11
1291.649090416719
 21
1066.286746686617
 31
0.0
 70
    32
  1
%%c<>
 71
     5
 42
290.0000000000002
 73
     0
 74
     0
 75
     0
  3
SEISA$0
100
AcDbAlignedDimension
 13
1192.899090416719
 23
1211.286746686617
 33
0.0
 14
1192.899090416719
 24
921.2867466866162
 34
0.0
 50
90.0
100
AcDbRotatedDimension
1001
ACAD_DSTYLE_DIMINSPECT
1070
   396
1000
100%
1070
   395
1000

1070
   394
1070
    33
1070
   393
1070
     0
1001
ACAD
1000
DSTYLE
1002
{
1070
   279
1070
     0
1002
}
  0
DIMENSION
  5
5DC8
102
{ACAD_XDICTIONARY
360
5DD5
102
}
102
{ACAD_REACTORS
330
5DDF
102
}
330
1F
100
AcDbEntity
  8
AM_5 寸法線
100
AcDbDimension
  2
*D22
 10
1347.89909041672
 20
880.2867466866162
 30
0.0
 11
1347.899090416719
 21
1066.286746686617
 31
0.0
 70
   160
  1
%%c<>
 71
     5
 42
372.0000000000002
 73
     0
 74
     0
 75
     0
  3
SEISA$0
100
AcDbAlignedDimension
 13
1174.899090416719
 23
1252.286746686616
 33
0.0
 14
1174.899090416719
 24
880.2867466866162
 34
0.0
 50
90.0
100
AcDbRotatedDimension
1001
ACAD_DSTYLE_DIMINSPECT
1070
   396
1000
100%
1070
   395
1000

1070
   394
1070
    33
1070
   393
1070
     0
1001
ACAD
1000
DSTYLE
1002
{
1070
   279
1070
     0
1002
}
  0
DIMENSION
  5
5DE0
102
{ACAD_XDICTIONARY
360
5DED
102
}
102
{ACAD_REACTORS
330
5DF7
102
}
330
1F
100
AcDbEntity
  8
AM_5 寸法線
100
AcDbDimension
  2
*D23
 10
1387.899090416719
 20
841.2867466866162
 30
0.0
 11
1387.899090416719
 21
1066.286746686617
 31
0.0
 70
   160
  1
%%c<>
 71
     5
 42
450.0000000000001
 73
     0
 74
     0
 75
     0
  3
SEISA$0
100
AcDbAlignedDimension
 13
1047.899090416719
 23
1291.286746686617
 33
0.0
 14
1047.899090416719
 24
841.2867466866162
 34
0.0
 50
90.0
100
AcDbRotatedDimension
1001
ACAD_DSTYLE_DIMINSPECT
1070
   396
1000
100%
1070
   395
1000

1070
   394
1070
    33
1070
   393
1070
     0
1001
ACAD
1000
DSTYLE
1002
{
1070
   279
1070
     0
1002
}
  0
INSERT
  5
60E1
330
1F
100
AcDbEntity
  8
AM_5 寸法線
100
AcDbBlockReference
  2
リーマボルト CCMH450 M20
 10
1048.899090416719
 20
1271.286746686616
 30
0.0
  0
TEXT
  5
7828
330
1F
100
AcDbEntity
  8
AM_6 文字
100
AcDbText
 10
1349.650473134093
 20
739.4780470806082
 30
0.0
 40
9.296799999999995
  1
　
 41
0.9
  7
SEISA
100
AcDbText
  0
TEXT
  5
7829
330
1F
100
AcDbEntity
  8
AM_6 文字
100
AcDbText
 10
1358.655087991236
 20
731.0274108272749
 30
0.0
 40
20.00020584
  1
 
 41
0.1
  7
SEISA
100
AcDbText
  0
TEXT
  5
782C
330
1F
100
AcDbEntity
  8
AM_6 文字
100
AcDbText
 10
1550.255108575236
 20
739.4840470806082
 30
0.0
 40
9.260799999999999
  1
 
 41
0.9
  7
SEISA
100
AcDbText
  0
TEXT
  5
782F
330
1F
100
AcDbEntity
  8
AM_6 文字
100
AcDbText
 10
1356.850473134093
 20
697.6940088806084
 30
0.0
 40
20.0
  1
 
 41
0.2
  7
SEISA
100
AcDbText
  0
TEXT
  5
7831
330
1F
100
AcDbEntity
  8
AM_6 文字
100
AcDbText
 10
1382.450473134093
 20
697.6940088806084
 30
0.0
 40
20.0
  1
        
 41
0.1
  7
SEISA
100
AcDbText
  0
TEXT
  5
7833
330
1F
100
AcDbEntity
  8
AM_6 文字
100
AcDbText
 10
1493.079044562664
 20
697.6940088806084
 30
0.0
 40
20.0
  1
　
 41
0.7
  7
SEISA
100
AcDbText
  0
TEXT
  5
7834
330
1F
100
AcDbEntity
  8
AM_6 文字
100
AcDbText
 10
1509.879044562664
 20
697.6940088806084
 30
0.0
 40
20.0
  1
　　
 41
0.9
  7
SEISA
100
AcDbText
  0
TEXT
  5
7835
330
1F
100
AcDbEntity
  8
AM_6 文字
100
AcDbText
 10
1553.079044562664
 20
697.6940088806084
 30
0.0
 40
20.0
  1
 
 41
0.6
  7
SEISA
100
AcDbText
  0
MTEXT
  5
7BFE
330
1F
100
AcDbEntity
  8
AM_6 文字
100
AcDbMText
 10
1263.048439464569
 20
799.4964941556822
 30
0.0
 40
17.5
 41
323.1029975230318
 46
34.91701995222089
 71
     1
 72
     5
  1
{\W0.6;TYPE:CCM450/CCMH450\PSHAFT DIA:MAX/MIN φ205/φ140}
  7
SEISA
 73
     1
 44
1.0
  0
DIMENSION
  5
7CDD
330
1F
100
AcDbEntity
  8
AM_5 寸法線
100
AcDbDimension
  2
*D26
 10
953.8990904167192
 20
1175.976284884577
 30
0.0
 11
925.8990904167196
 21
1192.226284884577
 31
0.0
 70
    32
 71
     5
 42
56.0
 73
     0
 74
     0
 75
     0
  3
SEISA$0
100
AcDbAlignedDimension
 13
897.8990904167194
 23
1211.786746686617
 33
0.0
 14
953.8990904167192
 24
1211.786746686617
 34
0.0
 50
0.0000000000001132
100
AcDbRotatedDimension
1001
ACAD_DSTYLE_DIMINSPECT
1070
   396
1000
100%
1070
   395
1000

1070
   394
1070
    33
1070
   393
1070
     0
  0
DIMENSION
  5
7CFE
102
{ACAD_XDICTIONARY
360
7D0D
102
}
102
{ACAD_REACTORS
330
7D0E
102
}
330
1F
100
AcDbEntity
  8
AM_5 寸法線
100
AcDbDimension
  2
*D27
 10
897.8990904167194
 20
1175.976284884576
 30
0.0
 11
876.6386864849982
 21
1174.781894500458
 31
0.0
 70
   160
 71
     5
 42
5.0
 73
     0
 74
     0
 75
     0
  3
SEISA$0
100
AcDbAlignedDimension
 13
892.8990904167195
 23
1211.286746686617
 33
0.0
 14
897.8990904167194
 24
1211.786746686617
 34
0.0
100
AcDbRotatedDimension
1001
ACAD
1000
DSTYLE
1002
{
1070
   279
1070
     1
1002
}
  0
DIMENSION
  5
7D2E
330
1F
100
AcDbEntity
  8
AM_5 寸法線
100
AcDbDimension
  2
*D28
 10
1014.899090416719
 20
1175.976284884576
 30
0.0
 11
984.3990904167194
 21
1192.226284884576
 31
0.0
 70
    32
 71
     5
 42
61.0
 73
     0
 74
     0
 75
     0
  3
SEISA$0
100
AcDbAlignedDimension
 13
953.8990904167192
 23
1209.786746686617
 33
0.0
 14
1014.899090416719
 24
1208.286746686616
 34
0.0
 50
0.0000000000001132
100
AcDbRotatedDimension
1001
ACAD_DSTYLE_DIMINSPECT
1070
   396
1000
100%
1070
   395
1000

1070
   394
1070
    33
1070
   393
1070
     0
  0
DIMENSION
  5
7EAF
330
1F
100
AcDbEntity
  8
AM_5 寸法線
100
AcDbDimension
  2
*D29
 10
814.8990904167192
 20
1286.286746686617
 30
0.0
 11
852.2740904167195
 21
1302.536746686616
 31
0.0
 70
    32
 71
     5
 42
6.000000000000111
 73
     0
 74
     0
 75
     0
  3
SEISA$0
100
AcDbAlignedDimension
 13
808.8990904167191
 23
1252.286746686616
 33
0.0
 14
814.8990904167192
 24
1204.286746686616
 34
0.0
100
AcDbRotatedDimension
1001
ACAD_DSTYLE_DIMINSPECT
1070
   396
1000
100%
1070
   395
1000

1070
   394
1070
    33
1070
   393
1070
     0
  0
INSERT
  5
80DB
330
1F
100
AcDbEntity
  8
AM_11 想像線
100
AcDbBlockReference
  2
ＧＣサイドカバ－Ｂ CCM450
 10
824.8990904167191
 20
1252.286746686616
 30
0.0
  0
INSERT
  5
8164
330
1F
100
AcDbEntity
  8
AM_11 想像線
100
AcDbBlockReference
  2
センタB CCMH450
 10
1014.899090416719
 20
1153.786746686616
 30
0.0
  0
ENDSEC
  0
SECTION
  2
OBJECTS
  0
DICTIONARY
  5
C
330
0
100
AcDbDictionary
281
     1
  3
ACAD_COLOR
350
C5
  3
ACAD_GROUP
350
D
  3
ACAD_LAYOUT
350
1A
  3
ACAD_MATERIAL
350
C4
  3
ACAD_MLEADERSTYLE
350
2D5
  3
ACAD_MLINESTYLE
350
17
  3
ACAD_PLOTSETTINGS
350
19
  3
ACAD_PLOTSTYLENAME
350
E
  3
ACAD_SCALELIST
350
2B3
  3
ACAD_TABLESTYLE
350
121
  3
ACAD_VISUALSTYLE
350
27F
  3
ACDB_RECOMPOSE_DATA
350
2F7
  3
AcDbVariableDictionary
350
34
  3
AcmDictionary
350
49
  3
AMG
350
2B
  3
AMGSNAPSETTINGS
350
1DE
  0
DICTIONARY
  5
BF
330
2
100
AcDbDictionary
280
     1
281
     1
  3
ACAD_LAYERSTATES
360
27A5
  3
AMLAYER_GROUPCOLORS
360
C0
  0
DICTIONARY
  5
29F6
330
10
100
AcDbDictionary
280
     1
281
     1
  3
ADSK_XREC_LAYER_RECONCILED
360
29F7
  0
DICTIONARY
  5
29F8
330
81
100
AcDbDictionary
280
     1
281
     1
  3
ADSK_XREC_LAYER_RECONCILED
360
29F9
  0
DICTIONARY
  5
82
330
1F
100
AcDbDictionary
280
     1
281
     1
  3
ACAD_SORTENTS
360
A41
  0
DICTIONARY
  5
4B73
330
4B3B
100
AcDbDictionary
280
     1
281
     1
  3
ACAD_SORTENTS
360
7304
  0
DICTIONARY
  5
4E0E
330
4D53
100
AcDbDictionary
280
     1
281
     1
  3
ACAD_SORTENTS
360
6D78
  0
DICTIONARY
  5
4FD0
330
4F2D
100
AcDbDictionary
280
     1
281
     1
  3
ACAD_SORTENTS
360
6E0E
  0
DICTIONARY
  5
50B3
330
5037
100
AcDbDictionary
280
     1
281
     1
  3
ACAD_SORTENTS
360
8122
  0
DICTIONARY
  5
537B
330
5268
100
AcDbDictionary
280
     1
281
     1
  3
ACAD_SORTENTS
360
80C6
  0
DICTIONARY
  5
553D
330
5496
100
AcDbDictionary
280
     1
281
     1
  3
ACAD_SORTENTS
360
6FFE
  0
DICTIONARY
  5
614E
330
60AE
100
AcDbDictionary
280
     1
281
     1
  3
ACAD_SORTENTS
360
6F89
  0
DICTIONARY
  5
7336
330
72E5
100
AcDbDictionary
280
     1
281
     1
  3
ACAD_SORTENTS
360
7337
  0
DICTIONARY
  5
5745
330
5736
100
AcDbDictionary
280
     1
281
     1
  3
ACAD_DIMASSOC
360
5751
  0
DICTIONARY
  5
5775
330
5768
100
AcDbDictionary
280
     1
281
     1
  3
ACAD_DIMASSOC
360
577F
  0
DICTIONARY
  5
597A
330
596B
100
AcDbDictionary
280
     1
281
     1
  3
ACAD_DIMASSOC
360
5986
  0
DICTIONARY
  5
5996
330
5987
100
AcDbDictionary
280
     1
281
     1
  3
ACAD_DIMASSOC
360
59A2
  0
DICTIONARY
  5
5A07
330
59FA
100
AcDbDictionary
280
     1
281
     1
  3
ACAD_DIMASSOC
360
5A11
  0
DICTIONARY
  5
5A37
330
5A2A
100
AcDbDictionary
280
     1
281
     1
  3
ACAD_DIMASSOC
360
5A41
  0
DICTIONARY
  5
5DBB
330
5DAE
100
AcDbDictionary
280
     1
281
     1
  3
ACAD_DIMASSOC
360
5DC5
  0
DICTIONARY
  5
5DD5
330
5DC8
100
AcDbDictionary
280
     1
281
     1
  3
ACAD_DIMASSOC
360
5DDF
  0
DICTIONARY
  5
5DED
330
5DE0
100
AcDbDictionary
280
     1
281
     1
  3
ACAD_DIMASSOC
360
5DF7
  0
DICTIONARY
  5
7D0D
330
7CFE
100
AcDbDictionary
280
     1
281
     1
  3
ACAD_DIMASSOC
360
7D0E
  0
DICTIONARY
  5
C5
102
{ACAD_REACTORS
330
C
102
}
330
C
100
AcDbDictionary
281
     1
  0
DICTIONARY
  5
D
102
{ACAD_REACTORS
330
C
102
}
330
C
100
AcDbDictionary
281
     1
  0
DICTIONARY
  5
1A
102
{ACAD_REACTORS
330
C
102
}
330
C
100
AcDbDictionary
281
     1
  3
Model
350
22
  3
レイアウト1
350
1E
  3
レイアウト2
350
26
  0
DICTIONARY
  5
C4
102
{ACAD_REACTORS
330
C
102
}
330
C
100
AcDbDictionary
281
     1
  3
ByBlock
350
27D
  3
ByLayer
350
27C
  3
Global
350
27E
  0
DICTIONARY
  5
2D5
102
{ACAD_REACTORS
330
C
102
}
330
C
100
AcDbDictionary
281
     1
  3
Standard
350
2D6
  0
DICTIONARY
  5
17
102
{ACAD_REACTORS
330
C
102
}
330
C
100
AcDbDictionary
281
     1
  3
Standard
350
18
  0
DICTIONARY
  5
19
102
{ACAD_REACTORS
330
C
102
}
330
C
100
AcDbDictionary
281
     1
  3
SEISA基本
350
1C7E
  0
ACDBDICTIONARYWDFLT
  5
E
102
{ACAD_REACTORS
330
C
102
}
330
C
100
AcDbDictionary
281
     1
  3
Normal
350
F
100
AcDbDictionaryWithDefault
340
F
  0
DICTIONARY
  5
2B3
102
{ACAD_REACTORS
330
C
102
}
330
C
100
AcDbDictionary
281
     1
  3
*A1
350
7BF3
  3
*A2
350
7BF4
  3
*A3
350
7BF5
  3
A0
350
2B4
  3
A1
350
2B5
  3
A2
350
2B6
  3
A3
350
2B7
  3
A4
350
2B8
  3
A5
350
2B9
  3
A6
350
2BA
  3
A7
350
2BB
  3
A8
350
2BC
  3
A9
350
2BD
  3
B0
350
2BE
  3
B1
350
2BF
  3
B2
350
2C0
  3
B3
350
2C1
  3
B4
350
2C2
  3
B5
350
2C3
  3
B6
350
2C4
  3
B7
350
2C5
  3
B8
350
2C6
  3
B9
350
2C7
  3
C0
350
2C8
  3
C1
350
2C9
  3
C2
350
2CA
  3
C3
350
2CB
  3
C4
350
2CC
  3
C5
350
2CD
  3
C6
350
2CE
  3
C7
350
2CF
  3
C8
350
2D0
  3
C9
350
2D1
  3
D0
350
2D2
  3
D1
350
2D3
  3
D2
350
2D4
  0
DICTIONARY
  5
121
102
{ACAD_REACTORS
330
C
102
}
330
C
100
AcDbDictionary
281
     1
  3
Standard
350
122
  0
DICTIONARY
  5
27F
102
{ACAD_REACTORS
330
C
102
}
330
C
100
AcDbDictionary
281
     1
  3
2dWireframe
350
285
  3
3D Hidden
350
287
  3
3dWireframe
350
286
  3
Basic
350
284
  3
Brighten
350
28B
  3
ColorChange
350
28F
  3
Conceptual
350
288
  3
Dim
350
28A
  3
Facepattern
350
28E
  3
Flat
350
280
  3
FlatWithEdges
350
281
  3
Gouraud
350
282
  3
GouraudWithEdges
350
283
  3
Linepattern
350
28D
  3
Realistic
350
289
  3
Thicken
350
28C
  0
XRECORD
  5
2F7
102
{ACAD_REACTORS
330
C
102
}
330
C
100
AcDbXrecord
280
     1
 90
        1
330
122
  0
DICTIONARY
  5
34
102
{ACAD_REACTORS
330
C
102
}
330
C
100
AcDbDictionary
281
     1
  3
CANNOSCALE
350
2FA
  3
CMLEADERSTYLE
350
2F8
  3
CTABLESTYLE
350
140
  3
DIMASSOC
350
AC
  3
INDEXCTL
350
35
  3
LAYEREVAL
350
6C89
  3
LAYERNOTIFY
350
6C8A
  3
LIGHTINGUNITS
350
2FB
  3
MSLTSCALE
350
2F9
  0
DICTIONARY
  5
49
102
{ACAD_REACTORS
330
C
102
}
330
C
100
AcDbDictionary
281
     1
  3
AcmBOM
350
161B
  3
AcmStdDictionary
350
4A
  3
AMDTSECTSYM_ARROWCOLOR
350
12B
  0
DICTIONARY
  5
2B
102
{ACAD_REACTORS
330
C
102
}
330
C
100
AcDbDictionary
281
     1
  0
DICTIONARY
  5
1DE
102
{ACAD_REACTORS
330
C
102
}
330
C
100
AcDbDictionary
281
     1
  0
DICTIONARY
  5
27A5
102
{ACAD_REACTORS
330
BF
102
}
330
BF
100
AcDbDictionary
281
     1
  0
DICTIONARY
  5
C0
102
{ACAD_REACTORS
330
BF
102
}
330
BF
100
AcDbDictionary
280
     1
281
     1
  0
XRECORD
  5
29F7
102
{ACAD_REACTORS
330
29F6
102
}
330
29F6
100
AcDbXrecord
280
     1
290
     1
  0
XRECORD
  5
29F9
102
{ACAD_REACTORS
330
29F8
102
}
330
29F8
100
AcDbXrecord
280
     1
290
     1
  0
SORTENTSTABLE
  5
A41
102
{ACAD_REACTORS
330
82
102
}
330
82
100
AcDbSortentsTable
330
1F
331
5DAE
  5
65BF
331
43DE
  5
43DE
331
5A2A
  5
64E0
331
5299
  5
5F0D
331
4F5B
  5
556F
331
5780
  5
6187
331
7829
  5
77F8
331
7BFE
  5
7BFE
331
5DE0
  5
65C6
331
43DF
  5
43DF
331
7CFE
  5
7CFE
331
7CDD
  5
7CDD
331
59FA
  5
61A9
331
43D1
  5
43D1
331
56E7
  5
6176
331
7D2E
  5
7D2E
331
7833
  5
7827
331
5768
  5
6182
331
5DC8
  5
65C3
331
4D8F
  5
54C9
331
782F
  5
7800
331
5987
  5
619D
331
44C5
  5
44C5
331
7834
  5
7828
331
43DC
  5
43DC
331
60E1
  5
6689
331
54C9
  5
5F39
331
43D7
  5
43D7
331
7835
  5
7829
331
43DD
  5
43DD
331
782C
  5
77FD
331
505E
  5
5570
331
7828
  5
77F7
331
5736
  5
617D
331
596B
  5
6198
331
7831
  5
7825
  0
SORTENTSTABLE
  5
7304
102
{ACAD_REACTORS
330
4B73
102
}
330
4B73
100
AcDbSortentsTable
330
4B3B
  0
SORTENTSTABLE
  5
6D78
102
{ACAD_REACTORS
330
4E0E
102
}
330
4E0E
100
AcDbSortentsTable
330
4D53
  0
SORTENTSTABLE
  5
6E0E
102
{ACAD_REACTORS
330
4FD0
102
}
330
4FD0
100
AcDbSortentsTable
330
4F2D
331
4F44
  5
4F48
331
4F33
  5
4F37
331
4FCF
  5
4F33
331
4FC9
  5
4FCE
331
4F4B
  5
4F4F
331
4F3E
  5
4F42
331
4F45
  5
4F49
331
4F34
  5
4F38
331
4F38
  5
4F3C
331
4F55
  5
4F59
331
4FCA
  5
4FCF
331
4F4C
  5
4F50
331
4F3F
  5
4F43
331
4F58
  5
4FC6
331
4F46
  5
4F4A
331
4F35
  5
4F39
331
4F39
  5
4F3D
331
4F56
  5
4F5A
331
4F4D
  5
4F51
331
4F40
  5
4F44
331
4F59
  5
4FC7
331
4F50
  5
4F55
331
4FC5
  5
4FC9
331
4F47
  5
4F4B
331
4F36
  5
4F3A
331
4F3A
  5
4F3E
331
4F57
  5
4FC5
331
4FCC
  5
4F30
331
4F4E
  5
4F52
331
4F41
  5
4F45
331
4F30
  5
4F34
331
4F5A
  5
4FC8
331
4F51
  5
4F56
331
4FC6
  5
4FCA
331
4F37
  5
4F3B
331
4F48
  5
4F4C
331
4F3B
  5
4F3F
331
4F42
  5
4F46
331
4FCD
  5
4F31
331
4F31
  5
4F35
331
4F4F
  5
4F53
331
4F52
  5
4F57
331
4FC7
  5
4FCC
331
4F49
  5
4F4D
331
4F3C
  5
4F40
331
4FCE
  5
4F32
331
4F32
  5
4F36
331
4F43
  5
4F47
331
4F53
  5
4F58
331
4FC8
  5
4FCD
331
4F4A
  5
4F4E
331
4F3D
  5
4F41
  0
SORTENTSTABLE
  5
8122
102
{ACAD_REACTORS
330
50B3
102
}
330
50B3
100
AcDbSortentsTable
330
5037
331
5048
  5
504A
331
7DBF
  5
503B
331
5050
  5
5052
331
7F87
  5
503A
331
503F
  5
5041
331
505A
  5
7F87
331
504F
  5
5051
331
5057
  5
5059
331
503E
  5
5040
331
5046
  5
5049
331
5059
  5
7DBF
331
504E
  5
5050
331
5056
  5
5058
331
503D
  5
503F
331
5058
  5
505A
331
504D
  5
504F
331
5055
  5
5057
331
503C
  5
503E
331
5044
  5
5048
331
504C
  5
504E
331
5054
  5
5056
331
503B
  5
503D
331
5043
  5
5046
331
504B
  5
504D
331
5053
  5
5055
331
503A
  5
503C
331
5042
  5
5044
331
504A
  5
504C
331
5052
  5
5054
331
5041
  5
5043
331
5049
  5
504B
331
5051
  5
5053
331
5040
  5
5042
  0
SORTENTSTABLE
  5
80C6
102
{ACAD_REACTORS
330
537B
102
}
330
537B
100
AcDbSortentsTable
330
5268
331
528E
  5
5290
331
527B
  5
527D
331
5288
  5
528A
331
5428
  5
526B
331
5275
  5
5277
331
526C
  5
526E
331
5295
  5
5297
331
5379
  5
537A
331
5282
  5
5284
331
528F
  5
5291
331
527C
  5
527E
331
5298
  5
5378
331
5289
  5
528B
331
5276
  5
5278
331
5296
  5
5298
331
526D
  5
526F
331
537A
  5
5428
331
5283
  5
5285
331
5270
  5
5272
331
5290
  5
5292
331
527D
  5
527F
331
528A
  5
528C
331
5277
  5
5279
331
5297
  5
5348
331
526E
  5
5270
331
5284
  5
5286
331
5271
  5
5273
331
5291
  5
5293
331
527E
  5
5280
331
528B
  5
528D
331
5278
  5
527A
331
526F
  5
5271
331
5285
  5
5287
331
5272
  5
5274
331
5292
  5
5294
331
527F
  5
5281
331
528C
  5
528E
331
5279
  5
527B
331
5286
  5
5288
331
5273
  5
5275
331
5293
  5
5295
331
5280
  5
5282
331
5348
  5
526C
331
528D
  5
528F
331
527A
  5
527C
331
5287
  5
5289
331
5274
  5
5276
331
526B
  5
526D
331
5294
  5
5296
331
5281
  5
5283
331
5378
  5
5379
  0
SORTENTSTABLE
  5
6FFE
102
{ACAD_REACTORS
330
553D
102
}
330
553D
100
AcDbSortentsTable
330
5496
331
54BA
  5
54BC
331
54AD
  5
54AF
331
549C
  5
549E
331
54A0
  5
54A2
331
54A7
  5
54A9
331
5538
  5
553A
331
54C5
  5
54C7
331
54B4
  5
54B6
331
54BB
  5
54BD
331
54AE
  5
54B0
331
549D
  5
549F
331
54A1
  5
54A3
331
54C6
  5
54C8
331
5539
  5
553B
331
54B5
  5
54B7
331
54A8
  5
54AA
331
54C0
  5
54C2
331
54AF
  5
54B1
331
54A2
  5
54A4
331
54BC
  5
54BE
331
549E
  5
54A0
331
54C8
  5
5539
331
54C7
  5
5538
331
54A9
  5
54AB
331
54B6
  5
54B8
331
553A
  5
553C
331
54C1
  5
54C3
331
54BD
  5
54BF
331
549F
  5
54A1
331
54B0
  5
54B2
331
54A3
  5
54A5
331
553B
  5
549A
331
54B7
  5
54B9
331
54AA
  5
54AC
331
54C2
  5
54C4
331
54BE
  5
54C0
331
54B1
  5
54B3
331
54A4
  5
54A6
331
54AB
  5
54AD
331
54B8
  5
54BA
331
549A
  5
549C
331
553C
  5
549B
331
54A5
  5
54A7
331
54C3
  5
54C5
331
54BF
  5
54C1
331
54B2
  5
54B4
331
54B9
  5
54BB
331
549B
  5
549D
331
54AC
  5
54AE
331
54C4
  5
54C6
331
54B3
  5
54B5
331
54A6
  5
54A8
  0
SORTENTSTABLE
  5
6F89
102
{ACAD_REACTORS
330
614E
102
}
330
614E
100
AcDbSortentsTable
330
60AE
  0
SORTENTSTABLE
  5
7337
102
{ACAD_REACTORS
330
7336
102
}
330
7336
100
AcDbSortentsTable
330
72E5
  0
DIMASSOC
  5
5751
102
{ACAD_REACTORS
330
5745
102
}
330
5745
100
AcDbDimAssoc
330
5736
 90
        1
 70
     0
 71
     0
  1
AcDbOsnapPointRef
 72
     1
331
505E
331
503B
 73
     2
 91
        0
 40
1.0
 10
0.0
 20
0.0
 30
2.000000000000000E+50
 75
     0
  0
DIMASSOC
  5
577F
102
{ACAD_REACTORS
330
5775
102
}
330
5775
100
AcDbDimAssoc
330
5768
 90
        3
 70
     0
 71
     0
  1
AcDbOsnapPointRef
 72
     6
331
505E
331
503A
 73
     2
 91
        0
 40
0.5000000000000006
 10
0.0
 20
0.0
 30
0.0
332
43D7
 74
     2
 92
        0
 75
     0
  1
AcDbOsnapPointRef
 72
     1
331
505E
331
503B
 73
     2
 91
        0
 40
1.0
 10
0.0
 20
0.0
 30
2.000000000000000E+50
 75
     0
  0
DIMASSOC
  5
5986
102
{ACAD_REACTORS
330
597A
102
}
330
597A
100
AcDbDimAssoc
330
596B
 90
        3
 70
     0
 71
     0
  1
AcDbOsnapPointRef
 72
    13
331
4F5B
331
4F57
 73
     2
 91
        0
 40
0.0
 10
0.0
 20
0.0
 30
2.000000000000000E+50
 75
     0
  1
AcDbOsnapPointRef
 72
    13
331
4F5B
331
4F30
 73
     2
 91
        0
 40
0.0
 10
0.0
 20
0.0
 30
2.000000000000000E+50
 75
     0
  0
DIMASSOC
  5
59A2
102
{ACAD_REACTORS
330
5996
102
}
330
5996
100
AcDbDimAssoc
330
5987
 90
        3
 70
     0
 71
     0
  1
AcDbOsnapPointRef
 72
    13
331
4F5B
331
4F57
 73
     2
 91
        0
 40
0.0
 10
0.0
 20
0.0
 30
2.000000000000000E+50
 75
     0
  1
AcDbOsnapPointRef
 72
    13
331
4D8F
331
4D59
 73
     2
 91
        0
 40
0.0
 10
0.0
 20
0.0
 30
2.000000000000000E+50
 75
     0
  0
DIMASSOC
  5
5A11
102
{ACAD_REACTORS
330
5A07
102
}
330
5A07
100
AcDbDimAssoc
330
59FA
 90
        2
 70
     0
 71
     0
  1
AcDbOsnapPointRef
 72
    13
331
5299
331
5428
 73
     2
 91
        0
 40
0.0
 10
0.0
 20
0.0
 30
2.000000000000000E+50
 75
     0
  0
DIMASSOC
  5
5A41
102
{ACAD_REACTORS
330
5A37
102
}
330
5A37
100
AcDbDimAssoc
330
5A2A
 90
        2
 70
     0
 71
     0
  1
AcDbOsnapPointRef
 72
    13
331
505E
331
503A
 73
     2
 91
        0
 40
0.0
 10
0.0
 20
0.0
 30
2.000000000000000E+50
 75
     0
  0
DIMASSOC
  5
5DC5
102
{ACAD_REACTORS
330
5DBB
102
}
330
5DBB
100
AcDbDimAssoc
330
5DAE
 90
        3
 70
     0
 71
     0
  1
AcDbOsnapPointRef
 72
    13
331
505E
331
5050
 73
     2
 91
        0
 40
0.0
 10
0.0
 20
0.0
 30
2.000000000000000E+50
 75
     0
  1
AcDbOsnapPointRef
 72
    13
331
505E
331
5043
 73
     2
 91
        0
 40
0.0
 10
0.0
 20
0.0
 30
2.000000000000000E+50
 75
     0
  0
DIMASSOC
  5
5DDF
102
{ACAD_REACTORS
330
5DD5
102
}
330
5DD5
100
AcDbDimAssoc
330
5DC8
 90
        3
 70
     0
 71
     0
  1
AcDbOsnapPointRef
 72
    13
331
54C9
331
54A7
 73
     2
 91
        0
 40
0.0
 10
0.0
 20
0.0
 30
2.000000000000000E+50
 75
     0
  1
AcDbOsnapPointRef
 72
    13
331
54C9
331
54C6
 73
     2
 91
        0
 40
0.0
 10
0.0
 20
0.0
 30
2.000000000000000E+50
 75
     0
  0
DIMASSOC
  5
5DF7
102
{ACAD_REACTORS
330
5DED
102
}
330
5DED
100
AcDbDimAssoc
330
5DE0
 90
        1
 70
     0
 71
     0
  1
AcDbOsnapPointRef
 72
     1
331
4D8F
331
4D7B
 73
     2
 91
        0
 40
1.0
 10
0.0
 20
0.0
 30
2.000000000000000E+50
 75
     0
  0
DIMASSOC
  5
7D0E
102
{ACAD_REACTORS
330
7D0D
102
}
330
7D0D
100
AcDbDimAssoc
330
7CFE
 90
        1
 70
     0
 71
     0
  1
AcDbOsnapPointRef
 72
     1
331
5299
331
5274
 73
     2
 91
        0
 40
1.0
 10
0.0
 20
0.0
 30
2.000000000000000E+50
 75
     0
  0
LAYOUT
  5
22
102
{ACAD_REACTORS
330
1A
102
}
330
1A
100
AcDbPlotSettings
  1

  2
KONICA MINOLTA 501 PCL
  4
A4
  6

 40
5.027082920074462
 41
5.027085781097412
 42
5.027069091796875
 43
5.027069091796875
 44
209.9733276367186
 45
296.9259948730469
 46
0.0
 47
10.66737603226477
 48
0.0
 49
0.0
140
0.0
141
0.0
142
1.0
143
3.068743116615595
 70
 11956
 72
     1
 73
     1
 74
     1
  7
SEISA.ctb
 75
     0
147
0.3258663113851196
 76
     0
 77
     2
 78
   300
148
-706.9747991501089
149
-697.8611816539718
100
AcDbLayout
  1
Model
 70
     1
 71
     0
 10
0.0
 20
0.0
 11
12.0
 21
9.0
 12
0.0
 22
0.0
 32
0.0
 14
0.0
 24
0.0
 34
0.0
 15
0.0
 25
0.0
 35
0.0
146
0.0
 13
0.0
 23
0.0
 33
0.0
 16
1.0
 26
0.0
 36
0.0
 17
0.0
 27
1.0
 37
0.0
 76
     0
330
1F
331
27A
1001
ACAD_PSEXT
1000
KONICA MINOLTA 501 PCL
1000
KONICA MINOLTA 501/421/361PCL
1000
IP_192.168.20.231_(1)
1000

1070
     0
  0
LAYOUT
  5
1E
102
{ACAD_REACTORS
330
1A
102
}
330
1A
100
AcDbPlotSettings
  1

  2
none_device
  4
Letter_(8.50_x_11.00_Inches)
  6

 40
6.349999904632567
 41
6.349999904632567
 42
6.350006103515625
 43
6.350006103515625
 44
215.8999938964844
 45
279.3999938964844
 46
0.0
 47
0.0
 48
0.0
 49
0.0
140
0.0
141
0.0
142
1.0
143
1.0
 70
 15024
 72
     1
 73
     1
 74
     5
  7
SEISA.ctb
 75
    16
147
1.0
 76
     0
 77
     2
 78
   300
148
0.0
149
0.0
100
AcDbLayout
  1
レイアウト1
 70
     1
 71
     1
 10
0.0
 20
0.0
 11
420.0
 21
297.0
 12
0.0
 22
0.0
 32
0.0
 14
1.000000000000000E+20
 24
1.000000000000000E+20
 34
1.000000000000000E+20
 15
-1.000000000000000E+20
 25
-1.000000000000000E+20
 35
-1.000000000000000E+20
146
0.0
 13
0.0
 23
0.0
 33
0.0
 16
1.0
 26
0.0
 36
0.0
 17
0.0
 27
1.0
 37
0.0
 76
     0
330
1B
  0
LAYOUT
  5
26
102
{ACAD_REACTORS
330
1A
102
}
330
1A
100
AcDbPlotSettings
  1

  2
none_device
  4
Letter_(8.50_x_11.00_Inches)
  6

 40
6.349999904632567
 41
6.349999904632567
 42
6.350006103515625
 43
6.350006103515625
 44
215.8999938964844
 45
279.3999938964844
 46
0.0
 47
0.0
 48
0.0
 49
0.0
140
0.0
141
0.0
142
1.0
143
1.0
 70
 15024
 72
     1
 73
     1
 74
     5
  7
SEISA.ctb
 75
    16
147
1.0
 76
     0
 77
     2
 78
   300
148
0.0
149
0.0
100
AcDbLayout
  1
レイアウト2
 70
     1
 71
     2
 10
0.0
 20
0.0
 11
12.0
 21
9.0
 12
0.0
 22
0.0
 32
0.0
 14
0.0
 24
0.0
 34
0.0
 15
0.0
 25
0.0
 35
0.0
146
0.0
 13
0.0
 23
0.0
 33
0.0
 16
1.0
 26
0.0
 36
0.0
 17
0.0
 27
1.0
 37
0.0
 76
     0
330
23
  0
MATERIAL
  5
27D
102
{ACAD_REACTORS
330
C4
102
}
330
C4
100
AcDbMaterial
  1
ByBlock
 73
     1
 78
     1
172
     1
176
     1
270
     1
274
     1
 94
       63
  0
MATERIAL
  5
27C
102
{ACAD_REACTORS
330
C4
102
}
330
C4
100
AcDbMaterial
  1
ByLayer
 73
     1
 78
     1
172
     1
176
     1
270
     1
274
     1
 94
       63
  0
MATERIAL
  5
27E
102
{ACAD_REACTORS
330
C4
102
}
330
C4
100
AcDbMaterial
  1
Global
 73
     1
 78
     1
172
     1
176
     1
270
     1
274
     1
 94
       63
  0
MLEADERSTYLE
  5
2D6
102
{ACAD_REACTORS
330
2D5
102
}
330
2D5
100
AcDbMLeaderStyle
170
     2
171
     1
172
     0
 90
        2
 40
0.0
 41
0.0
173
     1
 91
-1056964608
340
14
 92
       -2
290
     1
 42
2.0
291
     1
 43
0.36
  3
Standard
 44
4.0
300

342
11
174
     1
178
     6
175
     1
176
     0
 93
-1056964608
 45
4.0
292
     0
297
     0
 46
4.0
 94
-1056964608
 47
1.0
 49
1.0
140
1.0
293
     1
141
0.0
294
     1
177
     0
142
1.0
295
     0
296
     0
143
0.125
1001
ACAD_MLEADERVER
1070
     2
  0
MLINESTYLE
  5
18
102
{ACAD_REACTORS
330
17
102
}
330
17
100
AcDbMlineStyle
  2
STANDARD
 70
     0
  3

 62
   256
 51
90.0
 52
90.0
 71
     2
 49
0.5
 62
   256
  6
BYLAYER
 49
-0.5
 62
   256
  6
BYLAYER
  0
PLOTSETTINGS
  5
1C7E
102
{ACAD_REACTORS
330
19
102
}
330
19
100
AcDbPlotSettings
  1
SEISA基本
  2
none_device
  4
Letter_(8.50_x_11.00_Inches)
  6

 40
6.349999904632567
 41
6.349999904632567
 42
6.350006103515625
 43
6.350006103515625
 44
215.8999938964844
 45
279.3999938964844
 46
7.302498226506357
 47
0.0
 48
0.0
 49
0.0
140
0.0
141
0.0
142
1.0
143
1.574803221122935
 70
 11956
 72
     1
 73
     1
 74
     2
  7
SEISA.ctb
 75
     0
147
0.6349999711627054
 76
     0
 77
     2
 78
   300
148
0.0
149
0.0
1001
ACAD_PSEXT
1000
なし
1000
なし
1000
適切ではありません
1000
新しいプロッタ環境設定名を選択しない限り、レイアウトは印刷されません。
1070
     0
  0
ACDBPLACEHOLDER
  5
F
102
{ACAD_REACTORS
330
E
102
}
330
E
  0
SCALE
  5
7BF3
102
{ACAD_REACTORS
330
2B3
102
}
330
2B3
100
AcDbScale
 70
     0
300
1:3
140
1.0
141
3.0
290
     0
  0
SCALE
  5
7BF4
102
{ACAD_REACTORS
330
2B3
102
}
330
2B3
100
AcDbScale
 70
     0
300
1:2.5
140
1.0
141
2.5
290
     0
  0
SCALE
  5
7BF5
102
{ACAD_REACTORS
330
2B3
102
}
330
2B3
100
AcDbScale
 70
     0
300
1:1.5
140
1.0
141
1.5
290
     0
  0
SCALE
  5
2B4
102
{ACAD_REACTORS
330
2B3
102
}
330
2B3
100
AcDbScale
 70
     0
300
1:1
140
1.0
141
1.0
290
     1
  0
SCALE
  5
2B5
102
{ACAD_REACTORS
330
2B3
102
}
330
2B3
100
AcDbScale
 70
     0
300
1:2
140
1.0
141
2.0
290
     0
  0
SCALE
  5
2B6
102
{ACAD_REACTORS
330
2B3
102
}
330
2B3
100
AcDbScale
 70
     0
300
1:4
140
1.0
141
4.0
290
     0
  0
SCALE
  5
2B7
102
{ACAD_REACTORS
330
2B3
102
}
330
2B3
100
AcDbScale
 70
     0
300
1:5
140
1.0
141
5.0
290
     0
  0
SCALE
  5
2B8
102
{ACAD_REACTORS
330
2B3
102
}
330
2B3
100
AcDbScale
 70
     0
300
1:8
140
1.0
141
8.0
290
     0
  0
SCALE
  5
2B9
102
{ACAD_REACTORS
330
2B3
102
}
330
2B3
100
AcDbScale
 70
     0
300
1:10
140
1.0
141
10.0
290
     0
  0
SCALE
  5
2BA
102
{ACAD_REACTORS
330
2B3
102
}
330
2B3
100
AcDbScale
 70
     0
300
1:16
140
1.0
141
16.0
290
     0
  0
SCALE
  5
2BB
102
{ACAD_REACTORS
330
2B3
102
}
330
2B3
100
AcDbScale
 70
     0
300
1:20
140
1.0
141
20.0
290
     0
  0
SCALE
  5
2BC
102
{ACAD_REACTORS
330
2B3
102
}
330
2B3
100
AcDbScale
 70
     0
300
1:30
140
1.0
141
30.0
290
     0
  0
SCALE
  5
2BD
102
{ACAD_REACTORS
330
2B3
102
}
330
2B3
100
AcDbScale
 70
     0
300
1:40
140
1.0
141
40.0
290
     0
  0
SCALE
  5
2BE
102
{ACAD_REACTORS
330
2B3
102
}
330
2B3
100
AcDbScale
 70
     0
300
1:50
140
1.0
141
50.0
290
     0
  0
SCALE
  5
2BF
102
{ACAD_REACTORS
330
2B3
102
}
330
2B3
100
AcDbScale
 70
     0
300
1:100
140
1.0
141
100.0
290
     0
  0
SCALE
  5
2C0
102
{ACAD_REACTORS
330
2B3
102
}
330
2B3
100
AcDbScale
 70
     0
300
2:1
140
2.0
141
1.0
290
     0
  0
SCALE
  5
2C1
102
{ACAD_REACTORS
330
2B3
102
}
330
2B3
100
AcDbScale
 70
     0
300
4:1
140
4.0
141
1.0
290
     0
  0
SCALE
  5
2C2
102
{ACAD_REACTORS
330
2B3
102
}
330
2B3
100
AcDbScale
 70
     0
300
8:1
140
8.0
141
1.0
290
     0
  0
SCALE
  5
2C3
102
{ACAD_REACTORS
330
2B3
102
}
330
2B3
100
AcDbScale
 70
     0
300
10:1
140
10.0
141
1.0
290
     0
  0
SCALE
  5
2C4
102
{ACAD_REACTORS
330
2B3
102
}
330
2B3
100
AcDbScale
 70
     0
300
100:1
140
100.0
141
1.0
290
     0
  0
SCALE
  5
2C5
102
{ACAD_REACTORS
330
2B3
102
}
330
2B3
100
AcDbScale
 70
     0
300
1/128" = 1'-0"
140
0.0078125
141
12.0
290
     0
  0
SCALE
  5
2C6
102
{ACAD_REACTORS
330
2B3
102
}
330
2B3
100
AcDbScale
 70
     0
300
1/64" = 1'-0"
140
0.015625
141
12.0
290
     0
  0
SCALE
  5
2C7
102
{ACAD_REACTORS
330
2B3
102
}
330
2B3
100
AcDbScale
 70
     0
300
1/32" = 1'-0"
140
0.03125
141
12.0
290
     0
  0
SCALE
  5
2C8
102
{ACAD_REACTORS
330
2B3
102
}
330
2B3
100
AcDbScale
 70
     0
300
1/16" = 1'-0"
140
0.0625
141
12.0
290
     0
  0
SCALE
  5
2C9
102
{ACAD_REACTORS
330
2B3
102
}
330
2B3
100
AcDbScale
 70
     0
300
3/32" = 1'-0"
140
0.09375
141
12.0
290
     0
  0
SCALE
  5
2CA
102
{ACAD_REACTORS
330
2B3
102
}
330
2B3
100
AcDbScale
 70
     0
300
1/8" = 1'-0"
140
0.125
141
12.0
290
     0
  0
SCALE
  5
2CB
102
{ACAD_REACTORS
330
2B3
102
}
330
2B3
100
AcDbScale
 70
     0
300
3/16" = 1'-0"
140
0.1875
141
12.0
290
     0
  0
SCALE
  5
2CC
102
{ACAD_REACTORS
330
2B3
102
}
330
2B3
100
AcDbScale
 70
     0
300
1/4" = 1'-0"
140
0.25
141
12.0
290
     0
  0
SCALE
  5
2CD
102
{ACAD_REACTORS
330
2B3
102
}
330
2B3
100
AcDbScale
 70
     0
300
3/8" = 1'-0"
140
0.375
141
12.0
290
     0
  0
SCALE
  5
2CE
102
{ACAD_REACTORS
330
2B3
102
}
330
2B3
100
AcDbScale
 70
     0
300
1/2" = 1'-0"
140
0.5
141
12.0
290
     0
  0
SCALE
  5
2CF
102
{ACAD_REACTORS
330
2B3
102
}
330
2B3
100
AcDbScale
 70
     0
300
3/4" = 1'-0"
140
0.75
141
12.0
290
     0
  0
SCALE
  5
2D0
102
{ACAD_REACTORS
330
2B3
102
}
330
2B3
100
AcDbScale
 70
     0
300
1" = 1'-0"
140
1.0
141
12.0
290
     0
  0
SCALE
  5
2D1
102
{ACAD_REACTORS
330
2B3
102
}
330
2B3
100
AcDbScale
 70
     0
300
1-1/2" = 1'-0"
140
1.5
141
12.0
290
     0
  0
SCALE
  5
2D2
102
{ACAD_REACTORS
330
2B3
102
}
330
2B3
100
AcDbScale
 70
     0
300
3" = 1'-0"
140
3.0
141
12.0
290
     0
  0
SCALE
  5
2D3
102
{ACAD_REACTORS
330
2B3
102
}
330
2B3
100
AcDbScale
 70
     0
300
6" = 1'-0"
140
6.0
141
12.0
290
     0
  0
SCALE
  5
2D4
102
{ACAD_REACTORS
330
2B3
102
}
330
2B3
100
AcDbScale
 70
     0
300
1'-0" = 1'-0"
140
12.0
141
12.0
290
     0
  0
TABLESTYLE
  5
122
102
{ACAD_XDICTIONARY
360
2F5
102
}
102
{ACAD_REACTORS
330
121
102
}
330
121
100
AcDbTableStyle
  3
Standard
 70
     0
 71
     0
 40
1.5
 41
1.5
280
     0
281
     0
  7
STANDARD
140
4.5
170
     2
 62
     0
 63
     7
283
     0
 90
      512
 91
        0
  1

274
    -2
284
     1
 64
     0
275
    -2
285
     1
 65
     0
276
    -2
286
     1
 66
     0
277
    -2
287
     1
 67
     0
278
    -2
288
     1
 68
     0
279
    -2
289
     1
 69
     0
  7
STANDARD
140
6.0
170
     5
 62
     0
 63
     7
283
     0
 90
      512
 91
        0
  1

274
    -2
284
     1
 64
     0
275
    -2
285
     1
 65
     0
276
    -2
286
     1
 66
     0
277
    -2
287
     1
 67
     0
278
    -2
288
     1
 68
     0
279
    -2
289
     1
 69
     0
  7
STANDARD
140
4.5
170
     5
 62
     0
 63
     7
283
     0
 90
      512
 91
        0
  1

274
    -2
284
     1
 64
     0
275
    -2
285
     1
 65
     0
276
    -2
286
     1
 66
     0
277
    -2
287
     1
 67
     0
278
    -2
288
     1
 68
     0
279
    -2
289
     1
 69
     0
  0
VISUALSTYLE
  5
285
102
{ACAD_REACTORS
330
27F
102
}
330
27F
100
AcDbVisualStyle
  2
2dWireframe
 70
     4
 71
     0
 72
     2
 73
     0
 90
        0
 40
-0.6
 41
-30.0
 62
     5
 63
     7
421
 16777215
 74
     1
 91
        4
 64
     7
 65
   257
 75
     1
175
     1
 42
1.0
 92
        0
 66
   257
 43
1.0
 76
     1
 77
     6
 78
     2
 67
     7
 79
     5
170
     0
171
     0
290
     0
174
     0
 93
        1
 44
0.0
173
     0
291
     0
 45
0.0
  0
VISUALSTYLE
  5
287
102
{ACAD_REACTORS
330
27F
102
}
330
27F
100
AcDbVisualStyle
  2
3D Hidden
 70
     6
 71
     1
 72
     2
 73
     2
 90
        0
 40
-0.6
 41
-30.0
 62
     5
 63
     7
421
 16777215
 74
     2
 91
        2
 64
     7
 65
   257
 75
     2
175
     1
 42
40.0
 92
        0
 66
   257
 43
1.0
 76
     1
 77
     6
 78
     2
 67
     7
 79
     3
170
     0
171
     0
290
     0
174
     0
 93
        1
 44
0.0
173
     0
291
     0
 45
0.0
  0
VISUALSTYLE
  5
286
102
{ACAD_REACTORS
330
27F
102
}
330
27F
100
AcDbVisualStyle
  2
3dWireframe
 70
     5
 71
     0
 72
     2
 73
     0
 90
        0
 40
-0.6
 41
-30.0
 62
     5
 63
     7
421
 16777215
 74
     1
 91
        4
 64
     7
 65
   257
 75
     1
175
     1
 42
1.0
 92
        0
 66
   257
 43
1.0
 76
     1
 77
     6
 78
     2
 67
     7
 79
     5
170
     0
171
     0
290
     0
174
     0
 93
        1
 44
0.0
173
     0
291
     0
 45
0.0
  0
VISUALSTYLE
  5
284
102
{ACAD_REACTORS
330
27F
102
}
330
27F
100
AcDbVisualStyle
  2
Basic
 70
     7
 71
     1
 72
     0
 73
     1
 90
        0
 40
-0.6
 41
-30.0
 62
     5
 63
     7
421
 16777215
 74
     0
 91
        4
 64
     7
 65
   257
 75
     1
175
     1
 42
1.0
 92
        8
 66
     7
 43
1.0
 76
     1
 77
     6
 78
     2
 67
     7
 79
     5
170
     0
171
     0
290
     0
174
     0
 93
        1
 44
0.0
173
     0
291
     1
 45
0.0
  0
VISUALSTYLE
  5
28B
102
{ACAD_REACTORS
330
27F
102
}
330
27F
100
AcDbVisualStyle
  2
Brighten
 70
    12
 71
     2
 72
     2
 73
     0
 90
        0
 40
-0.6
 41
-30.0
 62
     5
 63
     7
421
 16777215
 74
     1
 91
        4
 64
     7
 65
   257
 75
     1
175
     1
 42
1.0
 92
        8
 66
     7
 43
1.0
 76
     1
 77
     6
 78
     2
 67
     7
 79
     5
170
     0
171
     0
290
     0
174
     0
 93
        1
 44
50.0
173
     0
291
     1
 45
0.0
  0
VISUALSTYLE
  5
28F
102
{ACAD_REACTORS
330
27F
102
}
330
27F
100
AcDbVisualStyle
  2
ColorChange
 70
    16
 71
     2
 72
     2
 73
     3
 90
        0
 40
-0.6
 41
-30.0
 62
     5
 63
     8
421
  8421504
 74
     1
 91
        4
 64
     7
 65
   257
 75
     1
175
     1
 42
1.0
 92
        8
 66
     8
424
  8421504
 43
1.0
 76
     1
 77
     6
 78
     2
 67
     7
 79
     5
170
     0
171
     0
290
     0
174
     0
 93
        1
 44
0.0
173
     0
291
     1
 45
0.0
  0
VISUALSTYLE
  5
288
102
{ACAD_REACTORS
330
27F
102
}
330
27F
100
AcDbVisualStyle
  2
Conceptual
 70
     9
 71
     3
 72
     2
 73
     0
 90
        0
 40
-0.6
 41
-30.0
 62
     5
 63
     7
421
 16777215
 74
     2
 91
        2
 64
     7
 65
   257
 75
     1
175
     1
 42
40.0
 92
        8
 66
     7
 43
1.0
 76
     1
 77
     6
 78
     2
 67
     7
 79
     3
170
     0
171
     0
290
     0
174
     0
 93
        1
 44
0.0
173
     0
291
     0
 45
0.0
  0
VISUALSTYLE
  5
28A
102
{ACAD_REACTORS
330
27F
102
}
330
27F
100
AcDbVisualStyle
  2
Dim
 70
    11
 71
     2
 72
     2
 73
     0
 90
        0
 40
-0.6
 41
-30.0
 62
     5
 63
     7
421
 16777215
 74
     1
 91
        4
 64
     7
 65
   257
 75
     1
175
     1
 42
1.0
 92
        8
 66
     7
 43
1.0
 76
     1
 77
     6
 78
     2
 67
     7
 79
     5
170
     0
171
     0
290
     0
174
     0
 93
        1
 44
-50.0
173
     0
291
     1
 45
0.0
  0
VISUALSTYLE
  5
28E
102
{ACAD_REACTORS
330
27F
102
}
330
27F
100
AcDbVisualStyle
  2
Facepattern
 70
    15
 71
     2
 72
     2
 73
     0
 90
        0
 40
-0.6
 41
-30.0
 62
     5
 63
     7
421
 16777215
 74
     1
 91
        4
 64
     7
 65
   257
 75
     1
175
     1
 42
1.0
 92
        8
 66
     7
 43
1.0
 76
     1
 77
     6
 78
     2
 67
     7
 79
     5
170
     0
171
     0
290
     0
174
     0
 93
        1
 44
0.0
173
     0
291
     1
 45
0.0
  0
VISUALSTYLE
  5
280
102
{ACAD_REACTORS
330
27F
102
}
330
27F
100
AcDbVisualStyle
  2
Flat
 70
     0
 71
     2
 72
     1
 73
     1
 90
        2
 40
-0.6
 41
30.0
 62
     5
 63
     7
421
 16777215
 74
     0
 91
        4
 64
     7
 65
   257
 75
     1
175
     1
 42
1.0
 92
        8
 66
     7
 43
1.0
 76
     1
 77
     6
 78
     2
 67
     7
 79
     5
170
     0
171
     0
290
     0
174
     0
 93
       13
 44
0.0
173
     0
291
     1
 45
0.0
  0
VISUALSTYLE
  5
281
102
{ACAD_REACTORS
330
27F
102
}
330
27F
100
AcDbVisualStyle
  2
FlatWithEdges
 70
     1
 71
     2
 72
     1
 73
     1
 90
        2
 40
-0.6
 41
30.0
 62
     5
 63
     7
421
 16777215
 74
     1
 91
        4
 64
     7
 65
   257
 75
     1
175
     1
 42
1.0
 92
        0
 66
   257
 43
1.0
 76
     1
 77
     6
 78
     2
 67
     7
 79
     5
170
     0
171
     0
290
     0
174
     0
 93
       13
 44
0.0
173
     0
291
     1
 45
0.0
  0
VISUALSTYLE
  5
282
102
{ACAD_REACTORS
330
27F
102
}
330
27F
100
AcDbVisualStyle
  2
Gouraud
 70
     2
 71
     2
 72
     2
 73
     1
 90
        2
 40
-0.6
 41
30.0
 62
     5
 63
     7
421
 16777215
 74
     0
 91
        4
 64
     7
 65
   257
 75
     1
175
     1
 42
1.0
 92
        0
 66
     7
 43
1.0
 76
     1
 77
     6
 78
     2
 67
     7
 79
     5
170
     0
171
     0
290
     0
174
     0
 93
       13
 44
0.0
173
     0
291
     1
 45
0.0
  0
VISUALSTYLE
  5
283
102
{ACAD_REACTORS
330
27F
102
}
330
27F
100
AcDbVisualStyle
  2
GouraudWithEdges
 70
     3
 71
     2
 72
     2
 73
     1
 90
        2
 40
-0.6
 41
30.0
 62
     5
 63
     7
421
 16777215
 74
     1
 91
        4
 64
     7
 65
   257
 75
     1
175
     1
 42
1.0
 92
        0
 66
   257
 43
1.0
 76
     1
 77
     6
 78
     2
 67
     7
 79
     5
170
     0
171
     0
290
     0
174
     0
 93
       13
 44
0.0
173
     0
291
     1
 45
0.0
  0
VISUALSTYLE
  5
28D
102
{ACAD_REACTORS
330
27F
102
}
330
27F
100
AcDbVisualStyle
  2
Linepattern
 70
    14
 71
     2
 72
     2
 73
     0
 90
        0
 40
-0.6
 41
-30.0
 62
     5
 63
     7
421
 16777215
 74
     1
 91
        4
 64
     7
 65
   257
 75
     7
175
     7
 42
1.0
 92
        8
 66
     7
 43
1.0
 76
     1
 77
     6
 78
     2
 67
     7
 79
     5
170
     0
171
     0
290
     0
174
     0
 93
        1
 44
0.0
173
     0
291
     1
 45
0.0
  0
VISUALSTYLE
  5
289
102
{ACAD_REACTORS
330
27F
102
}
330
27F
100
AcDbVisualStyle
  2
Realistic
 70
     8
 71
     2
 72
     2
 73
     0
 90
        0
 40
-0.6
 41
-30.0
 62
     5
 63
     7
421
 16777215
 74
     1
 91
        0
 64
     7
 65
   257
 75
     1
175
     1
 42
1.0
 92
        8
 66
     8
424
  7895160
 43
1.0
 76
     1
 77
     6
 78
     2
 67
     7
 79
     5
170
     0
171
     0
290
     0
174
     0
 93
       13
 44
0.0
173
     0
291
     0
 45
0.0
  0
VISUALSTYLE
  5
28C
102
{ACAD_REACTORS
330
27F
102
}
330
27F
100
AcDbVisualStyle
  2
Thicken
 70
    13
 71
     2
 72
     2
 73
     0
 90
        0
 40
-0.6
 41
-30.0
 62
     5
 63
     7
421
 16777215
 74
     1
 91
        4
 64
     7
 65
   257
 75
     1
175
     1
 42
1.0
 92
       12
 66
     7
 43
1.0
 76
     1
 77
     6
 78
     2
 67
     7
 79
     5
170
     0
171
     0
290
     0
174
     0
 93
        1
 44
0.0
173
     0
291
     1
 45
0.0
  0
DICTIONARYVAR
  5
2FA
102
{ACAD_REACTORS
330
34
102
}
330
34
100
DictionaryVariables
280
     0
  1
1:5
  0
DICTIONARYVAR
  5
2F8
102
{ACAD_REACTORS
330
34
102
}
330
34
100
DictionaryVariables
280
     0
  1
STANDARD
  0
DICTIONARYVAR
  5
140
102
{ACAD_REACTORS
330
34
102
}
330
34
100
DictionaryVariables
280
     0
  1
STANDARD
  0
DICTIONARYVAR
  5
AC
102
{ACAD_REACTORS
330
34
102
}
330
34
100
DictionaryVariables
280
     0
  1
1
  0
DICTIONARYVAR
  5
35
102
{ACAD_REACTORS
330
34
102
}
330
34
100
DictionaryVariables
280
     0
  1
1
  0
DICTIONARYVAR
  5
6C89
102
{ACAD_REACTORS
330
34
102
}
330
34
100
DictionaryVariables
280
     0
  1
1
  0
DICTIONARYVAR
  5
6C8A
102
{ACAD_REACTORS
330
34
102
}
330
34
100
DictionaryVariables
280
     0
  1
15
  0
DICTIONARYVAR
  5
2FB
102
{ACAD_REACTORS
330
34
102
}
330
34
100
DictionaryVariables
280
     0
  1
0
  0
DICTIONARYVAR
  5
2F9
102
{ACAD_REACTORS
330
34
102
}
330
34
100
DictionaryVariables
280
     0
  1
0
  0
DICTIONARY
  5
161B
102
{ACAD_REACTORS
330
49
102
}
330
49
100
AcDbDictionary
281
     1
  0
DICTIONARY
  5
4A
102
{ACAD_REACTORS
330
49
102
}
330
49
100
AcDbDictionary
281
     1
  0
XRECORD
  5
12B
102
{ACAD_REACTORS
330
49
102
}
330
49
100
AcDbXrecord
280
     1
 90
-1023410169
  0
DICTIONARY
  5
2F5
330
122
100
AcDbDictionary
280
     1
281
     1
  3
ACAD_ROUNDTRIP_2008_TABLESTYLE_CELLSTYLEMAP
360
8212
  0
CELLSTYLEMAP
  5
8212
102
{ACAD_REACTORS
330
2F5
102
}
330
2F5
100
AcDbCellStyleMap
 90
        3
300
CELLSTYLE
  1
TABLEFORMAT_BEGIN
 90
        5
170
     1
 91
        0
 92
    32768
 62
   257
 93
        1
300
CONTENTFORMAT
  1
CONTENTFORMAT_BEGIN
 90
        0
 91
        0
 92
      512
 93
        0
300

 40
0.0
140
1.0
 94
        5
 62
     0
340
11
144
6.0
309
CONTENTFORMAT_END
171
     1
301
MARGIN
  1
CELLMARGIN_BEGIN
 40
1.5
 40
1.5
 40
1.5
 40
1.5
 40
0.18
 40
0.18
309
CELLMARGIN_END
 94
        6
 95
        1
302
GRIDFORMAT
  1
GRIDFORMAT_BEGIN
 90
        0
 91
        1
 62
     0
 92
       -2
340
0
 93
        0
 40
0.045
309
GRIDFORMAT_END
 95
        2
302
GRIDFORMAT
  1
GRIDFORMAT_BEGIN
 90
        0
 91
        1
 62
     0
 92
       -2
340
0
 93
        0
 40
0.045
309
GRIDFORMAT_END
 95
        4
302
GRIDFORMAT
  1
GRIDFORMAT_BEGIN
 90
        0
 91
        1
 62
     0
 92
       -2
340
0
 93
        0
 40
0.045
309
GRIDFORMAT_END
 95
        8
302
GRIDFORMAT
  1
GRIDFORMAT_BEGIN
 90
        0
 91
        1
 62
     0
 92
       -2
340
0
 93
        0
 40
0.045
309
GRIDFORMAT_END
 95
       16
302
GRIDFORMAT
  1
GRIDFORMAT_BEGIN
 90
        0
 91
        1
 62
     0
 92
       -2
340
0
 93
        0
 40
0.045
309
GRIDFORMAT_END
 95
       32
302
GRIDFORMAT
  1
GRIDFORMAT_BEGIN
 90
        0
 91
        1
 62
     0
 92
       -2
340
0
 93
        0
 40
0.045
309
GRIDFORMAT_END
309
TABLEFORMAT_END
  1
CELLSTYLE_BEGIN
 90
        1
 91
        1
300
_TITLE
309
CELLSTYLE_END
300
CELLSTYLE
  1
TABLEFORMAT_BEGIN
 90
        5
170
     1
 91
        0
 92
        0
 62
   257
 93
        1
300
CONTENTFORMAT
  1
CONTENTFORMAT_BEGIN
 90
        0
 91
        0
 92
      512
 93
        0
300

 40
0.0
140
1.0
 94
        5
 62
     0
340
11
144
4.5
309
CONTENTFORMAT_END
171
     1
301
MARGIN
  1
CELLMARGIN_BEGIN
 40
1.5
 40
1.5
 40
1.5
 40
1.5
 40
0.18
 40
0.18
309
CELLMARGIN_END
 94
        6
 95
        1
302
GRIDFORMAT
  1
GRIDFORMAT_BEGIN
 90
        0
 91
        1
 62
     0
 92
       -2
340
0
 93
        0
 40
0.045
309
GRIDFORMAT_END
 95
        2
302
GRIDFORMAT
  1
GRIDFORMAT_BEGIN
 90
        0
 91
        1
 62
     0
 92
       -2
340
0
 93
        0
 40
0.045
309
GRIDFORMAT_END
 95
        4
302
GRIDFORMAT
  1
GRIDFORMAT_BEGIN
 90
        0
 91
        1
 62
     0
 92
       -2
340
0
 93
        0
 40
0.045
309
GRIDFORMAT_END
 95
        8
302
GRIDFORMAT
  1
GRIDFORMAT_BEGIN
 90
        0
 91
        1
 62
     0
 92
       -2
340
0
 93
        0
 40
0.045
309
GRIDFORMAT_END
 95
       16
302
GRIDFORMAT
  1
GRIDFORMAT_BEGIN
 90
        0
 91
        1
 62
     0
 92
       -2
340
0
 93
        0
 40
0.045
309
GRIDFORMAT_END
 95
       32
302
GRIDFORMAT
  1
GRIDFORMAT_BEGIN
 90
        0
 91
        1
 62
     0
 92
       -2
340
0
 93
        0
 40
0.045
309
GRIDFORMAT_END
309
TABLEFORMAT_END
  1
CELLSTYLE_BEGIN
 90
        2
 91
        1
300
_HEADER
309
CELLSTYLE_END
300
CELLSTYLE
  1
TABLEFORMAT_BEGIN
 90
        5
170
     1
 91
        0
 92
        0
 62
   257
 93
        1
300
CONTENTFORMAT
  1
CONTENTFORMAT_BEGIN
 90
        0
 91
        0
 92
      512
 93
        0
300

 40
0.0
140
1.0
 94
        2
 62
     0
340
11
144
4.5
309
CONTENTFORMAT_END
171
     1
301
MARGIN
  1
CELLMARGIN_BEGIN
 40
1.5
 40
1.5
 40
1.5
 40
1.5
 40
0.18
 40
0.18
309
CELLMARGIN_END
 94
        6
 95
        1
302
GRIDFORMAT
  1
GRIDFORMAT_BEGIN
 90
        0
 91
        1
 62
     0
 92
       -2
340
0
 93
        0
 40
0.045
309
GRIDFORMAT_END
 95
        2
302
GRIDFORMAT
  1
GRIDFORMAT_BEGIN
 90
        0
 91
        1
 62
     0
 92
       -2
340
0
 93
        0
 40
0.045
309
GRIDFORMAT_END
 95
        4
302
GRIDFORMAT
  1
GRIDFORMAT_BEGIN
 90
        0
 91
        1
 62
     0
 92
       -2
340
0
 93
        0
 40
0.045
309
GRIDFORMAT_END
 95
        8
302
GRIDFORMAT
  1
GRIDFORMAT_BEGIN
 90
        0
 91
        1
 62
     0
 92
       -2
340
0
 93
        0
 40
0.045
309
GRIDFORMAT_END
 95
       16
302
GRIDFORMAT
  1
GRIDFORMAT_BEGIN
 90
        0
 91
        1
 62
     0
 92
       -2
340
0
 93
        0
 40
0.045
309
GRIDFORMAT_END
 95
       32
302
GRIDFORMAT
  1
GRIDFORMAT_BEGIN
 90
        0
 91
        1
 62
     0
 92
       -2
340
0
 93
        0
 40
0.045
309
GRIDFORMAT_END
309
TABLEFORMAT_END
  1
CELLSTYLE_BEGIN
 90
        3
 91
        2
300
_DATA
309
CELLSTYLE_END
  0
ENDSEC
  0
EOF
