  0
SECTION
  2
HEADER
  9
$ACADVER
  1
AC1021
  9
$ACADMAINTVER
 70
    26
  9
$DWGCODEPAGE
  3
ANSI_932
  9
$LASTSAVEDBY
  1
Htm_Terada
  9
$CUSTOMPROPERTYTAG
  1
AmdtFileType
  9
$CUSTOMPROPERTY
  1
84
  9
$INSBASE
 10
0.0
 20
0.0
 30
0.0
  9
$EXTMIN
 10
3567.282666132145
 20
3796.463863198987
 30
0.0
  9
$EXTMAX
 10
7482.527170999879
 20
6188.210687573986
 30
0.0
  9
$LIMMIN
 10
0.0000047858463859
 20
0.0000092345516123
  9
$LIMMAX
 10
10500.00000478584
 20
7425.000009234553
  9
$ORTHOMODE
 70
     1
  9
$REGENMODE
 70
     1
  9
$FILLMODE
 70
     1
  9
$QTEXTMODE
 70
     0
  9
$MIRRTEXT
 70
     1
  9
$LTSCALE
 40
25.0
  9
$ATTMODE
 70
     1
  9
$TEXTSIZE
 40
25.0
  9
$TRACEWID
 40
1.0
  9
$TEXTSTYLE
  7
SEISA
  9
$CLAYER
  8
AM_0 外形線1
  9
$CELTYPE
  6
ByLayer
  9
$CECOLOR
 62
   256
  9
$CELTSCALE
 40
1.0
  9
$DISPSILH
 70
     0
  9
$DIMSCALE
 40
25.0
  9
$DIMASZ
 40
2.5
  9
$DIMEXO
 40
0.625
  9
$DIMDLI
 40
10.0
  9
$DIMRND
 40
0.0
  9
$DIMDLE
 40
0.0
  9
$DIMEXE
 40
0.625
  9
$DIMTP
 40
0.1
  9
$DIMTM
 40
0.1
  9
$DIMTXT
 40
3.5
  9
$DIMCEN
 40
0.0
  9
$DIMTSZ
 40
0.0
  9
$DIMTOL
 70
     0
  9
$DIMLIM
 70
     0
  9
$DIMTIH
 70
     0
  9
$DIMTOH
 70
     0
  9
$DIMSE1
 70
     0
  9
$DIMSE2
 70
     0
  9
$DIMTAD
 70
     3
  9
$DIMZIN
 70
     8
  9
$DIMBLK
  1
Open30
  9
$DIMASO
 70
     1
  9
$DIMSHO
 70
     1
  9
$DIMPOST
  1

  9
$DIMAPOST
  1
"
  9
$DIMALT
 70
     0
  9
$DIMALTD
 70
     2
  9
$DIMALTF
 40
0.0393701
  9
$DIMLFAC
 40
1.0
  9
$DIMTOFL
 70
     1
  9
$DIMTVP
 40
0.0
  9
$DIMTIX
 70
     0
  9
$DIMSOXD
 70
     0
  9
$DIMSAH
 70
     0
  9
$DIMBLK1
  1

  9
$DIMBLK2
  1

  9
$DIMSTYLE
  2
SEISA
  9
$DIMCLRD
 70
     3
  9
$DIMCLRE
 70
     3
  9
$DIMCLRT
 70
     3
  9
$DIMTFAC
 40
0.71
  9
$DIMGAP
 40
1.5
  9
$DIMJUST
 70
     0
  9
$DIMSD1
 70
     0
  9
$DIMSD2
 70
     0
  9
$DIMTOLJ
 70
     0
  9
$DIMTZIN
 70
     0
  9
$DIMALTZ
 70
     0
  9
$DIMALTTZ
 70
     8
  9
$DIMUPT
 70
     0
  9
$DIMDEC
 70
     2
  9
$DIMTDEC
 70
     2
  9
$DIMALTU
 70
     2
  9
$DIMALTTD
 70
     2
  9
$DIMTXSTY
  7
SEISA
  9
$DIMAUNIT
 70
     0
  9
$DIMADEC
 70
     0
  9
$DIMALTRND
 40
0.0
  9
$DIMAZIN
 70
     2
  9
$DIMDSEP
 70
    46
  9
$DIMATFIT
 70
     3
  9
$DIMFRAC
 70
     0
  9
$DIMLDRBLK
  1
Open30
  9
$DIMLUNIT
 70
     2
  9
$DIMLWD
 70
    -1
  9
$DIMLWE
 70
    -1
  9
$DIMTMOVE
 70
     0
  9
$DIMFXL
 40
1.0
  9
$DIMFXLON
 70
     0
  9
$DIMJOGANG
 40
0.7853981633974483
  9
$DIMTFILL
 70
     0
  9
$DIMTFILLCLR
 70
     0
  9
$DIMARCSYM
 70
     1
  9
$DIMLTYPE
  6

  9
$DIMLTEX1
  6

  9
$DIMLTEX2
  6

  9
$LUNITS
 70
     2
  9
$LUPREC
 70
     2
  9
$SKETCHINC
 40
1.0
  9
$FILLETRAD
 40
4.0
  9
$AUNITS
 70
     0
  9
$AUPREC
 70
     0
  9
$MENU
  1
.
  9
$ELEVATION
 40
0.0
  9
$PELEVATION
 40
0.0
  9
$THICKNESS
 40
0.0
  9
$LIMCHECK
 70
     0
  9
$CHAMFERA
 40
24.99999999999818
  9
$CHAMFERB
 40
24.99999999999909
  9
$CHAMFERC
 40
24.99999999999818
  9
$CHAMFERD
 40
0.7853981633974483
  9
$SKPOLY
 70
     0
  9
$TDCREATE
 40
2454942.492971655
  9
$TDUCREATE
 40
2454942.117971655
  9
$TDUPDATE
 40
2456479.696872824
  9
$TDUUPDATE
 40
2456479.321872824
  9
$TDINDWG
 40
0.2883946065
  9
$TDUSRTIMER
 40
0.2883940625
  9
$USRTIMER
 70
     1
  9
$ANGBASE
 50
0.0
  9
$ANGDIR
 70
     0
  9
$PDMODE
 70
     0
  9
$PDSIZE
 40
0.0
  9
$PLINEWID
 40
0.0
  9
$SPLFRAME
 70
     0
  9
$SPLINETYPE
 70
     6
  9
$SPLINESEGS
 70
     8
  9
$HANDSEED
  5
762D
  9
$SURFTAB1
 70
     6
  9
$SURFTAB2
 70
     6
  9
$SURFTYPE
 70
     6
  9
$SURFU
 70
     6
  9
$SURFV
 70
     6
  9
$UCSBASE
  2

  9
$UCSNAME
  2

  9
$UCSORG
 10
0.0
 20
0.0
 30
0.0
  9
$UCSXDIR
 10
1.0
 20
0.0
 30
0.0
  9
$UCSYDIR
 10
0.0
 20
1.0
 30
0.0
  9
$UCSORTHOREF
  2

  9
$UCSORTHOVIEW
 70
     0
  9
$UCSORGTOP
 10
0.0
 20
0.0
 30
0.0
  9
$UCSORGBOTTOM
 10
0.0
 20
0.0
 30
0.0
  9
$UCSORGLEFT
 10
0.0
 20
0.0
 30
0.0
  9
$UCSORGRIGHT
 10
0.0
 20
0.0
 30
0.0
  9
$UCSORGFRONT
 10
0.0
 20
0.0
 30
0.0
  9
$UCSORGBACK
 10
0.0
 20
0.0
 30
0.0
  9
$PUCSBASE
  2

  9
$PUCSNAME
  2

  9
$PUCSORG
 10
0.0
 20
0.0
 30
0.0
  9
$PUCSXDIR
 10
1.0
 20
0.0
 30
0.0
  9
$PUCSYDIR
 10
0.0
 20
1.0
 30
0.0
  9
$PUCSORTHOREF
  2

  9
$PUCSORTHOVIEW
 70
     0
  9
$PUCSORGTOP
 10
0.0
 20
0.0
 30
0.0
  9
$PUCSORGBOTTOM
 10
0.0
 20
0.0
 30
0.0
  9
$PUCSORGLEFT
 10
0.0
 20
0.0
 30
0.0
  9
$PUCSORGRIGHT
 10
0.0
 20
0.0
 30
0.0
  9
$PUCSORGFRONT
 10
0.0
 20
0.0
 30
0.0
  9
$PUCSORGBACK
 10
0.0
 20
0.0
 30
0.0
  9
$USERI1
 70
     0
  9
$USERI2
 70
     0
  9
$USERI3
 70
     0
  9
$USERI4
 70
     0
  9
$USERI5
 70
     0
  9
$USERR1
 40
0.0
  9
$USERR2
 40
0.0
  9
$USERR3
 40
0.0
  9
$USERR4
 40
0.0
  9
$USERR5
 40
0.0
  9
$WORLDVIEW
 70
     1
  9
$SHADEDGE
 70
     3
  9
$SHADEDIF
 70
    70
  9
$TILEMODE
 70
     1
  9
$MAXACTVP
 70
    64
  9
$PINSBASE
 10
0.0
 20
0.0
 30
0.0
  9
$PLIMCHECK
 70
     0
  9
$PEXTMIN
 10
1.000000000000000E+20
 20
1.000000000000000E+20
 30
1.000000000000000E+20
  9
$PEXTMAX
 10
-1.000000000000000E+20
 20
-1.000000000000000E+20
 30
-1.000000000000000E+20
  9
$PLIMMIN
 10
0.0
 20
0.0
  9
$PLIMMAX
 10
420.0
 20
297.0
  9
$UNITMODE
 70
     0
  9
$VISRETAIN
 70
     1
  9
$PLINEGEN
 70
     0
  9
$PSLTSCALE
 70
     1
  9
$TREEDEPTH
 70
  3020
  9
$CMLSTYLE
  2
Standard
  9
$CMLJUST
 70
     0
  9
$CMLSCALE
 40
20.0
  9
$PROXYGRAPHICS
 70
     1
  9
$MEASUREMENT
 70
     1
  9
$CELWEIGHT
370
    -1
  9
$ENDCAPS
280
     0
  9
$JOINSTYLE
280
     0
  9
$LWDISPLAY
290
     0
  9
$INSUNITS
 70
     4
  9
$HYPERLINKBASE
  1

  9
$STYLESHEET
  1
SEISA.CTB
  9
$XEDIT
290
     1
  9
$CEPSNTYPE
380
     0
  9
$PSTYLEMODE
290
     1
  9
$FINGERPRINTGUID
  2
{08EC75E8-F28C-4D38-81FE-D1F02BC7BA34}
  9
$VERSIONGUID
  2
{AE7CAA36-5559-4CCF-B330-955118252C0E}
  9
$EXTNAMES
290
     1
  9
$PSVPSCALE
 40
0.0
  9
$OLESTARTUP
290
     0
  9
$SORTENTS
280
   127
  9
$INDEXCTL
280
     0
  9
$HIDETEXT
280
     0
  9
$XCLIPFRAME
290
     0
  9
$HALOGAP
280
     0
  9
$OBSCOLOR
 70
   257
  9
$OBSLTYPE
280
     0
  9
$INTERSECTIONDISPLAY
280
     0
  9
$INTERSECTIONCOLOR
 70
   257
  9
$DIMASSOC
280
     2
  9
$PROJECTNAME
  1

  9
$CAMERADISPLAY
290
     0
  9
$LENSLENGTH
 40
50.0
  9
$CAMERAHEIGHT
 40
0.0
  9
$STEPSPERSEC
 40
2.0
  9
$STEPSIZE
 40
6.0
  9
$3DDWFPREC
 40
2.0
  9
$PSOLWIDTH
 40
0.25
  9
$PSOLHEIGHT
 40
4.0
  9
$LOFTANG1
 40
1.570796326794896
  9
$LOFTANG2
 40
1.570796326794896
  9
$LOFTMAG1
 40
0.0
  9
$LOFTMAG2
 40
0.0
  9
$LOFTPARAM
 70
     7
  9
$LOFTNORMALS
280
     1
  9
$LATITUDE
 40
37.795
  9
$LONGITUDE
 40
-122.394
  9
$NORTHDIRECTION
 40
0.0
  9
$TIMEZONE
 70
 -8000
  9
$LIGHTGLYPHDISPLAY
280
     1
  9
$TILEMODELIGHTSYNCH
280
     1
  9
$CMATERIAL
347
27C
  9
$SOLIDHIST
280
     1
  9
$SHOWHIST
280
     1
  9
$DWFFRAME
280
     2
  9
$DGNFRAME
280
     0
  9
$REALWORLDSCALE
290
     1
  9
$INTERFERECOLOR
 62
     1
  9
$INTERFEREOBJVS
345
289
  9
$INTERFEREVPVS
346
286
  9
$CSHADOW
280
     0
  9
$SHADOWPLANELOCATION
 40
0.0
  0
ENDSEC
  0
SECTION
  2
CLASSES
  0
CLASS
  1
ACDBDICTIONARYWDFLT
  2
AcDbDictionaryWithDefault
  3
ObjectDBX Classes
 90
        0
 91
        1
280
     0
281
     0
  0
CLASS
  1
AMGSETTINGSOBJ
  2
AmgSettingsObj
  3
"AcadM|Product Description: AutoCAD Mechanical|Company: Autodesk, Inc."
 90
     1024
 91
        2
280
     0
281
     0
  0
CLASS
  1
ACME_DOCUMENT
  2
AcMeDbDoc
  3
AcMeServices
 90
     1024
 91
        1
280
     0
281
     0
  0
CLASS
  1
ACMESCOPE
  2
AcMeScope
  3
AcMeServices
 90
     1024
 91
        1
280
     0
281
     0
  0
CLASS
  1
ACMECOMMANDHISTORY
  2
AcMeCommandHistory
  3
AcMeServices
 90
     1024
 91
        1
280
     0
281
     0
  0
CLASS
  1
DICTIONARYVAR
  2
AcDbDictionaryVar
  3
ObjectDBX Classes
 90
        0
 91
        9
280
     0
281
     0
  0
CLASS
  1
ACIMSYSVARMAN
  2
AcImSysVarManager
  3
AcMeServices
 90
     1024
 91
        5
280
     0
281
     0
  0
CLASS
  1
ACIMREALSYSVAR
  2
AcImRealSysVar
  3
AcMeServices
 90
     1024
 91
        1
280
     0
281
     0
  0
CLASS
  1
ACIMINTSYSVAR
  2
AcImIntSysVar
  3
AcMeServices
 90
     1024
 91
       27
280
     0
281
     0
  0
CLASS
  1
ACMEDRAWINGMAN
  2
AcMeDrawingMan
  3
AcMeServices
 90
     1024
 91
        1
280
     0
281
     0
  0
CLASS
  1
ACMEVIEW
  2
AcMeView
  3
AcMeServices
 90
     1024
 91
        1
280
     0
281
     0
  0
CLASS
  1
ACDBENTITYCACHE
  2
AcMeEntityCache
  3
AcMeServices
 90
     1024
 91
        1
280
     0
281
     0
  0
CLASS
  1
GSMANAGER
  2
AcMeGSManager
  3
AcMeServices
 90
     1024
 91
        1
280
     0
281
     0
  0
CLASS
  1
AMDTINTERNALREACTOR
  2
AmdtInternalReactor
  3
AcMeServices
 90
     1024
 91
        2
280
     0
281
     0
  0
CLASS
  1
ACMESTATEMGR
  2
AcMeStateMgr
  3
AcMeServices
 90
     1024
 91
        1
280
     0
281
     0
  0
CLASS
  1
ACGREFMASTER
  2
AcGrefMaster
  3
AcAttribServices
 90
     1024
 91
        1
280
     0
281
     0
  0
CLASS
  1
ACME_DATABASE
  2
AcMeDbDatabase
  3
AcMeServices
 90
     1024
 91
        1
280
     0
281
     0
  0
CLASS
  1
ACRFINSADJUSTERMGR
  2
AcRfInsAdjusterMgr
  3
AcMeServices
 90
     1024
 91
        1
280
     0
281
     0
  0
CLASS
  1
ACGREFACADMASTER
  2
AcGrefacadMaster
  3
AcGrefServices
 90
     1024
 91
        1
280
     0
281
     0
  0
CLASS
  1
AMIMASTER
  2
AmiMaster
  3
AmiServices
 90
     1024
 91
        1
280
     0
281
     0
  0
CLASS
  1
ACIMSTRSYSVAR
  2
AcImStrSysVar
  3
AcMeServices
 90
     1024
 91
        5
280
     0
281
     0
  0
CLASS
  1
ACMSTANDARDJIS
  2
AcmStandardJIS
  3
"Amdt_StdImp|Product Description: AutoCAD Mechanical|Company: Autodesk, Inc."
 90
     1024
 91
        0
280
     0
281
     0
  0
CLASS
  1
AMGOBJPROPCFG
  2
AmgObjPropCfg
  3
"AmgLay|Product Description: AutoCAD Mechanical|Company: Autodesk, Inc."
 90
     1025
 91
        1
280
     0
281
     0
  0
CLASS
  1
ACMSURFSTANDARDJIS
  2
AcmSurfTextStdJIS
  3
"Amdt_StdImp|Product Description: AutoCAD Mechanical|Company: Autodesk, Inc."
 90
     1024
 91
        0
280
     0
281
     0
  0
CLASS
  1
ACMFCFSTANDARDJIS
  2
AcmFCFStdJIS
  3
"Amdt_StdImp|Product Description: AutoCAD Mechanical|Company: Autodesk, Inc."
 90
     1024
 91
        0
280
     0
281
     0
  0
CLASS
  1
ACMWELDSTANDARDJIS
  2
AcmWeldingStdJIS
  3
"Amdt_StdImp|Product Description: AutoCAD Mechanical|Company: Autodesk, Inc."
 90
     1024
 91
        0
280
     0
281
     0
  0
CLASS
  1
ACMIDSTANDARDJIS
  2
AcmIdStdJIS
  3
"Amdt_StdImp|Product Description: AutoCAD Mechanical|Company: Autodesk, Inc."
 90
     1024
 91
        0
280
     0
281
     0
  0
CLASS
  1
ACMDATUMSTANDARDJIS
  2
AcmDatumStdJIS
  3
"Amdt_StdImp|Product Description: AutoCAD Mechanical|Company: Autodesk, Inc."
 90
     1024
 91
        0
280
     0
281
     0
  0
CLASS
  1
ACMBOMSTANDARDJIS
  2
AcmBOMStdJIS
  3
"Amdt_StdImp|Product Description: AutoCAD Mechanical|Company: Autodesk, Inc."
 90
     1024
 91
        0
280
     0
281
     0
  0
CLASS
  1
ACMDETAILSTANDARDJIS
  2
AmdtDetailSymStdJIS
  3
"Amdt_StdImp|Product Description: AutoCAD Mechanical|Company: Autodesk, Inc."
 90
     1024
 91
        0
280
     0
281
     0
  0
CLASS
  1
ACMSECTIONSTANDARDJIS
  2
AmdtSectionSymStdJIS
  3
"Amdt_StdImp|Product Description: AutoCAD Mechanical|Company: Autodesk, Inc."
 90
     1024
 91
        0
280
     0
281
     0
  0
CLASS
  1
ACMCENTERLINESTANDARDJIS
  2
AmdtCenterLineStdJIS
  3
"Amdt_StdImp|Product Description: AutoCAD Mechanical|Company: Autodesk, Inc."
 90
     1024
 91
        0
280
     0
281
     0
  0
CLASS
  1
ACMTHREADLINESTANDARDJIS
  2
AmdtThreadLineStdJIS
  3
"Amdt_StdImp|Product Description: AutoCAD Mechanical|Company: Autodesk, Inc."
 90
     1024
 91
        0
280
     0
281
     0
  0
CLASS
  1
ACAMGLAYSTD
  2
AcAmgLayStd
  3
"AmgLay|Product Description: AutoCAD Mechanical|Company: Autodesk, Inc."
 90
     1024
 91
        1
280
     0
281
     0
  0
CLASS
  1
ACAMGDIMSTD
  2
AcAmgDimStd
  3
"AmgDim|Product Description: AutoCAD Mechanical|Company: Autodesk, Inc."
 90
     1024
 91
        1
280
     0
281
     0
  0
CLASS
  1
ACAMGTITLESTD
  2
AcAmgTitleStd
  3
"AmgTitle|Product Description: AutoCAD Mechanical|Company: Autodesk, Inc."
 90
     4095
 91
        1
280
     0
281
     0
  0
CLASS
  1
ACMDATADICTIONARY
  2
AcmDataDictionary
  3
"AcmSymBB|Product Description: AutoCAD Mechanical|Company: Autodesk, Inc."
 90
     1024
 91
        1
280
     0
281
     0
  0
CLASS
  1
ACMDATAENTRYBLOCK
  2
AcmDataEntryBlock
  3
AcmSymBB|Product Description: AutoCAD Mechanical|Company: Autodesk, Inc.
 90
     1024
 91
        0
280
     0
281
     0
  0
CLASS
  1
LAYER_INDEX
  2
AcDbLayerIndex
  3
ObjectDBX Classes
 90
        0
 91
        0
280
     0
281
     0
  0
CLASS
  1
IDBUFFER
  2
AcDbIdBuffer
  3
ObjectDBX Classes
 90
        0
 91
        0
280
     0
281
     0
  0
CLASS
  1
ACMNOTESTANDARDJIS
  2
AmdtNoteStdJIS
  3
"Amdt_StdImp|Product Description: AutoCAD Mechanical|Company: Autodesk, Inc."
 90
     1024
 91
        0
280
     0
281
     0
  0
CLASS
  1
ACAMGHOLECHARTSTDJIS
  2
AcAmgHoleChartStdJIS
  3
AmgDim|Product Description: AutoCAD Mechanical|Company: Autodesk, Inc.
 90
     1024
 91
        0
280
     0
281
     0
  0
CLASS
  1
AM_DRAWING_MGR
  2
AcDmDwgMgr
  3
AcMechDwgViewMgmt
 90
     1024
 91
        1
280
     0
281
     0
  0
CLASS
  1
AM_DWG_DOCUMENT
  2
AcDmDwgDocument
  3
AcMechDwgViewMgmt
 90
     1024
 91
        1
280
     0
281
     0
  0
CLASS
  1
AM_DWG_SHEET
  2
AcDmSheet
  3
AcMechDwgViewMgmt
 90
     1024
 91
        2
280
     0
281
     0
  0
CLASS
  1
AM_VIEWDIMPARMAP
  2
AcDmViewDimParMap
  3
AcMechDwgViewMgmt
 90
     1024
 91
        2
280
     0
281
     0
  0
CLASS
  1
AM_DWGMGR_NAME
  2
AcDmDwgMgrName
  3
AcMechDwgViewMgmt
 90
     1024
 91
        1
280
     0
281
     0
  0
CLASS
  1
AMDTMENUSTATEMGR
  2
AmdtMenuStateMgr
  3
McadcomServices
 90
     1024
 91
        1
280
     0
281
     0
  0
CLASS
  1
AMDTMCOMMENUSTATE
  2
AmdtMcomMenuState
  3
McadcomServices
 90
     1024
 91
        1
280
     0
281
     0
  0
CLASS
  1
MAPIAMMOUDLE
  2
MApiAmModule
  3
MApiAmServices
 90
     1024
 91
        1
280
     0
281
     0
  0
CLASS
  1
AMDTADMENUSTATE
  2
AmdtAdMenuState
  3
DesignerServices
 90
     1024
 91
        1
280
     0
281
     0
  0
CLASS
  1
ADAPPL
  2
AcAdAppl
  3
DesignerServices
 90
     1024
 91
        1
280
     0
281
     0
  0
CLASS
  1
DEPMGR
  2
AcAdDepMgr
  3
DesignerServices
 90
     1024
 91
        1
280
     0
281
     0
  0
CLASS
  1
PARAMMGR
  2
AcAdParamMgr
  3
DesignerServices
 90
     1024
 91
        1
280
     0
281
     0
  0
CLASS
  1
PARAMSCOPE
  2
AcAdParamScope
  3
DesignerServices
 90
     1024
 91
        1
280
     0
281
     0
  0
CLASS
  1
NAMEDAPPL
  2
AcAdNamedAppl
  3
DesignerServices
 90
     1024
 91
        1
280
     0
281
     0
  0
CLASS
  1
AMDTDMMENUSTATE
  2
AmdtDmMenuState
  3
AcMechDwgViewMgmt
 90
     1024
 91
        1
280
     0
281
     0
  0
CLASS
  1
AMDTAMMENUSTATE
  2
AmdtAmMenuState
  3
DesignerAssemblies
 90
     1024
 91
        1
280
     0
281
     0
  0
CLASS
  1
ACAMPROJECT
  2
AcAmProject
  3
DesignerAssemblies
 90
     1024
 91
        1
280
     0
281
     0
  0
CLASS
  1
ACAMGRCOMPDEF
  2
AcAmGrCompDef
  3
DesignerAssemblies
 90
     1024
 91
        1
280
     0
281
     0
  0
CLASS
  1
ACCMCONTEXT
  2
AcCmContext
  3
DesignerAssemblies
 90
     1024
 91
        1
280
     0
281
     0
  0
CLASS
  1
ACAMCOMPDEF
  2
AcAmCompDef
  3
DesignerAssemblies
 90
     1024
 91
        1
280
     0
281
     0
  0
CLASS
  1
ACAMCOMPDEFMGR
  2
AcAmCompDefMgr
  3
DesignerAssemblies
 90
     1024
 91
        1
280
     0
281
     0
  0
CLASS
  1
AMCONTEXTMGR
  2
AcAmContextMgr
  3
DesignerAssemblies
 90
     1024
 91
        1
280
     0
281
     0
  0
CLASS
  1
ACAMCONTEXTMODELER
  2
AcAmContextModeler
  3
DesignerAssemblies
 90
     1024
 91
        1
280
     0
281
     0
  0
CLASS
  1
CATALOGSTATE
  2
AcAmCatalogState
  3
DesignerAssemblies
 90
     1024
 91
        1
280
     0
281
     0
  0
CLASS
  1
ACAMGRCOMPDEFSET
  2
AcAmGrCompDefSet
  3
DesignerAssemblies
 90
     1024
 91
        1
280
     0
281
     0
  0
CLASS
  1
AMDTBROWSERDBTAB
  2
AmdtBrowserDbTab
  3
McadcomServices
 90
     1024
 91
        1
280
     0
281
     0
  0
CLASS
  1
CBROWSERAPPOBJECT
  2
CBrowserAppObject
  3
McadcomServices
 90
     1024
 91
        3
280
     0
281
     0
  0
CLASS
  1
DM_PLACEHOLDER
  2
AcDmSelsetPlaceholder
  3
AcMechDwgViewMgmt
 90
     1024
 91
        1
280
     0
281
     0
  0
CLASS
  1
TABLESTYLE
  2
AcDbTableStyle
  3
ObjectDBX Classes
 90
     4095
 91
        1
280
     0
281
     0
  0
CLASS
  1
VAACXREFPANELOBJECT
  2
VaAcXREFPanelObject
  3
VAAC_ADDIN
 90
        0
 91
        0
280
     0
281
     0
  0
CLASS
  1
VAACIMAGEINVENTORY
  2
VaAcImageInventory
  3
VAAC_ADDIN
 90
        0
 91
        0
280
     0
281
     0
  0
CLASS
  1
AMDTNOTETEMPLATEDB
  2
AmdtNoteTemplateDB
  3
AcmSymBB|Product Description: AutoCAD Mechanical|Company: Autodesk, Inc.
 90
     1024
 91
        6
280
     0
281
     0
  0
CLASS
  1
ACAMGFILTERDAT
  2
AcAmgFilterDat
  3
"AcadM|Product Description: AutoCAD Mechanical|Company: Autodesk, Inc."
 90
     1024
 91
        0
280
     0
281
     0
  0
CLASS
  1
MATERIAL
  2
AcDbMaterial
  3
ObjectDBX Classes
 90
     1153
 91
        3
280
     0
281
     0
  0
CLASS
  1
VISUALSTYLE
  2
AcDbVisualStyle
  3
ObjectDBX Classes
 90
     4095
 91
       16
280
     0
281
     0
  0
CLASS
  1
ACRFATTGENMGR
  2
AcRfAttGeneralMgr
  3
AcAttribServices
 90
     1024
 91
        0
280
     0
281
     0
  0
CLASS
  1
ACRFOBJATTMGR
  2
AcRfObjAttGroupMgr
  3
AcAttribServices
 90
     1024
 91
        0
280
     0
281
     0
  0
CLASS
  1
ACRFMCADAPIATTHOLDER
  2
AcRfMCADAPIAttHolder
  3
AcAttribServices
 90
     1024
 91
        0
280
     0
281
     0
  0
CLASS
  1
AMDTSYSATTR
  2
AmdtSystemAttribute
  3
AcAttribServices
 90
     1024
 91
        0
280
     0
281
     0
  0
CLASS
  1
ACMTAPERSTANDARDJIS
  2
AcmTaperStdJIS
  3
"Amdt_StdImp|Product Description: AutoCAD Mechanical|Company: Autodesk, Inc."
 90
     1024
 91
        0
280
     0
281
     0
  0
CLASS
  1
CAMSSTRUCTBTNSTATE
  2
StructBtnState
  3
DesignerAssemblies
 90
     1024
 91
        0
280
     0
281
     0
  0
CLASS
  1
SCALE
  2
AcDbScale
  3
ObjectDBX Classes
 90
     1153
 91
       39
280
     0
281
     0
  0
CLASS
  1
MLEADERSTYLE
  2
AcDbMLeaderStyle
  3
ACDB_MLEADERSTYLE_CLASS
 90
     4095
 91
        1
280
     0
281
     0
  0
CLASS
  1
ACMANOOTATIONVIEWSTANDARDJIS
  2
AmdtAnViewStdJIS
  3
"Amdt_StdImp|Product Description: AutoCAD Mechanical|Company: Autodesk, Inc."
 90
     1024
 91
        0
280
     0
281
     0
  0
CLASS
  1
ACMSURFSTANDARDJIS2003
  2
AcmSurfTextStdJIS2003
  3
"Amdt_StdImp|Product Description: AutoCAD Mechanical|Company: Autodesk, Inc."
 90
     1024
 91
        0
280
     0
281
     0
  0
CLASS
  1
CELLSTYLEMAP
  2
AcDbCellStyleMap
  3
ObjectDBX Classes
 90
     1152
 91
        2
280
     0
281
     0
  0
CLASS
  1
ACMFCFSTANDARDJIS98
  2
AcmFCFStdJIS98
  3
"Amdt_StdImp|Product Description: AutoCAD Mechanical|Company: Autodesk, Inc."
 90
     1024
 91
        0
280
     0
281
     0
  0
CLASS
  1
SORTENTSTABLE
  2
AcDbSortentsTable
  3
ObjectDBX Classes
 90
        0
 91
       12
280
     0
281
     0
  0
CLASS
  1
DIMASSOC
  2
AcDbDimAssoc
  3
"AcDbDimAssoc|Product Desc:     AcDim ARX App For Dimension|Company:          Autodesk, Inc.|WEB Address:      www.autodesk.com"
 90
        0
 91
       10
280
     0
281
     0
  0
CLASS
  1
STDPART2D
  2
AmgStdPart
  3
AmgStdPart|Product Description: AutoCAD Mechanical|Company: Autodesk, Inc.
 90
     4095
 91
        0
280
     0
281
     1
  0
CLASS
  1
ACMDATAENTRYPART
  2
AcmDataEntryPart
  3
AcmSymBB|Product Description: AutoCAD Mechanical|Company: Autodesk, Inc.
 90
     1024
 91
        0
280
     0
281
     0
  0
CLASS
  1
ACMPARTREF
  2
AcmPartRef
  3
"AcmSymBB|Product Description: AutoCAD Mechanical|Company: Autodesk, Inc."
 90
     4095
 91
        0
280
     0
281
     1
  0
CLASS
  1
ACDBSTDPARTRES_LINE
  2
AcDbStdPartRes_Line
  3
AmgStdPart|Product Description: AutoCAD Mechanical|Company: Autodesk, Inc.
 90
     1024
 91
        0
280
     0
281
     0
  0
CLASS
  1
ACMBOM
  2
AcmBom
  3
"AcmSymBB|Product Description: AutoCAD Mechanical|Company: Autodesk, Inc."
 90
     1024
 91
        0
280
     0
281
     0
  0
CLASS
  1
AMDTFORMULAUPDATEDISPATCHER
  2
AmdtFormulaUpdateDispatcher
  3
AcMeServices
 90
     1024
 91
        0
280
     0
281
     0
  0
CLASS
  1
ACMBOMROW
  2
AcmBomRow
  3
"AcmSymBB|Product Description: AutoCAD Mechanical|Company: Autodesk, Inc."
 90
     1024
 91
        0
280
     0
281
     0
  0
CLASS
  1
ACMPARTLIST
  2
AcmPartList
  3
"AcmSymBB|Product Description: AutoCAD Mechanical|Company: Autodesk, Inc."
 90
     4095
 91
        0
280
     0
281
     1
  0
CLASS
  1
ACDBLINERES
  2
AcDbLineRes
  3
AcGrefServices
 90
     1024
 91
        0
280
     0
281
     0
  0
CLASS
  1
ACRFINSADJ
  2
AcRfInsAdjuster
  3
AcMeServices
 90
     1024
 91
        0
280
     0
281
     0
  0
CLASS
  1
ACMSTANDARDISO
  2
AcmStandardISO
  3
"Amdt_StdImp|Product Description: AutoCAD Mechanical|Company: Autodesk, Inc."
 90
     1024
 91
        1
280
     0
281
     0
  0
CLASS
  1
AMDTEDGESTANDARDISO13715
  2
AmdtEdgeStdISO13715
  3
"Amdt_StdImp|Product Description: AutoCAD Mechanical|Company: Autodesk, Inc."
 90
     1024
 91
        1
280
     0
281
     0
  0
CLASS
  1
ACMSURFSTANDARDISO2002
  2
AcmSurfTextStdISO2002
  3
"Amdt_StdImp|Product Description: AutoCAD Mechanical|Company: Autodesk, Inc."
 90
     1024
 91
        1
280
     0
281
     0
  0
CLASS
  1
ACMFCFSTANDARDISO
  2
AcmFCFStdISO
  3
"Amdt_StdImp|Product Description: AutoCAD Mechanical|Company: Autodesk, Inc."
 90
     1024
 91
        1
280
     0
281
     0
  0
CLASS
  1
ACMWELDSTANDARDISO
  2
AcmWeldingStdISO
  3
"Amdt_StdImp|Product Description: AutoCAD Mechanical|Company: Autodesk, Inc."
 90
     1024
 91
        1
280
     0
281
     0
  0
CLASS
  1
ACMIDSTANDARDISO
  2
AcmIdStdISO
  3
"Amdt_StdImp|Product Description: AutoCAD Mechanical|Company: Autodesk, Inc."
 90
     1024
 91
        1
280
     0
281
     0
  0
CLASS
  1
ACMDATUMSTANDARDISO
  2
AcmDatumStdISO
  3
"Amdt_StdImp|Product Description: AutoCAD Mechanical|Company: Autodesk, Inc."
 90
     1024
 91
        1
280
     0
281
     0
  0
CLASS
  1
ACMBOMSTANDARDISO
  2
AcmBOMStdISO
  3
"Amdt_StdImp|Product Description: AutoCAD Mechanical|Company: Autodesk, Inc."
 90
     1024
 91
        1
280
     0
281
     0
  0
CLASS
  1
ACMDETAILSTANDARDISO
  2
AmdtDetailSymStdISO
  3
"Amdt_StdImp|Product Description: AutoCAD Mechanical|Company: Autodesk, Inc."
 90
     1024
 91
        1
280
     0
281
     0
  0
CLASS
  1
ACMSECTIONSTANDARDISO2001
  2
AmdtSectionSymStdISO2001
  3
"Amdt_StdImp|Product Description: AutoCAD Mechanical|Company: Autodesk, Inc."
 90
     1024
 91
        1
280
     0
281
     0
  0
CLASS
  1
ACMCENTERLINESTANDARDISO
  2
AmdtCenterLineStdISO
  3
"Amdt_StdImp|Product Description: AutoCAD Mechanical|Company: Autodesk, Inc."
 90
     1024
 91
        1
280
     0
281
     0
  0
CLASS
  1
ACMTHREADLINESTANDARDISO
  2
AmdtThreadLineStdISO
  3
"Amdt_StdImp|Product Description: AutoCAD Mechanical|Company: Autodesk, Inc."
 90
     1024
 91
        1
280
     0
281
     0
  0
CLASS
  1
ACMNOTESTANDARDISO
  2
AmdtNoteStdISO
  3
"Amdt_StdImp|Product Description: AutoCAD Mechanical|Company: Autodesk, Inc."
 90
     1024
 91
        1
280
     0
281
     0
  0
CLASS
  1
ACMTAPERSTANDARDISO
  2
AcmTaperStdISO
  3
"Amdt_StdImp|Product Description: AutoCAD Mechanical|Company: Autodesk, Inc."
 90
     1024
 91
        1
280
     0
281
     0
  0
CLASS
  1
ACMANOOTATIONVIEWSTANDARDISO
  2
AmdtAnViewStdISO
  3
"Amdt_StdImp|Product Description: AutoCAD Mechanical|Company: Autodesk, Inc."
 90
     1024
 91
        1
280
     0
281
     0
  0
CLASS
  1
ACAMGHOLECHARTSTDISO
  2
AcAmgHoleChartStdISO
  3
AmgDim|Product Description: AutoCAD Mechanical|Company: Autodesk, Inc.
 90
     1024
 91
        1
280
     0
281
     0
  0
CLASS
  1
EXACXREFPANELOBJECT
  2
ExAcXREFPanelObject
  3
EXAC_ESW
 90
     1025
 91
        0
280
     0
281
     0
  0
CLASS
  1
NPOCOLLECTION
  2
AcDbImpNonPersistentObjectsCollection
  3
ObjectDBX Classes
 90
     1153
 91
        0
280
     0
281
     0
  0
CLASS
  1
ACDBSTDPARTRES_ARC
  2
AcDbStdPartRes_Arc
  3
AmgStdPart|Product Description: AutoCAD Mechanical|Company: Autodesk, Inc.
 90
     1024
 91
        0
280
     0
281
     0
  0
CLASS
  1
AMDTNOTE
  2
AmdtNote
  3
"AcmSymBB|Product Description: AutoCAD Mechanical|Company: Autodesk, Inc."
 90
     4095
 91
        0
280
     0
281
     1
  0
CLASS
  1
PLOTSETTINGS
  2
AcDbPlotSettings
  3
ObjectDBX Classes
 90
        0
 91
        1
280
     0
281
     0
  0
CLASS
  1
ACMSTANDARDANSI
  2
AcmStandardANSI
  3
"Amdt_StdImp|Product Description: AutoCAD Mechanical|Company: Autodesk, Inc."
 90
     1024
 91
        0
280
     0
281
     0
  0
CLASS
  1
ACMSURFSTANDARDANSI
  2
AcmSurfTextStdANSI
  3
"Amdt_StdImp|Product Description: AutoCAD Mechanical|Company: Autodesk, Inc."
 90
     1024
 91
        0
280
     0
281
     0
  0
CLASS
  1
ACMFCFSTANDARDANSI
  2
AcmFCFStdANSI
  3
"Amdt_StdImp|Product Description: AutoCAD Mechanical|Company: Autodesk, Inc."
 90
     1024
 91
        0
280
     0
281
     0
  0
CLASS
  1
ACMWELDSTANDARDANSI
  2
AcmWeldingStdANSI
  3
"Amdt_StdImp|Product Description: AutoCAD Mechanical|Company: Autodesk, Inc."
 90
     1024
 91
        0
280
     0
281
     0
  0
CLASS
  1
ACMIDSTANDARDANSI
  2
AcmIdStdANSI
  3
"Amdt_StdImp|Product Description: AutoCAD Mechanical|Company: Autodesk, Inc."
 90
     1024
 91
        0
280
     0
281
     0
  0
CLASS
  1
ACMDATUMSTANDARDANSI
  2
AcmDatumStdANSI
  3
"Amdt_StdImp|Product Description: AutoCAD Mechanical|Company: Autodesk, Inc."
 90
     1024
 91
        0
280
     0
281
     0
  0
CLASS
  1
ACMBOMSTANDARDANSI
  2
AcmBOMStdANSI
  3
"Amdt_StdImp|Product Description: AutoCAD Mechanical|Company: Autodesk, Inc."
 90
     1024
 91
        0
280
     0
281
     0
  0
CLASS
  1
ACMDETAILSTANDARDANSI
  2
AmdtDetailSymStdANSI
  3
"Amdt_StdImp|Product Description: AutoCAD Mechanical|Company: Autodesk, Inc."
 90
     1024
 91
        0
280
     0
281
     0
  0
CLASS
  1
ACMSECTIONSTANDARDANSI
  2
AmdtSectionSymStdANSI
  3
"Amdt_StdImp|Product Description: AutoCAD Mechanical|Company: Autodesk, Inc."
 90
     1024
 91
        0
280
     0
281
     0
  0
CLASS
  1
ACMCENTERLINESTANDARDANSI
  2
AmdtCenterLineStdANSI
  3
"Amdt_StdImp|Product Description: AutoCAD Mechanical|Company: Autodesk, Inc."
 90
     1024
 91
        0
280
     0
281
     0
  0
CLASS
  1
ACMTHREADLINESTANDARDANSI
  2
AmdtThreadLineStdANSI
  3
"Amdt_StdImp|Product Description: AutoCAD Mechanical|Company: Autodesk, Inc."
 90
     1024
 91
        0
280
     0
281
     0
  0
CLASS
  1
ACMNOTESTANDARDANSI
  2
AmdtNoteStdANSI
  3
"Amdt_StdImp|Product Description: AutoCAD Mechanical|Company: Autodesk, Inc."
 90
     1024
 91
        0
280
     0
281
     0
  0
CLASS
  1
ACMTAPERSTANDARDANSI
  2
AcmTaperStdANSI
  3
"Amdt_StdImp|Product Description: AutoCAD Mechanical|Company: Autodesk, Inc."
 90
     1024
 91
        0
280
     0
281
     0
  0
CLASS
  1
ACMANOOTATIONVIEWSTANDARDANSI
  2
AmdtAnViewStdANSI
  3
"Amdt_StdImp|Product Description: AutoCAD Mechanical|Company: Autodesk, Inc."
 90
     1024
 91
        0
280
     0
281
     0
  0
CLASS
  1
ACAMGHOLECHARTSTDANSI
  2
AcAmgHoleChartStdANSI
  3
AmgDim|Product Description: AutoCAD Mechanical|Company: Autodesk, Inc.
 90
     1024
 91
        0
280
     0
281
     0
  0
CLASS
  1
ACMSTANDARDBSI
  2
AcmStandardBSI
  3
"Amdt_StdImp|Product Description: AutoCAD Mechanical|Company: Autodesk, Inc."
 90
     1024
 91
        0
280
     0
281
     0
  0
CLASS
  1
ACMSURFSTANDARDBSI2002
  2
AcmSurfTextStdBSI2002
  3
"Amdt_StdImp|Product Description: AutoCAD Mechanical|Company: Autodesk, Inc."
 90
     1024
 91
        0
280
     0
281
     0
  0
CLASS
  1
ACMFCFSTANDARDBSI
  2
AcmFCFStdBSI
  3
"Amdt_StdImp|Product Description: AutoCAD Mechanical|Company: Autodesk, Inc."
 90
     1024
 91
        0
280
     0
281
     0
  0
CLASS
  1
ACMWELDSTANDARDBSI
  2
AcmWeldingStdBSI
  3
"Amdt_StdImp|Product Description: AutoCAD Mechanical|Company: Autodesk, Inc."
 90
     1024
 91
        0
280
     0
281
     0
  0
CLASS
  1
ACMIDSTANDARDBSI
  2
AcmIdStdBSI
  3
"Amdt_StdImp|Product Description: AutoCAD Mechanical|Company: Autodesk, Inc."
 90
     1024
 91
        0
280
     0
281
     0
  0
CLASS
  1
ACMDATUMSTANDARDBSI
  2
AcmDatumStdBSI
  3
"Amdt_StdImp|Product Description: AutoCAD Mechanical|Company: Autodesk, Inc."
 90
     1024
 91
        0
280
     0
281
     0
  0
CLASS
  1
ACMBOMSTANDARDBSI
  2
AcmBOMStdBSI
  3
"Amdt_StdImp|Product Description: AutoCAD Mechanical|Company: Autodesk, Inc."
 90
     1024
 91
        0
280
     0
281
     0
  0
CLASS
  1
ACMDETAILSTANDARDBSI
  2
AmdtDetailSymStdBSI
  3
"Amdt_StdImp|Product Description: AutoCAD Mechanical|Company: Autodesk, Inc."
 90
     1024
 91
        0
280
     0
281
     0
  0
CLASS
  1
ACMSECTIONSTANDARDBSI2001
  2
AmdtSectionSymStdBSI2001
  3
"Amdt_StdImp|Product Description: AutoCAD Mechanical|Company: Autodesk, Inc."
 90
     1024
 91
        0
280
     0
281
     0
  0
CLASS
  1
ACMCENTERLINESTANDARDBSI
  2
AmdtCenterLineStdBSI
  3
"Amdt_StdImp|Product Description: AutoCAD Mechanical|Company: Autodesk, Inc."
 90
     1024
 91
        0
280
     0
281
     0
  0
CLASS
  1
ACMTHREADLINESTANDARDBSI
  2
AmdtThreadLineStdBSI
  3
"Amdt_StdImp|Product Description: AutoCAD Mechanical|Company: Autodesk, Inc."
 90
     1024
 91
        0
280
     0
281
     0
  0
CLASS
  1
ACMNOTESTANDARDBSI
  2
AmdtNoteStdBSI
  3
"Amdt_StdImp|Product Description: AutoCAD Mechanical|Company: Autodesk, Inc."
 90
     1024
 91
        0
280
     0
281
     0
  0
CLASS
  1
ACMTAPERSTANDARDBSI
  2
AcmTaperStdBSI
  3
"Amdt_StdImp|Product Description: AutoCAD Mechanical|Company: Autodesk, Inc."
 90
     1024
 91
        0
280
     0
281
     0
  0
CLASS
  1
ACMANOOTATIONVIEWSTANDARDBSI
  2
AmdtAnViewStdBSI
  3
"Amdt_StdImp|Product Description: AutoCAD Mechanical|Company: Autodesk, Inc."
 90
     1024
 91
        0
280
     0
281
     0
  0
CLASS
  1
ACAMGHOLECHARTSTDBSI
  2
AcAmgHoleChartStdBSI
  3
AmgDim|Product Description: AutoCAD Mechanical|Company: Autodesk, Inc.
 90
     1024
 91
        0
280
     0
281
     0
  0
CLASS
  1
AMDTEDGESTANDARDJIS
  2
AmdtEdgeStdJIS
  3
"Amdt_StdImp|Product Description: AutoCAD Mechanical|Company: Autodesk, Inc."
 90
     1024
 91
        0
280
     0
281
     0
  0
CLASS
  1
ACDB_BLKREFOBJECTCONTEXTDATA_CLASS
  2
AcDbBlkRefObjectContextData
  3
ObjectDBX Classes
 90
     1153
 91
        0
280
     0
281
     0
  0
CLASS
  1
ACMSURFSYM
  2
AcmSurfaceTexture
  3
"AcmSymBB|Product Description: AutoCAD Mechanical|Company: Autodesk, Inc."
 90
     4095
 91
        0
280
     0
281
     1
  0
CLASS
  1
ACDBDIMENSIONRES
  2
AcDbDimensionRes
  3
AcmSymBB|Product Description: AutoCAD Mechanical|Company: Autodesk, Inc.
 90
     1024
 91
        0
280
     0
281
     0
  0
CLASS
  1
ACDBCIRCARCRES
  2
AcDbCircArcRes
  3
AcGrefServices
 90
     1024
 91
        0
280
     0
281
     0
  0
CLASS
  1
AMDTACMWBLOCKBOMENTITY
  2
AmdtAcmWblockBomEntity
  3
"AcmSymBB|Product Description: AutoCAD Mechanical|Company: Autodesk, Inc."
 90
     4095
 91
        0
280
     0
281
     1
  0
CLASS
  1
ACDBOPPOLYLINERES
  2
AcDbOpPolylineRes
  3
AcGrefServices
 90
     1024
 91
        0
280
     0
281
     0
  0
CLASS
  1
ACMDIMBREAKPERSREACTOR
  2
AcmDimBreakPersReactor
  3
AmgDim|Product Description: AutoCAD Mechanical|Company: Autodesk, Inc.
 90
     4095
 91
        0
280
     0
281
     0
  0
CLASS
  1
ACMPICKOBJ
  2
AcmPickEnt
  3
"AcmSymBB|Product Description: AutoCAD Mechanical|Company: Autodesk, Inc."
 90
     1024
 91
        0
280
     0
281
     1
  0
CLASS
  1
ACDBELLIPSERES
  2
AcDbEllipseRes
  3
AcGrefServices
 90
     1024
 91
        0
280
     0
281
     0
  0
CLASS
  1
ACMBALLOON
  2
AcmBalloon
  3
"AcmSymBB|Product Description: AutoCAD Mechanical|Company: Autodesk, Inc."
 90
     4095
 91
        0
280
     0
281
     1
  0
ENDSEC
  0
SECTION
  2
TABLES
  0
TABLE
  2
VPORT
  5
8
330
0
100
AcDbSymbolTable
 70
     1
  0
VPORT
  5
27A
330
8
100
AcDbSymbolTableRecord
100
AcDbViewportTableRecord
  2
*Active
 70
     0
 10
0.0
 20
0.0
 11
1.0
 21
1.0
 12
5962.438068077655
 22
4992.467336056736
 13
0.0
 23
0.0
 14
62.5
 24
62.5
 15
250.0
 25
250.0
 16
0.0
 26
0.0
 36
1.0
 17
0.0
 27
0.0
 37
0.0
 40
3063.657761372201
 41
1.571428571428571
 42
50.0
 43
0.0
 44
0.0
 50
0.0
 51
0.0
 71
    16
 72
 20000
 73
     1
 74
     3
 75
     0
 76
     0
 77
     0
 78
     0
281
     0
 65
     0
110
0.0
120
0.0
130
0.0
111
1.0
121
0.0
131
0.0
112
0.0
122
1.0
132
0.0
 79
     0
146
0.0
348
285
 60
     3
 61
     5
292
     1
282
     0
141
0.0
142
0.0
 63
   250
421
  3355443
  0
ENDTAB
  0
TABLE
  2
LTYPE
  5
5
330
0
100
AcDbSymbolTable
 70
    22
  0
LTYPE
  5
14
330
5
100
AcDbSymbolTableRecord
100
AcDbLinetypeTableRecord
  2
ByBlock
 70
     0
  3

 72
    65
 73
     0
 40
0.0
  0
LTYPE
  5
15
330
5
100
AcDbSymbolTableRecord
100
AcDbLinetypeTableRecord
  2
ByLayer
 70
     0
  3

 72
    65
 73
     0
 40
0.0
  0
LTYPE
  5
16
330
5
100
AcDbSymbolTableRecord
100
AcDbLinetypeTableRecord
  2
Continuous
 70
     0
  3
Solid line
 72
    65
 73
     0
 40
0.0
  0
LTYPE
  5
4D
330
5
100
AcDbSymbolTableRecord
100
AcDbLinetypeTableRecord
  2
AM_ISO02W050
 70
     0
  3
__ __ __ __ __ __ __ __ __ __ __ __ __ __ __
 72
    65
 73
     2
 40
7.5
 49
6.0
 74
     0
 49
-1.5
 74
     0
  0
LTYPE
  5
4E
330
5
100
AcDbSymbolTableRecord
100
AcDbLinetypeTableRecord
  2
AM_ISO08W050
 70
     0
  3
____ . ____ . ____ . ____ . ____ . ____ . ____
 72
    65
 73
     4
 40
18.0
 49
12.0
 74
     0
 49
-1.5
 74
     0
 49
3.0
 74
     0
 49
-1.5
 74
     0
  0
LTYPE
  5
4F
330
5
100
AcDbSymbolTableRecord
100
AcDbLinetypeTableRecord
  2
AM_ISO09W050
 70
     0
  3
_____ . . _____ . . _____ . . ____ .. ____
 72
    65
 73
     6
 40
22.5
 49
12.0
 74
     0
 49
-1.5
 74
     0
 49
3.0
 74
     0
 49
-1.5
 74
     0
 49
3.0
 74
     0
 49
-1.5
 74
     0
  0
LTYPE
  5
50
330
5
100
AcDbSymbolTableRecord
100
AcDbLinetypeTableRecord
  2
Amconstr
 70
     0
  3
_______________________
 72
    65
 73
     2
 40
9999.0
 49
9999.0
 74
     0
 49
0.0
 74
     0
  0
LTYPE
  5
51
330
5
100
AcDbSymbolTableRecord
100
AcDbLinetypeTableRecord
  2
AM_ISO08W050x2
 70
     0
  3
__ . __ . __ . __ . __ . __
 72
    65
 73
     4
 40
9.0
 49
6.0
 74
     0
 49
-0.75
 74
     0
 49
1.5
 74
     0
 49
-0.75
 74
     0
  0
LTYPE
  5
52
330
5
100
AcDbSymbolTableRecord
100
AcDbLinetypeTableRecord
  2
AM_ISO02W050x2
 70
     0
  3
 _ _ _ _ _ _ _ _ _ _ _ _
 72
    65
 73
     2
 40
3.75
 49
3.0
 74
     0
 49
-0.75
 74
     0
  0
LTYPE
  5
55
330
5
100
AcDbSymbolTableRecord
100
AcDbLinetypeTableRecord
  2
Amzigzag
 70
     0
  3
/\/-/\/-/\/-/\/-/\/-/\/
 72
    65
 73
     2
 40
11.0001
 49
0.0001
 74
     4
 75
   136
340
23D
 46
0.04
 50
0.0
 44
0.0
 45
0.0
 49
-11.0
 74
     0
  0
LTYPE
  5
65
330
5
100
AcDbSymbolTableRecord
100
AcDbLinetypeTableRecord
  2
CENTER
 70
     0
  3
__ . __
 72
    65
 73
     4
 40
7.0
 49
4.0
 74
     0
 49
-1.0
 74
     0
 49
1.0
 74
     0
 49
-1.0
 74
     0
  0
LTYPE
  5
E0
330
5
100
AcDbSymbolTableRecord
100
AcDbLinetypeTableRecord
  2
HIDDEN
 70
     0
  3
Hidden __ __ __ __ __ __ __ __ __ __ __ __ __ _
 72
    65
 73
     2
 40
9.524999999999996
 49
6.349999999999998
 74
     0
 49
-3.174999999999998
 74
     0
  0
LTYPE
  5
E1
330
5
100
AcDbSymbolTableRecord
100
AcDbLinetypeTableRecord
  2
PHANTOM2
 70
     0
  3
Phantom (.5x) ___ _ _ ___ _ _ ___ _ _ ___ _ _
 72
    65
 73
     6
 40
31.75
 49
15.875
 74
     0
 49
-3.174999999999998
 74
     0
 49
3.174999999999998
 74
     0
 49
-3.174999999999998
 74
     0
 49
3.174999999999998
 74
     0
 49
-3.174999999999998
 74
     0
  0
LTYPE
  5
5A2
330
5
100
AcDbSymbolTableRecord
100
AcDbLinetypeTableRecord
  2
ACJISWELD
 70
     0
  3
_ _ _ _ _
 72
    65
 73
     2
 40
2.0
 49
2.0
 74
     0
 49
-1.0
 74
     0
  0
LTYPE
  5
7618
330
5
100
AcDbSymbolTableRecord
100
AcDbLinetypeTableRecord
  2
ACISOWELD
 70
     0
  3
_ _ _ _ _
 72
    65
 73
     2
 40
2.0
 49
2.0
 74
     0
 49
-1.0
 74
     0
  0
LTYPE
  5
7619
330
5
100
AcDbSymbolTableRecord
100
AcDbLinetypeTableRecord
  2
ACISOTGB
 70
     0
  3
__ . . __ . .
 72
    65
 73
     6
 40
9.0
 49
4.0
 74
     0
 49
-1.0
 74
     0
 49
1.0
 74
     0
 49
-1.0
 74
     0
 49
1.0
 74
     0
 49
-1.0
 74
     0
  0
LTYPE
  5
761A
330
5
100
AcDbSymbolTableRecord
100
AcDbLinetypeTableRecord
  2
ACISOTGL
 70
     0
  3
_ _ _ _ _
 72
    65
 73
     2
 40
3.0
 49
2.0
 74
     0
 49
-1.0
 74
     0
  0
ENDTAB
  0
TABLE
  2
LAYER
  5
2
102
{ACAD_XDICTIONARY
360
BF
102
}
330
0
100
AcDbSymbolTable
 70
    10
  0
LAYER
  5
10
102
{ACAD_XDICTIONARY
360
29F7
102
}
330
2
100
AcDbSymbolTableRecord
100
AcDbLayerTableRecord
  2
0
 70
     0
 62
     7
  6
Continuous
370
    -3
390
F
347
27E
  0
LAYER
  5
81
102
{ACAD_XDICTIONARY
360
29F9
102
}
330
2
100
AcDbSymbolTableRecord
100
AcDbLayerTableRecord
  2
AM_0 外形線1
 70
     0
 62
     7
  6
Continuous
370
    25
390
F
347
27E
  0
LAYER
  5
427
330
2
100
AcDbSymbolTableRecord
100
AcDbLayerTableRecord
  2
Defpoints
 70
     0
 62
     7
  6
Continuous
290
     0
370
    -3
390
F
347
27E
  0
LAYER
  5
2DF3
102
{ACAD_XDICTIONARY
360
2DF4
102
}
330
2
100
AcDbSymbolTableRecord
100
AcDbLayerTableRecord
  2
002
 70
     0
 62
     7
  6
Continuous
370
    -3
390
F
347
27E
  0
LAYER
  5
3B2F
330
2
100
AcDbSymbolTableRecord
100
AcDbLayerTableRecord
  2
AM_5 寸法線
 70
     0
 62
     3
  6
Continuous
370
    13
390
F
347
27E
1001
AcAecLayerStandard
1000

1000

  0
LAYER
  5
3B30
330
2
100
AcDbSymbolTableRecord
100
AcDbLayerTableRecord
  2
AM_4 細線
 70
     0
 62
     4
  6
Continuous
370
    13
390
F
347
27E
1001
AcAecLayerStandard
1000

1000

  0
LAYER
  5
3B31
330
2
100
AcDbSymbolTableRecord
100
AcDbLayerTableRecord
  2
AM_7 中心線
 70
     0
 62
     1
  6
AM_ISO08W050
370
    13
390
F
347
27E
1001
AcAecLayerStandard
1000

1000

  0
LAYER
  5
3B32
330
2
100
AcDbSymbolTableRecord
100
AcDbLayerTableRecord
  2
AM_3 隠れ線
 70
     0
 62
     8
  6
ACJISWELD
370
    13
390
F
347
27E
1001
AcAecLayerStandard
1000

1000

  0
LAYER
  5
3B35
330
2
100
AcDbSymbolTableRecord
100
AcDbLayerTableRecord
  2
AM_6 文字
 70
     0
 62
     2
  6
Continuous
370
    13
390
F
347
27E
1001
AcAecLayerStandard
1000

1000

  0
ENDTAB
  0
TABLE
  2
STYLE
  5
3
330
0
100
AcDbSymbolTable
 70
    11
  0
STYLE
  5
11
330
3
100
AcDbSymbolTableRecord
100
AcDbTextStyleTableRecord
  2
STANDARD
 70
     0
 40
0.0
 41
1.0
 50
0.0
 71
     0
 42
25.0
  3
ISOCP.SHX
  4
EXTFONT.SHX
  0
STYLE
  5
23D
330
3
100
AcDbSymbolTableRecord
100
AcDbTextStyleTableRecord
  2

 70
     1
 40
0.0
 41
1.0
 50
0.0
 71
     0
 42
2.5
  3
genltshp.shx
  4

  0
STYLE
  5
5D5
330
3
100
AcDbSymbolTableRecord
100
AcDbTextStyleTableRecord
  2
SEISA
 70
     0
 40
0.0
 41
0.9
 50
0.0
 71
     0
 42
25.0
  3
romans.shx
  4
extfont2.shx
  0
STYLE
  5
7608
330
3
100
AcDbSymbolTableRecord
100
AcDbTextStyleTableRecord
  2
ACISOTS
 70
     0
 40
1.0
 41
1.0
 50
0.0
 71
     0
 42
25.0
  3
isocp.shx
  4
extfont.shx
  0
STYLE
  5
7617
330
3
100
AcDbSymbolTableRecord
100
AcDbTextStyleTableRecord
  2
ACISOGDT
 70
     0
 40
0.0
 41
1.0
 50
0.0
 71
     0
 42
25.0
  3
amgdt.shx
  4

  0
ENDTAB
  0
TABLE
  2
VIEW
  5
6
330
0
100
AcDbSymbolTable
 70
     6
  0
VIEW
  5
91B
330
6
100
AcDbSymbolTableRecord
100
AcDbViewTableRecord
  2
AM_VIEW1
 70
     0
 40
3712.500000000002
 10
3589.054807741514
 20
5568.750009234554
 41
7178.109605911332
 11
0.0
 21
0.0
 31
1.0
 12
0.0
 22
0.0
 32
0.0
 42
50.0
 43
0.0
 44
0.0
 50
0.0
 71
    16
281
     0
 72
     0
 73
     0
  0
VIEW
  5
91C
330
6
100
AcDbSymbolTableRecord
100
AcDbViewTableRecord
  2
AM_VIEW2
 70
     0
 40
3712.500000000002
 10
6910.94520183018
 20
5568.750009234554
 41
7178.109605911332
 11
0.0
 21
0.0
 31
1.0
 12
0.0
 22
0.0
 32
0.0
 42
50.0
 43
0.0
 44
0.0
 50
0.0
 71
    16
281
     0
 72
     0
 73
     0
  0
VIEW
  5
91D
330
6
100
AcDbSymbolTableRecord
100
AcDbViewTableRecord
  2
AM_VIEW3
 70
     0
 40
3712.500000000002
 10
3589.054807741514
 20
1856.250009234552
 41
7178.109605911332
 11
0.0
 21
0.0
 31
1.0
 12
0.0
 22
0.0
 32
0.0
 42
50.0
 43
0.0
 44
0.0
 50
0.0
 71
    16
281
     0
 72
     0
 73
     0
  0
VIEW
  5
91E
330
6
100
AcDbSymbolTableRecord
100
AcDbViewTableRecord
  2
AM_VIEW4
 70
     0
 40
3712.500000000002
 10
6910.94520183018
 20
1856.250009234552
 41
7178.109605911332
 11
0.0
 21
0.0
 31
1.0
 12
0.0
 22
0.0
 32
0.0
 42
50.0
 43
0.0
 44
0.0
 50
0.0
 71
    16
281
     0
 72
     0
 73
     0
  0
VIEW
  5
91F
330
6
100
AcDbSymbolTableRecord
100
AcDbViewTableRecord
  2
AM_VIEW5
 70
     0
 40
3712.500000000002
 10
5250.000004785846
 20
3712.500009234553
 41
7178.10960591133
 11
0.0
 21
0.0
 31
1.0
 12
0.0
 22
0.0
 32
0.0
 42
50.0
 43
0.0
 44
0.0
 50
0.0
 71
    16
281
     0
 72
     0
 73
     0
  0
VIEW
  5
920
330
6
100
AcDbSymbolTableRecord
100
AcDbViewTableRecord
  2
AM_VIEW6
 70
     0
 40
7424.925750000003
 10
5250.000004785846
 20
3712.500009234553
 41
14356.07564963054
 11
0.0
 21
0.0
 31
1.0
 12
0.0
 22
0.0
 32
0.0
 42
50.0
 43
0.0
 44
0.0
 50
0.0
 71
    16
281
     0
 72
     0
 73
     0
  0
ENDTAB
  0
TABLE
  2
UCS
  5
7
330
0
100
AcDbSymbolTable
 70
     0
  0
ENDTAB
  0
TABLE
  2
APPID
  5
9
330
0
100
AcDbSymbolTable
 70
   396
  0
APPID
  5
12
330
9
100
AcDbSymbolTableRecord
100
AcDbRegAppTableRecord
  2
ACAD
 70
     0
  0
APPID
  5
30
330
9
100
AcDbSymbolTableRecord
100
AcDbRegAppTableRecord
  2
MCAD_NO_VIS
 70
     0
  0
APPID
  5
31
330
9
100
AcDbSymbolTableRecord
100
AcDbRegAppTableRecord
  2
ACAD_TEMP_GRAPHIC
 70
     0
  0
APPID
  5
44
330
9
100
AcDbSymbolTableRecord
100
AcDbRegAppTableRecord
  2
ACATTRIBSERVICES
 70
     0
  0
APPID
  5
F6
330
9
100
AcDbSymbolTableRecord
100
AcDbRegAppTableRecord
  2
AD_DRAW
 70
     0
  0
APPID
  5
114
330
9
100
AcDbSymbolTableRecord
100
AcDbRegAppTableRecord
  2
DESIGNERASSEMBLIES
 70
     0
  0
APPID
  5
118
330
9
100
AcDbSymbolTableRecord
100
AcDbRegAppTableRecord
  2
ACADM_DIM_EDIT
 70
     0
  0
APPID
  5
119
330
9
100
AcDbSymbolTableRecord
100
AcDbRegAppTableRecord
  2
AMDT_DM_ADJ
 70
     0
  0
APPID
  5
1AF
330
9
100
AcDbSymbolTableRecord
100
AcDbRegAppTableRecord
  2
ACAD_DSTYLE_DIMARC_LENGTH_SYMBOL
 70
     0
  0
APPID
  5
1B0
330
9
100
AcDbSymbolTableRecord
100
AcDbRegAppTableRecord
  2
ACAD_DSTYLE_DIMJOGGED_JOGANGLE_SYMBOL
 70
     0
  0
APPID
  5
2D7
330
9
100
AcDbSymbolTableRecord
100
AcDbRegAppTableRecord
  2
ACAD_MLEADERVER
 70
     0
  0
APPID
  5
355
330
9
100
AcDbSymbolTableRecord
100
AcDbRegAppTableRecord
  2
AcadAnnoPO
 70
     0
  0
APPID
  5
428
330
9
100
AcDbSymbolTableRecord
100
AcDbRegAppTableRecord
  2
ACAD_DSTYLE_DIMTEXT_FILL
 70
     0
  0
APPID
  5
429
330
9
100
AcDbSymbolTableRecord
100
AcDbRegAppTableRecord
  2
GENIUS_GENSCREG_15
 70
     0
  0
APPID
  5
42A
330
9
100
AcDbSymbolTableRecord
100
AcDbRegAppTableRecord
  2
GENIUS_GENOBJ-N-SDF_13
 70
     0
  0
APPID
  5
42B
330
9
100
AcDbSymbolTableRecord
100
AcDbRegAppTableRecord
  2
GENIUS_GENODEF_13
 70
     0
  0
APPID
  5
42C
330
9
100
AcDbSymbolTableRecord
100
AcDbRegAppTableRecord
  2
ACAD_EXEMPT_FROM_CAD_STANDARDS
 70
     0
  0
APPID
  5
42D
330
9
100
AcDbSymbolTableRecord
100
AcDbRegAppTableRecord
  2
AcAecLayerStandard
 70
     0
  0
APPID
  5
42E
330
9
100
AcDbSymbolTableRecord
100
AcDbRegAppTableRecord
  2
GENIUS_GENOBJ-N-CEN_13
 70
     0
  0
APPID
  5
42F
330
9
100
AcDbSymbolTableRecord
100
AcDbRegAppTableRecord
  2
GENIUS_GENCEN_19
 70
     0
  0
APPID
  5
430
330
9
100
AcDbSymbolTableRecord
100
AcDbRegAppTableRecord
  2
ACAD_DSTYLE_DIMINSPECT
 70
     0
  0
APPID
  5
431
330
9
100
AcDbSymbolTableRecord
100
AcDbRegAppTableRecord
  2
GENIUS_AMGTXT_16
 70
     0
  0
APPID
  5
432
330
9
100
AcDbSymbolTableRecord
100
AcDbRegAppTableRecord
  2
GENIUS_GENFIL_13
 70
     0
  0
APPID
  5
433
330
9
100
AcDbSymbolTableRecord
100
AcDbRegAppTableRecord
  2
GENIUS_GENOLIS_13
 70
     0
  0
APPID
  5
434
330
9
100
AcDbSymbolTableRecord
100
AcDbRegAppTableRecord
  2
GENIUS_GENOBJ-N-CHA_13
 70
     0
  0
APPID
  5
435
330
9
100
AcDbSymbolTableRecord
100
AcDbRegAppTableRecord
  2
GENIUS_GENOENT_13
 70
     0
  0
APPID
  5
436
330
9
100
AcDbSymbolTableRecord
100
AcDbRegAppTableRecord
  2
GENIUS_GENOREF_13
 70
     0
  0
APPID
  5
437
330
9
100
AcDbSymbolTableRecord
100
AcDbRegAppTableRecord
  2
GENIUS_GENOBJ-N-FIL_13
 70
     0
  0
APPID
  5
438
330
9
100
AcDbSymbolTableRecord
100
AcDbRegAppTableRecord
  2
GEVID1208829536
 70
     0
  0
APPID
  5
439
330
9
100
AcDbSymbolTableRecord
100
AcDbRegAppTableRecord
  2
GEVDC
 70
     0
  0
APPID
  5
43A
330
9
100
AcDbSymbolTableRecord
100
AcDbRegAppTableRecord
  2
GEVRADREF
 70
     0
  0
APPID
  5
43B
330
9
100
AcDbSymbolTableRecord
100
AcDbRegAppTableRecord
  2
GENIUS_GENBH_13
 70
     0
  0
APPID
  5
43C
330
9
100
AcDbSymbolTableRecord
100
AcDbRegAppTableRecord
  2
GENIUS_GENOBJ-NBEHI-BHF_13
 70
     0
  0
APPID
  5
43D
330
9
100
AcDbSymbolTableRecord
100
AcDbRegAppTableRecord
  2
GENIUS_GENOBJ-NBEHI-BHB_13
 70
     0
  0
APPID
  5
43E
330
9
100
AcDbSymbolTableRecord
100
AcDbRegAppTableRecord
  2
GEVID1208829537
 70
     0
  0
APPID
  5
43F
330
9
100
AcDbSymbolTableRecord
100
AcDbRegAppTableRecord
  2
ACAD_DSTYLE_DIMJAG
 70
     0
  0
APPID
  5
440
330
9
100
AcDbSymbolTableRecord
100
AcDbRegAppTableRecord
  2
ACAD_DSTYLE_DIMTALN
 70
     0
  0
APPID
  5
441
330
9
100
AcDbSymbolTableRecord
100
AcDbRegAppTableRecord
  2
AMG_2DHIDE
 70
     0
  0
APPID
  5
442
330
9
100
AcDbSymbolTableRecord
100
AcDbRegAppTableRecord
  2
AMG_2DSTRUCT_BTR
 70
     0
  0
APPID
  5
443
330
9
100
AcDbSymbolTableRecord
100
AcDbRegAppTableRecord
  2
GEVID1208845772
 70
     0
  0
APPID
  5
444
330
9
100
AcDbSymbolTableRecord
100
AcDbRegAppTableRecord
  2
GEVID1208845773
 70
     0
  0
APPID
  5
445
330
9
100
AcDbSymbolTableRecord
100
AcDbRegAppTableRecord
  2
ACADM_2DVIEW_IGN_NOTIFY
 70
     0
  0
APPID
  5
446
330
9
100
AcDbSymbolTableRecord
100
AcDbRegAppTableRecord
  2
GEVID1208845774
 70
     0
  0
APPID
  5
447
330
9
100
AcDbSymbolTableRecord
100
AcDbRegAppTableRecord
  2
GEVID1208845775
 70
     0
  0
APPID
  5
448
330
9
100
AcDbSymbolTableRecord
100
AcDbRegAppTableRecord
  2
GEVID1208845776
 70
     0
  0
APPID
  5
449
330
9
100
AcDbSymbolTableRecord
100
AcDbRegAppTableRecord
  2
GEVID1208845777
 70
     0
  0
APPID
  5
44A
330
9
100
AcDbSymbolTableRecord
100
AcDbRegAppTableRecord
  2
GEVCON
 70
     0
  0
APPID
  5
44B
330
9
100
AcDbSymbolTableRecord
100
AcDbRegAppTableRecord
  2
GENIUS_GENOBJ-F-SCPASSM_13
 70
     0
  0
APPID
  5
44C
330
9
100
AcDbSymbolTableRecord
100
AcDbRegAppTableRecord
  2
GEVID1208845778
 70
     0
  0
APPID
  5
44D
330
9
100
AcDbSymbolTableRecord
100
AcDbRegAppTableRecord
  2
GEVID1208845779
 70
     0
  0
APPID
  5
44E
330
9
100
AcDbSymbolTableRecord
100
AcDbRegAppTableRecord
  2
GEVID1208845780
 70
     0
  0
APPID
  5
44F
330
9
100
AcDbSymbolTableRecord
100
AcDbRegAppTableRecord
  2
GEVID1208845781
 70
     0
  0
APPID
  5
450
330
9
100
AcDbSymbolTableRecord
100
AcDbRegAppTableRecord
  2
GEVID1208845782
 70
     0
  0
APPID
  5
451
330
9
100
AcDbSymbolTableRecord
100
AcDbRegAppTableRecord
  2
GEVID1208845783
 70
     0
  0
APPID
  5
452
330
9
100
AcDbSymbolTableRecord
100
AcDbRegAppTableRecord
  2
GEVID1208845784
 70
     0
  0
APPID
  5
453
330
9
100
AcDbSymbolTableRecord
100
AcDbRegAppTableRecord
  2
GEVID1208845785
 70
     0
  0
APPID
  5
454
330
9
100
AcDbSymbolTableRecord
100
AcDbRegAppTableRecord
  2
GEVID1208845787
 70
     0
  0
APPID
  5
455
330
9
100
AcDbSymbolTableRecord
100
AcDbRegAppTableRecord
  2
GEVID1208845788
 70
     0
  0
APPID
  5
456
330
9
100
AcDbSymbolTableRecord
100
AcDbRegAppTableRecord
  2
GEVID1208845789
 70
     0
  0
APPID
  5
457
330
9
100
AcDbSymbolTableRecord
100
AcDbRegAppTableRecord
  2
GEVID1208845790
 70
     0
  0
APPID
  5
458
330
9
100
AcDbSymbolTableRecord
100
AcDbRegAppTableRecord
  2
GEVID1208845791
 70
     0
  0
APPID
  5
459
330
9
100
AcDbSymbolTableRecord
100
AcDbRegAppTableRecord
  2
GEVID1208845792
 70
     0
  0
APPID
  5
45A
330
9
100
AcDbSymbolTableRecord
100
AcDbRegAppTableRecord
  2
GEVID1208845793
 70
     0
  0
APPID
  5
45B
330
9
100
AcDbSymbolTableRecord
100
AcDbRegAppTableRecord
  2
GEVID1208845794
 70
     0
  0
APPID
  5
45C
330
9
100
AcDbSymbolTableRecord
100
AcDbRegAppTableRecord
  2
GEVID1208845795
 70
     0
  0
APPID
  5
45D
330
9
100
AcDbSymbolTableRecord
100
AcDbRegAppTableRecord
  2
GEVID1208845796
 70
     0
  0
APPID
  5
45E
330
9
100
AcDbSymbolTableRecord
100
AcDbRegAppTableRecord
  2
GEVID1208845797
 70
     0
  0
APPID
  5
45F
330
9
100
AcDbSymbolTableRecord
100
AcDbRegAppTableRecord
  2
GEVID1208845798
 70
     0
  0
APPID
  5
460
330
9
100
AcDbSymbolTableRecord
100
AcDbRegAppTableRecord
  2
GEVID1208845799
 70
     0
  0
APPID
  5
461
330
9
100
AcDbSymbolTableRecord
100
AcDbRegAppTableRecord
  2
GEVID1208845800
 70
     0
  0
APPID
  5
462
330
9
100
AcDbSymbolTableRecord
100
AcDbRegAppTableRecord
  2
GEVID1208845801
 70
     0
  0
APPID
  5
463
330
9
100
AcDbSymbolTableRecord
100
AcDbRegAppTableRecord
  2
GEVID1208845802
 70
     0
  0
APPID
  5
464
330
9
100
AcDbSymbolTableRecord
100
AcDbRegAppTableRecord
  2
GENIUS_GENOBJ-N-DIM_13
 70
     0
  0
APPID
  5
465
330
9
100
AcDbSymbolTableRecord
100
AcDbRegAppTableRecord
  2
GENIUS_GENDIM_13
 70
     0
  0
APPID
  5
466
330
9
100
AcDbSymbolTableRecord
100
AcDbRegAppTableRecord
  2
GENIUS_GENDIMSH_14
 70
     0
  0
APPID
  5
467
330
9
100
AcDbSymbolTableRecord
100
AcDbRegAppTableRecord
  2
GEVID1208845803
 70
     0
  0
APPID
  5
468
330
9
100
AcDbSymbolTableRecord
100
AcDbRegAppTableRecord
  2
GEVID1208845804
 70
     0
  0
APPID
  5
469
330
9
100
AcDbSymbolTableRecord
100
AcDbRegAppTableRecord
  2
GEVID1208845805
 70
     0
  0
APPID
  5
46A
330
9
100
AcDbSymbolTableRecord
100
AcDbRegAppTableRecord
  2
GEVID1208845806
 70
     0
  0
APPID
  5
46B
330
9
100
AcDbSymbolTableRecord
100
AcDbRegAppTableRecord
  2
GEVID1208845807
 70
     0
  0
APPID
  5
46C
330
9
100
AcDbSymbolTableRecord
100
AcDbRegAppTableRecord
  2
GEVID1208845808
 70
     0
  0
APPID
  5
46D
330
9
100
AcDbSymbolTableRecord
100
AcDbRegAppTableRecord
  2
GEVID1208845809
 70
     0
  0
APPID
  5
46E
330
9
100
AcDbSymbolTableRecord
100
AcDbRegAppTableRecord
  2
GEVID1208845810
 70
     0
  0
APPID
  5
46F
330
9
100
AcDbSymbolTableRecord
100
AcDbRegAppTableRecord
  2
GEVID1208845811
 70
     0
  0
APPID
  5
470
330
9
100
AcDbSymbolTableRecord
100
AcDbRegAppTableRecord
  2
GEVID1208845813
 70
     0
  0
APPID
  5
471
330
9
100
AcDbSymbolTableRecord
100
AcDbRegAppTableRecord
  2
GEVID1208845814
 70
     0
  0
APPID
  5
472
330
9
100
AcDbSymbolTableRecord
100
AcDbRegAppTableRecord
  2
GEVID1208845815
 70
     0
  0
APPID
  5
473
330
9
100
AcDbSymbolTableRecord
100
AcDbRegAppTableRecord
  2
GEVID1208845816
 70
     0
  0
APPID
  5
474
330
9
100
AcDbSymbolTableRecord
100
AcDbRegAppTableRecord
  2
GEVID1208845817
 70
     0
  0
APPID
  5
475
330
9
100
AcDbSymbolTableRecord
100
AcDbRegAppTableRecord
  2
GEVID1208845818
 70
     0
  0
APPID
  5
476
330
9
100
AcDbSymbolTableRecord
100
AcDbRegAppTableRecord
  2
GEVID1208845819
 70
     0
  0
APPID
  5
477
330
9
100
AcDbSymbolTableRecord
100
AcDbRegAppTableRecord
  2
GEVID1208845820
 70
     0
  0
APPID
  5
478
330
9
100
AcDbSymbolTableRecord
100
AcDbRegAppTableRecord
  2
GENIUS_GENOBJ-F-SHCL_13
 70
     0
  0
APPID
  5
479
330
9
100
AcDbSymbolTableRecord
100
AcDbRegAppTableRecord
  2
GENIUS_GEFMSH_13
 70
     0
  0
APPID
  5
47A
330
9
100
AcDbSymbolTableRecord
100
AcDbRegAppTableRecord
  2
GENIUS_GENOBJ-F-SHCA_13
 70
     0
  0
APPID
  5
47B
330
9
100
AcDbSymbolTableRecord
100
AcDbRegAppTableRecord
  2
GENIUS_GEFSH_13
 70
     0
  0
APPID
  5
47C
330
9
100
AcDbSymbolTableRecord
100
AcDbRegAppTableRecord
  2
GENIUS_GEFSHP_13
 70
     0
  0
APPID
  5
47D
330
9
100
AcDbSymbolTableRecord
100
AcDbRegAppTableRecord
  2
GENIUS_GEFSHP0_13
 70
     0
  0
APPID
  5
47E
330
9
100
AcDbSymbolTableRecord
100
AcDbRegAppTableRecord
  2
GENIUS_GEFSH0_13
 70
     0
  0
APPID
  5
47F
330
9
100
AcDbSymbolTableRecord
100
AcDbRegAppTableRecord
  2
GENIUS_GEFSHP1_13
 70
     0
  0
APPID
  5
480
330
9
100
AcDbSymbolTableRecord
100
AcDbRegAppTableRecord
  2
GENIUS_GEFSH1_13
 70
     0
  0
APPID
  5
481
330
9
100
AcDbSymbolTableRecord
100
AcDbRegAppTableRecord
  2
GEVID1208866337
 70
     0
  0
APPID
  5
482
330
9
100
AcDbSymbolTableRecord
100
AcDbRegAppTableRecord
  2
GEVID1208866338
 70
     0
  0
APPID
  5
483
330
9
100
AcDbSymbolTableRecord
100
AcDbRegAppTableRecord
  2
GEVID1208866339
 70
     0
  0
APPID
  5
484
330
9
100
AcDbSymbolTableRecord
100
AcDbRegAppTableRecord
  2
GEVID1208866340
 70
     0
  0
APPID
  5
485
330
9
100
AcDbSymbolTableRecord
100
AcDbRegAppTableRecord
  2
GEVID1208866341
 70
     0
  0
APPID
  5
486
330
9
100
AcDbSymbolTableRecord
100
AcDbRegAppTableRecord
  2
ACAD_PSEXT
 70
     0
  0
APPID
  5
487
330
9
100
AcDbSymbolTableRecord
100
AcDbRegAppTableRecord
  2
GEVID1208866342
 70
     0
  0
APPID
  5
488
330
9
100
AcDbSymbolTableRecord
100
AcDbRegAppTableRecord
  2
GEVID1208913836
 70
     0
  0
APPID
  5
489
330
9
100
AcDbSymbolTableRecord
100
AcDbRegAppTableRecord
  2
GEVID1208913837
 70
     0
  0
APPID
  5
48A
330
9
100
AcDbSymbolTableRecord
100
AcDbRegAppTableRecord
  2
GEVID1208913838
 70
     0
  0
APPID
  5
48B
330
9
100
AcDbSymbolTableRecord
100
AcDbRegAppTableRecord
  2
GEVID1208913839
 70
     0
  0
APPID
  5
48C
330
9
100
AcDbSymbolTableRecord
100
AcDbRegAppTableRecord
  2
GENIUS_GENDTOL_13
 70
     0
  0
APPID
  5
48D
330
9
100
AcDbSymbolTableRecord
100
AcDbRegAppTableRecord
  2
GEVID1208928889
 70
     0
  0
APPID
  5
48E
330
9
100
AcDbSymbolTableRecord
100
AcDbRegAppTableRecord
  2
GEVID1208928890
 70
     0
  0
APPID
  5
48F
330
9
100
AcDbSymbolTableRecord
100
AcDbRegAppTableRecord
  2
GEVID1208928891
 70
     0
  0
APPID
  5
490
330
9
100
AcDbSymbolTableRecord
100
AcDbRegAppTableRecord
  2
GEVID1208928892
 70
     0
  0
APPID
  5
491
330
9
100
AcDbSymbolTableRecord
100
AcDbRegAppTableRecord
  2
GEVID1208933827
 70
     0
  0
APPID
  5
492
330
9
100
AcDbSymbolTableRecord
100
AcDbRegAppTableRecord
  2
GEVID1208933829
 70
     0
  0
APPID
  5
493
330
9
100
AcDbSymbolTableRecord
100
AcDbRegAppTableRecord
  2
GEVID1208933830
 70
     0
  0
APPID
  5
494
330
9
100
AcDbSymbolTableRecord
100
AcDbRegAppTableRecord
  2
GEVID1208933831
 70
     0
  0
APPID
  5
495
330
9
100
AcDbSymbolTableRecord
100
AcDbRegAppTableRecord
  2
GEVID1208933832
 70
     0
  0
APPID
  5
496
330
9
100
AcDbSymbolTableRecord
100
AcDbRegAppTableRecord
  2
GEVID1208933833
 70
     0
  0
APPID
  5
497
330
9
100
AcDbSymbolTableRecord
100
AcDbRegAppTableRecord
  2
GEVID1208933834
 70
     0
  0
APPID
  5
498
330
9
100
AcDbSymbolTableRecord
100
AcDbRegAppTableRecord
  2
GEVID1208933835
 70
     0
  0
APPID
  5
499
330
9
100
AcDbSymbolTableRecord
100
AcDbRegAppTableRecord
  2
GEVID1208933836
 70
     0
  0
APPID
  5
49A
330
9
100
AcDbSymbolTableRecord
100
AcDbRegAppTableRecord
  2
GEVID1208933837
 70
     0
  0
APPID
  5
49B
330
9
100
AcDbSymbolTableRecord
100
AcDbRegAppTableRecord
  2
GEVID1208933838
 70
     0
  0
APPID
  5
49C
330
9
100
AcDbSymbolTableRecord
100
AcDbRegAppTableRecord
  2
GEVID1208933840
 70
     0
  0
APPID
  5
49D
330
9
100
AcDbSymbolTableRecord
100
AcDbRegAppTableRecord
  2
GEVID1208933842
 70
     0
  0
APPID
  5
49E
330
9
100
AcDbSymbolTableRecord
100
AcDbRegAppTableRecord
  2
GEVID1208933843
 70
     0
  0
APPID
  5
49F
330
9
100
AcDbSymbolTableRecord
100
AcDbRegAppTableRecord
  2
GEVID1208933844
 70
     0
  0
APPID
  5
4A0
330
9
100
AcDbSymbolTableRecord
100
AcDbRegAppTableRecord
  2
GEVID1208933845
 70
     0
  0
APPID
  5
4A1
330
9
100
AcDbSymbolTableRecord
100
AcDbRegAppTableRecord
  2
GEVID1208933846
 70
     0
  0
APPID
  5
4A2
330
9
100
AcDbSymbolTableRecord
100
AcDbRegAppTableRecord
  2
GEVID1208933847
 70
     0
  0
APPID
  5
4A3
330
9
100
AcDbSymbolTableRecord
100
AcDbRegAppTableRecord
  2
GEVID1208933848
 70
     0
  0
APPID
  5
4A4
330
9
100
AcDbSymbolTableRecord
100
AcDbRegAppTableRecord
  2
GEVID1208933849
 70
     0
  0
APPID
  5
4A5
330
9
100
AcDbSymbolTableRecord
100
AcDbRegAppTableRecord
  2
GEVID1208933850
 70
     0
  0
APPID
  5
4A6
330
9
100
AcDbSymbolTableRecord
100
AcDbRegAppTableRecord
  2
GEVID1208933851
 70
     0
  0
APPID
  5
4A7
330
9
100
AcDbSymbolTableRecord
100
AcDbRegAppTableRecord
  2
GEVID1208933852
 70
     0
  0
APPID
  5
4A8
330
9
100
AcDbSymbolTableRecord
100
AcDbRegAppTableRecord
  2
GEVID1208933853
 70
     0
  0
APPID
  5
4A9
330
9
100
AcDbSymbolTableRecord
100
AcDbRegAppTableRecord
  2
GEVID1208933854
 70
     0
  0
APPID
  5
4AA
330
9
100
AcDbSymbolTableRecord
100
AcDbRegAppTableRecord
  2
GEVID1208933855
 70
     0
  0
APPID
  5
4AB
330
9
100
AcDbSymbolTableRecord
100
AcDbRegAppTableRecord
  2
GEVID1208933856
 70
     0
  0
APPID
  5
4AC
330
9
100
AcDbSymbolTableRecord
100
AcDbRegAppTableRecord
  2
GEVID1208933857
 70
     0
  0
APPID
  5
4AD
330
9
100
AcDbSymbolTableRecord
100
AcDbRegAppTableRecord
  2
GEVID1208933858
 70
     0
  0
APPID
  5
4AE
330
9
100
AcDbSymbolTableRecord
100
AcDbRegAppTableRecord
  2
GEVID1208933859
 70
     0
  0
APPID
  5
4AF
330
9
100
AcDbSymbolTableRecord
100
AcDbRegAppTableRecord
  2
GEVID1208933860
 70
     0
  0
APPID
  5
4B0
330
9
100
AcDbSymbolTableRecord
100
AcDbRegAppTableRecord
  2
GEVID1208933861
 70
     0
  0
APPID
  5
4B1
330
9
100
AcDbSymbolTableRecord
100
AcDbRegAppTableRecord
  2
GEVID1208933862
 70
     0
  0
APPID
  5
4B2
330
9
100
AcDbSymbolTableRecord
100
AcDbRegAppTableRecord
  2
GEVID1208933863
 70
     0
  0
APPID
  5
4B3
330
9
100
AcDbSymbolTableRecord
100
AcDbRegAppTableRecord
  2
GEVID1208933864
 70
     0
  0
APPID
  5
4B4
330
9
100
AcDbSymbolTableRecord
100
AcDbRegAppTableRecord
  2
GEVID1208933865
 70
     0
  0
APPID
  5
4B5
330
9
100
AcDbSymbolTableRecord
100
AcDbRegAppTableRecord
  2
GEVID1208933866
 70
     0
  0
APPID
  5
4B6
330
9
100
AcDbSymbolTableRecord
100
AcDbRegAppTableRecord
  2
GEVID1208933867
 70
     0
  0
APPID
  5
4B7
330
9
100
AcDbSymbolTableRecord
100
AcDbRegAppTableRecord
  2
GEVID1208933868
 70
     0
  0
APPID
  5
4B8
330
9
100
AcDbSymbolTableRecord
100
AcDbRegAppTableRecord
  2
GEVID1208933869
 70
     0
  0
APPID
  5
4B9
330
9
100
AcDbSymbolTableRecord
100
AcDbRegAppTableRecord
  2
GEVID1208933870
 70
     0
  0
APPID
  5
4BA
330
9
100
AcDbSymbolTableRecord
100
AcDbRegAppTableRecord
  2
GEVID1208933871
 70
     0
  0
APPID
  5
4BB
330
9
100
AcDbSymbolTableRecord
100
AcDbRegAppTableRecord
  2
GEVID1208933872
 70
     0
  0
APPID
  5
4BC
330
9
100
AcDbSymbolTableRecord
100
AcDbRegAppTableRecord
  2
GEVID1208933873
 70
     0
  0
APPID
  5
4BD
330
9
100
AcDbSymbolTableRecord
100
AcDbRegAppTableRecord
  2
GEVID1208933874
 70
     0
  0
APPID
  5
4BE
330
9
100
AcDbSymbolTableRecord
100
AcDbRegAppTableRecord
  2
GEVID1208933875
 70
     0
  0
APPID
  5
4BF
330
9
100
AcDbSymbolTableRecord
100
AcDbRegAppTableRecord
  2
GEVID1208933876
 70
     0
  0
APPID
  5
4C0
330
9
100
AcDbSymbolTableRecord
100
AcDbRegAppTableRecord
  2
ACAD_DSTYLE_DIMRADIAL_EXTENSION
 70
     0
  0
APPID
  5
4C1
330
9
100
AcDbSymbolTableRecord
100
AcDbRegAppTableRecord
  2
GEVID1208999100
 70
     0
  0
APPID
  5
4C2
330
9
100
AcDbSymbolTableRecord
100
AcDbRegAppTableRecord
  2
GEVID1208999101
 70
     0
  0
APPID
  5
4C3
330
9
100
AcDbSymbolTableRecord
100
AcDbRegAppTableRecord
  2
GEVID1208999102
 70
     0
  0
APPID
  5
4C4
330
9
100
AcDbSymbolTableRecord
100
AcDbRegAppTableRecord
  2
GEVID1208999103
 70
     0
  0
APPID
  5
4C5
330
9
100
AcDbSymbolTableRecord
100
AcDbRegAppTableRecord
  2
GEVID1208999105
 70
     0
  0
APPID
  5
4C6
330
9
100
AcDbSymbolTableRecord
100
AcDbRegAppTableRecord
  2
GEVID1208999106
 70
     0
  0
APPID
  5
4C7
330
9
100
AcDbSymbolTableRecord
100
AcDbRegAppTableRecord
  2
GEVID1208999108
 70
     0
  0
APPID
  5
4C8
330
9
100
AcDbSymbolTableRecord
100
AcDbRegAppTableRecord
  2
GEVID1208999109
 70
     0
  0
APPID
  5
4C9
330
9
100
AcDbSymbolTableRecord
100
AcDbRegAppTableRecord
  2
GEVID1208999110
 70
     0
  0
APPID
  5
4CA
330
9
100
AcDbSymbolTableRecord
100
AcDbRegAppTableRecord
  2
GEVID1208999111
 70
     0
  0
APPID
  5
4CB
330
9
100
AcDbSymbolTableRecord
100
AcDbRegAppTableRecord
  2
GEVID1208999112
 70
     0
  0
APPID
  5
4CC
330
9
100
AcDbSymbolTableRecord
100
AcDbRegAppTableRecord
  2
GEVID1208999113
 70
     0
  0
APPID
  5
4CD
330
9
100
AcDbSymbolTableRecord
100
AcDbRegAppTableRecord
  2
GEVID1208999114
 70
     0
  0
APPID
  5
4CE
330
9
100
AcDbSymbolTableRecord
100
AcDbRegAppTableRecord
  2
GEVID1210218799
 70
     0
  0
APPID
  5
4CF
330
9
100
AcDbSymbolTableRecord
100
AcDbRegAppTableRecord
  2
GEVID1210218800
 70
     0
  0
APPID
  5
4D0
330
9
100
AcDbSymbolTableRecord
100
AcDbRegAppTableRecord
  2
GENIUS_GEFWELD_13
 70
     0
  0
APPID
  5
4D1
330
9
100
AcDbSymbolTableRecord
100
AcDbRegAppTableRecord
  2
GENIUS_GENOBJ-F-WELS_13
 70
     0
  0
APPID
  5
4D2
330
9
100
AcDbSymbolTableRecord
100
AcDbRegAppTableRecord
  2
AcadAnnotative
 70
     0
  0
APPID
  5
4D3
330
9
100
AcDbSymbolTableRecord
100
AcDbRegAppTableRecord
  2
GEVID1210145339
 70
     0
  0
APPID
  5
4D4
330
9
100
AcDbSymbolTableRecord
100
AcDbRegAppTableRecord
  2
ACAD_DSTYLE_DIMBREAK
 70
     0
  0
APPID
  5
4D5
330
9
100
AcDbSymbolTableRecord
100
AcDbRegAppTableRecord
  2
GEVID1210145340
 70
     0
  0
APPID
  5
4D6
330
9
100
AcDbSymbolTableRecord
100
AcDbRegAppTableRecord
  2
GEVID1210145341
 70
     0
  0
APPID
  5
4D7
330
9
100
AcDbSymbolTableRecord
100
AcDbRegAppTableRecord
  2
GEVID1210145342
 70
     0
  0
APPID
  5
4D8
330
9
100
AcDbSymbolTableRecord
100
AcDbRegAppTableRecord
  2
GEVID1210145343
 70
     0
  0
APPID
  5
4D9
330
9
100
AcDbSymbolTableRecord
100
AcDbRegAppTableRecord
  2
GEVID1210145344
 70
     0
  0
APPID
  5
4DA
330
9
100
AcDbSymbolTableRecord
100
AcDbRegAppTableRecord
  2
GEVID1210145345
 70
     0
  0
APPID
  5
4DB
330
9
100
AcDbSymbolTableRecord
100
AcDbRegAppTableRecord
  2
GEVID1210152816
 70
     0
  0
APPID
  5
4DC
330
9
100
AcDbSymbolTableRecord
100
AcDbRegAppTableRecord
  2
GEVID1210153850
 70
     0
  0
APPID
  5
4DD
330
9
100
AcDbSymbolTableRecord
100
AcDbRegAppTableRecord
  2
GEVID1210153851
 70
     0
  0
APPID
  5
4DE
330
9
100
AcDbSymbolTableRecord
100
AcDbRegAppTableRecord
  2
GEVID1210153852
 70
     0
  0
APPID
  5
4DF
330
9
100
AcDbSymbolTableRecord
100
AcDbRegAppTableRecord
  2
GEVID1210549898
 70
     0
  0
APPID
  5
4E0
330
9
100
AcDbSymbolTableRecord
100
AcDbRegAppTableRecord
  2
GEVID1210549899
 70
     0
  0
APPID
  5
4E1
330
9
100
AcDbSymbolTableRecord
100
AcDbRegAppTableRecord
  2
GEVID1210549900
 70
     0
  0
APPID
  5
4E2
330
9
100
AcDbSymbolTableRecord
100
AcDbRegAppTableRecord
  2
GEVID1210549901
 70
     0
  0
APPID
  5
4E3
330
9
100
AcDbSymbolTableRecord
100
AcDbRegAppTableRecord
  2
GEVID1210549902
 70
     0
  0
APPID
  5
4E4
330
9
100
AcDbSymbolTableRecord
100
AcDbRegAppTableRecord
  2
GEVID1210549903
 70
     0
  0
APPID
  5
4E5
330
9
100
AcDbSymbolTableRecord
100
AcDbRegAppTableRecord
  2
GEVID1210549904
 70
     0
  0
APPID
  5
4E6
330
9
100
AcDbSymbolTableRecord
100
AcDbRegAppTableRecord
  2
GEVID1210549905
 70
     0
  0
APPID
  5
4E7
330
9
100
AcDbSymbolTableRecord
100
AcDbRegAppTableRecord
  2
GEVID1210549906
 70
     0
  0
APPID
  5
4E8
330
9
100
AcDbSymbolTableRecord
100
AcDbRegAppTableRecord
  2
GEVID1210549907
 70
     0
  0
APPID
  5
4E9
330
9
100
AcDbSymbolTableRecord
100
AcDbRegAppTableRecord
  2
GEVID1210549908
 70
     0
  0
APPID
  5
4EA
330
9
100
AcDbSymbolTableRecord
100
AcDbRegAppTableRecord
  2
GEVID1210549909
 70
     0
  0
APPID
  5
4EB
330
9
100
AcDbSymbolTableRecord
100
AcDbRegAppTableRecord
  2
GEVID1210549910
 70
     0
  0
APPID
  5
4EC
330
9
100
AcDbSymbolTableRecord
100
AcDbRegAppTableRecord
  2
GEVID1210549911
 70
     0
  0
APPID
  5
4ED
330
9
100
AcDbSymbolTableRecord
100
AcDbRegAppTableRecord
  2
GEVID1210549912
 70
     0
  0
APPID
  5
4EE
330
9
100
AcDbSymbolTableRecord
100
AcDbRegAppTableRecord
  2
GEVID1210549913
 70
     0
  0
APPID
  5
4EF
330
9
100
AcDbSymbolTableRecord
100
AcDbRegAppTableRecord
  2
GEVID1210549914
 70
     0
  0
APPID
  5
4F0
330
9
100
AcDbSymbolTableRecord
100
AcDbRegAppTableRecord
  2
GEVID1210549915
 70
     0
  0
APPID
  5
4F1
330
9
100
AcDbSymbolTableRecord
100
AcDbRegAppTableRecord
  2
GEVID1210549916
 70
     0
  0
APPID
  5
4F2
330
9
100
AcDbSymbolTableRecord
100
AcDbRegAppTableRecord
  2
GEVID1210549917
 70
     0
  0
APPID
  5
4F3
330
9
100
AcDbSymbolTableRecord
100
AcDbRegAppTableRecord
  2
GENIUS_GENOBJ-N-CRS_13
 70
     0
  0
APPID
  5
4F4
330
9
100
AcDbSymbolTableRecord
100
AcDbRegAppTableRecord
  2
GEVID1210549918
 70
     0
  0
APPID
  5
4F5
330
9
100
AcDbSymbolTableRecord
100
AcDbRegAppTableRecord
  2
GENIUS_GENOBJ-N-CRC_13
 70
     0
  0
APPID
  5
4F6
330
9
100
AcDbSymbolTableRecord
100
AcDbRegAppTableRecord
  2
GENIUS_GENCRC_14
 70
     0
  0
APPID
  5
4F7
330
9
100
AcDbSymbolTableRecord
100
AcDbRegAppTableRecord
  2
GEVID1210549919
 70
     0
  0
APPID
  5
4F8
330
9
100
AcDbSymbolTableRecord
100
AcDbRegAppTableRecord
  2
GEVID1210549921
 70
     0
  0
APPID
  5
4F9
330
9
100
AcDbSymbolTableRecord
100
AcDbRegAppTableRecord
  2
GEVID1210549922
 70
     0
  0
APPID
  5
4FA
330
9
100
AcDbSymbolTableRecord
100
AcDbRegAppTableRecord
  2
GEVID1210635173
 70
     0
  0
APPID
  5
4FB
330
9
100
AcDbSymbolTableRecord
100
AcDbRegAppTableRecord
  2
GEVID1210635174
 70
     0
  0
APPID
  5
4FC
330
9
100
AcDbSymbolTableRecord
100
AcDbRegAppTableRecord
  2
GEVID1210635175
 70
     0
  0
APPID
  5
4FD
330
9
100
AcDbSymbolTableRecord
100
AcDbRegAppTableRecord
  2
GEVID1210635176
 70
     0
  0
APPID
  5
4FE
330
9
100
AcDbSymbolTableRecord
100
AcDbRegAppTableRecord
  2
GEVID1210635177
 70
     0
  0
APPID
  5
4FF
330
9
100
AcDbSymbolTableRecord
100
AcDbRegAppTableRecord
  2
GEVID1210635178
 70
     0
  0
APPID
  5
500
330
9
100
AcDbSymbolTableRecord
100
AcDbRegAppTableRecord
  2
GENIUS_GENIUS_GENBHEDTMP_13
 70
     0
  0
APPID
  5
501
330
9
100
AcDbSymbolTableRecord
100
AcDbRegAppTableRecord
  2
GEVID1210635179
 70
     0
  0
APPID
  5
502
330
9
100
AcDbSymbolTableRecord
100
AcDbRegAppTableRecord
  2
GEVID1210635180
 70
     0
  0
APPID
  5
503
330
9
100
AcDbSymbolTableRecord
100
AcDbRegAppTableRecord
  2
GEVID1210635181
 70
     0
  0
APPID
  5
504
330
9
100
AcDbSymbolTableRecord
100
AcDbRegAppTableRecord
  2
GEVID1210635182
 70
     0
  0
APPID
  5
505
330
9
100
AcDbSymbolTableRecord
100
AcDbRegAppTableRecord
  2
GEVID1210635184
 70
     0
  0
APPID
  5
506
330
9
100
AcDbSymbolTableRecord
100
AcDbRegAppTableRecord
  2
GEVID1210635185
 70
     0
  0
APPID
  5
507
330
9
100
AcDbSymbolTableRecord
100
AcDbRegAppTableRecord
  2
GEVID1210635186
 70
     0
  0
APPID
  5
508
330
9
100
AcDbSymbolTableRecord
100
AcDbRegAppTableRecord
  2
GEVID1210635187
 70
     0
  0
APPID
  5
509
330
9
100
AcDbSymbolTableRecord
100
AcDbRegAppTableRecord
  2
GEVID1210635188
 70
     0
  0
APPID
  5
50A
330
9
100
AcDbSymbolTableRecord
100
AcDbRegAppTableRecord
  2
GEVID1210635189
 70
     0
  0
APPID
  5
50B
330
9
100
AcDbSymbolTableRecord
100
AcDbRegAppTableRecord
  2
GEVID1210635190
 70
     0
  0
APPID
  5
50C
330
9
100
AcDbSymbolTableRecord
100
AcDbRegAppTableRecord
  2
GENIUS_GENREC_14
 70
     0
  0
APPID
  5
50D
330
9
100
AcDbSymbolTableRecord
100
AcDbRegAppTableRecord
  2
GENIUS_GENOBJ-N-REC_13
 70
     0
  0
APPID
  5
50E
330
9
100
AcDbSymbolTableRecord
100
AcDbRegAppTableRecord
  2
GEVID1210676655
 70
     0
  0
APPID
  5
50F
330
9
100
AcDbSymbolTableRecord
100
AcDbRegAppTableRecord
  2
GEVID1210676656
 70
     0
  0
APPID
  5
510
330
9
100
AcDbSymbolTableRecord
100
AcDbRegAppTableRecord
  2
GEVID1210676657
 70
     0
  0
APPID
  5
511
330
9
100
AcDbSymbolTableRecord
100
AcDbRegAppTableRecord
  2
GEVID1210676659
 70
     0
  0
APPID
  5
512
330
9
100
AcDbSymbolTableRecord
100
AcDbRegAppTableRecord
  2
GEVID1210676660
 70
     0
  0
APPID
  5
513
330
9
100
AcDbSymbolTableRecord
100
AcDbRegAppTableRecord
  2
GEVID1210676661
 70
     0
  0
APPID
  5
514
330
9
100
AcDbSymbolTableRecord
100
AcDbRegAppTableRecord
  2
GEVID1210676662
 70
     0
  0
APPID
  5
515
330
9
100
AcDbSymbolTableRecord
100
AcDbRegAppTableRecord
  2
GEVID1210721646
 70
     0
  0
APPID
  5
516
330
9
100
AcDbSymbolTableRecord
100
AcDbRegAppTableRecord
  2
GEVID1210721647
 70
     0
  0
APPID
  5
517
330
9
100
AcDbSymbolTableRecord
100
AcDbRegAppTableRecord
  2
GEVID1210721648
 70
     0
  0
APPID
  5
518
330
9
100
AcDbSymbolTableRecord
100
AcDbRegAppTableRecord
  2
GEVID1210721649
 70
     0
  0
APPID
  5
519
330
9
100
AcDbSymbolTableRecord
100
AcDbRegAppTableRecord
  2
GEVID1210721650
 70
     0
  0
APPID
  5
51A
330
9
100
AcDbSymbolTableRecord
100
AcDbRegAppTableRecord
  2
GEVID1210721651
 70
     0
  0
APPID
  5
51B
330
9
100
AcDbSymbolTableRecord
100
AcDbRegAppTableRecord
  2
GEVID1210721652
 70
     0
  0
APPID
  5
51C
330
9
100
AcDbSymbolTableRecord
100
AcDbRegAppTableRecord
  2
GEVID1210721653
 70
     0
  0
APPID
  5
51D
330
9
100
AcDbSymbolTableRecord
100
AcDbRegAppTableRecord
  2
PE_URL
 70
     0
  0
APPID
  5
51E
330
9
100
AcDbSymbolTableRecord
100
AcDbRegAppTableRecord
  2
GEVID1210825555
 70
     0
  0
APPID
  5
51F
330
9
100
AcDbSymbolTableRecord
100
AcDbRegAppTableRecord
  2
GEVID1210825556
 70
     0
  0
APPID
  5
520
330
9
100
AcDbSymbolTableRecord
100
AcDbRegAppTableRecord
  2
GEVID1210825557
 70
     0
  0
APPID
  5
521
330
9
100
AcDbSymbolTableRecord
100
AcDbRegAppTableRecord
  2
GEVID1210825558
 70
     0
  0
APPID
  5
522
330
9
100
AcDbSymbolTableRecord
100
AcDbRegAppTableRecord
  2
GEVID1210825559
 70
     0
  0
APPID
  5
523
330
9
100
AcDbSymbolTableRecord
100
AcDbRegAppTableRecord
  2
GEVID1210825560
 70
     0
  0
APPID
  5
524
330
9
100
AcDbSymbolTableRecord
100
AcDbRegAppTableRecord
  2
GEVID1210825561
 70
     0
  0
APPID
  5
525
330
9
100
AcDbSymbolTableRecord
100
AcDbRegAppTableRecord
  2
GEVID1210825562
 70
     0
  0
APPID
  5
526
330
9
100
AcDbSymbolTableRecord
100
AcDbRegAppTableRecord
  2
GEVID1210825563
 70
     0
  0
APPID
  5
527
330
9
100
AcDbSymbolTableRecord
100
AcDbRegAppTableRecord
  2
GEVID1210825564
 70
     0
  0
APPID
  5
528
330
9
100
AcDbSymbolTableRecord
100
AcDbRegAppTableRecord
  2
GEVID1210825565
 70
     0
  0
APPID
  5
529
330
9
100
AcDbSymbolTableRecord
100
AcDbRegAppTableRecord
  2
GEVID1210825566
 70
     0
  0
APPID
  5
52A
330
9
100
AcDbSymbolTableRecord
100
AcDbRegAppTableRecord
  2
GEVID1210825567
 70
     0
  0
APPID
  5
52B
330
9
100
AcDbSymbolTableRecord
100
AcDbRegAppTableRecord
  2
GENIUS_GENOBJ-N-ZOO_13
 70
     0
  0
APPID
  5
52C
330
9
100
AcDbSymbolTableRecord
100
AcDbRegAppTableRecord
  2
GENIUS_GENZOO_17
 70
     0
  0
APPID
  5
52D
330
9
100
AcDbSymbolTableRecord
100
AcDbRegAppTableRecord
  2
ACADANNOTATIVEDECOMPOSITION
 70
     0
  0
APPID
  5
52E
330
9
100
AcDbSymbolTableRecord
100
AcDbRegAppTableRecord
  2
GENIUS_GENOBJ-N-HTC_13
 70
     0
  0
APPID
  5
52F
330
9
100
AcDbSymbolTableRecord
100
AcDbRegAppTableRecord
  2
GENIUS_GENHATCH_13
 70
     0
  0
APPID
  5
530
330
9
100
AcDbSymbolTableRecord
100
AcDbRegAppTableRecord
  2
GEVID1210896020
 70
     0
  0
APPID
  5
531
330
9
100
AcDbSymbolTableRecord
100
AcDbRegAppTableRecord
  2
GEVID1210896021
 70
     0
  0
APPID
  5
532
330
9
100
AcDbSymbolTableRecord
100
AcDbRegAppTableRecord
  2
GEVID1209083540
 70
     0
  0
APPID
  5
533
330
9
100
AcDbSymbolTableRecord
100
AcDbRegAppTableRecord
  2
GEVMK
 70
     0
  0
APPID
  5
534
330
9
100
AcDbSymbolTableRecord
100
AcDbRegAppTableRecord
  2
GEVID1209083542
 70
     0
  0
APPID
  5
535
330
9
100
AcDbSymbolTableRecord
100
AcDbRegAppTableRecord
  2
GEVID1209083543
 70
     0
  0
APPID
  5
536
330
9
100
AcDbSymbolTableRecord
100
AcDbRegAppTableRecord
  2
GEVID1209083544
 70
     0
  0
APPID
  5
537
330
9
100
AcDbSymbolTableRecord
100
AcDbRegAppTableRecord
  2
GEVID1209083545
 70
     0
  0
APPID
  5
538
330
9
100
AcDbSymbolTableRecord
100
AcDbRegAppTableRecord
  2
GEVID1209083546
 70
     0
  0
APPID
  5
539
330
9
100
AcDbSymbolTableRecord
100
AcDbRegAppTableRecord
  2
GEVID1209083547
 70
     0
  0
APPID
  5
53A
330
9
100
AcDbSymbolTableRecord
100
AcDbRegAppTableRecord
  2
GEVID1209083548
 70
     0
  0
APPID
  5
53B
330
9
100
AcDbSymbolTableRecord
100
AcDbRegAppTableRecord
  2
GEVID1209083549
 70
     0
  0
APPID
  5
53C
330
9
100
AcDbSymbolTableRecord
100
AcDbRegAppTableRecord
  2
GEVID1209083550
 70
     0
  0
APPID
  5
53D
330
9
100
AcDbSymbolTableRecord
100
AcDbRegAppTableRecord
  2
GEVID1209083551
 70
     0
  0
APPID
  5
53E
330
9
100
AcDbSymbolTableRecord
100
AcDbRegAppTableRecord
  2
GEVID1209083552
 70
     0
  0
APPID
  5
53F
330
9
100
AcDbSymbolTableRecord
100
AcDbRegAppTableRecord
  2
GEVID1209083553
 70
     0
  0
APPID
  5
540
330
9
100
AcDbSymbolTableRecord
100
AcDbRegAppTableRecord
  2
GEVID1210896022
 70
     0
  0
APPID
  5
541
330
9
100
AcDbSymbolTableRecord
100
AcDbRegAppTableRecord
  2
GEVID1211508364
 70
     0
  0
APPID
  5
542
330
9
100
AcDbSymbolTableRecord
100
AcDbRegAppTableRecord
  2
GEVID1211414908
 70
     0
  0
APPID
  5
543
330
9
100
AcDbSymbolTableRecord
100
AcDbRegAppTableRecord
  2
GEVID1211414909
 70
     0
  0
APPID
  5
544
330
9
100
AcDbSymbolTableRecord
100
AcDbRegAppTableRecord
  2
GEVID1211508359
 70
     0
  0
APPID
  5
545
330
9
100
AcDbSymbolTableRecord
100
AcDbRegAppTableRecord
  2
GEVID1211508360
 70
     0
  0
APPID
  5
546
330
9
100
AcDbSymbolTableRecord
100
AcDbRegAppTableRecord
  2
GEVID1211508361
 70
     0
  0
APPID
  5
547
330
9
100
AcDbSymbolTableRecord
100
AcDbRegAppTableRecord
  2
GEVID1211508362
 70
     0
  0
APPID
  5
548
330
9
100
AcDbSymbolTableRecord
100
AcDbRegAppTableRecord
  2
GEVID1211508363
 70
     0
  0
APPID
  5
549
330
9
100
AcDbSymbolTableRecord
100
AcDbRegAppTableRecord
  2
GEVID1211878469
 70
     0
  0
APPID
  5
54A
330
9
100
AcDbSymbolTableRecord
100
AcDbRegAppTableRecord
  2
GEVID1212642819
 70
     0
  0
APPID
  5
54B
330
9
100
AcDbSymbolTableRecord
100
AcDbRegAppTableRecord
  2
GEVID1212642820
 70
     0
  0
APPID
  5
54C
330
9
100
AcDbSymbolTableRecord
100
AcDbRegAppTableRecord
  2
GEVID1212642821
 70
     0
  0
APPID
  5
54D
330
9
100
AcDbSymbolTableRecord
100
AcDbRegAppTableRecord
  2
GEVID1212642822
 70
     0
  0
APPID
  5
54E
330
9
100
AcDbSymbolTableRecord
100
AcDbRegAppTableRecord
  2
GEVID1212642823
 70
     0
  0
APPID
  5
54F
330
9
100
AcDbSymbolTableRecord
100
AcDbRegAppTableRecord
  2
GEVID1212642825
 70
     0
  0
APPID
  5
550
330
9
100
AcDbSymbolTableRecord
100
AcDbRegAppTableRecord
  2
GEVID1212642826
 70
     0
  0
APPID
  5
551
330
9
100
AcDbSymbolTableRecord
100
AcDbRegAppTableRecord
  2
GEVID1212642827
 70
     0
  0
APPID
  5
552
330
9
100
AcDbSymbolTableRecord
100
AcDbRegAppTableRecord
  2
GEVID1212642828
 70
     0
  0
APPID
  5
553
330
9
100
AcDbSymbolTableRecord
100
AcDbRegAppTableRecord
  2
GEVID1212642831
 70
     0
  0
APPID
  5
554
330
9
100
AcDbSymbolTableRecord
100
AcDbRegAppTableRecord
  2
GEVID1212642834
 70
     0
  0
APPID
  5
555
330
9
100
AcDbSymbolTableRecord
100
AcDbRegAppTableRecord
  2
GEVID1212642835
 70
     0
  0
APPID
  5
556
330
9
100
AcDbSymbolTableRecord
100
AcDbRegAppTableRecord
  2
GEVID1212642836
 70
     0
  0
APPID
  5
557
330
9
100
AcDbSymbolTableRecord
100
AcDbRegAppTableRecord
  2
GEVID1212642837
 70
     0
  0
APPID
  5
558
330
9
100
AcDbSymbolTableRecord
100
AcDbRegAppTableRecord
  2
GEVID1212642839
 70
     0
  0
APPID
  5
559
330
9
100
AcDbSymbolTableRecord
100
AcDbRegAppTableRecord
  2
GEVID1212642840
 70
     0
  0
APPID
  5
55A
330
9
100
AcDbSymbolTableRecord
100
AcDbRegAppTableRecord
  2
GEVID1212642841
 70
     0
  0
APPID
  5
55B
330
9
100
AcDbSymbolTableRecord
100
AcDbRegAppTableRecord
  2
GEVID1212655312
 70
     0
  0
APPID
  5
55C
330
9
100
AcDbSymbolTableRecord
100
AcDbRegAppTableRecord
  2
GEVID1212655313
 70
     0
  0
APPID
  5
55D
330
9
100
AcDbSymbolTableRecord
100
AcDbRegAppTableRecord
  2
GEVID1212656533
 70
     0
  0
APPID
  5
55E
330
9
100
AcDbSymbolTableRecord
100
AcDbRegAppTableRecord
  2
GEVID1212656534
 70
     0
  0
APPID
  5
55F
330
9
100
AcDbSymbolTableRecord
100
AcDbRegAppTableRecord
  2
GEVID1212656535
 70
     0
  0
APPID
  5
560
330
9
100
AcDbSymbolTableRecord
100
AcDbRegAppTableRecord
  2
GEVID1212656536
 70
     0
  0
APPID
  5
561
330
9
100
AcDbSymbolTableRecord
100
AcDbRegAppTableRecord
  2
GEVID1212656538
 70
     0
  0
APPID
  5
562
330
9
100
AcDbSymbolTableRecord
100
AcDbRegAppTableRecord
  2
GEVID1212656541
 70
     0
  0
APPID
  5
563
330
9
100
AcDbSymbolTableRecord
100
AcDbRegAppTableRecord
  2
GEVID1212656543
 70
     0
  0
APPID
  5
564
330
9
100
AcDbSymbolTableRecord
100
AcDbRegAppTableRecord
  2
GENIUS_GENOBJ-F-PFASSM_13
 70
     0
  0
APPID
  5
565
330
9
100
AcDbSymbolTableRecord
100
AcDbRegAppTableRecord
  2
GEVID1212656544
 70
     0
  0
APPID
  5
566
330
9
100
AcDbSymbolTableRecord
100
AcDbRegAppTableRecord
  2
GEVID1212656545
 70
     0
  0
APPID
  5
567
330
9
100
AcDbSymbolTableRecord
100
AcDbRegAppTableRecord
  2
GEVID1212656546
 70
     0
  0
APPID
  5
568
330
9
100
AcDbSymbolTableRecord
100
AcDbRegAppTableRecord
  2
GEVID1212656547
 70
     0
  0
APPID
  5
569
330
9
100
AcDbSymbolTableRecord
100
AcDbRegAppTableRecord
  2
GEVID1212656548
 70
     0
  0
APPID
  5
56A
330
9
100
AcDbSymbolTableRecord
100
AcDbRegAppTableRecord
  2
GEVID1212656549
 70
     0
  0
APPID
  5
56B
330
9
100
AcDbSymbolTableRecord
100
AcDbRegAppTableRecord
  2
GEVID1212656550
 70
     0
  0
APPID
  5
56C
330
9
100
AcDbSymbolTableRecord
100
AcDbRegAppTableRecord
  2
GEVID1212656552
 70
     0
  0
APPID
  5
56D
330
9
100
AcDbSymbolTableRecord
100
AcDbRegAppTableRecord
  2
GEVID1212656553
 70
     0
  0
APPID
  5
56E
330
9
100
AcDbSymbolTableRecord
100
AcDbRegAppTableRecord
  2
GEVID1212656554
 70
     0
  0
APPID
  5
56F
330
9
100
AcDbSymbolTableRecord
100
AcDbRegAppTableRecord
  2
GEVID1212656555
 70
     0
  0
APPID
  5
570
330
9
100
AcDbSymbolTableRecord
100
AcDbRegAppTableRecord
  2
GEVID1212656556
 70
     0
  0
APPID
  5
571
330
9
100
AcDbSymbolTableRecord
100
AcDbRegAppTableRecord
  2
GEVID1212656557
 70
     0
  0
APPID
  5
572
330
9
100
AcDbSymbolTableRecord
100
AcDbRegAppTableRecord
  2
GEVID1212656559
 70
     0
  0
APPID
  5
573
330
9
100
AcDbSymbolTableRecord
100
AcDbRegAppTableRecord
  2
GEVID1212656560
 70
     0
  0
APPID
  5
574
330
9
100
AcDbSymbolTableRecord
100
AcDbRegAppTableRecord
  2
GEVID1212656561
 70
     0
  0
APPID
  5
575
330
9
100
AcDbSymbolTableRecord
100
AcDbRegAppTableRecord
  2
GEVID1212656562
 70
     0
  0
APPID
  5
576
330
9
100
AcDbSymbolTableRecord
100
AcDbRegAppTableRecord
  2
GEVID1212656563
 70
     0
  0
APPID
  5
577
330
9
100
AcDbSymbolTableRecord
100
AcDbRegAppTableRecord
  2
GEVID1212711781
 70
     0
  0
APPID
  5
578
330
9
100
AcDbSymbolTableRecord
100
AcDbRegAppTableRecord
  2
GEVID1212711782
 70
     0
  0
APPID
  5
579
330
9
100
AcDbSymbolTableRecord
100
AcDbRegAppTableRecord
  2
GEVID1212711783
 70
     0
  0
APPID
  5
57A
330
9
100
AcDbSymbolTableRecord
100
AcDbRegAppTableRecord
  2
GEVID1212711784
 70
     0
  0
APPID
  5
57B
330
9
100
AcDbSymbolTableRecord
100
AcDbRegAppTableRecord
  2
GEVID1212711788
 70
     0
  0
APPID
  5
57C
330
9
100
AcDbSymbolTableRecord
100
AcDbRegAppTableRecord
  2
GEVID1212711789
 70
     0
  0
APPID
  5
57D
330
9
100
AcDbSymbolTableRecord
100
AcDbRegAppTableRecord
  2
GEVID1212711790
 70
     0
  0
APPID
  5
57E
330
9
100
AcDbSymbolTableRecord
100
AcDbRegAppTableRecord
  2
GEVID1212711791
 70
     0
  0
APPID
  5
57F
330
9
100
AcDbSymbolTableRecord
100
AcDbRegAppTableRecord
  2
GEVID1212711792
 70
     0
  0
APPID
  5
580
330
9
100
AcDbSymbolTableRecord
100
AcDbRegAppTableRecord
  2
GEVID1212711793
 70
     0
  0
APPID
  5
581
330
9
100
AcDbSymbolTableRecord
100
AcDbRegAppTableRecord
  2
GEVID1212711794
 70
     0
  0
APPID
  5
582
330
9
100
AcDbSymbolTableRecord
100
AcDbRegAppTableRecord
  2
GEVID1212711795
 70
     0
  0
APPID
  5
583
330
9
100
AcDbSymbolTableRecord
100
AcDbRegAppTableRecord
  2
GEVID1212711797
 70
     0
  0
APPID
  5
584
330
9
100
AcDbSymbolTableRecord
100
AcDbRegAppTableRecord
  2
GEVID1212711798
 70
     0
  0
APPID
  5
585
330
9
100
AcDbSymbolTableRecord
100
AcDbRegAppTableRecord
  2
GEVID1212711799
 70
     0
  0
APPID
  5
586
330
9
100
AcDbSymbolTableRecord
100
AcDbRegAppTableRecord
  2
GEVID1212711800
 70
     0
  0
APPID
  5
587
330
9
100
AcDbSymbolTableRecord
100
AcDbRegAppTableRecord
  2
GEVID1212711801
 70
     0
  0
APPID
  5
588
330
9
100
AcDbSymbolTableRecord
100
AcDbRegAppTableRecord
  2
GEVID1212711802
 70
     0
  0
APPID
  5
589
330
9
100
AcDbSymbolTableRecord
100
AcDbRegAppTableRecord
  2
GEVID1212711803
 70
     0
  0
APPID
  5
58A
330
9
100
AcDbSymbolTableRecord
100
AcDbRegAppTableRecord
  2
GEVID1212711804
 70
     0
  0
APPID
  5
58B
330
9
100
AcDbSymbolTableRecord
100
AcDbRegAppTableRecord
  2
GEVID1212711805
 70
     0
  0
APPID
  5
58C
330
9
100
AcDbSymbolTableRecord
100
AcDbRegAppTableRecord
  2
GEVID1212711806
 70
     0
  0
APPID
  5
58D
330
9
100
AcDbSymbolTableRecord
100
AcDbRegAppTableRecord
  2
GEVID1212711807
 70
     0
  0
APPID
  5
58E
330
9
100
AcDbSymbolTableRecord
100
AcDbRegAppTableRecord
  2
GEVID1212711808
 70
     0
  0
APPID
  5
58F
330
9
100
AcDbSymbolTableRecord
100
AcDbRegAppTableRecord
  2
GEVID1212711809
 70
     0
  0
APPID
  5
590
330
9
100
AcDbSymbolTableRecord
100
AcDbRegAppTableRecord
  2
GEVID1212711810
 70
     0
  0
APPID
  5
591
330
9
100
AcDbSymbolTableRecord
100
AcDbRegAppTableRecord
  2
GEVID1212711811
 70
     0
  0
APPID
  5
90A
330
9
100
AcDbSymbolTableRecord
100
AcDbRegAppTableRecord
  2
GENIUS_GENTRA_14
 70
     0
  0
APPID
  5
919
330
9
100
AcDbSymbolTableRecord
100
AcDbRegAppTableRecord
  2
GENIUS_GENOBJ-N-TIT_13
 70
     0
  0
APPID
  5
91A
330
9
100
AcDbSymbolTableRecord
100
AcDbRegAppTableRecord
  2
GENIUS_GENTITLE_13
 70
     0
  0
APPID
  5
949
330
9
100
AcDbSymbolTableRecord
100
AcDbRegAppTableRecord
  2
GENIUS_GENBLLY_14
 70
     0
  0
APPID
  5
DDD
330
9
100
AcDbSymbolTableRecord
100
AcDbRegAppTableRecord
  2
GEVID1213165152
 70
     0
  0
APPID
  5
12F9
330
9
100
AcDbSymbolTableRecord
100
AcDbRegAppTableRecord
  2
AcDbDynamicBlockTrueName
 70
     0
  0
APPID
  5
12FA
330
9
100
AcDbSymbolTableRecord
100
AcDbRegAppTableRecord
  2
ACDBBLOCKREPETAG
 70
     0
  0
APPID
  5
1C15
330
9
100
AcDbSymbolTableRecord
100
AcDbRegAppTableRecord
  2
GEVID1214872427
 70
     0
  0
APPID
  5
1C2A
330
9
100
AcDbSymbolTableRecord
100
AcDbRegAppTableRecord
  2
GEVID1214872428
 70
     0
  0
APPID
  5
1C2F
330
9
100
AcDbSymbolTableRecord
100
AcDbRegAppTableRecord
  2
GEVID1214872429
 70
     0
  0
APPID
  5
1C33
330
9
100
AcDbSymbolTableRecord
100
AcDbRegAppTableRecord
  2
GEVID1214872430
 70
     0
  0
APPID
  5
1C3F
330
9
100
AcDbSymbolTableRecord
100
AcDbRegAppTableRecord
  2
GEVID1214872432
 70
     0
  0
APPID
  5
1C4E
330
9
100
AcDbSymbolTableRecord
100
AcDbRegAppTableRecord
  2
GEVID1214872433
 70
     0
  0
APPID
  5
20DC
330
9
100
AcDbSymbolTableRecord
100
AcDbRegAppTableRecord
  2
AcDbDynamicBlockGUID
 70
     0
  0
APPID
  5
20FD
330
9
100
AcDbSymbolTableRecord
100
AcDbRegAppTableRecord
  2
GENIUS_GENOBJ-N-REV_13
 70
     0
  0
APPID
  5
20FE
330
9
100
AcDbSymbolTableRecord
100
AcDbRegAppTableRecord
  2
GENIUS_GENOBJ-N-RSSYM_13
 70
     0
  0
APPID
  5
20FF
330
9
100
AcDbSymbolTableRecord
100
AcDbRegAppTableRecord
  2
GENIUS_GENSYMENT_13
 70
     0
  0
APPID
  5
2100
330
9
100
AcDbSymbolTableRecord
100
AcDbRegAppTableRecord
  2
GENIUS_GENSCSYM_13
 70
     0
  0
APPID
  5
5994
330
9
100
AcDbSymbolTableRecord
100
AcDbRegAppTableRecord
  2
GEVID1240187036
 70
     0
  0
APPID
  5
5999
330
9
100
AcDbSymbolTableRecord
100
AcDbRegAppTableRecord
  2
GEVID1240187037
 70
     0
  0
APPID
  5
5B13
330
9
100
AcDbSymbolTableRecord
100
AcDbRegAppTableRecord
  2
GEVID1240187038
 70
     0
  0
APPID
  5
5BD4
330
9
100
AcDbSymbolTableRecord
100
AcDbRegAppTableRecord
  2
GEVID1240187039
 70
     0
  0
ENDTAB
  0
TABLE
  2
DIMSTYLE
  5
A
330
0
100
AcDbSymbolTable
 70
    29
100
AcDbDimStyleTable
 71
     1
340
5AB
  0
DIMSTYLE
105
5AB
330
A
100
AcDbSymbolTableRecord
100
AcDbDimStyleTableRecord
  2
SEISA
 70
     0
  4
"
 40
25.0
 41
2.5
 42
0.625
 43
10.0
 44
0.625
 47
0.1
 48
0.1
 73
     0
 74
     0
 77
     3
 78
     8
 79
     2
 90
     1
140
3.5
141
0.0
143
0.0393701
146
0.71
147
1.5
172
     1
176
     3
177
     3
178
     3
271
     2
272
     2
283
     0
286
     8
340
5D5
341
69
342
69
371
    -1
372
    -1
1001
ACAD_DSTYLE_DIMJAG
1070
   388
1040
1.5
1001
ACAD_DSTYLE_DIMTALN
1070
   392
1070
     1
  0
DIMSTYLE
105
5E9
102
{ACAD_REACTORS
330
5D96
330
5DDA
330
5DF2
330
5E0E
330
5E5B
330
5ED6
330
5EEE
330
5F06
330
6099
330
60B5
330
60E9
330
6132
330
72A5
330
730A
102
}
330
A
100
AcDbSymbolTableRecord
100
AcDbDimStyleTableRecord
  2
SEISA$0
 70
     0
  4
"
 40
25.0
 41
2.5
 42
0.625
 43
10.0
 44
0.625
 47
0.1
 48
0.1
 73
     0
 74
     0
 77
     3
 78
     8
 79
     2
 90
     1
140
3.5
141
0.0
143
0.0393701
146
0.71
147
1.5
172
     1
176
     3
177
     3
178
     3
271
     2
272
     2
283
     0
286
     8
340
5D5
341
69
342
69
371
    -1
372
    -1
  0
DIMSTYLE
105
7623
330
A
100
AcDbSymbolTableRecord
100
AcDbDimStyleTableRecord
  2
AM_ISO
 70
     0
  4
"
 41
2.5
 42
1.0
 43
10.0
 44
1.0
 47
0.1
 48
0.1
 73
     0
 74
     0
 77
     1
 78
     8
 79
     2
 90
     1
140
3.5
141
0.0
143
0.0393701
146
0.71
147
1.5
172
     1
176
   256
177
   256
178
     2
271
     2
272
     3
274
     4
283
     0
284
     8
340
11
371
    -1
372
    -1
  0
DIMSTYLE
105
7624
330
A
100
AcDbSymbolTableRecord
100
AcDbDimStyleTableRecord
  2
AM_ISO$3
 70
     0
  4
"
 41
2.5
 42
1.0
 43
10.0
 44
1.0
 47
0.1
 48
0.1
 73
     0
 77
     1
 78
     8
 79
     2
 90
     1
140
3.5
141
0.0
143
0.0393701
146
0.71
147
1.5
176
   256
177
   256
178
     2
271
     2
272
     3
274
     4
283
     0
284
     8
288
     1
289
     0
340
11
371
    -1
372
    -1
  0
DIMSTYLE
105
7625
330
A
100
AcDbSymbolTableRecord
100
AcDbDimStyleTableRecord
  2
AM_ISO$4
 70
     0
  4
"
 41
2.5
 42
1.0
 43
10.0
 44
1.0
 47
0.1
 48
0.1
 73
     0
 77
     1
 78
     8
 79
     2
 90
     1
140
3.5
141
0.0
143
0.0393701
146
0.71
147
1.5
176
   256
177
   256
178
     2
271
     2
272
     3
274
     4
283
     0
284
     8
288
     1
289
     0
340
11
371
    -1
372
    -1
  0
DIMSTYLE
105
7626
330
A
100
AcDbSymbolTableRecord
100
AcDbDimStyleTableRecord
  2
AM_ISO$6
 70
     0
  4
"
 41
2.5
 42
1.0
 43
10.0
 44
1.0
 47
0.1
 48
0.1
 73
     0
 74
     0
 78
     8
 79
     2
 90
     1
140
3.5
141
0.0
143
0.0393701
146
0.71
147
1.5
172
     1
176
   256
177
   256
178
     2
271
     2
272
     3
274
     4
283
     0
284
     8
340
11
371
    -1
372
    -1
  0
DIMSTYLE
105
7627
330
A
100
AcDbSymbolTableRecord
100
AcDbDimStyleTableRecord
  2
AM_ISO$7
 70
     0
  4
"
 41
2.5
 42
1.0
 43
10.0
 44
1.0
 47
0.1
 48
0.1
 73
     0
 74
     0
 77
     1
 78
     8
 79
     2
 90
     1
140
5.0
141
0.0
143
0.0393701
146
0.71
147
1.5
172
     1
176
   256
177
   256
178
     2
271
     2
272
     3
274
     4
283
     0
284
     8
340
11
371
    -1
372
    -1
  0
DIMSTYLE
105
7628
330
A
100
AcDbSymbolTableRecord
100
AcDbDimStyleTableRecord
  2
AM_ISO$SF
 70
     0
  4
"
 41
2.5
 42
1.0
 43
10.0
 44
1.0
 47
0.1
 48
0.1
 73
     0
 74
     0
 75
     1
 76
     1
 77
     1
 78
     8
 79
     2
 90
     1
140
3.5
141
0.0
143
0.0393701
146
0.71
147
1.5
172
     1
176
   256
177
   256
178
     2
271
     2
272
     3
274
     4
283
     0
284
     8
340
11
371
    -1
372
    -1
  0
DIMSTYLE
105
7629
330
A
100
AcDbSymbolTableRecord
100
AcDbDimStyleTableRecord
  2
AM_ISO$SH
 70
     0
  4
"
 41
2.5
 42
1.0
 43
10.0
 44
1.0
 47
0.1
 48
0.1
 73
     0
 74
     0
 75
     1
 76
     1
 77
     1
 78
     8
 79
     2
 90
     1
140
3.5
141
0.0
143
0.0393701
144
2.0
146
0.71
147
1.5
172
     1
173
     1
176
   256
177
   256
178
     2
271
     2
272
     3
274
     4
283
     0
284
     8
340
11
343
74
371
    -1
372
    -1
  0
ENDTAB
  0
TABLE
  2
BLOCK_RECORD
  5
1
330
0
100
AcDbSymbolTable
 70
    32
  0
BLOCK_RECORD
  5
1F
102
{ACAD_XDICTIONARY
360
82
102
}
330
1
100
AcDbSymbolTableRecord
100
AcDbBlockTableRecord
  2
*Model_Space
340
22
 70
     0
280
     1
281
     0
  0
BLOCK_RECORD
  5
1B
330
1
100
AcDbSymbolTableRecord
100
AcDbBlockTableRecord
  2
*Paper_Space
340
1E
 70
     0
280
     1
281
     0
  0
BLOCK_RECORD
  5
23
330
1
100
AcDbSymbolTableRecord
100
AcDbBlockTableRecord
  2
*Paper_Space0
340
26
 70
     0
280
     1
281
     0
  0
BLOCK_RECORD
  5
69
330
1
100
AcDbSymbolTableRecord
100
AcDbBlockTableRecord
  2
_Open30
340
0
102
{BLKREFS
331
6892
331
6893
331
689A
331
689B
331
68B9
331
68BA
331
68C2
331
68C3
331
68CB
331
68CC
331
68DE
331
68E9
331
6915
331
6916
331
71BF
331
71C0
331
71C8
331
71C9
331
72E1
331
740F
331
7472
331
7473
102
}
 70
     0
280
     1
281
     0
  0
BLOCK_RECORD
  5
74
330
1
100
AcDbSymbolTableRecord
100
AcDbBlockTableRecord
  2
GENAXEH
340
0
 70
     0
280
     1
281
     0
  0
BLOCK_RECORD
  5
4DBA
102
{ACAD_XDICTIONARY
360
4DE3
102
}
330
1
100
AcDbSymbolTableRecord
100
AcDbBlockTableRecord
  2
ロッカクアナツキプラグA R1
340
0
310
2800000020000000200000000100080000000000000400000000000000000000000000000000000000000000000080000080000000808000800000008000800080800000C0C0C000C0DCC000F0CAA6000020400000206000002080000020A0000020C0000020E00000400000004020000040400000406000004080000040A0
310
000040C0000040E00000600000006020000060400000606000006080000060A0000060C0000060E00000800000008020000080400000806000008080000080A0000080C0000080E00000A0000000A0200000A0400000A0600000A0800000A0A00000A0C00000A0E00000C0000000C0200000C0400000C0600000C0800000C0
310
A00000C0C00000C0E00000E0000000E0200000E0400000E0600000E0800000E0A00000E0C00000E0E00040000000400020004000400040006000400080004000A0004000C0004000E00040200000402020004020400040206000402080004020A0004020C0004020E000404000004040200040404000404060004040800040
310
40A0004040C0004040E00040600000406020004060400040606000406080004060A0004060C0004060E00040800000408020004080400040806000408080004080A0004080C0004080E00040A0000040A0200040A0400040A0600040A0800040A0A00040A0C00040A0E00040C0000040C0200040C0400040C0600040C08000
310
40C0A00040C0C00040C0E00040E0000040E0200040E0400040E0600040E0800040E0A00040E0C00040E0E00080000000800020008000400080006000800080008000A0008000C0008000E00080200000802020008020400080206000802080008020A0008020C0008020E00080400000804020008040400080406000804080
310
008040A0008040C0008040E00080600000806020008060400080606000806080008060A0008060C0008060E00080800000808020008080400080806000808080008080A0008080C0008080E00080A0000080A0200080A0400080A0600080A0800080A0A00080A0C00080A0E00080C0000080C0200080C0400080C0600080C0
310
800080C0A00080C0C00080C0E00080E0000080E0200080E0400080E0600080E0800080E0A00080E0C00080E0E000C0000000C0002000C0004000C0006000C0008000C000A000C000C000C000E000C0200000C0202000C0204000C0206000C0208000C020A000C020C000C020E000C0400000C0402000C0404000C0406000C0
310
408000C040A000C040C000C040E000C0600000C0602000C0604000C0606000C0608000C060A000C060C000C060E000C0800000C0802000C0804000C0806000C0808000C080A000C080C000C080E000C0A00000C0A02000C0A04000C0A06000C0A08000C0A0A000C0A0C000C0A0E000C0C00000C0C02000C0C04000C0C06000
310
C0C08000C0C0A000F0FBFF00A4A0A000808080000000FF0000FF000000FFFF00FF000000FF00FF00FFFF0000FFFFFF00000000000000000000000000000000000000000000000000000000000000000000000000000000000000000000000000F9000000000000000000000000000000000000000000000000000000000000
310
00F900000000000000000000000000000000000000000000000000000000000000F900000000000000000000000000000000000000000000000000000000000000F900000000000000000000000000000000000000000000000000000000000000F90000000000000000000000000000000000000000000000000000000000
310
0000F900000000000000000000000000000000000000000000000000000000000000F900000000000000000000000000000000000000000000000000000000000000F900000000000000000000000000000000000000000000000000000000000000F900000000000000000000000000000000000000000000000000000000
310
000000F900000000000000000000000000000000000000000000000000000000000000F900000000000000000000000000000000000000000000000000000000000000F900000000000000000000000000000000000000000000000000000000000000F9000000000000000000000000000000000000000000000000000000
310
00000000F900000000000000000000000000000000000000000000000000000000000000F900000000000000000000000000000000000000000000000000FFFFFFFFFFFFFFFFFFFFFFFF00000000000000000000000000000000FF00FFFF000000000000F90000000000FFFF00FF000000000000000000000000FFFFFFFFFF
310
FFFFFFFFFFFFFFFFFFFFFFFFFFFFFF000000000000000000000000FF000000000000000000F90000000000000000FF000000000000000000000000FF000000000000000000F90000000000000000FF000000000000000000000000FF000000000000000000F90000000000000000FF000000000000000000000000FF000000
310
000000000000F90000000000000000FFFF00000000000000000000FFFF000000000000000000F90000000000000000FFFF00000000000000000000FFFF000000000000000000F90000000000000000FFFF00000000000000000000FFFF000000000000000000F90000000000000000FFFF00000000000000000000FFFF0000
310
00000000000000F90000000000000000FFFF0000000000000000000000FFFF0000000000000000F900000000000000FFFF00000000000000000000000000000000000000000000F900000000000000000000000000000000000000000000000000000000000000F90000000000000000000000000000000000000000000000
310
0000000000000000F90000000000000000000000000000000000000000000000000000000000000000000000000000000000000000000000
102
{BLKREFS
331
4EA0
102
}
 70
     4
280
     1
281
     0
  0
BLOCK_RECORD
  5
4E64
102
{ACAD_XDICTIONARY
360
4F25
102
}
330
1
100
AcDbSymbolTableRecord
100
AcDbBlockTableRecord
  2
ケースＡ CCMH1600
340
0
310
2800000020000000200000000100080000000000000400000000000000000000000000000000000000000000000080000080000000808000800000008000800080800000C0C0C000C0DCC000F0CAA6000020400000206000002080000020A0000020C0000020E00000400000004020000040400000406000004080000040A0
310
000040C0000040E00000600000006020000060400000606000006080000060A0000060C0000060E00000800000008020000080400000806000008080000080A0000080C0000080E00000A0000000A0200000A0400000A0600000A0800000A0A00000A0C00000A0E00000C0000000C0200000C0400000C0600000C0800000C0
310
A00000C0C00000C0E00000E0000000E0200000E0400000E0600000E0800000E0A00000E0C00000E0E00040000000400020004000400040006000400080004000A0004000C0004000E00040200000402020004020400040206000402080004020A0004020C0004020E000404000004040200040404000404060004040800040
310
40A0004040C0004040E00040600000406020004060400040606000406080004060A0004060C0004060E00040800000408020004080400040806000408080004080A0004080C0004080E00040A0000040A0200040A0400040A0600040A0800040A0A00040A0C00040A0E00040C0000040C0200040C0400040C0600040C08000
310
40C0A00040C0C00040C0E00040E0000040E0200040E0400040E0600040E0800040E0A00040E0C00040E0E00080000000800020008000400080006000800080008000A0008000C0008000E00080200000802020008020400080206000802080008020A0008020C0008020E00080400000804020008040400080406000804080
310
008040A0008040C0008040E00080600000806020008060400080606000806080008060A0008060C0008060E00080800000808020008080400080806000808080008080A0008080C0008080E00080A0000080A0200080A0400080A0600080A0800080A0A00080A0C00080A0E00080C0000080C0200080C0400080C0600080C0
310
800080C0A00080C0C00080C0E00080E0000080E0200080E0400080E0600080E0800080E0A00080E0C00080E0E000C0000000C0002000C0004000C0006000C0008000C000A000C000C000C000E000C0200000C0202000C0204000C0206000C0208000C020A000C020C000C020E000C0400000C0402000C0404000C0406000C0
310
408000C040A000C040C000C040E000C0600000C0602000C0604000C0606000C0608000C060A000C060C000C060E000C0800000C0802000C0804000C0806000C0808000C080A000C080C000C080E000C0A00000C0A02000C0A04000C0A06000C0A08000C0A0A000C0A0C000C0A0E000C0C00000C0C02000C0C04000C0C06000
310
C0C08000C0C0A000F0FBFF00A4A0A000808080000000FF0000FF000000FFFF00FF000000FF00FF00FFFF0000FFFFFF000000000000000000000000000000000000000000000000000000000000000000000000000000000000000000FFFF000000000000000000000000000000000000000000000000000000000000FFFF00
310
0000000000000000000000000000000000000000000000000000000000FFFFFFFFFFFFFFFFFFFF00000000000000000000000000000000000000000000FFFF0000000000FFFF0000000000000000000000000000000000000000000000FFFF0000000000FFFF0000000000000000000000000000000000000000000000FFFF
310
0000000000FFFF0000000000000000000000000000000000000000000000FFFF0000000000FFFF0000000000000000000000000000000000000000000000FFFF0000000000FFFF0000000000000000000000000000000000000000000000FFFF0000000000FFFF0000000000000000000000000000000000000000000000FF
310
FF0000000000FFFF0000000000000000000000000000000000000000000000FFFF0000000000FFFF0000000000000000000000000000000000000000000000FFFF0000000000FFFF0000000000000000000000000000000000000000000000FFFF0000000000FFFF0000000000000000000000000000000000000000000000
310
FFFF0000000000FFFF0000000000000000000000000000000000000000000000FFFF0000000000FFFF0000000000000000000000000000000000000000000000000000000000000000000000000000000000000000000000000000000000000000000000000000000000000000000000000000000000000000000000000000
310
00000000000000000000000000000000000000000000000000000000000000000000000000000000000000000000000000000000000000000000000000000000000000000000000000000000000000000000000000000000000000000000000000000000000000000000000000000000000000000000000000000000000000
310
00000000000000000000000000000000000000000000000000000000000000000000000000000000000000000000000000000000000000000000000000000000000000000000000000000000000000000000000000000000000000000000000000000000000000000000000000000000000000000000000000000000000000
310
0000000000000000000000000000000000000000000000000000000000000000000000FFFFF9FFFFFFFFFFFF0000000000000000000000000000000000000000000000FFFFFFFFFFFFFFFFFF000000000000000000000000000000000000000000F9F9FFFFF900000000000000000000000000000000000000000000000000
310
00000000FFFF0000000000000000000000000000000000000000000000000000000000000000000000000000000000000000000000000000
102
{BLKREFS
331
5752
102
}
 70
     4
280
     1
281
     0
  0
BLOCK_RECORD
  5
4F50
102
{ACAD_XDICTIONARY
360
4F7E
102
}
330
1
100
AcDbSymbolTableRecord
100
AcDbBlockTableRecord
  2
ロッカクアナツキプラグB R1
340
0
310
2800000020000000200000000100080000000000000400000000000000000000000000000000000000000000000080000080000000808000800000008000800080800000C0C0C000C0DCC000F0CAA6000020400000206000002080000020A0000020C0000020E00000400000004020000040400000406000004080000040A0
310
000040C0000040E00000600000006020000060400000606000006080000060A0000060C0000060E00000800000008020000080400000806000008080000080A0000080C0000080E00000A0000000A0200000A0400000A0600000A0800000A0A00000A0C00000A0E00000C0000000C0200000C0400000C0600000C0800000C0
310
A00000C0C00000C0E00000E0000000E0200000E0400000E0600000E0800000E0A00000E0C00000E0E00040000000400020004000400040006000400080004000A0004000C0004000E00040200000402020004020400040206000402080004020A0004020C0004020E000404000004040200040404000404060004040800040
310
40A0004040C0004040E00040600000406020004060400040606000406080004060A0004060C0004060E00040800000408020004080400040806000408080004080A0004080C0004080E00040A0000040A0200040A0400040A0600040A0800040A0A00040A0C00040A0E00040C0000040C0200040C0400040C0600040C08000
310
40C0A00040C0C00040C0E00040E0000040E0200040E0400040E0600040E0800040E0A00040E0C00040E0E00080000000800020008000400080006000800080008000A0008000C0008000E00080200000802020008020400080206000802080008020A0008020C0008020E00080400000804020008040400080406000804080
310
008040A0008040C0008040E00080600000806020008060400080606000806080008060A0008060C0008060E00080800000808020008080400080806000808080008080A0008080C0008080E00080A0000080A0200080A0400080A0600080A0800080A0A00080A0C00080A0E00080C0000080C0200080C0400080C0600080C0
310
800080C0A00080C0C00080C0E00080E0000080E0200080E0400080E0600080E0800080E0A00080E0C00080E0E000C0000000C0002000C0004000C0006000C0008000C000A000C000C000C000E000C0200000C0202000C0204000C0206000C0208000C020A000C020C000C020E000C0400000C0402000C0404000C0406000C0
310
408000C040A000C040C000C040E000C0600000C0602000C0604000C0606000C0608000C060A000C060C000C060E000C0800000C0802000C0804000C0806000C0808000C080A000C080C000C080E000C0A00000C0A02000C0A04000C0A06000C0A08000C0A0A000C0A0C000C0A0E000C0C00000C0C02000C0C04000C0C06000
310
C0C08000C0C0A000F0FBFF00A4A0A000808080000000FF0000FF000000FFFF00FF000000FF00FF00FFFF0000FFFFFF000000000000000000000000000000000000000000000000000000000000000000000000000000000000000000000000F900000000000000000000000000000000000000000000000000000000000000
310
F900000000000000000000000000000000000000000000000000000000000000F900000000000000000000000000000000000000000000000000000000000000F900000000000000000000000000000000000000000000000000000000000000F9000000000000000000000000000000000000000000000000000000000000
310
00F900000000000000000000000000000000000000000000000000000000000000F900000000000000000000000000000000000000000000000000000000000000F900000000000000000000000000000000000000000000000000000000000000F90000000000000000000000000000000000000000000000000000000000
310
0000F900000000000000000000000000000000000000000000000000000000000000F900000000000000000000000000000000000000000000000000000000000000F900000000000000000000000000000000000000000000000000000000000000F900000000000000000000000000000000000000000000000000000000
310
000000F900000000000000000000000000000000000000000000000000000000000000F90000000000000000000000000000000000000000000000000000FFFFFFFFFFFFFFFFFFFFFFFF00000000000000000000000000000000FF00FFFF0000000000F9000000000000FFFF00FF000000000000000000000000FFFFFFFFFF
310
FFFFFFFFFFFFFFFFFFFFFFFFFFFFFF000000000000000000000000FF0000000000000000F9000000000000000000FF000000000000000000000000FF0000000000000000F9000000000000000000FF000000000000000000000000FF0000000000000000F9000000000000000000FF000000000000000000000000FF000000
310
0000000000F9000000000000000000FF0000000000000000000000FFFF0000000000000000F9000000000000000000FF0000000000000000000000FFFF0000000000000000F9000000000000000000FF0000000000000000000000FFFF0000000000000000F9000000000000000000FF0000000000000000000000FFFF0000
310
000000000000F9000000000000000000FFFF0000000000000000000000FFFF00000000000000F90000000000000000FFFF000000000000000000000000000000000000000000F900000000000000000000000000000000000000000000000000000000000000F9000000000000000000000000000000000000000000000000
310
00000000000000F9000000000000000000000000000000000000000000000000000000000000000000000000000000000000000000000000
102
{BLKREFS
331
502B
102
}
 70
     4
280
     1
281
     0
  0
BLOCK_RECORD
  5
4FF7
102
{ACAD_XDICTIONARY
360
50A6
102
}
330
1
100
AcDbSymbolTableRecord
100
AcDbBlockTableRecord
  2
ケースＢ CCMH1600
340
0
310
2800000020000000200000000100080000000000000400000000000000000000000000000000000000000000000080000080000000808000800000008000800080800000C0C0C000C0DCC000F0CAA6000020400000206000002080000020A0000020C0000020E00000400000004020000040400000406000004080000040A0
310
000040C0000040E00000600000006020000060400000606000006080000060A0000060C0000060E00000800000008020000080400000806000008080000080A0000080C0000080E00000A0000000A0200000A0400000A0600000A0800000A0A00000A0C00000A0E00000C0000000C0200000C0400000C0600000C0800000C0
310
A00000C0C00000C0E00000E0000000E0200000E0400000E0600000E0800000E0A00000E0C00000E0E00040000000400020004000400040006000400080004000A0004000C0004000E00040200000402020004020400040206000402080004020A0004020C0004020E000404000004040200040404000404060004040800040
310
40A0004040C0004040E00040600000406020004060400040606000406080004060A0004060C0004060E00040800000408020004080400040806000408080004080A0004080C0004080E00040A0000040A0200040A0400040A0600040A0800040A0A00040A0C00040A0E00040C0000040C0200040C0400040C0600040C08000
310
40C0A00040C0C00040C0E00040E0000040E0200040E0400040E0600040E0800040E0A00040E0C00040E0E00080000000800020008000400080006000800080008000A0008000C0008000E00080200000802020008020400080206000802080008020A0008020C0008020E00080400000804020008040400080406000804080
310
008040A0008040C0008040E00080600000806020008060400080606000806080008060A0008060C0008060E00080800000808020008080400080806000808080008080A0008080C0008080E00080A0000080A0200080A0400080A0600080A0800080A0A00080A0C00080A0E00080C0000080C0200080C0400080C0600080C0
310
800080C0A00080C0C00080C0E00080E0000080E0200080E0400080E0600080E0800080E0A00080E0C00080E0E000C0000000C0002000C0004000C0006000C0008000C000A000C000C000C000E000C0200000C0202000C0204000C0206000C0208000C020A000C020C000C020E000C0400000C0402000C0404000C0406000C0
310
408000C040A000C040C000C040E000C0600000C0602000C0604000C0606000C0608000C060A000C060C000C060E000C0800000C0802000C0804000C0806000C0808000C080A000C080C000C080E000C0A00000C0A02000C0A04000C0A06000C0A08000C0A0A000C0A0C000C0A0E000C0C00000C0C02000C0C04000C0C06000
310
C0C08000C0C0A000F0FBFF00A4A0A000808080000000FF0000FF000000FFFF00FF000000FF00FF00FFFF0000FFFFFF0000000000000000000000000000000000000000000000000000000000000000000000000000000000000000000000000000FFFF00000000000000000000000000000000000000000000000000000000
310
00F9F9F9F9F9F90000000000000000000000000000000000000000FFFFFFFFFFFFFFFF000000000000000000000000000000000000000000000000FFFFFF00000000FF000000000000000000000000000000000000000000000000FFFFFF00000000FF000000000000000000000000000000000000000000000000FFFFFF00
310
000000FF000000000000000000000000000000000000000000000000FFFFFF00000000FF000000000000000000000000000000000000000000000000FFFFFF00000000FF000000000000000000000000000000000000000000000000FFFFFF00000000FF000000000000000000000000000000000000000000000000FFFFFF
310
00000000FF000000000000000000000000000000000000000000000000FFFFFF00000000FF000000000000000000000000000000000000000000000000FFFFFF00000000FF000000000000000000000000000000000000000000000000FFFFFF00000000FF000000000000000000000000000000000000000000000000FFFF
310
FF00000000FF000000000000000000000000000000000000000000000000FFFFFF00000000FF0000000000000000000000000000000000000000000000000000000000000000000000000000000000000000000000000000000000000000000000000000000000000000000000000000000000000000000000000000000000
310
00000000000000000000000000000000000000000000000000000000000000000000000000000000000000000000000000000000000000000000000000000000000000000000000000000000000000000000000000000000000000000000000000000000000000000000000000000000000000000000000000000000000000
310
00000000000000000000000000000000000000000000000000000000000000000000000000000000000000000000000000000000000000000000000000000000000000000000000000000000000000000000000000000000000000000000000000000000000000000000000000000000000000000000000000000000000000
310
000000000000000000000000000000000000000000000000000000000000000000FFFFA4A4FFFFF9FFFF0000000000000000000000000000000000000000000000FFFFFFFFFFFFFFFFFF000000000000000000000000000000000000000000000000000000000000FFFF000000000000000000000000000000000000000000
310
000000000000000000FFFF000000000000000000000000000000000000000000000000000000000000000000000000000000000000000000
102
{BLKREFS
331
5030
102
}
 70
     4
280
     1
281
     0
  0
BLOCK_RECORD
  5
511D
102
{ACAD_XDICTIONARY
360
51AB
102
}
330
1
100
AcDbSymbolTableRecord
100
AcDbBlockTableRecord
  2
センタＡ CCMH1600
340
0
310
2800000020000000200000000100080000000000000400000000000000000000000000000000000000000000000080000080000000808000800000008000800080800000C0C0C000C0DCC000F0CAA6000020400000206000002080000020A0000020C0000020E00000400000004020000040400000406000004080000040A0
310
000040C0000040E00000600000006020000060400000606000006080000060A0000060C0000060E00000800000008020000080400000806000008080000080A0000080C0000080E00000A0000000A0200000A0400000A0600000A0800000A0A00000A0C00000A0E00000C0000000C0200000C0400000C0600000C0800000C0
310
A00000C0C00000C0E00000E0000000E0200000E0400000E0600000E0800000E0A00000E0C00000E0E00040000000400020004000400040006000400080004000A0004000C0004000E00040200000402020004020400040206000402080004020A0004020C0004020E000404000004040200040404000404060004040800040
310
40A0004040C0004040E00040600000406020004060400040606000406080004060A0004060C0004060E00040800000408020004080400040806000408080004080A0004080C0004080E00040A0000040A0200040A0400040A0600040A0800040A0A00040A0C00040A0E00040C0000040C0200040C0400040C0600040C08000
310
40C0A00040C0C00040C0E00040E0000040E0200040E0400040E0600040E0800040E0A00040E0C00040E0E00080000000800020008000400080006000800080008000A0008000C0008000E00080200000802020008020400080206000802080008020A0008020C0008020E00080400000804020008040400080406000804080
310
008040A0008040C0008040E00080600000806020008060400080606000806080008060A0008060C0008060E00080800000808020008080400080806000808080008080A0008080C0008080E00080A0000080A0200080A0400080A0600080A0800080A0A00080A0C00080A0E00080C0000080C0200080C0400080C0600080C0
310
800080C0A00080C0C00080C0E00080E0000080E0200080E0400080E0600080E0800080E0A00080E0C00080E0E000C0000000C0002000C0004000C0006000C0008000C000A000C000C000C000E000C0200000C0202000C0204000C0206000C0208000C020A000C020C000C020E000C0400000C0402000C0404000C0406000C0
310
408000C040A000C040C000C040E000C0600000C0602000C0604000C0606000C0608000C060A000C060C000C060E000C0800000C0802000C0804000C0806000C0808000C080A000C080C000C080E000C0A00000C0A02000C0A04000C0A06000C0A08000C0A0A000C0A0C000C0A0E000C0C00000C0C02000C0C04000C0C06000
310
C0C08000C0C0A000F0FBFF00A4A0A000808080000000FF0000FF000000FFFF00FF000000FF00FF00FFFF0000FFFFFF00000000000000000000000000000000000000000000000000000000000000000000000000000000000000000000000000FFFFFFFFFFFFFFFFFFFF000000000000000000000000000000000000000000
310
0000FF00000000000000FF0000000000000000000000000000000000000000000000FF00000000000000FF0000000000000000000000000000000000000000000000FF00000000000000FF0000000000000000000000000000000000000000000000FF00000000000000FF0000000000000000000000000000000000000000
310
000000FF00000000000000FF0000000000000000000000000000000000000000000000FF00000000000000FF0000000000000000000000000000000000000000000000FF00000000000000FF0000000000000000000000000000000000000000000000FF00000000000000FF00000000000000000000000000000000000000
310
00000000FF00000000000000FF0000000000000000000000000000000000000000000000FF00000000000000FF0000000000000000000000000000000000000000000000FF00000000000000FF0000000000000000000000000000000000000000000000FF00000000000000FF000000000000000000000000000000000000
310
0000000000FF00000000000000FF000000000000000000000000FF00A4A400000000000000FF00000000A4A400FF000000000000000000000000A4A4A40000000000000000000000000000A4A4FF000000000000000000000000FF000000000000000000000000000000000000FF000000000000000000000000FF00000000
310
0000000000000000000000000000FF000000000000000000000000FF000000000000000000000000000000000000FF000000000000000000000000FF000000000000000000000000000000000000FF000000000000000000000000FF000000000000000000000000000000000000FF000000000000000000000000FF000000
310
000000000000000000000000000000FF000000000000000000000000FFFFFFFFFFFFFFFFFFFFFFFFFFFFFFFFFFFFFFFF000000000000000000000000FFFFFFFFFFFFFFFFFFFFFFFFFFFFFFFFFFFFFFFF000000000000000000000000FF000000000000000000000000000000000000FF000000000000000000000000FF0000
310
00000000000000000000000000000000FF000000000000000000000000FF000000000000000000000000000000000000FF000000000000000000000000FF000000000000000000000000000000000000FF000000000000000000000000FFFFFFFFFFFFFFF9FFFFFFFFFFFFFFFFFFFFFFFF0000000000000000000000000000
310
0000000000F90000000000000000000000000000000000000000000000000000000000000000000000000000000000000000000000000000
102
{BLKREFS
331
514A
102
}
 70
     4
280
     1
281
     0
  0
BLOCK_RECORD
  5
552D
102
{ACAD_XDICTIONARY
360
55FA
102
}
330
1
100
AcDbSymbolTableRecord
100
AcDbBlockTableRecord
  2
リーマボルト CCMH1600 M42
340
0
310
2800000020000000200000000100080000000000000400000000000000000000000000000000000000000000000080000080000000808000800000008000800080800000C0C0C000C0DCC000F0CAA6000020400000206000002080000020A0000020C0000020E00000400000004020000040400000406000004080000040A0
310
000040C0000040E00000600000006020000060400000606000006080000060A0000060C0000060E00000800000008020000080400000806000008080000080A0000080C0000080E00000A0000000A0200000A0400000A0600000A0800000A0A00000A0C00000A0E00000C0000000C0200000C0400000C0600000C0800000C0
310
A00000C0C00000C0E00000E0000000E0200000E0400000E0600000E0800000E0A00000E0C00000E0E00040000000400020004000400040006000400080004000A0004000C0004000E00040200000402020004020400040206000402080004020A0004020C0004020E000404000004040200040404000404060004040800040
310
40A0004040C0004040E00040600000406020004060400040606000406080004060A0004060C0004060E00040800000408020004080400040806000408080004080A0004080C0004080E00040A0000040A0200040A0400040A0600040A0800040A0A00040A0C00040A0E00040C0000040C0200040C0400040C0600040C08000
310
40C0A00040C0C00040C0E00040E0000040E0200040E0400040E0600040E0800040E0A00040E0C00040E0E00080000000800020008000400080006000800080008000A0008000C0008000E00080200000802020008020400080206000802080008020A0008020C0008020E00080400000804020008040400080406000804080
310
008040A0008040C0008040E00080600000806020008060400080606000806080008060A0008060C0008060E00080800000808020008080400080806000808080008080A0008080C0008080E00080A0000080A0200080A0400080A0600080A0800080A0A00080A0C00080A0E00080C0000080C0200080C0400080C0600080C0
310
800080C0A00080C0C00080C0E00080E0000080E0200080E0400080E0600080E0800080E0A00080E0C00080E0E000C0000000C0002000C0004000C0006000C0008000C000A000C000C000C000E000C0200000C0202000C0204000C0206000C0208000C020A000C020C000C020E000C0400000C0402000C0404000C0406000C0
310
408000C040A000C040C000C040E000C0600000C0602000C0604000C0606000C0608000C060A000C060C000C060E000C0800000C0802000C0804000C0806000C0808000C080A000C080C000C080E000C0A00000C0A02000C0A04000C0A06000C0A08000C0A0A000C0A0C000C0A0E000C0C00000C0C02000C0C04000C0C06000
310
C0C08000C0C0A000F0FBFF00A4A0A000808080000000FF0000FF000000FFFF00FF000000FF00FF00FFFF0000FFFFFF0000000000000000000000000000000000000000000000000000000000000000000000000000000000000000000000000000000000000000000000000000000000000000000000000000000000000000
310
00000000000000000000000000000000000000000000000000000000000000000000000000000000000000000000000000000000000000000000000000000000000000000000000000000000000000000000000000000000000000000000000000000000000000000000000000000000000000000000000000000000000000
310
00000000000000000000000000000000000000000000000000000000000000000000000000000000000000000000000000000000000000000000000000000000000000000000000000000000000000000000000000000000000000000000000000000000000000000000000000000000000000000000000000000000000000
310
00000000000000000000000000000000000000000000FFFFFFFFFFFF0000000000000000000000000000000000FFFFFFFFFF00000000FF000000FF000000000000000000000000000000000000000000FFFF0000FFFFFFFFFFFFFFFFFF00000000000000000000000000000000FFFFFFFFFF0000FFFFFF000000FF00FF0000
310
0000000000000000000000000000FF0000FFFF0000FFFFFF000000FF00FF00000000000000000000000000000000FF0000FFFF0000FFFFFF000000FFFFFF00000000000000000000000000000000FF0000FFFF0000FFFFFF000000FF00FF00000000000000000000000000000000FF0000FFFF0000FFFFFFFFFFFFFFFFFF00
310
000000000000000000000000000000FFFFFFFFFF00000000FF000000FF000000000000000000000000000000000000000000FFFF00000000FFFFFFFFFFFF0000000000000000000000000000000000FFFFFFFFFF00000000000000000000000000000000000000000000000000000000000000000000000000000000000000
310
00000000000000000000000000000000000000000000000000000000000000000000000000000000000000000000000000000000000000000000000000000000000000000000000000000000000000000000000000000000000000000000000000000000000000000000000000000000000000000000000000000000000000
310
00000000000000000000000000000000000000000000000000000000000000000000000000000000000000000000000000000000000000000000000000000000000000000000000000000000000000000000000000000000000000000000000000000000000000000000000000000000000000000000000000000000000000
310
0000000000000000000000000000000000000000000000000000000000000000000000000000000000000000000000000000000000000000
102
{BLKREFS
331
555F
102
}
 70
     4
280
     1
281
     0
  0
BLOCK_RECORD
  5
5673
102
{ACAD_XDICTIONARY
360
57AC
102
}
330
1
100
AcDbSymbolTableRecord
100
AcDbBlockTableRecord
  2
ＧＣサイドカバ－A CCMH1600
340
0
310
2800000020000000200000000100080000000000000400000000000000000000000000000000000000000000000080000080000000808000800000008000800080800000C0C0C000C0DCC000F0CAA6000020400000206000002080000020A0000020C0000020E00000400000004020000040400000406000004080000040A0
310
000040C0000040E00000600000006020000060400000606000006080000060A0000060C0000060E00000800000008020000080400000806000008080000080A0000080C0000080E00000A0000000A0200000A0400000A0600000A0800000A0A00000A0C00000A0E00000C0000000C0200000C0400000C0600000C0800000C0
310
A00000C0C00000C0E00000E0000000E0200000E0400000E0600000E0800000E0A00000E0C00000E0E00040000000400020004000400040006000400080004000A0004000C0004000E00040200000402020004020400040206000402080004020A0004020C0004020E000404000004040200040404000404060004040800040
310
40A0004040C0004040E00040600000406020004060400040606000406080004060A0004060C0004060E00040800000408020004080400040806000408080004080A0004080C0004080E00040A0000040A0200040A0400040A0600040A0800040A0A00040A0C00040A0E00040C0000040C0200040C0400040C0600040C08000
310
40C0A00040C0C00040C0E00040E0000040E0200040E0400040E0600040E0800040E0A00040E0C00040E0E00080000000800020008000400080006000800080008000A0008000C0008000E00080200000802020008020400080206000802080008020A0008020C0008020E00080400000804020008040400080406000804080
310
008040A0008040C0008040E00080600000806020008060400080606000806080008060A0008060C0008060E00080800000808020008080400080806000808080008080A0008080C0008080E00080A0000080A0200080A0400080A0600080A0800080A0A00080A0C00080A0E00080C0000080C0200080C0400080C0600080C0
310
800080C0A00080C0C00080C0E00080E0000080E0200080E0400080E0600080E0800080E0A00080E0C00080E0E000C0000000C0002000C0004000C0006000C0008000C000A000C000C000C000E000C0200000C0202000C0204000C0206000C0208000C020A000C020C000C020E000C0400000C0402000C0404000C0406000C0
310
408000C040A000C040C000C040E000C0600000C0602000C0604000C0606000C0608000C060A000C060C000C060E000C0800000C0802000C0804000C0806000C0808000C080A000C080C000C080E000C0A00000C0A02000C0A04000C0A06000C0A08000C0A0A000C0A0C000C0A0E000C0C00000C0C02000C0C04000C0C06000
310
C0C08000C0C0A000F0FBFF00A4A0A000808080000000FF0000FF000000FFFF00FF000000FF00FF00FFFF0000FFFFFF00000000000000000000000000000000000000000000000000000000000000000000000000000000000000FFFF000000000000000000000000000000000000000000000000000000000000FFFF000000
310
000000000000000000000000000000000000000000000000000000FFFFFFFFFFFFFFFFFFFF00000000000000000000000000000000000000000000FFFF0000000000FFFFFF00000000000000000000000000000000000000000000FFFF0000000000FFFFFF00000000000000000000000000000000000000000000FFFF0000
310
000000FFFFFF00000000000000000000000000000000000000000000FFFF0000000000FFFFFF00000000000000000000000000000000000000000000FFFF0000000000FFFFFF00000000000000000000000000000000000000000000FFFF0000000000FFFFFF00000000000000000000000000000000000000000000FFFF00
310
00000000FFFFFF00000000000000000000000000000000000000000000FFFF0000000000FFFFFF00000000000000000000000000000000000000000000FFFF0000000000FFFFFF00000000000000000000000000000000000000000000FFFF0000000000FFFFFF00000000000000000000000000000000000000000000FFFF
310
0000000000FFFFFF00000000000000000000000000000000000000000000FFFF0000000000FFFFFF000000000000000000000000000000000000000000000000000000000000000000000000000000000000000000000000000000000000000000000000000000000000000000000000000000000000000000000000000000
310
00000000000000000000000000000000000000000000000000000000000000000000000000000000000000000000000000000000000000000000000000000000000000000000000000000000000000000000000000000000000000000000000000000000000000000000000000000000000000000000000000000000000000
310
00000000000000000000000000000000000000000000000000000000000000000000000000000000000000000000000000000000000000000000000000000000000000000000FAFAFAFAFAFAFAFA0000000000000000000000000000000000000000000000000000FA0000FAFAFA0000000000000000000000000000000000
310
000000000000000000FA0000FAFAFA000000000000000000000000000000000000FFFFF9FFFFFFFFFFFFFF00000000000000000000000000000000000000000000FFFFFFFFFFFFFFFFFFFF0000000000000000000000000000000000000000F9F9FFFFF9000000000000000000000000000000000000000000000000000000
310
0000FFFF00000000000000000000000000000000000000000000000000000000000000000000000000000000000000000000000000000000
102
{BLKREFS
331
56AA
102
}
 70
     4
280
     1
281
     0
  0
BLOCK_RECORD
  5
5823
102
{ACAD_XDICTIONARY
360
58BA
102
}
330
1
100
AcDbSymbolTableRecord
100
AcDbBlockTableRecord
  2
ＧＣサイドカバ－Ｂ CCMH1600
340
0
310
2800000020000000200000000100080000000000000400000000000000000000000000000000000000000000000080000080000000808000800000008000800080800000C0C0C000C0DCC000F0CAA6000020400000206000002080000020A0000020C0000020E00000400000004020000040400000406000004080000040A0
310
000040C0000040E00000600000006020000060400000606000006080000060A0000060C0000060E00000800000008020000080400000806000008080000080A0000080C0000080E00000A0000000A0200000A0400000A0600000A0800000A0A00000A0C00000A0E00000C0000000C0200000C0400000C0600000C0800000C0
310
A00000C0C00000C0E00000E0000000E0200000E0400000E0600000E0800000E0A00000E0C00000E0E00040000000400020004000400040006000400080004000A0004000C0004000E00040200000402020004020400040206000402080004020A0004020C0004020E000404000004040200040404000404060004040800040
310
40A0004040C0004040E00040600000406020004060400040606000406080004060A0004060C0004060E00040800000408020004080400040806000408080004080A0004080C0004080E00040A0000040A0200040A0400040A0600040A0800040A0A00040A0C00040A0E00040C0000040C0200040C0400040C0600040C08000
310
40C0A00040C0C00040C0E00040E0000040E0200040E0400040E0600040E0800040E0A00040E0C00040E0E00080000000800020008000400080006000800080008000A0008000C0008000E00080200000802020008020400080206000802080008020A0008020C0008020E00080400000804020008040400080406000804080
310
008040A0008040C0008040E00080600000806020008060400080606000806080008060A0008060C0008060E00080800000808020008080400080806000808080008080A0008080C0008080E00080A0000080A0200080A0400080A0600080A0800080A0A00080A0C00080A0E00080C0000080C0200080C0400080C0600080C0
310
800080C0A00080C0C00080C0E00080E0000080E0200080E0400080E0600080E0800080E0A00080E0C00080E0E000C0000000C0002000C0004000C0006000C0008000C000A000C000C000C000E000C0200000C0202000C0204000C0206000C0208000C020A000C020C000C020E000C0400000C0402000C0404000C0406000C0
310
408000C040A000C040C000C040E000C0600000C0602000C0604000C0606000C0608000C060A000C060C000C060E000C0800000C0802000C0804000C0806000C0808000C080A000C080C000C080E000C0A00000C0A02000C0A04000C0A06000C0A08000C0A0A000C0A0C000C0A0E000C0C00000C0C02000C0C04000C0C06000
310
C0C08000C0C0A000F0FBFF00A4A0A000808080000000FF0000FF000000FFFF00FF000000FF00FF00FFFF0000FFFFFF000000000000000000000000000000000000000000000000000000000000000000000000000000000000000000000000FFFF0000000000000000000000000000000000000000000000000000000000F9
310
FFF9F90000000000000000000000000000000000000000000000000000000000FF00000000000000000000000000000000000000000000000000000000000000FF00000000000000000000000000000000000000000000000000000000000000FF000000000000000000000000000000000000000000000000000000000000
310
00FF00000000000000000000000000000000000000000000000000000000000000FF00000000000000000000000000000000000000000000000000000000000000FF00000000000000000000000000000000000000000000000000000000000000FF0000000000000000000000000000000000000000000000000000000000
310
0000FF00000000000000000000000000000000000000000000000000000000000000FF00000000000000000000000000000000000000000000000000000000000000FF00000000000000000000000000000000000000000000000000000000000000FF00000000000000000000000000000000000000000000000000000000
310
000000FF00000000000000000000000000000000000000000000000000000000000000FF00000000000000000000000000000000000000000000000000000000000000FF0000000000000000000000000000000000000000000000000000000000000000000000000000000000000000000000000000000000000000000000
310
00000000000000000000000000000000000000000000000000000000000000000000000000000000000000000000000000000000000000000000000000000000000000000000000000000000000000000000000000000000000000000000000000000000000000000000000000000000000000000000000000000000000000
310
00000000000000000000000000000000000000000000000000000000000000000000000000000000000000000000000000000000000000000000000000000000000000000000000000000000000000000000000000000000000000000000000000000000000000000000000000000000000000000000000000000000000000
310
00000000000000000000000000000000000000000000000000000000000000000000000000000000000000000000000000000000000000000000000000000000000000000000FFFF0000000000000000000000000000000000000000000000000000000000F9FFFFF900000000000000000000000000000000000000000000
310
00000000000000FFFF0000000000000000000000000000000000000000000000000000000000000000000000000000000000000000000000
102
{BLKREFS
331
5852
102
}
 70
     4
280
     1
281
     0
  0
BLOCK_RECORD
  5
5D97
330
1
100
AcDbSymbolTableRecord
100
AcDbBlockTableRecord
  2
*D14
340
0
 70
     0
280
     1
281
     0
  0
BLOCK_RECORD
  5
5DDB
330
1
100
AcDbSymbolTableRecord
100
AcDbBlockTableRecord
  2
*D15
340
0
 70
     0
280
     1
281
     0
  0
BLOCK_RECORD
  5
5DF3
330
1
100
AcDbSymbolTableRecord
100
AcDbBlockTableRecord
  2
*D16
340
0
 70
     0
280
     1
281
     0
  0
BLOCK_RECORD
  5
5E0F
330
1
100
AcDbSymbolTableRecord
100
AcDbBlockTableRecord
  2
*D17
340
0
 70
     0
280
     1
281
     0
  0
BLOCK_RECORD
  5
5E5C
330
1
100
AcDbSymbolTableRecord
100
AcDbBlockTableRecord
  2
*D18
340
0
 70
     0
280
     1
281
     0
  0
BLOCK_RECORD
  5
5ED7
330
1
100
AcDbSymbolTableRecord
100
AcDbBlockTableRecord
  2
*D19
340
0
 70
     0
280
     1
281
     0
  0
BLOCK_RECORD
  5
5EEF
330
1
100
AcDbSymbolTableRecord
100
AcDbBlockTableRecord
  2
*D20
340
0
 70
     0
280
     1
281
     0
  0
BLOCK_RECORD
  5
5F07
330
1
100
AcDbSymbolTableRecord
100
AcDbBlockTableRecord
  2
*D21
340
0
 70
     0
280
     1
281
     0
  0
BLOCK_RECORD
  5
609A
330
1
100
AcDbSymbolTableRecord
100
AcDbBlockTableRecord
  2
*D22
340
0
 70
     0
280
     1
281
     0
  0
BLOCK_RECORD
  5
60B6
330
1
100
AcDbSymbolTableRecord
100
AcDbBlockTableRecord
  2
*D23
340
0
 70
     0
280
     1
281
     0
  0
BLOCK_RECORD
  5
60EA
330
1
100
AcDbSymbolTableRecord
100
AcDbBlockTableRecord
  2
*D24
340
0
 70
     0
280
     1
281
     0
  0
BLOCK_RECORD
  5
6133
330
1
100
AcDbSymbolTableRecord
100
AcDbBlockTableRecord
  2
*D25
340
0
 70
     0
280
     1
281
     0
  0
BLOCK_RECORD
  5
6155
330
1
100
AcDbSymbolTableRecord
100
AcDbBlockTableRecord
  2
GENDOT
340
0
102
{BLKREFS
331
68DD
331
68E8
102
}
 70
     0
280
     1
281
     0
  0
BLOCK_RECORD
  5
72A6
330
1
100
AcDbSymbolTableRecord
100
AcDbBlockTableRecord
  2
*D27
340
0
 70
     0
280
     1
281
     0
  0
BLOCK_RECORD
  5
72D7
330
1
100
AcDbSymbolTableRecord
100
AcDbBlockTableRecord
  2
_DotSmall
340
0
102
{BLKREFS
331
72E0
331
740E
331
7579
331
757A
102
}
 70
     0
280
     1
281
     0
  0
BLOCK_RECORD
  5
730B
330
1
100
AcDbSymbolTableRecord
100
AcDbBlockTableRecord
  2
*D29
340
0
 70
     0
280
     1
281
     0
  0
BLOCK_RECORD
  5
7549
330
1
100
AcDbSymbolTableRecord
100
AcDbBlockTableRecord
  2
センタB CCMH1600
340
0
310
2800000020000000200000000100080000000000000400000000000000000000000000000000000000000000000080000080000000808000800000008000800080800000C0C0C000C0DCC000F0CAA6000020400000206000002080000020A0000020C0000020E00000400000004020000040400000406000004080000040A0
310
000040C0000040E00000600000006020000060400000606000006080000060A0000060C0000060E00000800000008020000080400000806000008080000080A0000080C0000080E00000A0000000A0200000A0400000A0600000A0800000A0A00000A0C00000A0E00000C0000000C0200000C0400000C0600000C0800000C0
310
A00000C0C00000C0E00000E0000000E0200000E0400000E0600000E0800000E0A00000E0C00000E0E00040000000400020004000400040006000400080004000A0004000C0004000E00040200000402020004020400040206000402080004020A0004020C0004020E000404000004040200040404000404060004040800040
310
40A0004040C0004040E00040600000406020004060400040606000406080004060A0004060C0004060E00040800000408020004080400040806000408080004080A0004080C0004080E00040A0000040A0200040A0400040A0600040A0800040A0A00040A0C00040A0E00040C0000040C0200040C0400040C0600040C08000
310
40C0A00040C0C00040C0E00040E0000040E0200040E0400040E0600040E0800040E0A00040E0C00040E0E00080000000800020008000400080006000800080008000A0008000C0008000E00080200000802020008020400080206000802080008020A0008020C0008020E00080400000804020008040400080406000804080
310
008040A0008040C0008040E00080600000806020008060400080606000806080008060A0008060C0008060E00080800000808020008080400080806000808080008080A0008080C0008080E00080A0000080A0200080A0400080A0600080A0800080A0A00080A0C00080A0E00080C0000080C0200080C0400080C0600080C0
310
800080C0A00080C0C00080C0E00080E0000080E0200080E0400080E0600080E0800080E0A00080E0C00080E0E000C0000000C0002000C0004000C0006000C0008000C000A000C000C000C000E000C0200000C0202000C0204000C0206000C0208000C020A000C020C000C020E000C0400000C0402000C0404000C0406000C0
310
408000C040A000C040C000C040E000C0600000C0602000C0604000C0606000C0608000C060A000C060C000C060E000C0800000C0802000C0804000C0806000C0808000C080A000C080C000C080E000C0A00000C0A02000C0A04000C0A06000C0A08000C0A0A000C0A0C000C0A0E000C0C00000C0C02000C0C04000C0C06000
310
C0C08000C0C0A000F0FBFF00A4A0A000808080000000FF0000FF000000FFFF00FF000000FF00FF00FFFF0000FFFFFF000000000000000000000000000000000000000000000000000000000000000000000000000000FFFFFFFFFFFFFFFFFFFF00000000000000000000000000000000000000000000FF00000000000000FF
310
0000000000000000000000000000000000000000000000FF00000000000000FF0000000000000000000000000000000000000000000000FF00000000000000FF0000000000000000000000000000000000000000000000FF00000000000000FF0000000000000000000000000000000000000000000000FF00000000000000
310
FF0000000000000000000000000000000000000000000000FF00000000000000FF0000000000000000000000000000000000000000000000FF00000000000000FF0000000000000000000000000000000000000000000000FF00000000000000FF0000000000000000000000000000000000000000000000FF000000000000
310
00FF0000000000000000000000000000000000000000000000FF00000000000000FF0000000000000000000000000000000000000000000000FF00000000000000FF0000000000000000000000000000000000000000000000FF00000000000000FF0000000000000000000000000000000000000000000000FF0000000000
310
0000FF0000000000000000000000000000000000000000000000FF00A4A400000000FF00000000000000A4A400FF000000000000000000000000FFA4A40000000000000000000000000000A4A4A4000000000000000000000000FF000000000000000000000000000000000000FF000000000000000000000000FF00000000
310
0000000000000000000000000000FF000000000000000000000000FF000000000000000000000000000000000000FF000000000000000000000000FF000000000000000000000000000000000000FF000000000000000000000000FF000000000000000000000000000000000000FF000000000000000000000000FF000000
310
000000000000000000000000000000FF000000000000000000000000FFFFFFFFFFFFFFFFFFFFFFFFFFFFFFFFFFFFFFFF000000000000000000000000FF000000000000000000000000000000000000FF000000000000000000000000FF000000000000000000000000000000000000FF000000000000000000000000FF0000
310
00000000000000000000000000000000FF000000000000000000000000FF000000000000000000000000000000000000FF000000000000000000000000FF000000000000000000000000000000000000FF000000000000000000000000FFFFFFFFFFFFFFFFFFFFF9F9F9F9F9F9FFFFFFFF0000000000000000000000000000
310
00000000000000000000F9000000000000000000000000000000000000000000000000000000000000000000000000000000000000000000
102
{BLKREFS
331
757E
102
}
 70
     4
280
     1
281
     1
  0
ENDTAB
  0
ENDSEC
  0
SECTION
  2
BLOCKS
  0
BLOCK
  5
20
330
1F
100
AcDbEntity
  8
0
100
AcDbBlockBegin
  2
*Model_Space
 70
     0
 10
0.0
 20
0.0
 30
0.0
  3
*Model_Space
  1

  0
ENDBLK
  5
21
330
1F
100
AcDbEntity
  8
0
100
AcDbBlockEnd
  0
BLOCK
  5
1C
330
1B
100
AcDbEntity
 67
     1
  8
0
100
AcDbBlockBegin
  2
*Paper_Space
 70
     0
 10
0.0
 20
0.0
 30
0.0
  3
*Paper_Space
  1

  0
ENDBLK
  5
1D
330
1B
100
AcDbEntity
 67
     1
  8
0
100
AcDbBlockEnd
  0
BLOCK
  5
24
330
23
100
AcDbEntity
 67
     1
  8
0
100
AcDbBlockBegin
  2
*Paper_Space0
 70
     0
 10
0.0
 20
0.0
 30
0.0
  3
*Paper_Space0
  1

  0
ENDBLK
  5
25
330
23
100
AcDbEntity
 67
     1
  8
0
100
AcDbBlockEnd
  0
BLOCK
  5
6D
330
69
100
AcDbEntity
  8
0
100
AcDbBlockBegin
  2
_Open30
 70
     0
 10
0.0
 20
0.0
 30
0.0
  3
_Open30
  1

  0
LINE
  5
6A
330
69
100
AcDbEntity
  8
0
  6
ByBlock
 62
     0
370
    -2
100
AcDbLine
 10
-1.0
 20
0.26794919
 30
0.0
 11
0.0
 21
0.0
 31
0.0
  0
LINE
  5
6B
330
69
100
AcDbEntity
  8
0
  6
ByBlock
 62
     0
370
    -2
100
AcDbLine
 10
0.0
 20
0.0
 30
0.0
 11
-1.0
 21
-0.26794919
 31
0.0
  0
LINE
  5
6C
330
69
100
AcDbEntity
  8
0
  6
ByBlock
 62
     0
370
    -2
100
AcDbLine
 10
0.0
 20
0.0
 30
0.0
 11
-1.0
 21
0.0
 31
0.0
  0
ENDBLK
  5
6E
330
69
100
AcDbEntity
  8
0
100
AcDbBlockEnd
  0
BLOCK
  5
76
330
74
100
AcDbEntity
  8
0
100
AcDbBlockBegin
  2
GENAXEH
 70
     0
 10
0.0
 20
0.0
 30
0.0
  3
GENAXEH
  1

  0
LINE
  5
75
330
74
100
AcDbEntity
  8
0
100
AcDbLine
 10
-1.0
 20
0.0
 30
0.0
 11
1.0
 21
0.0
 31
0.0
  0
ENDBLK
  5
77
330
74
100
AcDbEntity
  8
0
100
AcDbBlockEnd
  0
BLOCK
  5
4DBB
330
4DBA
100
AcDbEntity
  8
0
100
AcDbBlockBegin
  2
ロッカクアナツキプラグA R1
 70
     0
 10
0.0
 20
0.0
 30
0.0
  3
ロッカクアナツキプラグA R1
  1

  0
LINE
  5
4DBD
330
4DBA
100
AcDbEntity
  8
AM_4 細線
100
AcDbLine
 10
15.40877100000034
 20
-1.070905000000492
 30
0.0
 11
14.89192300000104
 21
-15.87147099999856
 31
0.0
  0
LINE
  5
4DBE
330
4DBA
100
AcDbEntity
  8
AM_4 細線
100
AcDbLine
 10
-15.40877100000034
 20
-1.070905000000492
 30
0.0
 11
-14.89192399999956
 21
-15.87147099999856
 31
0.0
  0
LINE
  5
4DBF
330
4DBA
100
AcDbEntity
  8
AM_0 外形線1
100
AcDbLine
 10
16.4013560000003
 20
-15.0
 30
0.0
 11
16.83786599999985
 21
-2.5
 31
0.0
  0
LINE
  5
4DC0
330
4DBA
100
AcDbEntity
  8
AM_0 外形線1
100
AcDbLine
 10
-16.83786599999985
 20
-2.5
 30
0.0
 11
-16.40135700000064
 21
-15.0
 31
0.0
  0
LINE
  5
4DC1
330
4DBA
100
AcDbEntity
  8
AM_7 中心線
100
AcDbLine
 10
0.0
 20
3.971632000000681
 30
0.0
 11
0.0
 21
-42.26950299999953
 31
0.0
  0
LINE
  5
4DC2
330
4DBA
100
AcDbEntity
  8
AM_0 外形線1
100
AcDbLine
 10
-16.40135700000064
 20
-15.0
 30
0.0
 11
16.4013560000003
 21
-15.0
 31
0.0
  0
LINE
  5
4DC3
330
4DBA
100
AcDbEntity
  8
AM_0 外形線1
100
AcDbLine
 10
9.47315300000082
 20
-19.0
 30
0.0
 11
16.4013560000003
 21
-15.0
 31
0.0
  0
LINE
  5
4DC4
330
4DBA
100
AcDbEntity
  8
AM_0 外形線1
100
AcDbLine
 10
-9.473152999998999
 20
-19.0
 30
0.0
 11
9.47315300000082
 21
-19.0
 31
0.0
  0
LINE
  5
4DC5
330
4DBA
100
AcDbEntity
  8
AM_0 外形線1
100
AcDbLine
 10
-16.40135700000064
 20
-15.0
 30
0.0
 11
-9.473152999998999
 21
-19.0
 31
0.0
  0
LINE
  5
4DC6
330
4DBA
100
AcDbEntity
  8
AM_0 外形線1
100
AcDbLine
 10
-14.33786599999985
 20
0.0
 30
0.0
 11
-16.83786599999985
 21
-2.5
 31
0.0
  0
LINE
  5
4DC7
330
4DBA
100
AcDbEntity
  8
AM_0 外形線1
100
AcDbLine
 10
16.83786599999985
 20
-2.5
 30
0.0
 11
14.33786599999985
 21
0.0
 31
0.0
  0
LINE
  5
6B1D
330
4DBA
100
AcDbEntity
  8
AM_0 外形線1
100
AcDbLine
 10
-14.33786599999985
 20
0.0
 30
0.0
 11
14.33786599999985
 21
0.0
 31
0.0
  0
ENDBLK
  5
4DBC
330
4DBA
100
AcDbEntity
  8
0
100
AcDbBlockEnd
  0
BLOCK
  5
4E65
330
4E64
100
AcDbEntity
  8
0
100
AcDbBlockBegin
  2
ケースＡ CCMH1600
 70
     0
 10
0.0
 20
0.0
 30
0.0
  3
ケースＡ CCMH1600
  1

  0
LINE
  5
4E67
330
4E64
100
AcDbEntity
  8
AM_3 隠れ線
100
AcDbLine
 10
242.0
 20
650.4000000000013
 30
0.0
 11
439.0
 21
650.4000000000013
 31
0.0
  0
LINE
  5
4E68
330
4E64
100
AcDbEntity
  8
AM_7 中心線
100
AcDbLine
 10
222.0
 20
660.0
 30
0.0
 11
457.0
 21
660.0
 31
0.0
  0
LINE
  5
4E69
330
4E64
100
AcDbEntity
  8
AM_0 外形線1
100
AcDbLine
 10
405.0
 20
-725.0
 30
0.0
 11
465.0
 21
-725.0
 31
0.0
  0
LINE
  5
4E6A
330
4E64
100
AcDbEntity
  8
AM_0 外形線1
100
AcDbLine
 10
405.0
 20
725.0
 30
0.0
 11
465.0
 21
725.0
 31
0.0
  0
LINE
  5
4E6B
330
4E64
100
AcDbEntity
  8
AM_0 外形線1
100
AcDbLine
 10
224.0
 20
672.0
 30
0.0
 11
455.0
 21
672.0
 31
0.0
  0
LINE
  5
4E6C
330
4E64
100
AcDbEntity
  8
AM_0 外形線1
100
AcDbLine
 10
405.0
 20
-725.0
 30
0.0
 11
405.0
 21
0.0
 31
0.0
  0
LINE
  5
4E6D
330
4E64
100
AcDbEntity
  8
AM_0 外形線1
100
AcDbLine
 10
390.0
 20
-710.0
 30
0.0
 11
390.0
 21
0.0
 31
0.0
  0
LINE
  5
4E6E
330
4E64
100
AcDbEntity
  8
AM_0 外形線1
100
AcDbLine
 10
70.0
 20
-797.0
 30
0.0
 11
70.0
 21
0.0
 31
0.0
  0
LINE
  5
4E6F
330
4E64
100
AcDbEntity
  8
AM_0 外形線1
100
AcDbLine
 10
0.0
 20
0.0
 30
0.0
 11
0.0
 21
-797.0
 31
0.0
  0
LINE
  5
4E70
330
4E64
100
AcDbEntity
  8
AM_0 外形線1
100
AcDbLine
 10
80.0
 20
-710.0
 30
0.0
 11
390.0
 21
-710.0
 31
0.0
  0
LINE
  5
4E71
330
4E64
100
AcDbEntity
  8
AM_0 外形線1
100
AcDbLine
 10
3.0
 20
-800.0
 30
0.0
 11
67.0
 21
-800.0
 31
0.0
  0
LINE
  5
4E72
330
4E64
100
AcDbEntity
  8
AM_0 外形線1
100
AcDbLine
 10
0.0
 20
-797.0
 30
0.0
 11
3.0
 21
-800.0
 31
0.0
  0
ARC
  5
4E73
330
4E64
100
AcDbEntity
  8
AM_0 外形線1
100
AcDbCircle
 10
80.0
 20
-720.0
 30
0.0
 40
10.0
100
AcDbArc
 50
90.0
 51
180.0
  0
LINE
  5
4E74
330
4E64
100
AcDbEntity
  8
AM_0 外形線1
100
AcDbLine
 10
67.0
 20
-800.0
 30
0.0
 11
70.0
 21
-797.0
 31
0.0
  0
LINE
  5
4E75
330
4E64
100
AcDbEntity
  8
AM_0 外形線1
100
AcDbLine
 10
390.0
 20
-710.0
 30
0.0
 11
405.0
 21
-725.0
 31
0.0
  0
LINE
  5
4E76
330
4E64
100
AcDbEntity
  8
AM_0 外形線1
100
AcDbLine
 10
-15.0
 20
674.0
 30
0.0
 11
-15.0
 21
701.0
 31
0.0
  0
LINE
  5
4E77
330
4E64
100
AcDbEntity
  8
AM_0 外形線1
100
AcDbLine
 10
223.0
 20
674.0
 30
0.0
 11
-15.0
 21
674.0
 31
0.0
  0
LINE
  5
4E78
330
4E64
100
AcDbEntity
  8
AM_0 外形線1
100
AcDbLine
 10
136.4013560000003
 20
695.0
 30
0.0
 11
135.6680200000009
 21
674.0
 31
0.0
  0
LINE
  5
4E79
330
4E64
100
AcDbEntity
  8
AM_0 外形線1
100
AcDbLine
 10
103.5986429999993
 20
695.0
 30
0.0
 11
104.3319800000008
 21
674.0
 31
0.0
  0
LINE
  5
4E7A
330
4E64
100
AcDbEntity
  8
AM_0 外形線1
100
AcDbLine
 10
134.891923000001
 20
694.1285290000013
 30
0.0
 11
134.1890199999998
 21
674.0
 31
0.0
  0
LINE
  5
4E7B
330
4E64
100
AcDbEntity
  8
AM_0 外形線1
100
AcDbLine
 10
105.1080760000004
 20
694.1285290000013
 30
0.0
 11
105.8109800000002
 21
674.0
 31
0.0
  0
LINE
  5
4E7C
330
4E64
100
AcDbEntity
  8
AM_0 外形線1
100
AcDbLine
 10
242.0
 20
650.4000000000013
 30
0.0
 11
226.0
 21
650.4000000000013
 31
0.0
  0
ARC
  5
4E7D
330
4E64
100
AcDbEntity
  8
AM_0 外形線1
100
AcDbCircle
 10
223.0
 20
673.0
 30
0.0
 40
1.0
100
AcDbArc
 50
0.0
 51
90.0
  0
LINE
  5
4E7E
330
4E64
100
AcDbEntity
  8
AM_0 外形線1
100
AcDbLine
 10
224.0
 20
652.4000000000016
 30
0.0
 11
224.0
 21
673.0
 31
0.0
  0
LINE
  5
4E7F
330
4E64
100
AcDbEntity
  8
AM_0 外形線1
100
AcDbLine
 10
226.0
 20
650.4000000000013
 30
0.0
 11
224.0
 21
652.4000000000016
 31
0.0
  0
LINE
  5
4E80
330
4E64
100
AcDbEntity
  8
AM_0 外形線1
100
AcDbLine
 10
80.0
 20
710.0
 30
0.0
 11
390.0
 21
710.0
 31
0.0
  0
LINE
  5
4E81
330
4E64
100
AcDbEntity
  8
AM_7 中心線
100
AcDbLine
 10
101.0
 20
759.4999999999998
 30
0.0
 11
-129.0
 21
759.4999999999998
 31
0.0
  0
LINE
  5
4E82
330
4E64
100
AcDbEntity
  8
AM_0 外形線1
100
AcDbLine
 10
0.0
 20
737.5
 30
0.0
 11
70.0
 21
737.5
 31
0.0
  0
LINE
  5
4E83
330
4E64
100
AcDbEntity
  8
AM_0 外形線1
100
AcDbLine
 10
70.0
 20
781.5
 30
0.0
 11
0.0
 21
781.5
 31
0.0
  0
LINE
  5
4E84
330
4E64
100
AcDbEntity
  8
AM_0 外形線1
100
AcDbLine
 10
3.0
 20
800.0
 30
0.0
 11
67.0
 21
800.0
 31
0.0
  0
LINE
  5
4E85
330
4E64
100
AcDbEntity
  8
AM_0 外形線1
100
AcDbLine
 10
0.0
 20
715.5
 30
0.0
 11
0.0
 21
737.5
 31
0.0
  0
LINE
  5
4E86
330
4E64
100
AcDbEntity
  8
AM_0 外形線1
100
AcDbLine
 10
6.199999999998906
 20
715.5
 30
0.0
 11
0.0
 21
715.5
 31
0.0
  0
ARC
  5
4E87
330
4E64
100
AcDbEntity
  8
AM_0 外形線1
100
AcDbCircle
 10
6.199999999998906
 20
715.0
 30
0.0
 40
0.5
100
AcDbArc
 50
0.0
 51
90.0
  0
LINE
  5
4E88
330
4E64
100
AcDbEntity
  8
AM_0 外形線1
100
AcDbLine
 10
6.699999999998906
 20
705.4999999999998
 30
0.0
 11
6.699999999998906
 21
715.0
 31
0.0
  0
ARC
  5
4E89
330
4E64
100
AcDbEntity
  8
AM_0 外形線1
100
AcDbCircle
 10
6.199999999998906
 20
705.4999999999998
 30
0.0
 40
0.5
100
AcDbArc
 50
270.0
 51
0.0
  0
LINE
  5
4E8A
330
4E64
100
AcDbEntity
  8
AM_0 外形線1
100
AcDbLine
 10
-11.0
 20
705.0
 30
0.0
 11
6.199999999998906
 21
705.0
 31
0.0
  0
LINE
  5
4E8B
330
4E64
100
AcDbEntity
  8
AM_0 外形線1
100
AcDbLine
 10
-15.0
 20
701.0
 30
0.0
 11
-11.0
 21
705.0
 31
0.0
  0
LINE
  5
4E8C
330
4E64
100
AcDbEntity
  8
AM_0 外形線1
100
AcDbLine
 10
0.0
 20
797.0
 30
0.0
 11
3.0
 21
800.0
 31
0.0
  0
LINE
  5
4E8D
330
4E64
100
AcDbEntity
  8
AM_0 外形線1
100
AcDbLine
 10
0.0
 20
781.5
 30
0.0
 11
0.0
 21
797.0
 31
0.0
  0
ARC
  5
4E8E
330
4E64
100
AcDbEntity
  8
AM_0 外形線1
100
AcDbCircle
 10
80.0
 20
720.0
 30
0.0
 40
10.0
100
AcDbArc
 50
180.0
 51
270.0
  0
LINE
  5
4E8F
330
4E64
100
AcDbEntity
  8
AM_0 外形線1
100
AcDbLine
 10
70.0
 20
737.5
 30
0.0
 11
70.0
 21
720.0
 31
0.0
  0
LINE
  5
4E90
330
4E64
100
AcDbEntity
  8
AM_0 外形線1
100
AcDbLine
 10
70.0
 20
722.0
 30
0.0
 11
70.0
 21
797.0
 31
0.0
  0
LINE
  5
4E91
330
4E64
100
AcDbEntity
  8
AM_0 外形線1
100
AcDbLine
 10
67.0
 20
800.0
 30
0.0
 11
70.0
 21
797.0
 31
0.0
  0
LINE
  5
4E92
330
4E64
100
AcDbEntity
  8
AM_0 外形線1
100
AcDbLine
 10
390.0
 20
710.0
 30
0.0
 11
405.0
 21
725.0
 31
0.0
  0
LINE
  5
4E93
330
4E64
100
AcDbEntity
  8
AM_0 外形線1
100
AcDbLine
 10
465.0
 20
0.0
 30
0.0
 11
465.0
 21
-725.0
 31
0.0
  0
LINE
  5
4E95
330
4E64
100
AcDbEntity
  8
AM_0 外形線1
100
AcDbLine
 10
439.0
 20
650.4000000000013
 30
0.0
 11
453.0
 21
650.4000000000013
 31
0.0
  0
LINE
  5
4E98
330
4E64
100
AcDbEntity
  8
AM_0 外形線1
100
AcDbLine
 10
465.0
 20
689.5
 30
0.0
 11
465.0
 21
674.0
 31
0.0
  0
LINE
  5
4E99
330
4E64
100
AcDbEntity
  8
AM_0 外形線1
100
AcDbLine
 10
455.0
 20
652.4000000000016
 30
0.0
 11
453.0
 21
650.4000000000013
 31
0.0
  0
LINE
  5
4E9A
330
4E64
100
AcDbEntity
  8
AM_0 外形線1
100
AcDbLine
 10
455.0
 20
673.0
 30
0.0
 11
455.0
 21
652.4000000000016
 31
0.0
  0
ARC
  5
4E9B
330
4E64
100
AcDbEntity
  8
AM_0 外形線1
100
AcDbCircle
 10
456.0
 20
673.0
 30
0.0
 40
1.0
100
AcDbArc
 50
90.0
 51
180.0
  0
LINE
  5
4E9C
330
4E64
100
AcDbEntity
  8
AM_0 外形線1
100
AcDbLine
 10
456.0
 20
674.0
 30
0.0
 11
465.0
 21
674.0
 31
0.0
  0
LINE
  5
4E9F
330
4E64
100
AcDbEntity
  8
AM_0 外形線1
100
AcDbLine
 10
465.0
 20
710.5
 30
0.0
 11
465.0
 21
725.0
 31
0.0
  0
INSERT
  5
4EA0
330
4E64
100
AcDbEntity
  8
AM_0 外形線1
100
AcDbBlockReference
  2
ロッカクアナツキプラグA R1
 10
120.0
 20
710.0
 30
0.0
  0
LINE
  5
4F21
330
4E64
100
AcDbEntity
  8
AM_0 外形線1
100
AcDbLine
 10
103.0748322000027
 20
710.0
 30
0.0
 11
103.162134000002
 21
707.5000000000017
 31
0.0
  0
LINE
  5
4F22
330
4E64
100
AcDbEntity
  8
AM_0 外形線1
100
AcDbLine
 10
104.5538322263501
 20
710.0
 30
0.0
 11
104.5912290000015
 21
708.9290950000012
 31
0.0
  0
LINE
  5
4F23
330
4E64
100
AcDbEntity
  8
AM_0 外形線1
100
AcDbLine
 10
136.9251677999973
 20
710.0
 30
0.0
 11
136.837865999998
 21
707.5000000000017
 31
0.0
  0
LINE
  5
4F24
330
4E64
100
AcDbEntity
  8
AM_0 外形線1
100
AcDbLine
 10
135.4461677736499
 20
710.0
 30
0.0
 11
135.4087709999985
 21
708.9290950000012
 31
0.0
  0
ELLIPSE
  5
65DD
330
4E64
100
AcDbEntity
  8
AM_0 外形線1
100
AcDbEllipse
 10
3.349999999999453
 20
710.25
 30
0.0
 11
0.0
 21
5.25
 31
0.0
210
0.0
220
0.0
230
1.0
 40
0.6380952380951343
 41
0.0
 42
6.283185307179585
  0
ENDBLK
  5
4E66
330
4E64
100
AcDbEntity
  8
0
100
AcDbBlockEnd
  0
BLOCK
  5
4F51
330
4F50
100
AcDbEntity
  8
0
100
AcDbBlockBegin
  2
ロッカクアナツキプラグB R1
 70
     0
 10
0.0
 20
0.0
 30
0.0
  3
ロッカクアナツキプラグB R1
  1

  0
LINE
  5
4F53
330
4F50
100
AcDbEntity
  8
AM_4 細線
100
AcDbLine
 10
15.40877100000216
 20
-1.070905000000492
 30
0.0
 11
14.89192300000104
 21
-15.87147099999856
 31
0.0
  0
LINE
  5
4F55
330
4F50
100
AcDbEntity
  8
AM_7 中心線
100
AcDbLine
 10
0.0
 20
3.971632000000681
 30
0.0
 11
0.0
 21
-42.26950299999953
 31
0.0
  0
LINE
  5
4F57
330
4F50
100
AcDbEntity
  8
AM_0 外形線1
100
AcDbLine
 10
-16.40135699999882
 20
-15.0
 30
0.0
 11
16.40135600000212
 21
-15.0
 31
0.0
  0
LINE
  5
4F58
330
4F50
100
AcDbEntity
  8
AM_0 外形線1
100
AcDbLine
 10
9.47315300000082
 20
-19.0
 30
0.0
 11
16.40135600000212
 21
-15.0
 31
0.0
  0
LINE
  5
4F59
330
4F50
100
AcDbEntity
  8
AM_0 外形線1
100
AcDbLine
 10
-9.473152999998999
 20
-19.0
 30
0.0
 11
9.47315300000082
 21
-19.0
 31
0.0
  0
LINE
  5
4F5A
330
4F50
100
AcDbEntity
  8
AM_0 外形線1
100
AcDbLine
 10
-16.40135699999882
 20
-15.0
 30
0.0
 11
-9.473152999998999
 21
-19.0
 31
0.0
  0
LINE
  5
4F5B
330
4F50
100
AcDbEntity
  8
AM_0 外形線1
100
AcDbLine
 10
16.83786600000167
 20
-2.5
 30
0.0
 11
14.33786600000167
 21
0.0
 31
0.0
  0
LINE
  5
4F5C
330
4F50
100
AcDbEntity
  8
AM_0 外形線1
100
AcDbLine
 10
-14.33786599999803
 20
0.0
 30
0.0
 11
-16.83786599999803
 21
-2.5
 31
0.0
  0
LINE
  5
4F7B
330
4F50
100
AcDbEntity
  8
AM_0 外形線1
100
AcDbLine
 10
-14.33786599999803
 20
0.0
 30
0.0
 11
14.33786600000167
 21
0.0
 31
0.0
  0
LINE
  5
4F7C
330
4F50
100
AcDbEntity
  8
AM_4 細線
100
AcDbLine
 10
-15.4087709999967
 20
-1.070905000000492
 30
0.0
 11
-14.89192399999956
 21
-15.87147099999856
 31
0.0
  0
LINE
  5
4F7D
330
4F50
100
AcDbEntity
  8
AM_0 外形線1
100
AcDbLine
 10
-16.83786599999894
 20
-2.500000000000909
 30
0.0
 11
-16.40135699999882
 21
-15.0
 31
0.0
  0
ENDBLK
  5
4F52
330
4F50
100
AcDbEntity
  8
0
100
AcDbBlockEnd
  0
BLOCK
  5
4FF8
330
4FF7
100
AcDbEntity
  8
0
100
AcDbBlockBegin
  2
ケースＢ CCMH1600
 70
     0
 10
0.0
 20
0.0
 30
0.0
  3
ケースＢ CCMH1600
  1

  0
LINE
  5
4FFA
330
4FF7
100
AcDbEntity
  8
AM_0 外形線1
100
AcDbLine
 10
-405.0
 20
-725.0
 30
0.0
 11
-405.0
 21
0.0
 31
0.0
  0
LINE
  5
4FFB
330
4FF7
100
AcDbEntity
  8
AM_0 外形線1
100
AcDbLine
 10
-390.0
 20
-710.0
 30
0.0
 11
-390.0
 21
0.0
 31
0.0
  0
LINE
  5
4FFC
330
4FF7
100
AcDbEntity
  8
AM_0 外形線1
100
AcDbLine
 10
-465.0
 20
0.0
 30
0.0
 11
-465.0
 21
-725.0
 31
0.0
  0
LINE
  5
4FFD
330
4FF7
100
AcDbEntity
  8
AM_0 外形線1
100
AcDbLine
 10
-70.0
 20
-797.0
 30
0.0
 11
-70.0
 21
0.0
 31
0.0
  0
LINE
  5
4FFE
330
4FF7
100
AcDbEntity
  8
AM_0 外形線1
100
AcDbLine
 10
-80.0
 20
-710.0
 30
0.0
 11
-390.0
 21
-710.0
 31
0.0
  0
LINE
  5
4FFF
330
4FF7
100
AcDbEntity
  8
AM_0 外形線1
100
AcDbLine
 10
-405.0
 20
-725.0
 30
0.0
 11
-465.0
 21
-725.0
 31
0.0
  0
LINE
  5
5000
330
4FF7
100
AcDbEntity
  8
AM_0 外形線1
100
AcDbLine
 10
-390.0
 20
-710.0
 30
0.0
 11
-405.0
 21
-725.0
 31
0.0
  0
LINE
  5
5001
330
4FF7
100
AcDbEntity
  8
AM_7 中心線
100
AcDbLine
 10
-136.7375889999985
 20
-759.4999999999998
 30
0.0
 11
140.9929069999998
 21
-759.4999999999998
 31
0.0
  0
LINE
  5
5002
330
4FF7
100
AcDbEntity
  8
AM_0 外形線1
100
AcDbLine
 10
-3.0
 20
-800.0
 30
0.0
 11
-67.0
 21
-800.0
 31
0.0
  0
ARC
  5
5003
330
4FF7
100
AcDbEntity
  8
AM_0 外形線1
100
AcDbCircle
 10
-80.0
 20
-720.0
 30
0.0
 40
10.0
100
AcDbArc
 50
0.0
 51
90.0
  0
LINE
  5
5004
330
4FF7
100
AcDbEntity
  8
AM_0 外形線1
100
AcDbLine
 10
-67.0
 20
-800.0
 30
0.0
 11
-70.0
 21
-797.0
 31
0.0
  0
LINE
  5
5005
330
4FF7
100
AcDbEntity
  8
AM_0 外形線1
100
AcDbLine
 10
0.0
 20
-797.0
 30
0.0
 11
-3.0
 21
-800.0
 31
0.0
  0
LINE
  5
5006
330
4FF7
100
AcDbEntity
  8
AM_7 中心線
100
AcDbLine
 10
-222.0
 20
660.0
 30
0.0
 11
-457.0
 21
660.0
 31
0.0
  0
LINE
  5
5007
330
4FF7
100
AcDbEntity
  8
AM_0 外形線1
100
AcDbLine
 10
-226.0
 20
650.4000000000013
 30
0.0
 11
-224.0
 21
652.4000000000016
 31
0.0
  0
LINE
  5
5008
330
4FF7
100
AcDbEntity
  8
AM_0 外形線1
100
AcDbLine
 10
-80.0
 20
710.0
 30
0.0
 11
-390.0
 21
710.0
 31
0.0
  0
LINE
  5
5009
330
4FF7
100
AcDbEntity
  8
AM_0 外形線1
100
AcDbLine
 10
-224.0
 20
672.0
 30
0.0
 11
-455.0
 21
672.0
 31
0.0
  0
LINE
  5
500A
330
4FF7
100
AcDbEntity
  8
AM_3 隠れ線
100
AcDbLine
 10
-439.0
 20
650.4000000000013
 30
0.0
 11
-242.0
 21
650.4000000000013
 31
0.0
  0
LINE
  5
500B
330
4FF7
100
AcDbEntity
  8
AM_0 外形線1
100
AcDbLine
 10
-439.0
 20
650.4000000000013
 30
0.0
 11
-453.0
 21
650.4000000000013
 31
0.0
  0
LINE
  5
500C
330
4FF7
100
AcDbEntity
  8
AM_0 外形線1
100
AcDbLine
 10
-465.0
 20
681.2000000000007
 30
0.0
 11
-465.0
 21
689.5
 31
0.0
  0
LINE
  5
500D
330
4FF7
100
AcDbEntity
  8
AM_0 外形線1
100
AcDbLine
 10
-456.0
 20
674.0
 30
0.0
 11
-465.0
 21
673.9999999999992
 31
0.0
  0
LINE
  5
500E
330
4FF7
100
AcDbEntity
  8
AM_0 外形線1
100
AcDbLine
 10
-465.0
 20
681.2000000000007
 30
0.0
 11
-465.0
 21
674.0
 31
0.0
  0
LINE
  5
500F
330
4FF7
100
AcDbEntity
  8
AM_0 外形線1
100
AcDbLine
 10
-455.0
 20
652.4000000000016
 30
0.0
 11
-453.0
 21
650.4000000000013
 31
0.0
  0
LINE
  5
5010
330
4FF7
100
AcDbEntity
  8
AM_0 外形線1
100
AcDbLine
 10
-455.0
 20
673.0
 30
0.0
 11
-455.0
 21
652.4000000000016
 31
0.0
  0
ARC
  5
5011
330
4FF7
100
AcDbEntity
  8
AM_0 外形線1
100
AcDbCircle
 10
-456.0
 20
673.0
 30
0.0
 40
1.0
100
AcDbArc
 50
0.0
 51
90.0
  0
LINE
  5
5012
330
4FF7
100
AcDbEntity
  8
AM_0 外形線1
100
AcDbLine
 10
-242.0
 20
650.4000000000013
 30
0.0
 11
-226.0
 21
650.4000000000013
 31
0.0
  0
LINE
  5
5013
330
4FF7
100
AcDbEntity
  8
AM_0 外形線1
100
AcDbLine
 10
-465.0
 20
710.5
 30
0.0
 11
-465.0
 21
725.0
 31
0.0
  0
LINE
  5
5014
330
4FF7
100
AcDbEntity
  8
AM_0 外形線1
100
AcDbLine
 10
-405.0
 20
725.0
 30
0.0
 11
-465.0
 21
725.0
 31
0.0
  0
LINE
  5
5015
330
4FF7
100
AcDbEntity
  8
AM_0 外形線1
100
AcDbLine
 10
-390.0
 20
710.0
 30
0.0
 11
-405.0
 21
725.0
 31
0.0
  0
LINE
  5
5016
330
4FF7
100
AcDbEntity
  8
AM_0 外形線1
100
AcDbLine
 10
-103.7050269999981
 20
695.0
 30
0.0
 11
-103.2685169999986
 21
707.5
 31
0.0
  0
LINE
  5
5017
330
4FF7
100
AcDbEntity
  8
AM_0 外形線1
100
AcDbLine
 10
-17.0
 20
674.0
 30
0.0
 11
-17.0
 21
705.0
 31
0.0
  0
LINE
  5
5018
330
4FF7
100
AcDbEntity
  8
AM_0 外形線1
100
AcDbLine
 10
-223.0
 20
674.0
 30
0.0
 11
-17.0
 21
674.0
 31
0.0
  0
ARC
  5
5019
330
4FF7
100
AcDbEntity
  8
AM_0 外形線1
100
AcDbCircle
 10
-223.0
 20
673.0
 30
0.0
 40
1.0
100
AcDbArc
 50
90.0
 51
180.0
  0
LINE
  5
501A
330
4FF7
100
AcDbEntity
  8
AM_0 外形線1
100
AcDbLine
 10
-224.0
 20
652.4000000000016
 30
0.0
 11
-224.0
 21
673.0
 31
0.0
  0
LINE
  5
501B
330
4FF7
100
AcDbEntity
  8
AM_0 外形線1
100
AcDbLine
 10
-103.7050269999981
 20
695.0
 30
0.0
 11
-104.4383629999993
 21
674.0
 31
0.0
  0
LINE
  5
501C
330
4FF7
100
AcDbEntity
  8
AM_0 外形線1
100
AcDbLine
 10
-136.5077399999991
 20
695.0
 30
0.0
 11
-135.7744029999994
 21
674.0
 31
0.0
  0
LINE
  5
501D
330
4FF7
100
AcDbEntity
  8
AM_0 外形線1
100
AcDbLine
 10
-105.2144599999992
 20
694.1285290000013
 30
0.0
 11
-105.9173629999986
 21
674.0
 31
0.0
  0
LINE
  5
501E
330
4FF7
100
AcDbEntity
  8
AM_0 外形線1
100
AcDbLine
 10
-134.9983069999998
 20
694.1285290000013
 30
0.0
 11
-134.2954029999982
 21
674.0
 31
0.0
  0
LINE
  5
501F
330
4FF7
100
AcDbEntity
  8
AM_0 外形線1
100
AcDbLine
 10
0.0
 20
737.5
 30
0.0
 11
-70.0
 21
737.5
 31
0.0
  0
LINE
  5
5020
330
4FF7
100
AcDbEntity
  8
AM_0 外形線1
100
AcDbLine
 10
-70.0
 20
781.5
 30
0.0
 11
0.0
 21
781.5
 31
0.0
  0
LINE
  5
5021
330
4FF7
100
AcDbEntity
  8
AM_0 外形線1
100
AcDbLine
 10
-3.0
 20
800.0
 30
0.0
 11
-67.0
 21
800.0
 31
0.0
  0
LINE
  5
5022
330
4FF7
100
AcDbEntity
  8
AM_0 外形線1
100
AcDbLine
 10
-70.0
 20
781.5
 30
0.0
 11
-70.0
 21
737.5
 31
0.0
  0
ARC
  5
5023
330
4FF7
100
AcDbEntity
  8
AM_0 外形線1
100
AcDbCircle
 10
-80.0
 20
720.0
 30
0.0
 40
10.0
100
AcDbArc
 50
270.0
 51
0.0
  0
LINE
  5
5024
330
4FF7
100
AcDbEntity
  8
AM_0 外形線1
100
AcDbLine
 10
-70.0
 20
737.5
 30
0.0
 11
-70.0
 21
720.0
 31
0.0
  0
LINE
  5
5025
330
4FF7
100
AcDbEntity
  8
AM_0 外形線1
100
AcDbLine
 10
-70.0
 20
797.0
 30
0.0
 11
-70.0
 21
781.5
 31
0.0
  0
LINE
  5
5026
330
4FF7
100
AcDbEntity
  8
AM_0 外形線1
100
AcDbLine
 10
-67.0
 20
800.0
 30
0.0
 11
-70.0
 21
797.0
 31
0.0
  0
LINE
  5
5027
330
4FF7
100
AcDbEntity
  8
AM_0 外形線1
100
AcDbLine
 10
0.0
 20
709.0
 30
0.0
 11
0.0
 21
737.5
 31
0.0
  0
LINE
  5
5028
330
4FF7
100
AcDbEntity
  8
AM_0 外形線1
100
AcDbLine
 10
-4.0
 20
705.0
 30
0.0
 11
0.0
 21
709.0
 31
0.0
  0
LINE
  5
5029
330
4FF7
100
AcDbEntity
  8
AM_0 外形線1
100
AcDbLine
 10
-17.0
 20
705.0
 30
0.0
 11
-4.0
 21
705.0
 31
0.0
  0
LINE
  5
502A
330
4FF7
100
AcDbEntity
  8
AM_0 外形線1
100
AcDbLine
 10
0.0
 20
797.0
 30
0.0
 11
-3.0
 21
800.0
 31
0.0
  0
INSERT
  5
502B
330
4FF7
100
AcDbEntity
  8
AM_0 外形線1
100
AcDbBlockReference
  2
ロッカクアナツキプラグB R1
 10
-120.1063830000002
 20
710.0
 30
0.0
  0
LINE
  5
502C
330
4FF7
100
AcDbEntity
  8
AM_0 外形線1
100
AcDbLine
 10
-135.5525508155342
 20
710.0
 30
0.0
 11
-135.515153999997
 21
708.9290950000022
 31
0.0
  0
LINE
  5
502D
330
4FF7
100
AcDbEntity
  8
AM_0 外形線1
100
AcDbLine
 10
-137.0315507999985
 20
710.0
 30
0.0
 11
-136.9442489999992
 21
707.5
 31
0.0
  0
LINE
  5
502E
330
4FF7
100
AcDbEntity
  8
AM_0 外形線1
100
AcDbLine
 10
-104.6602151844663
 20
710.0
 30
0.0
 11
-104.6976120000036
 21
708.9290950000022
 31
0.0
  0
LINE
  5
502F
330
4FF7
100
AcDbEntity
  8
AM_0 外形線1
100
AcDbLine
 10
-103.181215200002
 20
710.0
 30
0.0
 11
-103.2685170000013
 21
707.5
 31
0.0
  0
LINE
  5
50A4
330
4FF7
100
AcDbEntity
  8
AM_0 外形線1
100
AcDbLine
 10
0.0
 20
-797.0
 30
0.0
 11
0.0
 21
0.0
 31
0.0
  0
LINE
  5
50A5
330
4FF7
100
AcDbEntity
  8
AM_0 外形線1
100
AcDbLine
 10
0.0
 20
797.0
 30
0.0
 11
0.0
 21
781.5
 31
0.0
  0
ENDBLK
  5
4FF9
330
4FF7
100
AcDbEntity
  8
0
100
AcDbBlockEnd
  0
BLOCK
  5
511E
330
511D
100
AcDbEntity
  8
0
100
AcDbBlockBegin
  2
センタＡ CCMH1600
 70
     0
 10
0.0
 20
0.0
 30
0.0
  3
センタＡ CCMH1600
  1

  0
ARC
  5
5122
330
511D
100
AcDbEntity
  8
AM_0 外形線1
100
AcDbCircle
 10
315.5
 20
0.0
 30
0.0
 40
671.4999999999998
100
AcDbArc
 50
81.73752399992499
 51
98.26247600007505
  0
LINE
  5
5123
330
511D
100
AcDbEntity
  8
AM_0 外形線1
100
AcDbLine
 10
0.0
 20
624.0
 30
0.0
 11
0.0
 21
0.0
 31
0.0
  0
LINE
  5
5124
330
511D
100
AcDbEntity
  8
AM_3 隠れ線
100
AcDbLine
 10
0.0
 20
32.0
 30
0.0
 11
98.0
 21
32.0
 31
0.0
  0
LINE
  5
5125
330
511D
100
AcDbEntity
  8
AM_3 隠れ線
100
AcDbLine
 10
0.0
 20
29.0
 30
0.0
 11
120.0
 21
29.0
 31
0.0
  0
LINE
  5
5126
330
511D
100
AcDbEntity
  8
AM_3 隠れ線
100
AcDbLine
 10
98.0
 20
32.0
 30
0.0
 11
98.0
 21
0.0
 31
0.0
  0
LINE
  5
5127
330
511D
100
AcDbEntity
  8
AM_3 隠れ線
100
AcDbLine
 10
99.73205000000051
 20
29.0
 30
0.0
 11
99.73205000000051
 21
0.0
 31
0.0
  0
LINE
  5
5128
330
511D
100
AcDbEntity
  8
AM_3 隠れ線
100
AcDbLine
 10
120.0
 20
29.0
 30
0.0
 11
136.7431570000008
 21
0.0
 31
0.0
  0
LINE
  5
5129
330
511D
100
AcDbEntity
  8
AM_3 隠れ線
100
AcDbLine
 10
120.0
 20
29.0
 30
0.0
 11
120.0
 21
0.0
 31
0.0
  0
LINE
  5
512A
330
511D
100
AcDbEntity
  8
AM_3 隠れ線
100
AcDbLine
 10
98.0
 20
32.0
 30
0.0
 11
99.73205000000051
 21
29.0
 31
0.0
  0
LINE
  5
512B
330
511D
100
AcDbEntity
  8
AM_0 外形線1
100
AcDbLine
 10
216.5
 20
630.0
 30
0.0
 11
6.0
 21
630.0
 31
0.0
  0
LINE
  5
512C
330
511D
100
AcDbEntity
  8
AM_0 外形線1
100
AcDbLine
 10
6.0
 20
630.0
 30
0.0
 11
0.0
 21
624.0
 31
0.0
  0
ARC
  5
512D
330
511D
100
AcDbEntity
  8
AM_0 外形線1
100
AcDbCircle
 10
216.5
 20
630.4999999999998
 30
0.0
 40
0.5
100
AcDbArc
 50
270.0
 51
0.0
  0
LINE
  5
512E
330
511D
100
AcDbEntity
  8
AM_0 外形線1
100
AcDbLine
 10
217.0
 20
662.2364040000011
 30
0.0
 11
217.0
 21
630.4999999999998
 31
0.0
  0
LINE
  5
512F
330
511D
100
AcDbEntity
  8
AM_0 外形線1
100
AcDbLine
 10
219.0
 20
664.5299090000007
 30
0.0
 11
217.0
 21
662.2364040000011
 31
0.0
  0
LINE
  5
5130
330
511D
100
AcDbEntity
  8
AM_7 中心線
100
AcDbLine
 10
315.5
 20
676.5
 30
0.0
 11
315.5
 21
643.0
 31
0.0
  0
LINE
  5
5131
330
511D
100
AcDbEntity
  8
AM_0 外形線1
100
AcDbLine
 10
900.0
 20
-598.0
 30
0.0
 11
900.0
 21
598.0
 31
0.0
  0
LINE
  5
5132
330
511D
100
AcDbEntity
  8
AM_0 外形線1
100
AcDbLine
 10
534.0
 20
-628.0
 30
0.0
 11
534.0
 21
0.0
 31
0.0
  0
LINE
  5
5133
330
511D
100
AcDbEntity
  8
AM_0 外形線1
100
AcDbLine
 10
528.0
 20
-630.0
 30
0.0
 11
528.0
 21
0.0
 31
0.0
  0
LINE
  5
5134
330
511D
100
AcDbEntity
  8
AM_0 外形線1
100
AcDbLine
 10
534.0
 20
-628.0
 30
0.0
 11
870.0
 21
-628.0
 31
0.0
  0
LINE
  5
5135
330
511D
100
AcDbEntity
  8
AM_0 外形線1
100
AcDbLine
 10
478.0
 20
-630.0
 30
0.0
 11
528.0
 21
-630.0
 31
0.0
  0
LINE
  5
5136
330
511D
100
AcDbEntity
  8
AM_0 外形線1
100
AcDbLine
 10
528.0
 20
-630.0
 30
0.0
 11
534.0
 21
-628.0
 31
0.0
  0
ARC
  5
5137
330
511D
100
AcDbEntity
  8
AM_0 外形線1
100
AcDbCircle
 10
870.0
 20
-598.0
 30
0.0
 40
30.0
100
AcDbArc
 50
270.0
 51
0.0
  0
LINE
  5
5138
330
511D
100
AcDbEntity
  8
AM_3 隠れ線
100
AcDbLine
 10
800.2679490000009
 20
29.0
 30
0.0
 11
800.2679490000009
 21
0.0
 31
0.0
  0
LINE
  5
5139
330
511D
100
AcDbEntity
  8
AM_3 隠れ線
100
AcDbLine
 10
802.0
 20
32.0
 30
0.0
 11
802.0
 21
0.0
 31
0.0
  0
LINE
  5
513A
330
511D
100
AcDbEntity
  8
AM_3 隠れ線
100
AcDbLine
 10
780.0
 20
29.0
 30
0.0
 11
763.2568420000008
 21
0.0
 31
0.0
  0
LINE
  5
513B
330
511D
100
AcDbEntity
  8
AM_3 隠れ線
100
AcDbLine
 10
780.0
 20
29.0
 30
0.0
 11
780.0
 21
0.0
 31
0.0
  0
LINE
  5
513C
330
511D
100
AcDbEntity
  8
AM_3 隠れ線
100
AcDbLine
 10
900.0
 20
32.0
 30
0.0
 11
802.0
 21
32.0
 31
0.0
  0
LINE
  5
513D
330
511D
100
AcDbEntity
  8
AM_3 隠れ線
100
AcDbLine
 10
900.0
 20
29.0
 30
0.0
 11
780.0
 21
29.0
 31
0.0
  0
LINE
  5
513E
330
511D
100
AcDbEntity
  8
AM_3 隠れ線
100
AcDbLine
 10
802.0
 20
32.0
 30
0.0
 11
800.2679490000009
 21
29.0
 31
0.0
  0
LINE
  5
513F
330
511D
100
AcDbEntity
  8
AM_0 外形線1
100
AcDbLine
 10
870.0
 20
628.0
 30
0.0
 11
534.0
 21
628.0
 31
0.0
  0
LINE
  5
5140
330
511D
100
AcDbEntity
  8
AM_0 外形線1
100
AcDbLine
 10
528.0
 20
630.0
 30
0.0
 11
414.5
 21
630.0
 31
0.0
  0
LINE
  5
5141
330
511D
100
AcDbEntity
  8
AM_0 外形線1
100
AcDbLine
 10
414.0
 20
662.2364040000011
 30
0.0
 11
412.0
 21
664.5299090000007
 31
0.0
  0
LINE
  5
5142
330
511D
100
AcDbEntity
  8
AM_0 外形線1
100
AcDbLine
 10
414.0
 20
630.4999999999998
 30
0.0
 11
414.0
 21
662.2364040000011
 31
0.0
  0
ARC
  5
5143
330
511D
100
AcDbEntity
  8
AM_0 外形線1
100
AcDbCircle
 10
414.5
 20
630.4999999999998
 30
0.0
 40
0.5
100
AcDbArc
 50
180.0
 51
270.0
  0
LINE
  5
5144
330
511D
100
AcDbEntity
  8
AM_0 外形線1
100
AcDbLine
 10
534.0
 20
628.0
 30
0.0
 11
528.0
 21
630.0
 31
0.0
  0
ARC
  5
5145
330
511D
100
AcDbEntity
  8
AM_0 外形線1
100
AcDbCircle
 10
870.0
 20
598.0
 30
0.0
 40
30.0
100
AcDbArc
 50
0.0
 51
90.0
  0
LINE
  5
5148
330
511D
100
AcDbEntity
  8
AM_0 外形線1
100
AcDbLine
 10
0.0
 20
382.5
 30
0.0
 11
900.0000000000008
 21
382.5
 31
0.0
  0
ENDBLK
  5
511F
330
511D
100
AcDbEntity
  8
0
100
AcDbBlockEnd
  0
BLOCK
  5
552E
330
552D
100
AcDbEntity
  8
0
100
AcDbBlockBegin
  2
リーマボルト CCMH1600 M42
 70
     0
 10
0.0
 20
0.0
 30
0.0
  3
リーマボルト CCMH1600 M42
  1

  0
LINE
  5
5530
330
552D
100
AcDbEntity
  8
AM_4 細線
100
AcDbLine
 10
-182.0
 20
-18.75
 30
0.0
 11
-193.25
 21
-18.75
 31
0.0
  0
LINE
  5
5531
330
552D
100
AcDbEntity
  8
AM_4 細線
100
AcDbLine
 10
-182.0
 20
18.75
 30
0.0
 11
-193.25
 21
18.75
 31
0.0
  0
LINE
  5
5532
330
552D
100
AcDbEntity
  8
AM_0 外形線1
100
AcDbLine
 10
-140.0
 20
2.666666999999506
 30
0.0
 11
-148.0
 21
-5.333333000000492
 31
0.0
  0
LINE
  5
5533
330
552D
100
AcDbEntity
  8
AM_0 外形線1
100
AcDbLine
 10
-140.0
 20
-21.0
 30
0.0
 11
-137.7320510000008
 21
-21.0
 31
0.0
  0
LINE
  5
5534
330
552D
100
AcDbEntity
  8
AM_0 外形線1
100
AcDbLine
 10
-140.0
 20
21.0
 30
0.0
 11
-137.7320510000008
 21
21.0
 31
0.0
  0
LINE
  5
5535
330
552D
100
AcDbEntity
  8
AM_0 外形線1
100
AcDbLine
 10
-194.0
 20
-18.0
 30
0.0
 11
-194.0
 21
0.0
 31
0.0
  0
LINE
  5
5536
330
552D
100
AcDbEntity
  8
AM_0 外形線1
100
AcDbLine
 10
-191.0
 20
-21.0
 30
0.0
 11
-194.0
 21
-18.0
 31
0.0
  0
LINE
  5
5537
330
552D
100
AcDbEntity
  8
AM_0 外形線1
100
AcDbLine
 10
-182.0
 20
-21.0
 30
0.0
 11
-191.0
 21
-21.0
 31
0.0
  0
LINE
  5
5538
330
552D
100
AcDbEntity
  8
AM_0 外形線1
100
AcDbLine
 10
-191.0
 20
-21.0
 30
0.0
 11
-191.0
 21
0.0
 31
0.0
  0
LINE
  5
5539
330
552D
100
AcDbEntity
  8
AM_0 外形線1
100
AcDbLine
 10
-194.0
 20
18.0
 30
0.0
 11
-194.0
 21
0.0
 31
0.0
  0
LINE
  5
553A
330
552D
100
AcDbEntity
  8
AM_0 外形線1
100
AcDbLine
 10
-191.0
 20
21.0
 30
0.0
 11
-194.0
 21
18.0
 31
0.0
  0
LINE
  5
553B
330
552D
100
AcDbEntity
  8
AM_0 外形線1
100
AcDbLine
 10
-182.0
 20
21.0
 30
0.0
 11
-191.0
 21
21.0
 31
0.0
  0
LINE
  5
553C
330
552D
100
AcDbEntity
  8
AM_0 外形線1
100
AcDbLine
 10
-191.0
 20
21.0
 30
0.0
 11
-191.0
 21
0.0
 31
0.0
  0
LINE
  5
553D
330
552D
100
AcDbEntity
  8
AM_0 外形線1
100
AcDbLine
 10
-148.0
 20
34.5
 30
0.0
 11
-140.0
 21
34.5
 31
0.0
  0
LINE
  5
553E
330
552D
100
AcDbEntity
  8
AM_0 外形線1
100
AcDbLine
 10
-148.0
 20
-34.5
 30
0.0
 11
-140.0
 21
-34.5
 31
0.0
  0
LINE
  5
553F
330
552D
100
AcDbEntity
  8
AM_0 外形線1
100
AcDbLine
 10
-148.0
 20
-18.76388299999962
 30
0.0
 11
-179.113249
 21
-18.76388299999962
 31
0.0
  0
LINE
  5
5540
330
552D
100
AcDbEntity
  8
AM_0 外形線1
100
AcDbLine
 10
-148.0
 20
18.76388399999996
 30
0.0
 11
-179.113249
 21
18.76388399999996
 31
0.0
  0
ARC
  5
5541
330
552D
100
AcDbEntity
  8
AM_0 外形線1
100
AcDbCircle
 10
-165.3560579999994
 20
-28.13194099999964
 30
0.0
 40
16.643942
100
AcDbArc
 50
145.7468130000188
 51
214.2531869999811
  0
ARC
  5
5542
330
552D
100
AcDbEntity
  8
AM_0 外形線1
100
AcDbCircle
 10
-119.5740029999997
 20
0.0
 30
0.0
 40
62.425998
100
AcDbArc
 50
162.5076749999833
 51
197.4923250000166
  0
ARC
  5
5543
330
552D
100
AcDbEntity
  8
AM_0 外形線1
100
AcDbCircle
 10
-165.3560579999994
 20
28.13194199999998
 30
0.0
 40
16.643942
100
AcDbArc
 50
145.7468130000188
 51
214.2531869999811
  0
LINE
  5
5544
330
552D
100
AcDbEntity
  8
AM_0 外形線1
100
AcDbLine
 10
-148.0
 20
-37.5
 30
0.0
 11
-148.0
 21
37.5
 31
0.0
  0
LINE
  5
5545
330
552D
100
AcDbEntity
  8
AM_0 外形線1
100
AcDbLine
 10
-179.113249
 20
-37.5
 30
0.0
 11
-148.0
 21
-37.5
 31
0.0
  0
LINE
  5
5546
330
552D
100
AcDbEntity
  8
AM_0 外形線1
100
AcDbLine
 10
-182.0
 20
-32.5
 30
0.0
 11
-179.113249
 21
-37.5
 31
0.0
  0
LINE
  5
5547
330
552D
100
AcDbEntity
  8
AM_0 外形線1
100
AcDbLine
 10
-182.0
 20
32.5
 30
0.0
 11
-182.0
 21
-32.5
 31
0.0
  0
LINE
  5
5548
330
552D
100
AcDbEntity
  8
AM_0 外形線1
100
AcDbLine
 10
-179.113249
 20
37.5
 30
0.0
 11
-182.0
 21
32.5
 31
0.0
  0
LINE
  5
5549
330
552D
100
AcDbEntity
  8
AM_0 外形線1
100
AcDbLine
 10
-148.0
 20
37.5
 30
0.0
 11
-179.113249
 21
37.5
 31
0.0
  0
LINE
  5
554A
330
552D
100
AcDbEntity
  8
AM_0 外形線1
100
AcDbLine
 10
-136.0
 20
22.0
 30
0.0
 11
-136.0
 21
-22.0
 31
0.0
  0
LINE
  5
554B
330
552D
100
AcDbEntity
  8
AM_0 外形線1
100
AcDbLine
 10
-138.0
 20
-20.8452989999987
 30
0.0
 11
-136.0
 21
-22.0
 31
0.0
  0
LINE
  5
554C
330
552D
100
AcDbEntity
  8
AM_0 外形線1
100
AcDbLine
 10
-138.0
 20
20.84530000000086
 30
0.0
 11
-138.0
 21
-20.8452989999987
 31
0.0
  0
LINE
  5
554D
330
552D
100
AcDbEntity
  8
AM_0 外形線1
100
AcDbLine
 10
-136.0
 20
22.0
 30
0.0
 11
-138.0
 21
20.84530000000086
 31
0.0
  0
LINE
  5
554E
330
552D
100
AcDbEntity
  8
AM_0 外形線1
100
AcDbLine
 10
-3.0
 20
-22.0
 30
0.0
 11
-3.0
 21
22.0
 31
0.0
  0
ARC
  5
554F
330
552D
100
AcDbEntity
  8
AM_0 外形線1
100
AcDbCircle
 10
-1.0
 20
-22.0
 30
0.0
 40
2.0
100
AcDbArc
 50
104.4775121859359
 51
180.0
  0
ARC
  5
5551
330
552D
100
AcDbEntity
  8
AM_0 外形線1
100
AcDbCircle
 10
-2.0
 20
-22.0
 30
0.0
 40
2.0
100
AcDbArc
 50
0.0
 51
75.52248781406404
  0
ARC
  5
5552
330
552D
100
AcDbEntity
  8
AM_0 外形線1
100
AcDbCircle
 10
-1.0
 20
22.0
 30
0.0
 40
2.0
100
AcDbArc
 50
180.0
 51
255.522487814064
  0
ARC
  5
5554
330
552D
100
AcDbEntity
  8
AM_0 外形線1
100
AcDbCircle
 10
-2.0
 20
22.0
 30
0.0
 40
2.0
100
AcDbArc
 50
284.477512185936
 51
0.0
  0
ARC
  5
5555
330
552D
100
AcDbEntity
  8
AM_0 外形線1
100
AcDbCircle
 10
9.356056999999054
 20
-28.13194099999964
 30
0.0
 40
16.643942
100
AcDbArc
 50
325.7468130000189
 51
34.25318699998113
  0
ARC
  5
5556
330
552D
100
AcDbEntity
  8
AM_0 外形線1
100
AcDbCircle
 10
-36.42599800000062
 20
0.0
 30
0.0
 40
62.425998
100
AcDbArc
 50
342.5076749999834
 51
17.49232500001665
  0
ARC
  5
5557
330
552D
100
AcDbEntity
  8
AM_0 外形線1
100
AcDbCircle
 10
9.356056999999054
 20
28.13194199999998
 30
0.0
 40
16.643942
100
AcDbArc
 50
325.7468130000189
 51
34.25318699998113
  0
LINE
  5
5558
330
552D
100
AcDbEntity
  8
AM_0 外形線1
100
AcDbLine
 10
0.0
 20
-18.76388299999962
 30
0.0
 11
23.11324799999966
 21
-18.76388299999962
 31
0.0
  0
LINE
  5
5559
330
552D
100
AcDbEntity
  8
AM_0 外形線1
100
AcDbLine
 10
0.0
 20
18.76388399999996
 30
0.0
 11
23.11324799999966
 21
18.76388399999996
 31
0.0
  0
LINE
  5
555A
330
552D
100
AcDbEntity
  8
AM_0 外形線1
100
AcDbLine
 10
23.11324799999966
 20
-37.5
 30
0.0
 11
0.0
 21
-37.5
 31
0.0
  0
LINE
  5
555B
330
552D
100
AcDbEntity
  8
AM_0 外形線1
100
AcDbLine
 10
26.0
 20
-32.5
 30
0.0
 11
23.11324799999966
 21
-37.5
 31
0.0
  0
LINE
  5
555C
330
552D
100
AcDbEntity
  8
AM_0 外形線1
100
AcDbLine
 10
26.0
 20
32.5
 30
0.0
 11
26.0
 21
-32.5
 31
0.0
  0
LINE
  5
555D
330
552D
100
AcDbEntity
  8
AM_0 外形線1
100
AcDbLine
 10
23.11324799999966
 20
37.5
 30
0.0
 11
26.0
 21
32.5
 31
0.0
  0
LINE
  5
555E
330
552D
100
AcDbEntity
  8
AM_0 外形線1
100
AcDbLine
 10
0.0
 20
37.5
 30
0.0
 11
23.11324799999966
 21
37.5
 31
0.0
  0
LINE
  5
55F6
330
552D
100
AcDbEntity
  8
AM_0 外形線1
100
AcDbLine
 10
-140.0
 20
34.5
 30
0.0
 11
-140.0
 21
-34.5
 31
0.0
  0
LINE
  5
55F7
330
552D
100
AcDbEntity
  8
AM_0 外形線1
100
AcDbLine
 10
-136.0
 20
22.0
 30
0.0
 11
-3.000000000000909
 21
22.0
 31
0.0
  0
LINE
  5
55F8
330
552D
100
AcDbEntity
  8
AM_0 外形線1
100
AcDbLine
 10
-136.0
 20
-22.0
 30
0.0
 11
-3.000000000000909
 21
-22.0
 31
0.0
  0
LINE
  5
55F9
330
552D
100
AcDbEntity
  8
AM_0 外形線1
100
AcDbLine
 10
0.0
 20
37.5
 30
0.0
 11
0.0
 21
-37.5
 31
0.0
  0
LINE
  5
7527
330
552D
100
AcDbEntity
  8
AM_0 外形線1
100
AcDbLine
 10
-140.0
 20
5.733663405097103
 30
0.0
 11
-148.0
 21
-2.266336594902895
 31
0.0
  0
ENDBLK
  5
552F
330
552D
100
AcDbEntity
  8
0
100
AcDbBlockEnd
  0
BLOCK
  5
5674
330
5673
100
AcDbEntity
  8
0
100
AcDbBlockBegin
  2
ＧＣサイドカバ－A CCMH1600
 70
     0
 10
0.0
 20
0.0
 30
0.0
  3
ＧＣサイドカバ－A CCMH1600
  1

  0
LINE
  5
5676
330
5673
100
AcDbEntity
  8
AM_0 外形線1
100
AcDbLine
 10
38.0
 20
689.5
 30
0.0
 11
-36.10000000000037
 21
689.5
 31
0.0
  0
LINE
  5
5677
330
5673
100
AcDbEntity
  8
AM_0 外形線1
100
AcDbLine
 10
38.0
 20
710.5
 30
0.0
 11
-36.10000000000037
 21
710.5
 31
0.0
  0
LINE
  5
5678
330
5673
100
AcDbEntity
  8
AM_7 中心線
100
AcDbLine
 10
-51.56626499999948
 20
-700.0
 30
0.0
 11
65.10040100000151
 21
-700.0
 31
0.0
  0
LINE
  5
5679
330
5673
100
AcDbEntity
  8
AM_7 中心線
100
AcDbLine
 10
-53.75285362414434
 20
700.0
 30
0.0
 11
65.10040100000151
 21
700.0
 31
0.0
  0
LINE
  5
567A
330
5673
100
AcDbEntity
  8
AM_4 細線
100
AcDbLine
 10
-36.10000000000037
 20
688.0
 30
0.0
 11
38.0
 21
688.0
 31
0.0
  0
LINE
  5
567B
330
5673
100
AcDbEntity
  8
AM_4 細線
100
AcDbLine
 10
38.0
 20
712.0
 30
0.0
 11
-36.10000000000037
 21
712.0
 31
0.0
  0
LINE
  5
567C
330
5673
100
AcDbEntity
  8
AM_0 外形線1
100
AcDbLine
 10
-43.0
 20
710.5
 30
0.0
 11
-43.0
 21
689.5
 31
0.0
  0
LINE
  5
567D
330
5673
100
AcDbEntity
  8
AM_0 外形線1
100
AcDbLine
 10
-49.06217799999831
 20
700.0
 30
0.0
 11
-43.0
 21
689.5
 31
0.0
  0
LINE
  5
567E
330
5673
100
AcDbEntity
  8
AM_0 外形線1
100
AcDbLine
 10
-36.10000000000037
 20
712.0
 30
0.0
 11
-36.10000000000037
 21
688.0
 31
0.0
  0
LINE
  5
567F
330
5673
100
AcDbEntity
  8
AM_0 外形線1
100
AcDbLine
 10
-43.0
 20
689.5
 30
0.0
 11
-36.10000000000037
 21
689.5
 31
0.0
  0
LINE
  5
5680
330
5673
100
AcDbEntity
  8
AM_0 外形線1
100
AcDbLine
 10
-43.0
 20
710.5
 30
0.0
 11
-49.06217799999831
 21
700.0
 31
0.0
  0
LINE
  5
5681
330
5673
100
AcDbEntity
  8
AM_0 外形線1
100
AcDbLine
 10
-36.10000000000037
 20
710.5
 30
0.0
 11
-43.0
 21
710.5
 31
0.0
  0
LINE
  5
5683
330
5673
100
AcDbEntity
  8
AM_0 外形線1
100
AcDbLine
 10
38.0
 20
-725.0
 30
0.0
 11
38.0
 21
0.0
 31
0.0
  0
LINE
  5
5684
330
5673
100
AcDbEntity
  8
AM_0 外形線1
100
AcDbLine
 10
58.89999999999964
 20
715.5961490000009
 30
0.0
 11
58.89999999999964
 21
684.4038520000012
 31
0.0
  0
ARC
  5
5685
330
5673
100
AcDbEntity
  8
AM_0 外形線1
100
AcDbCircle
 10
27.89999999999964
 20
700.0
 30
0.0
 40
31.0
100
AcDbArc
 50
340.2071850000404
 51
19.79281499995962
  0
LINE
  5
5686
330
5673
100
AcDbEntity
  8
AM_0 外形線1
100
AcDbLine
 10
43.89999999999964
 20
720.2000000000007
 30
0.0
 11
43.89999999999964
 21
679.8000000000009
 31
0.0
  0
LINE
  5
5687
330
5673
100
AcDbEntity
  8
AM_0 外形線1
100
AcDbLine
 10
38.0
 20
725.0
 30
0.0
 11
38.0
 21
633.0
 31
0.0
  0
LINE
  5
5689
330
5673
100
AcDbEntity
  8
AM_0 外形線1
100
AcDbLine
 10
57.10068300000057
 20
689.5923050000001
 30
0.0
 11
43.89999999999964
 21
689.5923050000001
 31
0.0
  0
LINE
  5
568A
330
5673
100
AcDbEntity
  8
AM_0 外形線1
100
AcDbLine
 10
56.9805720000004
 20
679.2000000000007
 30
0.0
 11
43.89999999999964
 21
679.2000000000007
 31
0.0
  0
LWPOLYLINE
  5
568B
330
5673
100
AcDbEntity
  8
AM_0 外形線1
100
AcDbPolyline
 90
       73
 70
     0
 43
0.0
 10
29.0
 20
638.3250000000007
 10
28.94672499999979
 20
639.0505720000001
 10
28.78730800000085
 20
639.7706210000015
 10
28.52296100000058
 20
640.4796690000003
 10
28.15569599999981
 20
641.1723180000008
 10
27.68830900000103
 20
641.8432970000012
 10
27.12435500000174
 20
642.4875000000009
 10
26.46812800000045
 20
643.1000240000011
 10
25.72462200000155
 20
643.6762070000004
 10
24.89949499999966
 20
644.2116640000002
 10
23.99902600000132
 20
644.7023200000002
 10
23.03007000000071
 20
645.1444410000004
 10
22.0
 20
645.534662
 10
20.9166550000009
 20
645.8700129999997
 10
19.78828199999952
 20
646.1479410000009
 10
18.62346600000092
 20
646.3663329999998
 10
17.43107400000008
 20
646.5235250000005
 10
16.22018000000025
 20
646.6183210000017
 10
15.0
 20
646.6500000000015
 10
13.77981900000122
 20
646.6183210000017
 10
12.56892499999958
 20
646.5235250000005
 10
11.37653300000056
 20
646.3663329999998
 10
10.21171800000047
 20
646.1479410000009
 10
9.083344000000581
 20
645.8700129999997
 10
8.0
 20
645.534662
 10
6.969930000001112
 20
645.1444410000004
 10
6.000973000000157
 20
644.7023200000002
 10
5.100505000000339
 20
644.2116640000002
 10
4.275376999999934
 20
643.6762070000004
 10
3.531871000001046
 20
643.1000240000011
 10
2.875644000001556
 20
642.4875000000009
 10
2.311691000000791
 20
641.8432970000012
 10
1.844302999999854
 20
641.1723180000008
 10
1.477038000000901
 20
640.4796690000003
 10
1.212691000000631
 20
639.7706210000015
 10
1.053273999999872
 20
639.0505720000001
 10
1.0
 20
638.3250000000007
 10
1.053273999999872
 20
637.5994289999997
 10
1.212691000000631
 20
636.8793789999998
 10
1.477038000000901
 20
636.1703320000015
 10
1.844302999999854
 20
635.477683000001
 10
2.311691000000791
 20
634.8067030000001
 10
2.875644000001556
 20
634.1625000000004
 10
3.531871000001046
 20
633.5499770000005
 10
4.275376999999934
 20
632.9737940000012
 10
5.100505000000339
 20
632.4383360000012
 10
6.000973000000157
 20
631.947680000001
 10
6.969930000001112
 20
631.5055600000014
 10
8.0
 20
631.1153390000018
 10
9.083344000000581
 20
630.7799880000002
 10
10.21171800000047
 20
630.5020590000004
 10
11.37653300000056
 20
630.2836679999999
 10
12.56892499999958
 20
630.1264760000012
 10
13.77981900000122
 20
630.0316799999999
 10
15.0
 20
630.0
 10
16.22018000000025
 20
630.0316799999999
 10
17.43107400000008
 20
630.1264760000012
 10
18.62346600000092
 20
630.2836679999999
 10
19.78828199999952
 20
630.5020590000004
 10
20.9166550000009
 20
630.7799880000002
 10
22.0
 20
631.1153390000018
 10
23.03007000000071
 20
631.5055600000014
 10
23.99902600000132
 20
631.947680000001
 10
24.89949499999966
 20
632.4383360000012
 10
25.72462200000155
 20
632.9737940000012
 10
26.46812800000045
 20
633.5499770000005
 10
27.12435500000174
 20
634.1625000000004
 10
27.68830900000103
 20
634.8067030000001
 10
28.15569599999981
 20
635.477683000001
 10
28.52296100000058
 20
636.1703320000015
 10
28.78730800000085
 20
636.8793789999998
 10
28.94672499999979
 20
637.5994289999997
 10
29.0
 20
638.3250000000007
  0
LINE
  5
568C
330
5673
100
AcDbEntity
  8
AM_0 外形線1
100
AcDbLine
 10
43.89999999999964
 20
679.2000000000007
 30
0.0
 11
43.89999999999964
 21
679.8000000000009
 31
0.0
  0
LINE
  5
568D
330
5673
100
AcDbEntity
  8
AM_0 外形線1
100
AcDbLine
 10
43.89999999999964
 20
679.8000000000009
 30
0.0
 11
38.0
 21
679.8000000000009
 31
0.0
  0
LINE
  5
568E
330
5673
100
AcDbEntity
  8
AM_0 外形線1
100
AcDbLine
 10
4.590000000000144
 20
681.2000000000007
 30
0.0
 11
0.0
 21
681.2000000000007
 31
0.0
  0
LINE
  5
568F
330
5673
100
AcDbEntity
  8
AM_0 外形線1
100
AcDbLine
 10
4.590000000000144
 20
674.0
 30
0.0
 11
4.590000000000144
 21
681.2000000000007
 31
0.0
  0
LINE
  5
5690
330
5673
100
AcDbEntity
  8
AM_0 外形線1
100
AcDbLine
 10
38.0
 20
687.0
 30
0.0
 11
0.0
 21
687.0
 31
0.0
  0
LINE
  5
5691
330
5673
100
AcDbEntity
  8
AM_0 外形線1
100
AcDbLine
 10
1.0
 20
633.0
 30
0.0
 11
-8.0
 21
633.0
 31
0.0
  0
LINE
  5
5692
330
5673
100
AcDbEntity
  8
AM_0 外形線1
100
AcDbLine
 10
1.0
 20
646.6500000000015
 30
0.0
 11
1.0
 21
633.0
 31
0.0
  0
LINE
  5
5693
330
5673
100
AcDbEntity
  8
AM_0 外形線1
100
AcDbLine
 10
29.0
 20
646.6500000000015
 30
0.0
 11
1.0
 21
646.6500000000015
 31
0.0
  0
LINE
  5
5694
330
5673
100
AcDbEntity
  8
AM_0 外形線1
100
AcDbLine
 10
29.0
 20
633.0
 30
0.0
 11
29.0
 21
646.6500000000015
 31
0.0
  0
LINE
  5
5695
330
5673
100
AcDbEntity
  8
AM_0 外形線1
100
AcDbLine
 10
38.0
 20
633.0
 30
0.0
 11
29.0
 21
633.0
 31
0.0
  0
LINE
  5
5696
330
5673
100
AcDbEntity
  8
AM_0 外形線1
100
AcDbLine
 10
-8.0
 20
633.0
 30
0.0
 11
-8.0
 21
630.0
 31
0.0
  0
LINE
  5
5697
330
5673
100
AcDbEntity
  8
AM_0 外形線1
100
AcDbLine
 10
1.0
 20
633.0
 30
0.0
 11
1.0
 21
630.0
 31
0.0
  0
LINE
  5
5698
330
5673
100
AcDbEntity
  8
AM_0 外形線1
100
AcDbLine
 10
29.0
 20
633.0
 30
0.0
 11
29.0
 21
630.0
 31
0.0
  0
LINE
  5
5699
330
5673
100
AcDbEntity
  8
AM_0 外形線1
100
AcDbLine
 10
38.0
 20
633.0
 30
0.0
 11
38.0
 21
630.0
 31
0.0
  0
ARC
  5
569A
330
5673
100
AcDbEntity
  8
AM_0 外形線1
100
AcDbCircle
 10
50.8860820000009
 20
684.4038520000012
 30
0.0
 40
8.013916999999999
100
AcDbArc
 50
319.5072540000213
 51
39.51346199994768
  0
LINE
  5
569B
330
5673
100
AcDbEntity
  8
AM_0 外形線1
100
AcDbLine
 10
56.99368600000163
 20
710.4076960000003
 30
0.0
 11
43.89999999999964
 21
710.4076960000003
 31
0.0
  0
LINE
  5
569C
330
5673
100
AcDbEntity
  8
AM_0 外形線1
100
AcDbLine
 10
43.89999999999964
 20
720.800000000001
 30
0.0
 11
56.9805720000004
 21
720.800000000001
 31
0.0
  0
LINE
  5
569D
330
5673
100
AcDbEntity
  8
AM_0 外形線1
100
AcDbLine
 10
43.89999999999964
 20
702.0
 30
0.0
 11
38.0
 21
696.0
 31
0.0
  0
LINE
  5
569E
330
5673
100
AcDbEntity
  8
AM_0 外形線1
100
AcDbLine
 10
38.0
 20
698.0
 30
0.0
 11
43.89999999999964
 21
704.0
 31
0.0
  0
LINE
  5
569F
330
5673
100
AcDbEntity
  8
AM_0 外形線1
100
AcDbLine
 10
43.89999999999964
 20
720.2000000000007
 30
0.0
 11
43.89999999999964
 21
720.800000000001
 31
0.0
  0
LINE
  5
56A0
330
5673
100
AcDbEntity
  8
AM_0 外形線1
100
AcDbLine
 10
38.0
 20
720.2000000000007
 30
0.0
 11
43.89999999999964
 21
720.2000000000007
 31
0.0
  0
LINE
  5
56A1
330
5673
100
AcDbEntity
  8
AM_0 外形線1
100
AcDbLine
 10
38.0
 20
713.0
 30
0.0
 11
0.0
 21
713.0
 31
0.0
  0
LINE
  5
56A3
330
5673
100
AcDbEntity
  8
AM_0 外形線1
100
AcDbLine
 10
0.0
 20
725.0
 30
0.0
 11
38.0
 21
725.0
 31
0.0
  0
ARC
  5
56A4
330
5673
100
AcDbEntity
  8
AM_0 外形線1
100
AcDbCircle
 10
50.8860820000009
 20
715.5961490000009
 30
0.0
 40
8.013916999999999
100
AcDbArc
 50
320.4865380000523
 51
40.4927459999787
  0
LINE
  5
56A6
330
5673
100
AcDbEntity
  8
AM_0 外形線1
100
AcDbLine
 10
0.0
 20
-725.0
 30
0.0
 11
38.0
 21
-725.0
 31
0.0
  0
LINE
  5
56A8
330
5673
100
AcDbEntity
  8
AM_0 外形線1
100
AcDbLine
 10
-8.0
 20
633.0
 30
0.0
 11
-8.0
 21
674.0
 31
0.0
  0
LINE
  5
56A9
330
5673
100
AcDbEntity
  8
AM_0 外形線1
100
AcDbLine
 10
-8.0
 20
673.9999999999992
 30
0.0
 11
4.590000000000144
 21
674.0
 31
0.0
  0
LINE
  5
57A8
330
5673
100
AcDbEntity
  8
AM_0 外形線1
100
AcDbLine
 10
0.0
 20
-725.0
 30
0.0
 11
0.0
 21
0.0
 31
0.0
  0
LINE
  5
57A9
330
5673
100
AcDbEntity
  8
AM_0 外形線1
100
AcDbLine
 10
0.0
 20
681.2000000000007
 30
0.0
 11
0.0
 21
688.0
 31
0.0
  0
LINE
  5
57AA
330
5673
100
AcDbEntity
  8
AM_0 外形線1
100
AcDbLine
 10
0.0
 20
712.0
 30
0.0
 11
0.0
 21
725.0
 31
0.0
  0
ELLIPSE
  5
57AB
330
5673
100
AcDbEntity
  8
AM_0 外形線1
100
AcDbEllipse
 10
2.295000000000071
 20
677.6000000000002
 30
0.0
 11
0.0
 21
3.600000000000362
 31
0.0
210
0.0
220
0.0
230
0.9999999999999998
 40
0.6374999999999558
 41
0.0
 42
6.283185307179585
  0
ENDBLK
  5
5675
330
5673
100
AcDbEntity
  8
0
100
AcDbBlockEnd
  0
BLOCK
  5
5824
330
5823
100
AcDbEntity
  8
0
100
AcDbBlockBegin
  2
ＧＣサイドカバ－Ｂ CCMH1600
 70
     0
 10
0.0
 20
0.0
 30
0.0
  3
ＧＣサイドカバ－Ｂ CCMH1600
  1

  0
LINE
  5
5827
330
5823
100
AcDbEntity
  8
AM_7 中心線
100
AcDbLine
 10
51.56626500000129
 20
-700.0
 30
0.0
 11
-65.1004019999991
 21
-700.0
 31
0.0
  0
LINE
  5
5828
330
5823
100
AcDbEntity
  8
AM_0 外形線1
100
AcDbLine
 10
0.0
 20
-725.0
 30
0.0
 11
-38.0
 21
-725.0
 31
0.0
  0
LINE
  5
5829
330
5823
100
AcDbEntity
  8
AM_0 外形線1
100
AcDbLine
 10
-38.0
 20
-725.0
 30
0.0
 11
-38.0
 21
0.0
 31
0.0
  0
LINE
  5
582A
330
5823
100
AcDbEntity
  8
AM_0 外形線1
100
AcDbLine
 10
-58.89999999999964
 20
715.5961490000009
 30
0.0
 11
-58.89999999999964
 21
684.4038520000012
 31
0.0
  0
ARC
  5
582B
330
5823
100
AcDbEntity
  8
AM_0 外形線1
100
AcDbCircle
 10
-27.89999999999964
 20
700.0
 30
0.0
 40
31.0
100
AcDbArc
 50
160.2071850000403
 51
199.7928149999596
  0
LINE
  5
582C
330
5823
100
AcDbEntity
  8
AM_0 外形線1
100
AcDbLine
 10
-43.89999999999964
 20
720.2000000000007
 30
0.0
 11
-43.89999999999964
 21
679.8000000000009
 31
0.0
  0
LINE
  5
582D
330
5823
100
AcDbEntity
  8
AM_0 外形線1
100
AcDbLine
 10
-38.0
 20
700.0
 30
0.0
 11
-38.0
 21
633.0
 31
0.0
  0
LWPOLYLINE
  5
582E
330
5823
100
AcDbEntity
  8
AM_0 外形線1
100
AcDbPolyline
 90
       73
 70
     0
 43
0.0
 10
-29.0
 20
638.3250000000007
 10
-28.94672599999922
 20
637.5994289999997
 10
-28.78730899999937
 20
636.8793789999998
 10
-28.52296199999911
 20
636.1703320000015
 10
-28.15569699999924
 20
635.477683000001
 10
-27.68830899999921
 20
634.8067030000001
 10
-27.12435599999935
 20
634.1625000000004
 10
-26.46812899999986
 20
633.5499770000005
 10
-25.72462299999916
 20
632.9737940000012
 10
-24.89949499999966
 20
632.4383360000012
 10
-23.99902699999893
 20
631.947680000001
 10
-23.03006999999889
 20
631.5055600000014
 10
-22.0
 20
631.1153390000018
 10
-20.91665599999942
 20
630.7799880000002
 10
-19.78828199999952
 20
630.5020590000004
 10
-18.62346699999944
 20
630.2836679999999
 10
-17.43107499999951
 20
630.1264760000012
 10
-16.22018099999968
 20
630.0316799999999
 10
-15.0
 20
630.0
 10
-13.77981999999974
 20
630.0316799999999
 10
-12.56892599999992
 20
630.1264760000012
 10
-11.37653399999908
 20
630.2836679999999
 10
-10.21171799999956
 20
630.5020590000004
 10
-9.083344999999097
 20
630.7799880000002
 10
-8.0
 20
631.1153390000018
 10
-6.969929999999294
 20
631.5055600000014
 10
-6.000973999999587
 20
631.947680000001
 10
-5.100504999999428
 20
632.4383360000012
 10
-4.275377999999363
 20
632.9737940000012
 10
-3.531871999999566
 20
633.5499770000005
 10
-2.875644999999166
 20
634.1625000000004
 10
-2.311690999998971
 20
634.8067030000001
 10
-1.844303999999283
 20
635.477683000001
 10
-1.477038999999421
 20
636.1703320000015
 10
-1.212691999999151
 20
636.8793789999998
 10
-1.053274999999302
 20
637.5994289999997
 10
-1.0
 20
638.3250000000007
 10
-1.053274999999302
 20
639.0505720000001
 10
-1.212691999999151
 20
639.7706210000015
 10
-1.477038999999421
 20
640.4796690000003
 10
-1.844303999999283
 20
641.1723180000008
 10
-2.311690999998971
 20
641.8432970000012
 10
-2.875644999999166
 20
642.4875000000009
 10
-3.531871999999566
 20
643.1000240000011
 10
-4.275377999999363
 20
643.6762070000004
 10
-5.100504999999428
 20
644.2116640000002
 10
-6.000973999999587
 20
644.7023200000002
 10
-6.969929999999294
 20
645.1444410000004
 10
-8.0
 20
645.534662
 10
-9.083344999999097
 20
645.8700129999997
 10
-10.21171799999956
 20
646.1479410000009
 10
-11.37653399999908
 20
646.3663329999998
 10
-12.56892599999992
 20
646.5235250000005
 10
-13.77981999999974
 20
646.6183210000017
 10
-15.0
 20
646.6500000000015
 10
-16.22018099999968
 20
646.6183210000017
 10
-17.43107499999951
 20
646.5235250000005
 10
-18.62346699999944
 20
646.3663329999998
 10
-19.78828199999952
 20
646.1479410000009
 10
-20.91665599999942
 20
645.8700129999997
 10
-22.0
 20
645.534662
 10
-23.03006999999889
 20
645.1444410000004
 10
-23.99902699999893
 20
644.7023200000002
 10
-24.89949499999966
 20
644.2116640000002
 10
-25.72462299999916
 20
643.6762070000004
 10
-26.46812899999986
 20
643.1000240000011
 10
-27.12435599999935
 20
642.4875000000009
 10
-27.68830899999921
 20
641.8432970000012
 10
-28.15569699999924
 20
641.1723180000008
 10
-28.52296199999911
 20
640.4796690000003
 10
-28.78730899999937
 20
639.7706210000015
 10
-28.94672599999922
 20
639.0505720000001
 10
-29.0
 20
638.3250000000007
  0
LINE
  5
582F
330
5823
100
AcDbEntity
  8
AM_0 外形線1
100
AcDbLine
 10
-38.0
 20
689.5
 30
0.0
 11
36.10000000000037
 21
689.5
 31
0.0
  0
LINE
  5
5830
330
5823
100
AcDbEntity
  8
AM_0 外形線1
100
AcDbLine
 10
-38.0
 20
687.0
 30
0.0
 11
0.0
 21
687.0
 31
0.0
  0
LINE
  5
5831
330
5823
100
AcDbEntity
  8
AM_4 細線
100
AcDbLine
 10
36.10000000000037
 20
688.0
 30
0.0
 11
-38.0
 21
688.0
 31
0.0
  0
LINE
  5
5832
330
5823
100
AcDbEntity
  8
AM_0 外形線1
100
AcDbLine
 10
-29.0
 20
646.6500000000015
 30
0.0
 11
-1.0
 21
646.6500000000015
 31
0.0
  0
LINE
  5
5833
330
5823
100
AcDbEntity
  8
AM_0 外形線1
100
AcDbLine
 10
-57.10068299999965
 20
689.5923050000001
 30
0.0
 11
-43.89999999999964
 21
689.5923050000001
 31
0.0
  0
LINE
  5
5834
330
5823
100
AcDbEntity
  8
AM_0 外形線1
100
AcDbLine
 10
-43.89999999999964
 20
679.2000000000007
 30
0.0
 11
-43.89999999999964
 21
679.8000000000009
 31
0.0
  0
LINE
  5
5835
330
5823
100
AcDbEntity
  8
AM_0 外形線1
100
AcDbLine
 10
-56.98057199999947
 20
679.2000000000007
 30
0.0
 11
-43.89999999999964
 21
679.2000000000007
 31
0.0
  0
ARC
  5
5836
330
5823
100
AcDbEntity
  8
AM_0 外形線1
100
AcDbCircle
 10
-50.88608299999942
 20
684.4038520000012
 30
0.0
 40
8.013916999999999
100
AcDbArc
 50
140.4865380000523
 51
220.4927459999787
  0
LINE
  5
5837
330
5823
100
AcDbEntity
  8
AM_0 外形線1
100
AcDbLine
 10
-43.89999999999964
 20
679.8000000000009
 30
0.0
 11
-38.0
 21
679.8000000000009
 31
0.0
  0
LINE
  5
5838
330
5823
100
AcDbEntity
  8
AM_0 外形線1
100
AcDbLine
 10
-38.0
 20
633.0
 30
0.0
 11
-38.0
 21
630.0
 31
0.0
  0
LINE
  5
5839
330
5823
100
AcDbEntity
  8
AM_0 外形線1
100
AcDbLine
 10
-29.0
 20
633.0
 30
0.0
 11
-29.0
 21
630.0
 31
0.0
  0
LINE
  5
583A
330
5823
100
AcDbEntity
  8
AM_0 外形線1
100
AcDbLine
 10
-29.0
 20
633.0
 30
0.0
 11
-29.0
 21
646.6500000000015
 31
0.0
  0
LINE
  5
583B
330
5823
100
AcDbEntity
  8
AM_0 外形線1
100
AcDbLine
 10
-38.0
 20
633.0
 30
0.0
 11
-29.0
 21
633.0
 31
0.0
  0
LWPOLYLINE
  5
583C
330
5823
100
AcDbEntity
  8
002
100
AcDbPolyline
 90
       73
 70
     0
 43
0.0
 10
-2.295000000000071
 20
674.0
 10
-2.094977999999172
 20
674.013699000001
 10
-1.89647799999875
 20
674.0546919999998
 10
-1.701011000000107
 20
674.1226669999996
 10
-1.510063999999147
 20
674.2171070000003
 10
-1.325090999999702
 20
674.3372920000001
 10
-1.147500000000035
 20
674.4823090000009
 10
-0.9786419999991268
 20
674.6510530000014
 10
-0.8198029999994105
 20
674.8422399999998
 10
-0.6721899999993184
 20
675.0544160000007
 10
-0.5369279999995343
 20
675.2859650000008
 10
-0.4150459999991655
 20
675.5351250000002
 10
-0.3074719999995068
 20
675.8000000000009
 10
-0.2150239999991754
 20
676.0785750000012
 10
-0.1384059999991223
 20
676.3687280000011
 10
-0.0782009999993534
 20
676.6682520000012
 10
-0.0348669999993945
 20
676.9748670000008
 10
-0.0087339999990945
 20
677.2862400000012
 10
0.0
 20
677.6000000000002
 10
-0.0087339999990945
 20
677.9137610000016
 10
-0.0348669999993945
 20
678.2251340000002
 10
-0.0782009999993534
 20
678.5317489999997
 10
-0.1384059999991223
 20
678.8312729999997
 10
-0.2150239999991754
 20
679.1214260000015
 10
-0.3074719999995068
 20
679.4000000000013
 10
-0.4150459999991655
 20
679.6648760000007
 10
-0.5369279999995343
 20
679.9140360000001
 10
-0.6721899999993184
 20
680.1455850000002
 10
-0.8198029999994105
 20
680.3577600000007
 10
-0.9786419999991268
 20
680.5489479999996
 10
-1.147500000000035
 20
680.7176920000001
 10
-1.325090999999702
 20
680.8627080000006
 10
-1.510063999999147
 20
680.9828940000008
 10
-1.701011000000107
 20
681.0773330000009
 10
-1.89647799999875
 20
681.145308000001
 10
-2.094977999999172
 20
681.1863009999997
 10
-2.295000000000071
 20
681.2000000000007
 10
-2.49502299999949
 20
681.1863009999997
 10
-2.693522999999003
 20
681.145308000001
 10
-2.888989999999466
 20
681.0773330000009
 10
-3.079936999999517
 20
680.9828940000008
 10
-3.264908999999533
 20
680.8627080000006
 10
-3.442500000000109
 20
680.7176920000001
 10
-3.611357999999198
 20
680.5489479999996
 10
-3.770197999999253
 20
680.3577600000007
 10
-3.917809999999008
 20
680.1455850000002
 10
-4.053071999999701
 20
679.9140360000001
 10
-4.174954000000069
 20
679.6648760000007
 10
-4.282529000000066
 20
679.4000000000013
 10
-4.374976999999488
 20
679.1214260000015
 10
-4.451594999999541
 20
678.8312729999997
 10
-4.511799999999311
 20
678.5317489999997
 10
-4.555133999999268
 20
678.2251340000002
 10
-4.58126699999957
 20
677.9137610000016
 10
-4.590000000000144
 20
677.6000000000002
 10
-4.58126699999957
 20
677.2862400000012
 10
-4.555133999999268
 20
676.9748670000008
 10
-4.511799999999311
 20
676.6682520000012
 10
-4.451594999999541
 20
676.3687280000011
 10
-4.374976999999488
 20
676.0785750000012
 10
-4.282529000000066
 20
675.8000000000009
 10
-4.174954000000069
 20
675.5351250000002
 10
-4.053071999999701
 20
675.2859650000008
 10
-3.917809999999008
 20
675.0544160000007
 10
-3.770197999999253
 20
674.8422399999998
 10
-3.611357999999198
 20
674.6510530000014
 10
-3.442500000000109
 20
674.4823090000009
 10
-3.264908999999533
 20
674.3372920000001
 10
-3.079936999999517
 20
674.2171070000003
 10
-2.888989999999466
 20
674.1226669999996
 10
-2.693522999999003
 20
674.0546919999998
 10
-2.49502299999949
 20
674.013699000001
 10
-2.295000000000071
 20
674.0
  0
LINE
  5
583D
330
5823
100
AcDbEntity
  8
AM_0 外形線1
100
AcDbLine
 10
-4.590000000000144
 20
681.2000000000007
 30
0.0
 11
0.0
 21
681.2000000000007
 31
0.0
  0
LINE
  5
583E
330
5823
100
AcDbEntity
  8
AM_0 外形線1
100
AcDbLine
 10
-4.590000000000144
 20
674.0
 30
0.0
 11
-4.590000000000144
 21
681.2000000000007
 31
0.0
  0
LINE
  5
583F
330
5823
100
AcDbEntity
  8
AM_0 外形線1
100
AcDbLine
 10
8.0
 20
633.0
 30
0.0
 11
8.0
 21
630.0
 31
0.0
  0
LINE
  5
5840
330
5823
100
AcDbEntity
  8
AM_0 外形線1
100
AcDbLine
 10
-1.0
 20
633.0
 30
0.0
 11
-1.0
 21
630.0
 31
0.0
  0
LINE
  5
5841
330
5823
100
AcDbEntity
  8
AM_0 外形線1
100
AcDbLine
 10
8.0
 20
633.0
 30
0.0
 11
8.0
 21
674.0
 31
0.0
  0
LINE
  5
5842
330
5823
100
AcDbEntity
  8
AM_0 外形線1
100
AcDbLine
 10
-1.0
 20
633.0
 30
0.0
 11
8.0
 21
633.0
 31
0.0
  0
LINE
  5
5843
330
5823
100
AcDbEntity
  8
AM_0 外形線1
100
AcDbLine
 10
-1.0
 20
646.6500000000015
 30
0.0
 11
-1.0
 21
633.0
 31
0.0
  0
LINE
  5
5844
330
5823
100
AcDbEntity
  8
AM_0 外形線1
100
AcDbLine
 10
-38.0
 20
710.5
 30
0.0
 11
36.10000000000037
 21
710.5
 31
0.0
  0
LINE
  5
5845
330
5823
100
AcDbEntity
  8
AM_7 中心線
100
AcDbLine
 10
51.56626500000129
 20
700.0
 30
0.0
 11
-65.1004019999991
 21
700.0
 31
0.0
  0
LINE
  5
5846
330
5823
100
AcDbEntity
  8
AM_0 外形線1
100
AcDbLine
 10
-38.0
 20
713.0
 30
0.0
 11
0.0
 21
713.0
 31
0.0
  0
LINE
  5
5847
330
5823
100
AcDbEntity
  8
AM_4 細線
100
AcDbLine
 10
-38.0
 20
712.0
 30
0.0
 11
36.10000000000037
 21
712.0
 31
0.0
  0
LINE
  5
5848
330
5823
100
AcDbEntity
  8
AM_0 外形線1
100
AcDbLine
 10
0.0
 20
725.0
 30
0.0
 11
-38.0
 21
725.0
 31
0.0
  0
LINE
  5
5849
330
5823
100
AcDbEntity
  8
AM_0 外形線1
100
AcDbLine
 10
-38.0
 20
702.0
 30
0.0
 11
-43.89999999999964
 21
696.0
 31
0.0
  0
LINE
  5
584A
330
5823
100
AcDbEntity
  8
AM_0 外形線1
100
AcDbLine
 10
-43.89999999999964
 20
698.0
 30
0.0
 11
-38.0
 21
704.0
 31
0.0
  0
LINE
  5
584B
330
5823
100
AcDbEntity
  8
AM_0 外形線1
100
AcDbLine
 10
-56.99368699999922
 20
710.4076960000003
 30
0.0
 11
-43.89999999999964
 21
710.4076960000003
 31
0.0
  0
ARC
  5
584C
330
5823
100
AcDbEntity
  8
AM_0 外形線1
100
AcDbCircle
 10
-50.88608299999942
 20
715.5961490000009
 30
0.0
 40
8.013916999999999
100
AcDbArc
 50
139.5072540000213
 51
219.5134619999477
  0
LINE
  5
584D
330
5823
100
AcDbEntity
  8
AM_0 外形線1
100
AcDbLine
 10
-43.89999999999964
 20
720.800000000001
 30
0.0
 11
-56.98057199999947
 21
720.800000000001
 31
0.0
  0
LINE
  5
584E
330
5823
100
AcDbEntity
  8
AM_0 外形線1
100
AcDbLine
 10
-43.89999999999964
 20
720.2000000000007
 30
0.0
 11
-43.89999999999964
 21
720.800000000001
 31
0.0
  0
LINE
  5
584F
330
5823
100
AcDbEntity
  8
AM_0 外形線1
100
AcDbLine
 10
-38.0
 20
720.2000000000007
 30
0.0
 11
-43.89999999999964
 21
720.2000000000007
 31
0.0
  0
LINE
  5
5850
330
5823
100
AcDbEntity
  8
AM_0 外形線1
100
AcDbLine
 10
-38.0
 20
725.0
 30
0.0
 11
-38.0
 21
700.0
 31
0.0
  0
LINE
  5
5851
330
5823
100
AcDbEntity
  8
AM_0 外形線1
100
AcDbLine
 10
8.0
 20
674.0
 30
0.0
 11
-4.590000000000144
 21
674.0
 31
0.0
  0
LINE
  5
58B1
330
5823
100
AcDbEntity
  8
AM_0 外形線1
100
AcDbLine
 10
0.0
 20
-725.0
 30
0.0
 11
0.0
 21
0.0
 31
0.0
  0
LINE
  5
58B2
330
5823
100
AcDbEntity
  8
AM_0 外形線1
100
AcDbLine
 10
0.0
 20
681.2000000000007
 30
0.0
 11
0.0
 21
688.0
 31
0.0
  0
LINE
  5
58B3
330
5823
100
AcDbEntity
  8
AM_0 外形線1
100
AcDbLine
 10
0.0
 20
725.0
 30
0.0
 11
0.0
 21
712.0
 31
0.0
  0
LINE
  5
58B4
330
5823
100
AcDbEntity
  8
AM_0 外形線1
100
AcDbLine
 10
43.0
 20
710.5
 30
0.0
 11
43.0
 21
689.5
 31
0.0
  0
LINE
  5
58B5
330
5823
100
AcDbEntity
  8
AM_0 外形線1
100
AcDbLine
 10
49.06217700000161
 20
700.0
 30
0.0
 11
43.0
 21
689.5
 31
0.0
  0
LINE
  5
58B6
330
5823
100
AcDbEntity
  8
AM_0 外形線1
100
AcDbLine
 10
36.10000000000037
 20
712.0
 30
0.0
 11
36.10000000000037
 21
688.0
 31
0.0
  0
LINE
  5
58B7
330
5823
100
AcDbEntity
  8
AM_0 外形線1
100
AcDbLine
 10
43.0
 20
689.5
 30
0.0
 11
36.10000000000037
 21
689.5
 31
0.0
  0
LINE
  5
58B8
330
5823
100
AcDbEntity
  8
AM_0 外形線1
100
AcDbLine
 10
43.0
 20
710.5
 30
0.0
 11
49.06217700000161
 21
700.0
 31
0.0
  0
LINE
  5
58B9
330
5823
100
AcDbEntity
  8
AM_0 外形線1
100
AcDbLine
 10
36.10000000000037
 20
710.5
 30
0.0
 11
43.0
 21
710.5
 31
0.0
  0
ENDBLK
  5
5825
330
5823
100
AcDbEntity
  8
0
100
AcDbBlockEnd
  0
BLOCK
  5
5D98
330
5D97
100
AcDbEntity
  8
0
100
AcDbBlockBegin
  2
*D14
 70
     1
 10
0.0
 20
0.0
 30
0.0
  3
*D14
  1

  0
LINE
  5
71BC
330
5D97
100
AcDbEntity
  8
AM_5 寸法線
 62
     3
100
AcDbLine
 10
4548.657666132145
 20
6018.210687573986
 30
0.0
 11
3676.657666132145
 21
6018.210687573986
 31
0.0
  0
LINE
  5
71BD
330
5D97
100
AcDbEntity
  8
AM_5 寸法線
 62
     3
100
AcDbLine
 10
4548.657666132145
 20
4758.210687573987
 30
0.0
 11
3676.657666132145
 21
4758.210687573987
 31
0.0
  0
LINE
  5
71BE
330
5D97
100
AcDbEntity
  8
AM_5 寸法線
 62
     3
100
AcDbLine
 10
3692.282666132145
 20
5955.710687573986
 30
0.0
 11
3692.282666132145
 21
4820.710687573987
 31
0.0
  0
INSERT
  5
71BF
330
5D97
100
AcDbEntity
  8
AM_5 寸法線
 62
     3
100
AcDbBlockReference
  2
_Open30
 10
3692.282666132145
 20
6018.210687573986
 30
0.0
 41
62.5
 42
62.5
 43
62.5
 50
90.0
  0
INSERT
  5
71C0
330
5D97
100
AcDbEntity
  8
AM_5 寸法線
 62
     3
100
AcDbBlockReference
  2
_Open30
 10
3692.282666132145
 20
4758.210687573987
 30
0.0
 41
62.5
 42
62.5
 43
62.5
 50
270.0
  0
MTEXT
  5
71C1
330
5D97
100
AcDbEntity
  8
AM_5 寸法線
 62
     3
100
AcDbMText
 10
3611.032666132145
 20
5388.210687573987
 30
0.0
 40
87.5
 41
0.0
 46
0.0
 71
     5
 72
     1
  1
%%c1260
  7
SEISA
 11
0.0000000000000001
 21
1.0
 31
0.0
 73
     1
 44
1.0
  0
POINT
  5
71C2
330
5D97
100
AcDbEntity
  8
Defpoints
 62
     0
100
AcDbPoint
 10
4564.282666132145
 20
6018.210687573986
 30
0.0
  0
POINT
  5
71C3
330
5D97
100
AcDbEntity
  8
Defpoints
 62
     0
100
AcDbPoint
 10
4564.282666132145
 20
4758.210687573987
 30
0.0
  0
POINT
  5
71C4
330
5D97
100
AcDbEntity
  8
Defpoints
 62
     0
100
AcDbPoint
 10
3692.282666132145
 20
4758.210687573987
 30
0.0
  0
ENDBLK
  5
5D99
330
5D97
100
AcDbEntity
  8
0
100
AcDbBlockEnd
  0
BLOCK
  5
5DDC
330
5DDB
100
AcDbEntity
  8
0
100
AcDbBlockBegin
  2
*D15
 70
     1
 10
0.0
 20
0.0
 30
0.0
  3
*D15
  1

  0
LINE
  5
71C5
330
5DDB
100
AcDbEntity
  8
AM_5 寸法線
 62
     3
100
AcDbLine
 10
5092.282666132145
 20
5403.835687573987
 30
0.0
 11
5092.282666132145
 21
5529.943211573986
 31
0.0
  0
LINE
  5
71C6
330
5DDB
100
AcDbEntity
  8
AM_5 寸法線
 62
     3
100
AcDbLine
 10
4192.282666132145
 20
5403.835687573987
 30
0.0
 11
4192.282666132145
 21
5529.943211573986
 31
0.0
  0
LINE
  5
71C7
330
5DDB
100
AcDbEntity
  8
AM_5 寸法線
 62
     3
100
AcDbLine
 10
5029.782666132145
 20
5514.318211573986
 30
0.0
 11
4254.782666132145
 21
5514.318211573986
 31
0.0
  0
INSERT
  5
71C8
330
5DDB
100
AcDbEntity
  8
AM_5 寸法線
 62
     3
100
AcDbBlockReference
  2
_Open30
 10
5092.282666132145
 20
5514.318211573986
 30
0.0
 41
62.5
 42
62.5
 43
62.5
  0
INSERT
  5
71C9
330
5DDB
100
AcDbEntity
  8
AM_5 寸法線
 62
     3
100
AcDbBlockReference
  2
_Open30
 10
4192.282666132145
 20
5514.318211573986
 30
0.0
 41
62.5
 42
62.5
 43
62.5
 50
180.0
  0
MTEXT
  5
71CA
330
5DDB
100
AcDbEntity
  8
AM_5 寸法線
 62
     3
100
AcDbMText
 10
4642.282666132145
 20
5595.568211573985
 30
0.0
 40
87.5
 41
0.0
 46
0.0
 71
     5
 72
     1
  1
900
  7
SEISA
 73
     1
 44
1.0
  0
POINT
  5
71CB
330
5DDB
100
AcDbEntity
  8
Defpoints
 62
     0
100
AcDbPoint
 10
5092.282666132145
 20
5388.210687573987
 30
0.0
  0
POINT
  5
71CC
330
5DDB
100
AcDbEntity
  8
Defpoints
 62
     0
100
AcDbPoint
 10
4192.282666132145
 20
5388.210687573987
 30
0.0
  0
POINT
  5
71CD
330
5DDB
100
AcDbEntity
  8
Defpoints
 62
     0
100
AcDbPoint
 10
4192.282666132145
 20
5514.318211573986
 30
0.0
  0
ENDBLK
  5
5DDD
330
5DDB
100
AcDbEntity
  8
0
100
AcDbBlockEnd
  0
BLOCK
  5
5DF4
330
5DF3
100
AcDbEntity
  8
0
100
AcDbBlockBegin
  2
*D16
 70
     1
 10
0.0
 20
0.0
 30
0.0
  3
*D16
  1

  0
LINE
  5
688C
330
5DF3
100
AcDbEntity
  8
AM_5 寸法線
 62
     3
100
AcDbLine
 10
5142.282666132145
 20
5403.835687573987
 30
0.0
 11
5142.282666132145
 21
5529.943211573986
 31
0.0
  0
LINE
  5
688D
330
5DF3
100
AcDbEntity
  8
AM_5 寸法線
 62
     3
100
AcDbLine
 10
5092.282666132145
 20
5403.835687573987
 30
0.0
 11
5092.282666132145
 21
5529.943211573986
 31
0.0
  0
LINE
  5
688E
330
5DF3
100
AcDbEntity
  8
AM_5 寸法線
 62
     3
100
AcDbLine
 10
5204.782666132145
 20
5514.318211573986
 30
0.0
 11
5267.282666132145
 21
5514.318211573986
 31
0.0
  0
LINE
  5
688F
330
5DF3
100
AcDbEntity
  8
AM_5 寸法線
 62
     3
100
AcDbLine
 10
5029.782666132145
 20
5514.318211573986
 30
0.0
 11
4967.282666132145
 21
5514.318211573986
 31
0.0
  0
MTEXT
  5
6890
330
5DF3
100
AcDbEntity
  8
AM_5 寸法線
 62
     3
100
AcDbMText
 10
5277.629942470134
 20
5595.134804308793
 30
0.0
 40
87.5
 41
0.0
 46
0.0
 71
     5
 72
     1
  1
50
  7
SEISA
 73
     1
 44
1.0
  0
LINE
  5
6891
330
5DF3
100
AcDbEntity
  8
AM_5 寸法線
 62
     3
100
AcDbLine
 10
5142.282666132145
 20
5514.318211573986
 30
0.0
 11
5092.282666132145
 21
5514.318211573986
 31
0.0
  0
INSERT
  5
6892
330
5DF3
100
AcDbEntity
  8
AM_5 寸法線
 62
     3
100
AcDbBlockReference
  2
_Open30
 10
5142.282666132145
 20
5514.318211573986
 30
0.0
 41
62.5
 42
62.5
 43
62.5
 50
180.0
  0
INSERT
  5
6893
330
5DF3
100
AcDbEntity
  8
AM_5 寸法線
 62
     3
100
AcDbBlockReference
  2
_Open30
 10
5092.282666132145
 20
5514.318211573986
 30
0.0
 41
62.5
 42
62.5
 43
62.5
  0
POINT
  5
6894
330
5DF3
100
AcDbEntity
  8
Defpoints
 62
     0
100
AcDbPoint
 10
5142.282666132145
 20
5388.210687573987
 30
0.0
  0
POINT
  5
6895
330
5DF3
100
AcDbEntity
  8
Defpoints
 62
     0
100
AcDbPoint
 10
5092.282666132145
 20
5388.210687573987
 30
0.0
  0
POINT
  5
6896
330
5DF3
100
AcDbEntity
  8
Defpoints
 62
     0
100
AcDbPoint
 10
5092.282666132145
 20
5514.318211573986
 30
0.0
  0
ENDBLK
  5
5DF5
330
5DF3
100
AcDbEntity
  8
0
100
AcDbBlockEnd
  0
BLOCK
  5
5E10
330
5E0F
100
AcDbEntity
  8
0
100
AcDbBlockBegin
  2
*D17
 70
     1
 10
0.0
 20
0.0
 30
0.0
  3
*D17
  1

  0
LINE
  5
6897
330
5E0F
100
AcDbEntity
  8
AM_5 寸法線
 62
     3
100
AcDbLine
 10
5142.282666132145
 20
5403.835687573987
 30
0.0
 11
5142.282666132145
 21
5529.943211573986
 31
0.0
  0
LINE
  5
6898
330
5E0F
100
AcDbEntity
  8
AM_5 寸法線
 62
     3
100
AcDbLine
 10
6042.282666132146
 20
5403.835687573987
 30
0.0
 11
6042.282666132146
 21
5529.943211573986
 31
0.0
  0
LINE
  5
6899
330
5E0F
100
AcDbEntity
  8
AM_5 寸法線
 62
     3
100
AcDbLine
 10
5204.782666132145
 20
5514.318211573986
 30
0.0
 11
5979.782666132146
 21
5514.318211573986
 31
0.0
  0
INSERT
  5
689A
330
5E0F
100
AcDbEntity
  8
AM_5 寸法線
 62
     3
100
AcDbBlockReference
  2
_Open30
 10
5142.282666132145
 20
5514.318211573986
 30
0.0
 41
62.5
 42
62.5
 43
62.5
 50
180.0
  0
INSERT
  5
689B
330
5E0F
100
AcDbEntity
  8
AM_5 寸法線
 62
     3
100
AcDbBlockReference
  2
_Open30
 10
6042.282666132146
 20
5514.318211573986
 30
0.0
 41
62.5
 42
62.5
 43
62.5
  0
MTEXT
  5
689C
330
5E0F
100
AcDbEntity
  8
AM_5 寸法線
 62
     3
100
AcDbMText
 10
5592.282666132145
 20
5595.568211573985
 30
0.0
 40
87.5
 41
0.0
 46
0.0
 71
     5
 72
     1
  1
900
  7
SEISA
 73
     1
 44
1.0
  0
POINT
  5
689D
330
5E0F
100
AcDbEntity
  8
Defpoints
 62
     0
100
AcDbPoint
 10
5142.282666132145
 20
5388.210687573987
 30
0.0
  0
POINT
  5
689E
330
5E0F
100
AcDbEntity
  8
Defpoints
 62
     0
100
AcDbPoint
 10
6042.282666132146
 20
5388.210687573987
 30
0.0
  0
POINT
  5
689F
330
5E0F
100
AcDbEntity
  8
Defpoints
 62
     0
100
AcDbPoint
 10
6042.282666132146
 20
5514.318211573986
 30
0.0
  0
ENDBLK
  5
5E11
330
5E0F
100
AcDbEntity
  8
0
100
AcDbBlockEnd
  0
BLOCK
  5
5E5D
330
5E5C
100
AcDbEntity
  8
0
100
AcDbBlockBegin
  2
*D18
 70
     1
 10
0.0
 20
0.0
 30
0.0
  3
*D18
  1

  0
LINE
  5
72DB
330
5E5C
100
AcDbEntity
  8
AM_5 寸法線
 62
     3
100
AcDbLine
 10
4678.282666132145
 20
6003.085687573985
 30
0.0
 11
4678.282666132145
 21
5858.469528709972
 31
0.0
  0
LINE
  5
72DC
330
5E5C
100
AcDbEntity
  8
AM_5 寸法線
 62
     3
100
AcDbLine
 10
4660.282666132145
 20
6002.585687573986
 30
0.0
 11
4660.282666132145
 21
5858.469528709972
 31
0.0
  0
LINE
  5
72DD
330
5E5C
100
AcDbEntity
  8
AM_5 寸法線
 62
     3
100
AcDbLine
 10
4678.282666132145
 20
5874.094528709972
 30
0.0
 11
4740.782666132145
 21
5874.094528709972
 31
0.0
  0
LINE
  5
72DE
330
5E5C
100
AcDbEntity
  8
AM_5 寸法線
 62
     3
100
AcDbLine
 10
4597.782666132145
 20
5874.094528709972
 30
0.0
 11
4344.032666132145
 21
5874.094528709972
 31
0.0
  0
LINE
  5
72DF
330
5E5C
100
AcDbEntity
  8
AM_5 寸法線
 62
     3
100
AcDbLine
 10
4678.282666132145
 20
5874.094528709972
 30
0.0
 11
4660.282666132145
 21
5874.094528709972
 31
0.0
  0
INSERT
  5
72E0
330
5E5C
100
AcDbEntity
  8
AM_5 寸法線
 62
     3
100
AcDbBlockReference
  2
_DotSmall
 10
4678.282666132145
 20
5874.094528709972
 30
0.0
 41
62.5
 42
62.5
 43
62.5
 50
180.0
  0
INSERT
  5
72E1
330
5E5C
100
AcDbEntity
  8
AM_5 寸法線
 62
     3
100
AcDbBlockReference
  2
_Open30
 10
4660.282666132145
 20
5874.094528709972
 30
0.0
 41
62.5
 42
62.5
 43
62.5
  0
MTEXT
  5
72E2
330
5E5C
100
AcDbEntity
  8
AM_5 寸法線
 62
     3
100
AcDbMText
 10
4439.657666132145
 20
5955.344528709971
 30
0.0
 40
87.5
 41
0.0
 46
0.0
 71
     5
 72
     1
  1
18
  7
SEISA
 73
     1
 44
1.0
  0
POINT
  5
72E3
330
5E5C
100
AcDbEntity
  8
Defpoints
 62
     0
100
AcDbPoint
 10
4678.282666132145
 20
6018.710687573985
 30
0.0
  0
POINT
  5
72E4
330
5E5C
100
AcDbEntity
  8
Defpoints
 62
     0
100
AcDbPoint
 10
4660.282666132145
 20
6018.210687573986
 30
0.0
  0
POINT
  5
72E5
330
5E5C
100
AcDbEntity
  8
Defpoints
 62
     0
100
AcDbPoint
 10
4660.282666132145
 20
5874.094528709972
 30
0.0
  0
ENDBLK
  5
5E5E
330
5E5C
100
AcDbEntity
  8
0
100
AcDbBlockEnd
  0
BLOCK
  5
5ED8
330
5ED7
100
AcDbEntity
  8
0
100
AcDbBlockBegin
  2
*D19
 70
     1
 10
0.0
 20
0.0
 30
0.0
  3
*D19
  1

  0
LINE
  5
68B6
330
5ED7
100
AcDbEntity
  8
AM_5 寸法線
 62
     3
100
AcDbLine
 10
5685.907666132145
 20
6018.210687573986
 30
0.0
 11
6557.907666132145
 21
6018.210687573986
 31
0.0
  0
LINE
  5
68B7
330
5ED7
100
AcDbEntity
  8
AM_5 寸法線
 62
     3
100
AcDbLine
 10
5685.907666132145
 20
4758.210687573987
 30
0.0
 11
6557.907666132145
 21
4758.210687573984
 31
0.0
  0
LINE
  5
68B8
330
5ED7
100
AcDbEntity
  8
AM_5 寸法線
 62
     3
100
AcDbLine
 10
6542.282666132145
 20
5955.710687573986
 30
0.0
 11
6542.282666132145
 21
4820.710687573985
 31
0.0
  0
INSERT
  5
68B9
330
5ED7
100
AcDbEntity
  8
AM_5 寸法線
 62
     3
100
AcDbBlockReference
  2
_Open30
 10
6542.282666132145
 20
6018.210687573986
 30
0.0
 41
62.5
 42
62.5
 43
62.5
 50
90.0
  0
INSERT
  5
68BA
330
5ED7
100
AcDbEntity
  8
AM_5 寸法線
 62
     3
100
AcDbBlockReference
  2
_Open30
 10
6542.282666132145
 20
4758.210687573984
 30
0.0
 41
62.5
 42
62.5
 43
62.5
 50
270.0
  0
MTEXT
  5
68BB
330
5ED7
100
AcDbEntity
  8
AM_5 寸法線
 62
     3
100
AcDbMText
 10
6461.032666132144
 20
5388.210687573987
 30
0.0
 40
87.5
 41
0.0
 46
0.0
 71
     5
 72
     1
  1
%%c1260
  7
SEISA
 11
0.0000000000000001
 21
1.0
 31
0.0
 73
     1
 44
1.0
  0
POINT
  5
68BC
330
5ED7
100
AcDbEntity
  8
Defpoints
 62
     0
100
AcDbPoint
 10
5670.282666132145
 20
6018.210687573986
 30
0.0
  0
POINT
  5
68BD
330
5ED7
100
AcDbEntity
  8
Defpoints
 62
     0
100
AcDbPoint
 10
5670.282666132145
 20
4758.210687573987
 30
0.0
  0
POINT
  5
68BE
330
5ED7
100
AcDbEntity
  8
Defpoints
 62
     0
100
AcDbPoint
 10
6542.282666132145
 20
4758.210687573984
 30
0.0
  0
ENDBLK
  5
5ED9
330
5ED7
100
AcDbEntity
  8
0
100
AcDbBlockEnd
  0
BLOCK
  5
5EF0
330
5EEF
100
AcDbEntity
  8
0
100
AcDbBlockBegin
  2
*D20
 70
     1
 10
0.0
 20
0.0
 30
0.0
  3
*D20
  1

  0
LINE
  5
68BF
330
5EEF
100
AcDbEntity
  8
AM_5 寸法線
 62
     3
100
AcDbLine
 10
5635.907666132145
 20
6113.210687573985
 30
0.0
 11
6757.907666132147
 21
6113.210687573985
 31
0.0
  0
LINE
  5
68C0
330
5EEF
100
AcDbEntity
  8
AM_5 寸法線
 62
     3
100
AcDbLine
 10
5635.907666132145
 20
4663.210687573986
 30
0.0
 11
6757.907666132147
 21
4663.210687573984
 31
0.0
  0
LINE
  5
68C1
330
5EEF
100
AcDbEntity
  8
AM_5 寸法線
 62
     3
100
AcDbLine
 10
6742.282666132147
 20
6050.710687573985
 30
0.0
 11
6742.282666132147
 21
4725.710687573984
 31
0.0
  0
INSERT
  5
68C2
330
5EEF
100
AcDbEntity
  8
AM_5 寸法線
 62
     3
100
AcDbBlockReference
  2
_Open30
 10
6742.282666132147
 20
6113.210687573985
 30
0.0
 41
62.5
 42
62.5
 43
62.5
 50
90.0
  0
INSERT
  5
68C3
330
5EEF
100
AcDbEntity
  8
AM_5 寸法線
 62
     3
100
AcDbBlockReference
  2
_Open30
 10
6742.282666132147
 20
4663.210687573984
 30
0.0
 41
62.5
 42
62.5
 43
62.5
 50
270.0
  0
MTEXT
  5
68C4
330
5EEF
100
AcDbEntity
  8
AM_5 寸法線
 62
     3
100
AcDbMText
 10
6661.032666132145
 20
5388.210687573987
 30
0.0
 40
87.5
 41
0.0
 46
0.0
 71
     5
 72
     1
  1
%%c1450
  7
SEISA
 11
0.0000000000000001
 21
1.0
 31
0.0
 73
     1
 44
1.0
  0
POINT
  5
68C5
330
5EEF
100
AcDbEntity
  8
Defpoints
 62
     0
100
AcDbPoint
 10
5620.282666132145
 20
6113.210687573985
 30
0.0
  0
POINT
  5
68C6
330
5EEF
100
AcDbEntity
  8
Defpoints
 62
     0
100
AcDbPoint
 10
5620.282666132145
 20
4663.210687573986
 30
0.0
  0
POINT
  5
68C7
330
5EEF
100
AcDbEntity
  8
Defpoints
 62
     0
100
AcDbPoint
 10
6742.282666132147
 20
4663.210687573984
 30
0.0
  0
ENDBLK
  5
5EF1
330
5EEF
100
AcDbEntity
  8
0
100
AcDbBlockEnd
  0
BLOCK
  5
5F08
330
5F07
100
AcDbEntity
  8
0
100
AcDbBlockBegin
  2
*D21
 70
     1
 10
0.0
 20
0.0
 30
0.0
  3
*D21
  1

  0
LINE
  5
68C8
330
5F07
100
AcDbEntity
  8
AM_5 寸法線
 62
     3
100
AcDbLine
 10
5199.907666132145
 20
6188.210687573985
 30
0.0
 11
6957.907666132147
 21
6188.210687573985
 31
0.0
  0
LINE
  5
68C9
330
5F07
100
AcDbEntity
  8
AM_5 寸法線
 62
     3
100
AcDbLine
 10
5199.907666132145
 20
4588.210687573986
 30
0.0
 11
6957.907666132147
 21
4588.210687573986
 31
0.0
  0
LINE
  5
68CA
330
5F07
100
AcDbEntity
  8
AM_5 寸法線
 62
     3
100
AcDbLine
 10
6942.282666132147
 20
6125.710687573985
 30
0.0
 11
6942.282666132147
 21
4650.710687573986
 31
0.0
  0
INSERT
  5
68CB
330
5F07
100
AcDbEntity
  8
AM_5 寸法線
 62
     3
100
AcDbBlockReference
  2
_Open30
 10
6942.282666132147
 20
6188.210687573985
 30
0.0
 41
62.5
 42
62.5
 43
62.5
 50
90.0
  0
INSERT
  5
68CC
330
5F07
100
AcDbEntity
  8
AM_5 寸法線
 62
     3
100
AcDbBlockReference
  2
_Open30
 10
6942.282666132147
 20
4588.210687573986
 30
0.0
 41
62.5
 42
62.5
 43
62.5
 50
270.0
  0
MTEXT
  5
68CD
330
5F07
100
AcDbEntity
  8
AM_5 寸法線
 62
     3
100
AcDbMText
 10
6861.032666132145
 20
5388.210687573987
 30
0.0
 40
87.5
 41
0.0
 46
0.0
 71
     5
 72
     1
  1
%%c1600
  7
SEISA
 11
0.0000000000000001
 21
1.0
 31
0.0
 73
     1
 44
1.0
  0
POINT
  5
68CE
330
5F07
100
AcDbEntity
  8
Defpoints
 62
     0
100
AcDbPoint
 10
5184.282666132145
 20
6188.210687573985
 30
0.0
  0
POINT
  5
68CF
330
5F07
100
AcDbEntity
  8
Defpoints
 62
     0
100
AcDbPoint
 10
5184.282666132145
 20
4588.210687573986
 30
0.0
  0
POINT
  5
68D0
330
5F07
100
AcDbEntity
  8
Defpoints
 62
     0
100
AcDbPoint
 10
6942.282666132147
 20
4588.210687573986
 30
0.0
  0
ENDBLK
  5
5F09
330
5F07
100
AcDbEntity
  8
0
100
AcDbBlockEnd
  0
BLOCK
  5
609B
330
609A
100
AcDbEntity
  8
0
100
AcDbBlockBegin
  2
*D22
 70
     1
 10
0.0
 20
0.0
 30
0.0
  3
*D22
  1

  0
LINE
  5
68D8
330
609A
100
AcDbEntity
  8
AM_5 寸法線
 62
     3
100
AcDbLine
 10
5117.282666132145
 20
4575.585687573986
 30
0.0
 11
5117.282666132145
 21
4197.585687573986
 31
0.0
  0
LINE
  5
68D9
330
609A
100
AcDbEntity
  8
AM_5 寸法線
 62
     3
100
AcDbLine
 10
5187.282666132145
 20
4575.585687573986
 30
0.0
 11
5187.282666132145
 21
4197.585687573986
 31
0.0
  0
LINE
  5
68DA
330
609A
100
AcDbEntity
  8
AM_5 寸法線
 62
     3
100
AcDbLine
 10
5054.782666132145
 20
4213.210687573986
 30
0.0
 11
4992.282666132145
 21
4213.210687573986
 31
0.0
  0
LINE
  5
68DB
330
609A
100
AcDbEntity
  8
AM_5 寸法線
 62
     3
100
AcDbLine
 10
5249.782666132145
 20
4213.210687573986
 30
0.0
 11
5514.782666132145
 21
4213.210687573986
 31
0.0
  0
LINE
  5
68DC
330
609A
100
AcDbEntity
  8
AM_5 寸法線
 62
     3
100
AcDbLine
 10
5117.282666132145
 20
4213.210687573986
 30
0.0
 11
5187.282666132145
 21
4213.210687573986
 31
0.0
  0
INSERT
  5
68DD
330
609A
100
AcDbEntity
  8
AM_5 寸法線
 62
     3
100
AcDbBlockReference
  2
GENDOT
 10
5117.282666132145
 20
4213.210687573986
 30
0.0
 41
62.5
 42
62.5
 43
62.5
  0
INSERT
  5
68DE
330
609A
100
AcDbEntity
  8
AM_5 寸法線
 62
     3
100
AcDbBlockReference
  2
_Open30
 10
5187.282666132145
 20
4213.210687573986
 30
0.0
 41
62.5
 42
62.5
 43
62.5
 50
180.0
  0
MTEXT
  5
68DF
330
609A
100
AcDbEntity
  8
AM_5 寸法線
 62
     3
100
AcDbMText
 10
5413.532666132145
 20
4294.460687573987
 30
0.0
 40
87.5
 41
0.0
 46
0.0
 71
     5
 72
     1
  1
70
  7
SEISA
 73
     1
 44
1.0
  0
POINT
  5
68E0
330
609A
100
AcDbEntity
  8
Defpoints
 62
     0
100
AcDbPoint
 10
5117.282666132145
 20
4591.210687573986
 30
0.0
  0
POINT
  5
68E1
330
609A
100
AcDbEntity
  8
Defpoints
 62
     0
100
AcDbPoint
 10
5187.282666132145
 20
4591.210687573986
 30
0.0
  0
POINT
  5
68E2
330
609A
100
AcDbEntity
  8
Defpoints
 62
     0
100
AcDbPoint
 10
5187.282666132145
 20
4213.210687573986
 30
0.0
  0
ENDBLK
  5
609C
330
609A
100
AcDbEntity
  8
0
100
AcDbBlockEnd
  0
BLOCK
  5
60B7
330
60B6
100
AcDbEntity
  8
0
100
AcDbBlockBegin
  2
*D23
 70
     1
 10
0.0
 20
0.0
 30
0.0
  3
*D23
  1

  0
LINE
  5
68E3
330
60B6
100
AcDbEntity
  8
AM_5 寸法線
 62
     3
100
AcDbLine
 10
5117.282666132145
 20
4575.585687573986
 30
0.0
 11
5117.282666132145
 21
4197.585687573986
 31
0.0
  0
LINE
  5
68E4
330
60B6
100
AcDbEntity
  8
AM_5 寸法線
 62
     3
100
AcDbLine
 10
5047.282666132145
 20
4575.585687573986
 30
0.0
 11
5047.282666132145
 21
4197.585687573986
 31
0.0
  0
LINE
  5
68E5
330
60B6
100
AcDbEntity
  8
AM_5 寸法線
 62
     3
100
AcDbLine
 10
5179.782666132145
 20
4213.210687573986
 30
0.0
 11
5242.282666132145
 21
4213.210687573986
 31
0.0
  0
LINE
  5
68E6
330
60B6
100
AcDbEntity
  8
AM_5 寸法線
 62
     3
100
AcDbLine
 10
4984.782666132145
 20
4213.210687573986
 30
0.0
 11
4719.782666132145
 21
4213.210687573986
 31
0.0
  0
LINE
  5
68E7
330
60B6
100
AcDbEntity
  8
AM_5 寸法線
 62
     3
100
AcDbLine
 10
5117.282666132145
 20
4213.210687573986
 30
0.0
 11
5047.282666132145
 21
4213.210687573986
 31
0.0
  0
INSERT
  5
68E8
330
60B6
100
AcDbEntity
  8
AM_5 寸法線
 62
     3
100
AcDbBlockReference
  2
GENDOT
 10
5117.282666132145
 20
4213.210687573986
 30
0.0
 41
62.5
 42
62.5
 43
62.5
 50
180.0
  0
INSERT
  5
68E9
330
60B6
100
AcDbEntity
  8
AM_5 寸法線
 62
     3
100
AcDbBlockReference
  2
_Open30
 10
5047.282666132145
 20
4213.210687573986
 30
0.0
 41
62.5
 42
62.5
 43
62.5
  0
MTEXT
  5
68EA
330
60B6
100
AcDbEntity
  8
AM_5 寸法線
 62
     3
100
AcDbMText
 10
4821.032666132145
 20
4294.460687573987
 30
0.0
 40
87.5
 41
0.0
 46
0.0
 71
     5
 72
     1
  1
70
  7
SEISA
 73
     1
 44
1.0
  0
POINT
  5
68EB
330
60B6
100
AcDbEntity
  8
Defpoints
 62
     0
100
AcDbPoint
 10
5117.282666132145
 20
4591.210687573986
 30
0.0
  0
POINT
  5
68EC
330
60B6
100
AcDbEntity
  8
Defpoints
 62
     0
100
AcDbPoint
 10
5047.282666132145
 20
4591.210687573986
 30
0.0
  0
POINT
  5
68ED
330
60B6
100
AcDbEntity
  8
Defpoints
 62
     0
100
AcDbPoint
 10
5047.282666132145
 20
4213.210687573986
 30
0.0
  0
ENDBLK
  5
60B8
330
60B6
100
AcDbEntity
  8
0
100
AcDbBlockEnd
  0
BLOCK
  5
60EB
330
60EA
100
AcDbEntity
  8
0
100
AcDbBlockBegin
  2
*D24
 70
     1
 10
0.0
 20
0.0
 30
0.0
  3
*D24
  1

  0
LINE
  5
746F
330
60EA
100
AcDbEntity
  8
AM_5 寸法線
 62
     3
100
AcDbLine
 10
5620.282666132145
 20
4647.585687573986
 30
0.0
 11
5620.282666132145
 21
3997.585687573987
 31
0.0
  0
LINE
  5
7470
330
60EA
100
AcDbEntity
  8
AM_5 寸法線
 62
     3
100
AcDbLine
 10
4614.282666132145
 20
4647.585687573986
 30
0.0
 11
4614.282666132145
 21
3997.585687573987
 31
0.0
  0
LINE
  5
7471
330
60EA
100
AcDbEntity
  8
AM_5 寸法線
 62
     3
100
AcDbLine
 10
5557.782666132145
 20
4013.210687573987
 30
0.0
 11
4676.782666132145
 21
4013.210687573987
 31
0.0
  0
INSERT
  5
7472
330
60EA
100
AcDbEntity
  8
AM_5 寸法線
 62
     3
100
AcDbBlockReference
  2
_Open30
 10
5620.282666132145
 20
4013.210687573987
 30
0.0
 41
62.5
 42
62.5
 43
62.5
  0
INSERT
  5
7473
330
60EA
100
AcDbEntity
  8
AM_5 寸法線
 62
     3
100
AcDbBlockReference
  2
_Open30
 10
4614.282666132145
 20
4013.210687573987
 30
0.0
 41
62.5
 42
62.5
 43
62.5
 50
180.0
  0
MTEXT
  5
7474
330
60EA
100
AcDbEntity
  8
AM_5 寸法線
 62
     3
100
AcDbMText
 10
5117.282666132145
 20
4094.460687573985
 30
0.0
 40
87.5
 41
0.0
 46
0.0
 71
     5
 72
     1
  1
1006
  7
SEISA
 73
     1
 44
1.0
  0
POINT
  5
7475
330
60EA
100
AcDbEntity
  8
Defpoints
 62
     0
100
AcDbPoint
 10
5620.282666132145
 20
4663.210687573986
 30
0.0
  0
POINT
  5
7476
330
60EA
100
AcDbEntity
  8
Defpoints
 62
     0
100
AcDbPoint
 10
4614.282666132145
 20
4663.210687573986
 30
0.0
  0
POINT
  5
7477
330
60EA
100
AcDbEntity
  8
Defpoints
 62
     0
100
AcDbPoint
 10
4614.282666132145
 20
4013.210687573987
 30
0.0
  0
ENDBLK
  5
60EC
330
60EA
100
AcDbEntity
  8
0
100
AcDbBlockEnd
  0
BLOCK
  5
6134
330
6133
100
AcDbEntity
  8
0
100
AcDbBlockBegin
  2
*D25
 70
     1
 10
0.0
 20
0.0
 30
0.0
  3
*D25
  1

  0
LINE
  5
6912
330
6133
100
AcDbEntity
  8
AM_5 寸法線
 62
     3
100
AcDbLine
 10
6042.282666132145
 20
4774.585687573987
 30
0.0
 11
6042.282666132145
 21
3797.585687573987
 31
0.0
  0
LINE
  5
6913
330
6133
100
AcDbEntity
  8
AM_5 寸法線
 62
     3
100
AcDbLine
 10
4192.282666132145
 20
4774.585687573987
 30
0.0
 11
4192.282666132145
 21
3797.585687573987
 31
0.0
  0
LINE
  5
6914
330
6133
100
AcDbEntity
  8
AM_5 寸法線
 62
     3
100
AcDbLine
 10
5979.782666132145
 20
3813.210687573987
 30
0.0
 11
4254.782666132145
 21
3813.210687573987
 31
0.0
  0
INSERT
  5
6915
330
6133
100
AcDbEntity
  8
AM_5 寸法線
 62
     3
100
AcDbBlockReference
  2
_Open30
 10
6042.282666132145
 20
3813.210687573987
 30
0.0
 41
62.5
 42
62.5
 43
62.5
  0
INSERT
  5
6916
330
6133
100
AcDbEntity
  8
AM_5 寸法線
 62
     3
100
AcDbBlockReference
  2
_Open30
 10
4192.282666132145
 20
3813.210687573987
 30
0.0
 41
62.5
 42
62.5
 43
62.5
 50
180.0
  0
MTEXT
  5
6917
330
6133
100
AcDbEntity
  8
AM_5 寸法線
 62
     3
100
AcDbMText
 10
5117.282666132145
 20
3894.460687573987
 30
0.0
 40
87.5
 41
0.0
 46
0.0
 71
     5
 72
     1
  1
1850
  7
SEISA
 73
     1
 44
1.0
  0
POINT
  5
6918
330
6133
100
AcDbEntity
  8
Defpoints
 62
     0
100
AcDbPoint
 10
6042.282666132145
 20
4790.210687573987
 30
0.0
  0
POINT
  5
6919
330
6133
100
AcDbEntity
  8
Defpoints
 62
     0
100
AcDbPoint
 10
4192.282666132145
 20
4790.210687573987
 30
0.0
  0
POINT
  5
691A
330
6133
100
AcDbEntity
  8
Defpoints
 62
     0
100
AcDbPoint
 10
4192.282666132145
 20
3813.210687573987
 30
0.0
  0
ENDBLK
  5
6135
330
6133
100
AcDbEntity
  8
0
100
AcDbBlockEnd
  0
BLOCK
  5
6158
330
6155
100
AcDbEntity
  8
0
100
AcDbBlockBegin
  2
GENDOT
 70
     0
 10
0.0
 20
0.0
 30
0.0
  3
GENDOT
  1

  0
LINE
  5
6156
330
6155
100
AcDbEntity
  8
0
100
AcDbLine
 10
0.0
 20
0.0
 30
0.0
 11
-1.0
 21
0.0
 31
0.0
  0
LWPOLYLINE
  5
6157
330
6155
100
AcDbEntity
  8
0
100
AcDbPolyline
 90
        2
 70
     1
 43
0.25
 10
-0.125
 20
0.0
 42
1.0
 10
0.125
 20
0.0
 42
1.0
  0
ENDBLK
  5
6159
330
6155
100
AcDbEntity
  8
0
100
AcDbBlockEnd
  0
BLOCK
  5
72A7
330
72A6
100
AcDbEntity
  8
0
100
AcDbBlockBegin
  2
*D27
 70
     1
 10
0.0
 20
0.0
 30
0.0
  3
*D27
  1

  0
LINE
  5
7573
330
72A6
100
AcDbEntity
  8
AM_5 寸法線
 62
     3
100
AcDbLine
 10
4678.282666132145
 20
6003.085687573985
 30
0.0
 11
4678.282666132145
 21
5858.469528709978
 31
0.0
  0
LINE
  5
7574
330
72A6
100
AcDbEntity
  8
AM_5 寸法線
 62
     3
100
AcDbLine
 10
4875.282666132145
 20
6003.085687573985
 30
0.0
 11
4875.282666132145
 21
5858.469528709978
 31
0.0
  0
LINE
  5
7575
330
72A6
100
AcDbEntity
  8
AM_5 寸法線
 62
     3
100
AcDbLine
 10
4678.282666132145
 20
5874.094528709978
 30
0.0
 11
4875.282666132145
 21
5874.094528709978
 31
0.0
  0
LINE
  5
7576
330
72A6
100
AcDbEntity
  8
AM_5 寸法線
 62
     3
100
AcDbLine
 10
4776.782666132144
 20
5874.094528709978
 30
0.0
 11
4806.88251481219
 21
5606.735433173763
 31
0.0
  0
LINE
  5
7577
330
72A6
100
AcDbEntity
  8
AM_5 寸法線
 62
     3
100
AcDbLine
 10
4806.88251481219
 20
5606.735433173763
 30
0.0
 11
5073.13251481219
 21
5606.735433173763
 31
0.0
  0
MTEXT
  5
7578
330
72A6
100
AcDbEntity
  8
AM_5 寸法線
 62
     3
100
AcDbMText
 10
4940.00751481219
 20
5687.985433173762
 30
0.0
 40
87.5
 41
0.0
 46
0.0
 71
     5
 72
     1
  1
197
  7
SEISA
 73
     1
 44
1.0
  0
INSERT
  5
7579
330
72A6
100
AcDbEntity
  8
AM_5 寸法線
 62
     3
100
AcDbBlockReference
  2
_DotSmall
 10
4678.282666132145
 20
5874.094528709978
 30
0.0
 41
62.5
 42
62.5
 43
62.5
 50
180.0
  0
INSERT
  5
757A
330
72A6
100
AcDbEntity
  8
AM_5 寸法線
 62
     3
100
AcDbBlockReference
  2
_DotSmall
 10
4875.282666132145
 20
5874.094528709978
 30
0.0
 41
62.5
 42
62.5
 43
62.5
  0
POINT
  5
757B
330
72A6
100
AcDbEntity
  8
Defpoints
 62
     0
100
AcDbPoint
 10
4678.282666132145
 20
6018.710687573985
 30
0.0
  0
POINT
  5
757C
330
72A6
100
AcDbEntity
  8
Defpoints
 62
     0
100
AcDbPoint
 10
4875.282666132145
 20
6018.710687573985
 30
0.0
  0
POINT
  5
757D
330
72A6
100
AcDbEntity
  8
Defpoints
 62
     0
100
AcDbPoint
 10
4875.282666132145
 20
5874.094528709978
 30
0.0
  0
ENDBLK
  5
72A8
330
72A6
100
AcDbEntity
  8
0
100
AcDbBlockEnd
  0
BLOCK
  5
72D9
330
72D7
100
AcDbEntity
  8
0
100
AcDbBlockBegin
  2
_DotSmall
 70
     0
 10
0.0
 20
0.0
 30
0.0
  3
_DotSmall
  1

  0
LWPOLYLINE
  5
72D8
330
72D7
100
AcDbEntity
  8
0
  6
ByBlock
 62
     0
100
AcDbPolyline
 90
        2
 70
     1
 43
0.5
 10
-0.0625
 20
0.0
 42
1.0
 10
0.0625
 20
0.0
 42
1.0
  0
ENDBLK
  5
72DA
330
72D7
100
AcDbEntity
  8
0
100
AcDbBlockEnd
  0
BLOCK
  5
730C
330
730B
100
AcDbEntity
  8
0
100
AcDbBlockBegin
  2
*D29
 70
     1
 10
0.0
 20
0.0
 30
0.0
  3
*D29
  1

  0
LINE
  5
7409
330
730B
100
AcDbEntity
  8
AM_5 寸法線
 62
     3
100
AcDbLine
 10
4875.282666132145
 20
6003.085687573985
 30
0.0
 11
4875.282666132145
 21
5858.469528709974
 31
0.0
  0
LINE
  5
740A
330
730B
100
AcDbEntity
  8
AM_5 寸法線
 62
     3
100
AcDbLine
 10
5092.282666132145
 20
5846.544708133624
 30
0.0
 11
5092.282666132145
 21
5889.719528709974
 31
0.0
  0
LINE
  5
740B
330
730B
100
AcDbEntity
  8
AM_5 寸法線
 62
     3
100
AcDbLine
 10
4875.282666132145
 20
5874.094528709974
 30
0.0
 11
5029.782666132145
 21
5874.094528709974
 31
0.0
  0
LINE
  5
740C
330
730B
100
AcDbEntity
  8
AM_5 寸法線
 62
     3
100
AcDbLine
 10
5463.801778705867
 20
5874.094528709974
 30
0.0
 11
5092.282666132145
 21
5874.094528709974
 31
0.0
  0
MTEXT
  5
740D
330
730B
100
AcDbEntity
  8
AM_5 寸法線
 62
     3
100
AcDbMText
 10
5325.051778705868
 20
5955.344528709975
 30
0.0
 40
87.5
 41
0.0
 46
0.0
 71
     5
 72
     1
  1
217
  7
SEISA
 73
     1
 44
1.0
  0
INSERT
  5
740E
330
730B
100
AcDbEntity
  8
AM_5 寸法線
 62
     3
100
AcDbBlockReference
  2
_DotSmall
 10
4875.282666132145
 20
5874.094528709974
 30
0.0
 41
62.5
 42
62.5
 43
62.5
 50
180.0
  0
INSERT
  5
740F
330
730B
100
AcDbEntity
  8
AM_5 寸法線
 62
     3
100
AcDbBlockReference
  2
_Open30
 10
5092.282666132145
 20
5874.094528709974
 30
0.0
 41
62.5
 42
62.5
 43
62.5
 50
180.0
  0
LINE
  5
7410
330
730B
100
AcDbEntity
  8
AM_5 寸法線
 62
     3
100
AcDbLine
 10
5154.782666132145
 20
5874.094528709974
 30
0.0
 11
5217.282666132145
 21
5874.094528709974
 31
0.0
  0
LINE
  5
7411
330
730B
100
AcDbEntity
  8
AM_5 寸法線
 62
     3
100
AcDbLine
 10
5092.282666132145
 20
5874.094528709974
 30
0.0
 11
5029.782666132145
 21
5874.094528709974
 31
0.0
  0
POINT
  5
7412
330
730B
100
AcDbEntity
  8
Defpoints
 62
     0
100
AcDbPoint
 10
4875.282666132145
 20
6018.710687573985
 30
0.0
  0
POINT
  5
7413
330
730B
100
AcDbEntity
  8
Defpoints
 62
     0
100
AcDbPoint
 10
5092.282666132145
 20
5830.919708133624
 30
0.0
  0
POINT
  5
7414
330
730B
100
AcDbEntity
  8
Defpoints
 62
     0
100
AcDbPoint
 10
5092.282666132145
 20
5874.094528709974
 30
0.0
  0
ENDBLK
  5
730D
330
730B
100
AcDbEntity
  8
0
100
AcDbBlockEnd
  0
BLOCK
  5
754A
330
7549
100
AcDbEntity
  8
0
100
AcDbBlockBegin
  2
センタB CCMH1600
 70
     0
 10
0.0
 20
0.0
 30
0.0
  3
センタB CCMH1600
  1

  0
LINE
  5
754C
330
7549
100
AcDbEntity
  8
AM_3 隠れ線
100
AcDbLine
 10
-900.0
 20
-353.5
 30
0.0
 11
-780.0
 21
-353.5
 31
0.0
  0
LINE
  5
754D
330
7549
100
AcDbEntity
  8
AM_3 隠れ線
100
AcDbLine
 10
-900.0
 20
-350.5
 30
0.0
 11
-802.0
 21
-350.5
 31
0.0
  0
LINE
  5
754E
330
7549
100
AcDbEntity
  8
AM_0 外形線1
100
AcDbLine
 10
-870.0
 20
245.5
 30
0.0
 11
-534.0
 21
245.5
 31
0.0
  0
LINE
  5
754F
330
7549
100
AcDbEntity
  8
AM_0 外形線1
100
AcDbLine
 10
-534.0
 20
-1010.5
 30
0.0
 11
-870.0
 21
-1010.5
 31
0.0
  0
LINE
  5
7550
330
7549
100
AcDbEntity
  8
AM_0 外形線1
100
AcDbLine
 10
-900.0
 20
-980.4999999999999
 30
0.0
 11
-900.0
 21
215.5
 31
0.0
  0
ARC
  5
7551
330
7549
100
AcDbEntity
  8
AM_0 外形線1
100
AcDbCircle
 10
-870.0
 20
-980.4999999999999
 30
0.0
 40
30.0
100
AcDbArc
 50
180.0
 51
270.0
  0
ARC
  5
7552
330
7549
100
AcDbEntity
  8
AM_0 外形線1
100
AcDbCircle
 10
-870.0
 20
215.5
 30
0.0
 40
30.0
100
AcDbArc
 50
90.0
 51
180.0
  0
LINE
  5
7553
330
7549
100
AcDbEntity
  8
AM_0 外形線1
100
AcDbLine
 10
0.0
 20
241.5
 30
0.0
 11
0.0
 21
-382.5
 31
0.0
  0
LINE
  5
7554
330
7549
100
AcDbEntity
  8
AM_0 外形線1
100
AcDbLine
 10
-534.0
 20
-1010.5
 30
0.0
 11
-534.0
 21
-382.5
 31
0.0
  0
LINE
  5
7555
330
7549
100
AcDbEntity
  8
AM_0 外形線1
100
AcDbLine
 10
-528.0
 20
-1012.5
 30
0.0
 11
-528.0
 21
-382.5
 31
0.0
  0
LINE
  5
7556
330
7549
100
AcDbEntity
  8
AM_0 外形線1
100
AcDbLine
 10
-528.0
 20
-1012.5
 30
0.0
 11
-534.0
 21
-1010.5
 31
0.0
  0
LINE
  5
7557
330
7549
100
AcDbEntity
  8
AM_0 外形線1
100
AcDbLine
 10
-478.0
 20
-1012.5
 30
0.0
 11
-528.0
 21
-1012.5
 31
0.0
  0
LINE
  5
7558
330
7549
100
AcDbEntity
  8
AM_3 隠れ線
100
AcDbLine
 10
-780.0
 20
-353.5
 30
0.0
 11
-780.0
 21
-382.5
 31
0.0
  0
LINE
  5
7559
330
7549
100
AcDbEntity
  8
AM_3 隠れ線
100
AcDbLine
 10
-780.0
 20
-353.5
 30
0.0
 11
-763.256843
 21
-382.5
 31
0.0
  0
LINE
  5
755A
330
7549
100
AcDbEntity
  8
AM_3 隠れ線
100
AcDbLine
 10
-800.2679499999995
 20
-353.5
 30
0.0
 11
-800.2679499999995
 21
-382.5
 31
0.0
  0
LINE
  5
755B
330
7549
100
AcDbEntity
  8
AM_3 隠れ線
100
AcDbLine
 10
-802.0
 20
-350.5
 30
0.0
 11
-802.0
 21
-382.5
 31
0.0
  0
LINE
  5
755C
330
7549
100
AcDbEntity
  8
AM_3 隠れ線
100
AcDbLine
 10
-802.0
 20
-350.5
 30
0.0
 11
-800.2679499999995
 21
-353.5
 31
0.0
  0
LINE
  5
755D
330
7549
100
AcDbEntity
  8
AM_3 隠れ線
100
AcDbLine
 10
-98.0
 20
-350.5
 30
0.0
 11
-98.0
 21
-382.5
 31
0.0
  0
LINE
  5
755E
330
7549
100
AcDbEntity
  8
AM_3 隠れ線
100
AcDbLine
 10
-99.73205100000086
 20
-353.5
 30
0.0
 11
-99.73205100000086
 21
-382.5
 31
0.0
  0
LINE
  5
755F
330
7549
100
AcDbEntity
  8
AM_3 隠れ線
100
AcDbLine
 10
-120.0
 20
-353.5
 30
0.0
 11
-136.7431579999992
 21
-382.5
 31
0.0
  0
LINE
  5
7560
330
7549
100
AcDbEntity
  8
AM_3 隠れ線
100
AcDbLine
 10
-120.0
 20
-353.5
 30
0.0
 11
-120.0
 21
-382.5
 31
0.0
  0
LINE
  5
7561
330
7549
100
AcDbEntity
  8
AM_3 隠れ線
100
AcDbLine
 10
0.0
 20
-350.5
 30
0.0
 11
-98.0
 21
-350.5
 31
0.0
  0
LINE
  5
7562
330
7549
100
AcDbEntity
  8
AM_3 隠れ線
100
AcDbLine
 10
0.0
 20
-353.5
 30
0.0
 11
-120.0
 21
-353.5
 31
0.0
  0
LINE
  5
7563
330
7549
100
AcDbEntity
  8
AM_3 隠れ線
100
AcDbLine
 10
-98.0
 20
-350.5
 30
0.0
 11
-99.73205100000086
 21
-353.5
 31
0.0
  0
LINE
  5
7564
330
7549
100
AcDbEntity
  8
AM_0 外形線1
100
AcDbLine
 10
-216.5
 20
247.5
 30
0.0
 11
-6.0
 21
247.5
 31
0.0
  0
LINE
  5
7565
330
7549
100
AcDbEntity
  8
AM_0 外形線1
100
AcDbLine
 10
-534.0
 20
245.5
 30
0.0
 11
-528.0
 21
247.5
 31
0.0
  0
ARC
  5
7566
330
7549
100
AcDbEntity
  8
AM_0 外形線1
100
AcDbCircle
 10
-315.5
 20
-382.5
 30
0.0
 40
671.4999999999998
100
AcDbArc
 50
81.73752399992499
 51
98.26247600007505
  0
LINE
  5
7567
330
7549
100
AcDbEntity
  8
AM_0 外形線1
100
AcDbLine
 10
-528.0
 20
247.5
 30
0.0
 11
-414.5
 21
247.5
 31
0.0
  0
LINE
  5
7568
330
7549
100
AcDbEntity
  8
AM_0 外形線1
100
AcDbLine
 10
-414.0
 20
279.7364040000011
 30
0.0
 11
-412.0
 21
282.0299090000008
 31
0.0
  0
LINE
  5
7569
330
7549
100
AcDbEntity
  8
AM_0 外形線1
100
AcDbLine
 10
-414.0
 20
248.0
 30
0.0
 11
-414.0
 21
279.7364040000011
 31
0.0
  0
ARC
  5
756A
330
7549
100
AcDbEntity
  8
AM_0 外形線1
100
AcDbCircle
 10
-414.5
 20
248.0
 30
0.0
 40
0.5
100
AcDbArc
 50
270.0
 51
0.0
  0
LINE
  5
756B
330
7549
100
AcDbEntity
  8
AM_7 中心線
100
AcDbLine
 10
-315.5
 20
294.0
 30
0.0
 11
-315.5
 21
260.5
 31
0.0
  0
ARC
  5
756C
330
7549
100
AcDbEntity
  8
AM_0 外形線1
100
AcDbCircle
 10
-216.5
 20
248.0
 30
0.0
 40
0.5
100
AcDbArc
 50
180.0
 51
270.0
  0
LINE
  5
756D
330
7549
100
AcDbEntity
  8
AM_0 外形線1
100
AcDbLine
 10
-217.0
 20
279.7364040000011
 30
0.0
 11
-217.0
 21
248.0
 31
0.0
  0
LINE
  5
756E
330
7549
100
AcDbEntity
  8
AM_0 外形線1
100
AcDbLine
 10
-219.0
 20
282.0299090000008
 30
0.0
 11
-217.0
 21
279.7364040000011
 31
0.0
  0
LINE
  5
756F
330
7549
100
AcDbEntity
  8
AM_0 外形線1
100
AcDbLine
 10
-6.0
 20
247.5
 30
0.0
 11
0.0
 21
241.5
 31
0.0
  0
LINE
  5
7570
330
7549
100
AcDbEntity
  8
AM_0 外形線1
100
AcDbLine
 10
-900.0
 20
-0.0000000000009095
 30
0.0
 11
0.0
 21
0.0
 31
0.0
  0
ARC
  5
7571
330
7549
100
AcDbEntity
  8
AM_0 外形線1
100
AcDbCircle
 10
-315.5
 20
-382.5
 30
0.0
 40
648.0
100
AcDbArc
 50
81.2567948507918
 51
98.74320514920821
  0
ARC
  5
7572
330
7549
100
AcDbEntity
  8
AM_7 中心線
100
AcDbCircle
 10
-315.5
 20
-382.5
 30
0.0
 40
660.0
100
AcDbArc
 50
80.43499966093561
 51
99.70099225639891
  0
ENDBLK
  5
754B
330
7549
100
AcDbEntity
  8
0
100
AcDbBlockEnd
  0
ENDSEC
  0
SECTION
  2
ENTITIES
  0
LINE
  5
4494
330
1F
100
AcDbEntity
  8
AM_7 中心線
100
AcDbLine
 10
4102.86209257799
 20
5388.210687573987
 30
0.0
 11
6138.658040042519
 21
5388.210687573987
 31
0.0
  0
LINE
  5
44B7
330
1F
100
AcDbEntity
  8
AM_0 外形線1
100
AcDbLine
 10
5117.282666132145
 20
5388.210687573987
 30
0.0
 11
5117.282666132145
 21
4591.210687573986
 31
0.0
  0
LINE
  5
44D5
330
1F
100
AcDbEntity
  8
AM_0 外形線1
100
AcDbLine
 10
4192.282666132145
 20
5698.210687573986
 30
0.0
 11
4192.282666132145
 21
5388.210687573987
 31
0.0
  0
LINE
  5
44DD
330
1F
100
AcDbEntity
  8
AM_0 外形線1
100
AcDbLine
 10
5142.282666132145
 20
5900.210687573985
 30
0.0
 11
5142.282666132145
 21
5438.210687573986
 31
0.0
  0
LINE
  5
4588
330
1F
100
AcDbEntity
  8
AM_0 外形線1
100
AcDbLine
 10
5051.282666132145
 20
6125.710687573985
 30
0.0
 11
5184.282666132145
 21
6125.710687573985
 31
0.0
  0
LINE
  5
4612
330
1F
100
AcDbEntity
  8
AM_0 外形線1
100
AcDbLine
 10
6042.282666132145
 20
5698.210687573986
 30
0.0
 11
6042.282666132145
 21
5388.210687573987
 31
0.0
  0
INSERT
  5
5030
102
{ACAD_REACTORS
330
60D0
102
}
330
1F
100
AcDbEntity
  8
AM_0 外形線1
100
AcDbBlockReference
  2
ケースＢ CCMH1600
 10
5117.282666132145
 20
5388.210687573987
 30
0.0
  0
INSERT
  5
514A
102
{ACAD_REACTORS
330
5E0D
330
5E25
330
5EED
330
6149
102
}
330
1F
100
AcDbEntity
  8
AM_0 外形線1
100
AcDbBlockReference
  2
センタＡ CCMH1600
 10
5142.282666132145
 20
5388.210687573987
 30
0.0
  0
INSERT
  5
555F
330
1F
100
AcDbEntity
  8
AM_0 外形線1
100
AcDbBlockReference
  2
リーマボルト CCMH1600 M42
 10
5187.282666132145
 20
6147.710687573987
 30
0.0
  0
INSERT
  5
56AA
102
{ACAD_REACTORS
330
5F05
102
}
330
1F
100
AcDbEntity
  8
AM_0 外形線1
100
AcDbBlockReference
  2
ＧＣサイドカバ－A CCMH1600
 10
5582.282666132145
 20
5388.210687573987
 30
0.0
  0
INSERT
  5
5752
102
{ACAD_REACTORS
330
5F1D
330
60B4
330
60D0
102
}
330
1F
100
AcDbEntity
  8
AM_0 外形線1
100
AcDbBlockReference
  2
ケースＡ CCMH1600
 10
5117.282666132145
 20
5388.210687573987
 30
0.0
  0
INSERT
  5
5852
102
{ACAD_REACTORS
330
5E76
330
6100
102
}
330
1F
100
AcDbEntity
  8
AM_0 外形線1
100
AcDbBlockReference
  2
ＧＣサイドカバ－Ｂ CCMH1600
 10
4652.282666132145
 20
5388.210687573987
 30
0.0
  0
DIMENSION
  5
5D96
330
1F
100
AcDbEntity
  8
AM_5 寸法線
100
AcDbDimension
  2
*D14
 10
3692.282666132145
 20
4758.210687573987
 30
0.0
 11
3611.032666132145
 21
5388.210687573987
 31
0.0
 70
    32
  1
%%c<>
 71
     5
 42
1260.0
 73
     0
 74
     0
 75
     0
  3
SEISA$0
100
AcDbAlignedDimension
 13
4564.282666132145
 23
6018.210687573986
 33
0.0
 14
4564.282666132145
 24
4758.210687573987
 34
0.0
 50
90.0
100
AcDbRotatedDimension
1001
ACAD_DSTYLE_DIMINSPECT
1070
   396
1000
100%
1070
   395
1000

1070
   394
1070
    33
1070
   393
1070
     0
  0
DIMENSION
  5
5DDA
330
1F
100
AcDbEntity
  8
AM_5 寸法線
100
AcDbDimension
  2
*D15
 10
4192.282666132145
 20
5514.318211573986
 30
0.0
 11
4642.282666132145
 21
5595.568211573985
 31
0.0
 70
    32
 71
     5
 42
900.0
 73
     0
 74
     0
 75
     0
  3
SEISA$0
100
AcDbAlignedDimension
 13
5092.282666132145
 23
5388.210687573987
 33
0.0
 14
4192.282666132145
 24
5388.210687573987
 34
0.0
100
AcDbRotatedDimension
  0
DIMENSION
  5
5DF2
102
{ACAD_XDICTIONARY
360
5E01
102
}
102
{ACAD_REACTORS
330
5E0D
102
}
330
1F
100
AcDbEntity
  8
AM_5 寸法線
100
AcDbDimension
  2
*D16
 10
5092.282666132145
 20
5514.318211573986
 30
0.0
 11
5277.629942470134
 21
5595.134804308793
 31
0.0
 70
   160
 71
     5
 42
50.0
 73
     0
 74
     0
 75
     0
  3
SEISA$0
100
AcDbAlignedDimension
 13
5142.282666132145
 23
5388.210687573987
 33
0.0
 14
5092.282666132145
 24
5388.210687573987
 34
0.0
100
AcDbRotatedDimension
1001
ACAD
1000
DSTYLE
1002
{
1070
   279
1070
     2
1002
}
  0
DIMENSION
  5
5E0E
102
{ACAD_XDICTIONARY
360
5E1B
102
}
102
{ACAD_REACTORS
330
5E25
102
}
330
1F
100
AcDbEntity
  8
AM_5 寸法線
100
AcDbDimension
  2
*D17
 10
6042.282666132146
 20
5514.318211573986
 30
0.0
 11
5592.282666132145
 21
5595.568211573985
 31
0.0
 70
    32
 71
     5
 42
900.0000000000008
 73
     0
 74
     0
 75
     0
  3
SEISA$0
100
AcDbAlignedDimension
 13
5142.282666132145
 23
5388.210687573987
 33
0.0
 14
6042.282666132146
 24
5388.210687573987
 34
0.0
100
AcDbRotatedDimension
  0
DIMENSION
  5
5E5B
102
{ACAD_XDICTIONARY
360
5E6A
102
}
102
{ACAD_REACTORS
330
5E76
102
}
330
1F
100
AcDbEntity
  8
AM_5 寸法線
100
AcDbDimension
  2
*D18
 10
4660.282666132145
 20
5874.094528709972
 30
0.0
 11
4439.657666132145
 21
5955.344528709971
 31
0.0
 70
    32
 71
     5
 42
18.0
 73
     0
 74
     0
 75
     0
  3
SEISA$0
100
AcDbAlignedDimension
 13
4678.282666132145
 23
6018.710687573985
 33
0.0
 14
4660.282666132145
 24
6018.210687573986
 34
0.0
100
AcDbRotatedDimension
1001
ACAD
1000
DSTYLE
1002
{
1070
   343
1005
72D7
1070
   342
1005
0
1070
   173
1070
     1
1070
   344
1005
69
1002
}
  0
DIMENSION
  5
5ED6
102
{ACAD_XDICTIONARY
360
5EE3
102
}
102
{ACAD_REACTORS
330
5EED
102
}
330
1F
100
AcDbEntity
  8
AM_5 寸法線
100
AcDbDimension
  2
*D19
 10
6542.282666132145
 20
4758.210687573984
 30
0.0
 11
6461.032666132144
 21
5388.210687573987
 31
0.0
 70
    32
  1
%%c<>
 71
     5
 42
1260.0
 73
     0
 74
     0
 75
     0
  3
SEISA$0
100
AcDbAlignedDimension
 13
5670.282666132145
 23
6018.210687573986
 33
0.0
 14
5670.282666132145
 24
4758.210687573987
 34
0.0
 50
90.0
100
AcDbRotatedDimension
1001
ACAD
1000
DSTYLE
1002
{
1070
   279
1070
     0
1002
}
1001
ACAD_DSTYLE_DIMINSPECT
1070
   396
1000
100%
1070
   395
1000

1070
   394
1070
    33
1070
   393
1070
     0
  0
DIMENSION
  5
5EEE
102
{ACAD_XDICTIONARY
360
5EFB
102
}
102
{ACAD_REACTORS
330
5F05
102
}
330
1F
100
AcDbEntity
  8
AM_5 寸法線
100
AcDbDimension
  2
*D20
 10
6742.282666132147
 20
4663.210687573984
 30
0.0
 11
6742.282666132145
 21
5388.210687573987
 31
0.0
 70
   160
  1
%%c<>
 71
     5
 42
1450.0
 73
     0
 74
     0
 75
     0
  3
SEISA$0
100
AcDbAlignedDimension
 13
5620.282666132145
 23
6113.210687573985
 33
0.0
 14
5620.282666132145
 24
4663.210687573986
 34
0.0
 50
90.0
100
AcDbRotatedDimension
1001
ACAD
1000
DSTYLE
1002
{
1070
   279
1070
     0
1002
}
1001
ACAD_DSTYLE_DIMINSPECT
1070
   396
1000
100%
1070
   395
1000

1070
   394
1070
    33
1070
   393
1070
     0
  0
DIMENSION
  5
5F06
102
{ACAD_XDICTIONARY
360
5F13
102
}
102
{ACAD_REACTORS
330
5F1D
102
}
330
1F
100
AcDbEntity
  8
AM_5 寸法線
100
AcDbDimension
  2
*D21
 10
6942.282666132147
 20
4588.210687573986
 30
0.0
 11
6942.282666132145
 21
5388.210687573987
 31
0.0
 70
   160
  1
%%c<>
 71
     5
 42
1600.0
 73
     0
 74
     0
 75
     0
  3
SEISA$0
100
AcDbAlignedDimension
 13
5184.282666132145
 23
6188.210687573985
 33
0.0
 14
5184.282666132145
 24
4588.210687573986
 34
0.0
 50
90.0
100
AcDbRotatedDimension
1001
ACAD
1000
DSTYLE
1002
{
1070
   279
1070
     0
1002
}
1001
ACAD_DSTYLE_DIMINSPECT
1070
   396
1000
100%
1070
   395
1000

1070
   394
1070
    33
1070
   393
1070
     0
  0
DIMENSION
  5
6099
102
{ACAD_XDICTIONARY
360
60A8
102
}
102
{ACAD_REACTORS
330
60B4
102
}
330
1F
100
AcDbEntity
  8
AM_5 寸法線
100
AcDbDimension
  2
*D22
 10
5187.282666132145
 20
4213.210687573986
 30
0.0
 11
5413.532666132145
 21
4294.460687573987
 31
0.0
 70
    32
 71
     5
 42
70.0
 73
     0
 74
     0
 75
     0
  3
SEISA$0
100
AcDbAlignedDimension
 13
5117.282666132145
 23
4591.210687573986
 33
0.0
 14
5187.282666132145
 24
4591.210687573986
 34
0.0
100
AcDbRotatedDimension
1001
ACAD_DSTYLE_DIMINSPECT
1070
   396
1000
100%
1070
   395
1000

1070
   394
1070
    33
1070
   393
1070
     0
1001
ACAD
1000
DSTYLE
1002
{
1070
   173
1070
     1
1070
   342
1005
0
1070
   343
1005
6155
1070
   344
1005
69
1002
}
  0
DIMENSION
  5
60B5
102
{ACAD_XDICTIONARY
360
60C4
102
}
102
{ACAD_REACTORS
330
60D0
102
}
330
1F
100
AcDbEntity
  8
AM_5 寸法線
100
AcDbDimension
  2
*D23
 10
5047.282666132145
 20
4213.210687573986
 30
0.0
 11
4821.032666132145
 21
4294.460687573987
 31
0.0
 70
    32
 71
     5
 42
70.0
 73
     0
 74
     0
 75
     0
  3
SEISA$0
100
AcDbAlignedDimension
 13
5117.282666132145
 23
4591.210687573986
 33
0.0
 14
5047.282666132145
 24
4591.210687573986
 34
0.0
100
AcDbRotatedDimension
1001
ACAD_DSTYLE_DIMINSPECT
1070
   396
1000
100%
1070
   395
1000

1070
   394
1070
    33
1070
   393
1070
     0
1001
ACAD
1000
DSTYLE
1002
{
1070
   173
1070
     1
1070
   342
1005
0
1070
   343
1005
6155
1070
   344
1005
69
1002
}
  0
DIMENSION
  5
60E9
102
{ACAD_XDICTIONARY
360
60F6
102
}
102
{ACAD_REACTORS
330
6100
102
}
330
1F
100
AcDbEntity
  8
AM_5 寸法線
100
AcDbDimension
  2
*D24
 10
4614.282666132145
 20
4013.210687573987
 30
0.0
 11
5117.282666132145
 21
4094.460687573985
 31
0.0
 70
    32
 71
     5
 42
1006.0
 73
     0
 74
     0
 75
     0
  3
SEISA$0
100
AcDbAlignedDimension
 13
5620.282666132145
 23
4663.210687573986
 33
0.0
 14
4614.282666132145
 24
4663.210687573986
 34
0.0
100
AcDbRotatedDimension
  0
DIMENSION
  5
6132
102
{ACAD_XDICTIONARY
360
613F
102
}
102
{ACAD_REACTORS
330
6149
102
}
330
1F
100
AcDbEntity
  8
AM_5 寸法線
100
AcDbDimension
  2
*D25
 10
4192.282666132145
 20
3813.210687573987
 30
0.0
 11
5117.282666132145
 21
3894.460687573987
 31
0.0
 70
    32
 71
     5
 42
1850.0
 73
     0
 74
     0
 75
     0
  3
SEISA$0
100
AcDbAlignedDimension
 13
6042.282666132145
 23
4790.210687573987
 33
0.0
 14
4192.282666132145
 24
4790.210687573987
 34
0.0
100
AcDbRotatedDimension
  0
ARC
  5
7299
330
1F
100
AcDbEntity
  8
AM_0 外形線1
100
AcDbCircle
 10
5457.782666132145
 20
5388.210687573987
 30
0.0
 40
648.0
100
AcDbArc
 50
81.25679485084431
 51
98.7432051491557
  0
MTEXT
  5
72A4
330
1F
100
AcDbEntity
  8
AM_6 文字
100
AcDbMText
 10
6189.027170999879
 20
4434.353115895397
 30
0.0
 40
87.5
 41
2148.42664870289
 46
177.9322401005574
 71
     1
 72
     5
  1
{\W0.6;TYPE:CCM1600/CCMH1600\PSHAFT DIA:MAX/MIN φ900/φ630}
  7
SEISA
 73
     1
 44
1.0
  0
DIMENSION
  5
72A5
330
1F
100
AcDbEntity
  8
AM_5 寸法線
100
AcDbDimension
  2
*D27
 10
4875.282666132145
 20
5874.094528709978
 30
0.0
 11
4844.382514812189
 21
5606.735433173763
 31
0.0
 70
   160
 71
     5
 42
197.0
 73
     0
 74
     0
 75
     0
  3
SEISA$0
100
AcDbAlignedDimension
 13
4678.282666132145
 23
6018.710687573985
 33
0.0
 14
4875.282666132145
 24
6018.710687573985
 34
0.0
 50
0.0000000000001132
100
AcDbRotatedDimension
1001
ACAD_DSTYLE_DIMINSPECT
1070
   396
1000
100%
1070
   395
1000

1070
   394
1070
    33
1070
   393
1070
     0
1001
ACAD
1000
DSTYLE
1002
{
1070
   173
1070
     1
1070
   279
1070
     1
1070
   342
1005
0
1070
   343
1005
72D7
1070
   344
1005
72D7
1002
}
  0
DIMENSION
  5
730A
330
1F
100
AcDbEntity
  8
AM_5 寸法線
100
AcDbDimension
  2
*D29
 10
5092.282666132145
 20
5874.094528709974
 30
0.0
 11
5325.051778705868
 21
5855.01485820394
 31
0.0
 70
   160
 71
     5
 42
217.0
 73
     0
 74
     0
 75
     1
  3
SEISA$0
100
AcDbAlignedDimension
 13
4875.282666132145
 23
6018.710687573985
 33
0.0
 14
5092.282666132145
 24
5830.919708133624
 34
0.0
 50
0.0000000000001132
100
AcDbRotatedDimension
1001
ACAD_DSTYLE_DIMINSPECT
1070
   396
1000
100%
1070
   395
1000

1070
   394
1070
    33
1070
   393
1070
     0
1001
ACAD
1000
DSTYLE
1002
{
1070
   343
1005
72D7
1070
   342
1005
0
1070
   173
1070
     1
1070
   344
1005
69
1070
   279
1070
     1
1002
}
  0
ARC
  5
7401
330
1F
100
AcDbEntity
  8
AM_7 中心線
100
AcDbCircle
 10
5458.782666132145
 20
5388.210687573987
 30
0.0
 40
660.0
100
AcDbArc
 50
80.29900774365009
 51
99.56500033911574
  0
INSERT
  5
757E
330
1F
100
AcDbEntity
  8
AM_0 外形線1
100
AcDbBlockReference
  2
センタB CCMH1600
 10
5092.282666132145
 20
5770.710687573987
 30
0.0
  0
ENDSEC
  0
SECTION
  2
OBJECTS
  0
DICTIONARY
  5
C
330
0
100
AcDbDictionary
281
     1
  3
ACAD_COLOR
350
C5
  3
ACAD_GROUP
350
D
  3
ACAD_LAYOUT
350
1A
  3
ACAD_MATERIAL
350
C4
  3
ACAD_MLEADERSTYLE
350
2D5
  3
ACAD_MLINESTYLE
350
17
  3
ACAD_PLOTSETTINGS
350
19
  3
ACAD_PLOTSTYLENAME
350
E
  3
ACAD_SCALELIST
350
2B3
  3
ACAD_TABLESTYLE
350
121
  3
ACAD_VISUALSTYLE
350
27F
  3
ACDB_RECOMPOSE_DATA
350
2F7
  3
AcDbVariableDictionary
350
34
  3
AcmDictionary
350
49
  3
AMG
350
2B
  3
AMGSNAPSETTINGS
350
1DE
  0
DICTIONARY
  5
BF
330
2
100
AcDbDictionary
280
     1
281
     1
  3
ACAD_LAYERSTATES
360
3B36
  3
AMLAYER_GROUPCOLORS
360
C0
  0
DICTIONARY
  5
29F7
330
10
100
AcDbDictionary
280
     1
281
     1
  3
ADSK_XREC_LAYER_RECONCILED
360
29F8
  0
DICTIONARY
  5
29F9
330
81
100
AcDbDictionary
280
     1
281
     1
  3
ADSK_XREC_LAYER_RECONCILED
360
29FA
  0
DICTIONARY
  5
2DF4
330
2DF3
100
AcDbDictionary
280
     1
281
     1
  0
DICTIONARY
  5
82
330
1F
100
AcDbDictionary
280
     1
281
     1
  3
ACAD_SORTENTS
360
A41
  0
DICTIONARY
  5
4DE3
330
4DBA
100
AcDbDictionary
280
     1
281
     1
  3
ACAD_SORTENTS
360
6B1E
  0
DICTIONARY
  5
4F25
330
4E64
100
AcDbDictionary
280
     1
281
     1
  3
ACAD_SORTENTS
360
6B97
  0
DICTIONARY
  5
4F7E
330
4F50
100
AcDbDictionary
280
     1
281
     1
  3
ACAD_SORTENTS
360
4F7F
  0
DICTIONARY
  5
50A6
330
4FF7
100
AcDbDictionary
280
     1
281
     1
  3
ACAD_SORTENTS
360
6C1F
  0
DICTIONARY
  5
51AB
330
511D
100
AcDbDictionary
280
     1
281
     1
  3
ACAD_SORTENTS
360
7293
  0
DICTIONARY
  5
55FA
330
552D
100
AcDbDictionary
280
     1
281
     1
  3
ACAD_SORTENTS
360
7528
  0
DICTIONARY
  5
57AC
330
5673
100
AcDbDictionary
280
     1
281
     1
  3
ACAD_SORTENTS
360
6E0D
  0
DICTIONARY
  5
58BA
330
5823
100
AcDbDictionary
280
     1
281
     1
  3
ACAD_SORTENTS
360
6E82
  0
DICTIONARY
  5
5E01
330
5DF2
100
AcDbDictionary
280
     1
281
     1
  3
ACAD_DIMASSOC
360
5E0D
  0
DICTIONARY
  5
5E1B
330
5E0E
100
AcDbDictionary
280
     1
281
     1
  3
ACAD_DIMASSOC
360
5E25
  0
DICTIONARY
  5
5E6A
330
5E5B
100
AcDbDictionary
280
     1
281
     1
  3
ACAD_DIMASSOC
360
5E76
  0
DICTIONARY
  5
5EE3
330
5ED6
100
AcDbDictionary
280
     1
281
     1
  3
ACAD_DIMASSOC
360
5EED
  0
DICTIONARY
  5
5EFB
330
5EEE
100
AcDbDictionary
280
     1
281
     1
  3
ACAD_DIMASSOC
360
5F05
  0
DICTIONARY
  5
5F13
330
5F06
100
AcDbDictionary
280
     1
281
     1
  3
ACAD_DIMASSOC
360
5F1D
  0
DICTIONARY
  5
60A8
330
6099
100
AcDbDictionary
280
     1
281
     1
  3
ACAD_DIMASSOC
360
60B4
  0
DICTIONARY
  5
60C4
330
60B5
100
AcDbDictionary
280
     1
281
     1
  3
ACAD_DIMASSOC
360
60D0
  0
DICTIONARY
  5
60F6
330
60E9
100
AcDbDictionary
280
     1
281
     1
  3
ACAD_DIMASSOC
360
6100
  0
DICTIONARY
  5
613F
330
6132
100
AcDbDictionary
280
     1
281
     1
  3
ACAD_DIMASSOC
360
6149
  0
DICTIONARY
  5
C5
102
{ACAD_REACTORS
330
C
102
}
330
C
100
AcDbDictionary
281
     1
  0
DICTIONARY
  5
D
102
{ACAD_REACTORS
330
C
102
}
330
C
100
AcDbDictionary
281
     1
  0
DICTIONARY
  5
1A
102
{ACAD_REACTORS
330
C
102
}
330
C
100
AcDbDictionary
281
     1
  3
Model
350
22
  3
レイアウト1
350
1E
  3
レイアウト2
350
26
  0
DICTIONARY
  5
C4
102
{ACAD_REACTORS
330
C
102
}
330
C
100
AcDbDictionary
281
     1
  3
ByBlock
350
27D
  3
ByLayer
350
27C
  3
Global
350
27E
  0
DICTIONARY
  5
2D5
102
{ACAD_REACTORS
330
C
102
}
330
C
100
AcDbDictionary
281
     1
  3
Standard
350
2D6
  0
DICTIONARY
  5
17
102
{ACAD_REACTORS
330
C
102
}
330
C
100
AcDbDictionary
281
     1
  3
Standard
350
18
  0
DICTIONARY
  5
19
102
{ACAD_REACTORS
330
C
102
}
330
C
100
AcDbDictionary
281
     1
  3
SEISA基本
350
1C7E
  0
ACDBDICTIONARYWDFLT
  5
E
102
{ACAD_REACTORS
330
C
102
}
330
C
100
AcDbDictionary
281
     1
  3
Normal
350
F
100
AcDbDictionaryWithDefault
340
F
  0
DICTIONARY
  5
2B3
102
{ACAD_REACTORS
330
C
102
}
330
C
100
AcDbDictionary
281
     1
  3
*A1
350
2A04
  3
*A2
350
722B
  3
*A3
350
722C
  3
*A4
350
722D
  3
*A5
350
722E
  3
*A6
350
722F
  3
A0
350
2B4
  3
A1
350
2B5
  3
A2
350
2B6
  3
A3
350
2B7
  3
A4
350
2B8
  3
A5
350
2B9
  3
A6
350
2BA
  3
A7
350
2BB
  3
A8
350
2BC
  3
A9
350
2BD
  3
B0
350
2BE
  3
B1
350
2BF
  3
B2
350
2C0
  3
B3
350
2C1
  3
B4
350
2C2
  3
B5
350
2C3
  3
B6
350
2C4
  3
B7
350
2C5
  3
B8
350
2C6
  3
B9
350
2C7
  3
C0
350
2C8
  3
C1
350
2C9
  3
C2
350
2CA
  3
C3
350
2CB
  3
C4
350
2CC
  3
C5
350
2CD
  3
C6
350
2CE
  3
C7
350
2CF
  3
C8
350
2D0
  3
C9
350
2D1
  3
D0
350
2D2
  3
D1
350
2D3
  3
D2
350
2D4
  0
DICTIONARY
  5
121
102
{ACAD_REACTORS
330
C
102
}
330
C
100
AcDbDictionary
281
     1
  3
Standard
350
122
  0
DICTIONARY
  5
27F
102
{ACAD_REACTORS
330
C
102
}
330
C
100
AcDbDictionary
281
     1
  3
2dWireframe
350
285
  3
3D Hidden
350
287
  3
3dWireframe
350
286
  3
Basic
350
284
  3
Brighten
350
28B
  3
ColorChange
350
28F
  3
Conceptual
350
288
  3
Dim
350
28A
  3
Facepattern
350
28E
  3
Flat
350
280
  3
FlatWithEdges
350
281
  3
Gouraud
350
282
  3
GouraudWithEdges
350
283
  3
Linepattern
350
28D
  3
Realistic
350
289
  3
Thicken
350
28C
  0
XRECORD
  5
2F7
102
{ACAD_REACTORS
330
C
102
}
330
C
100
AcDbXrecord
280
     1
 90
        1
330
122
  0
DICTIONARY
  5
34
102
{ACAD_REACTORS
330
C
102
}
330
C
100
AcDbDictionary
281
     1
  3
CANNOSCALE
350
2FA
  3
CMLEADERSTYLE
350
2F8
  3
CTABLESTYLE
350
140
  3
DIMASSOC
350
AC
  3
INDEXCTL
350
35
  3
LAYEREVAL
350
6EF7
  3
LAYERNOTIFY
350
6EF8
  3
LIGHTINGUNITS
350
2FB
  3
MSLTSCALE
350
2F9
  0
DICTIONARY
  5
49
102
{ACAD_REACTORS
330
C
102
}
330
C
100
AcDbDictionary
281
     1
  3
AcmBOM
350
161B
  3
AcmStdDictionary
350
4A
  3
AMDTSECTSYM_ARROWCOLOR
350
12B
  0
DICTIONARY
  5
2B
102
{ACAD_REACTORS
330
C
102
}
330
C
100
AcDbDictionary
281
     1
  0
DICTIONARY
  5
1DE
102
{ACAD_REACTORS
330
C
102
}
330
C
100
AcDbDictionary
281
     1
  0
DICTIONARY
  5
3B36
102
{ACAD_REACTORS
330
BF
102
}
330
BF
100
AcDbDictionary
281
     1
  0
DICTIONARY
  5
C0
102
{ACAD_REACTORS
330
BF
102
}
330
BF
100
AcDbDictionary
280
     1
281
     1
  0
XRECORD
  5
29F8
102
{ACAD_REACTORS
330
29F7
102
}
330
29F7
100
AcDbXrecord
280
     1
290
     1
  0
XRECORD
  5
29FA
102
{ACAD_REACTORS
330
29F9
102
}
330
29F9
100
AcDbXrecord
280
     1
290
     1
  0
SORTENTSTABLE
  5
A41
102
{ACAD_REACTORS
330
82
102
}
330
82
100
AcDbSortentsTable
330
1F
331
514A
  5
5735
331
72A4
  5
72A5
331
44D5
  5
44D5
331
730A
  5
7384
331
6099
  5
67A8
331
5E5B
  5
667E
331
4494
  5
4494
331
5030
  5
56AA
331
6132
  5
7296
331
5ED6
  5
6705
331
7299
  5
729A
331
44B7
  5
44B7
331
72A5
  5
730A
331
44DD
  5
44F2
331
5E0E
  5
667B
331
5D96
  5
6676
331
56AA
  5
626F
331
4612
  5
4623
331
5752
  5
6270
331
5DDA
  5
6677
331
4588
  5
458D
331
5EEE
  5
6737
331
60B5
  5
6820
331
5852
  5
6674
331
555F
  5
626E
331
60E9
  5
69AE
331
5DF2
  5
6678
331
5F06
  5
67A5
  0
SORTENTSTABLE
  5
6B1E
102
{ACAD_REACTORS
330
4DE3
102
}
330
4DE3
100
AcDbSortentsTable
330
4DBA
  0
SORTENTSTABLE
  5
6B97
102
{ACAD_REACTORS
330
4F25
102
}
330
4F25
100
AcDbSortentsTable
330
4E64
  0
SORTENTSTABLE
  5
4F7F
102
{ACAD_REACTORS
330
4F7E
102
}
330
4F7E
100
AcDbSortentsTable
330
4F50
331
4F5C
  5
4F7C
331
4F7B
  5
4F7D
331
4F5A
  5
4F5C
331
4F58
  5
4F5A
331
4F57
  5
4F59
331
4F55
  5
4F57
331
4F7C
  5
4F55
331
4F5B
  5
4F7B
331
4F59
  5
4F5B
331
4F7D
  5
4F58
  0
SORTENTSTABLE
  5
6C1F
102
{ACAD_REACTORS
330
50A6
102
}
330
50A6
100
AcDbSortentsTable
330
4FF7
  0
SORTENTSTABLE
  5
7293
102
{ACAD_REACTORS
330
51AB
102
}
330
51AB
100
AcDbSortentsTable
330
511D
  0
SORTENTSTABLE
  5
7528
102
{ACAD_REACTORS
330
55FA
102
}
330
55FA
100
AcDbSortentsTable
330
552D
  0
SORTENTSTABLE
  5
6E0D
102
{ACAD_REACTORS
330
57AC
102
}
330
57AC
100
AcDbSortentsTable
330
5673
  0
SORTENTSTABLE
  5
6E82
102
{ACAD_REACTORS
330
58BA
102
}
330
58BA
100
AcDbSortentsTable
330
5823
331
5827
  5
582D
331
5831
  5
5837
331
583E
  5
5844
331
58B2
  5
58B8
331
5845
  5
584B
331
582B
  5
5831
331
58B8
  5
582B
331
5838
  5
583E
331
584C
  5
58B1
331
583F
  5
5845
331
58B3
  5
58B9
331
5832
  5
5838
331
5846
  5
584C
331
582C
  5
5832
331
584D
  5
58B2
331
5840
  5
5846
331
58B9
  5
582C
331
5839
  5
583F
331
58B4
  5
5827
331
5833
  5
5839
331
5847
  5
584D
331
583A
  5
5840
331
584E
  5
58B3
331
582D
  5
5833
331
5841
  5
5847
331
58B5
  5
5828
331
5834
  5
583A
331
5848
  5
584E
331
583B
  5
5841
331
584F
  5
58B4
331
582E
  5
5834
331
5842
  5
5848
331
58B6
  5
5829
331
5835
  5
583B
331
5849
  5
584F
331
5828
  5
582E
331
5850
  5
58B5
331
583C
  5
5842
331
582F
  5
5835
331
5843
  5
5849
331
58B7
  5
582A
331
5836
  5
583C
331
584A
  5
5850
331
5829
  5
582F
331
5851
  5
58B6
331
5830
  5
5836
331
583D
  5
5843
331
58B1
  5
58B7
331
5844
  5
584A
331
582A
  5
5830
331
584B
  5
5851
331
5837
  5
583D
  0
DIMASSOC
  5
5E0D
102
{ACAD_REACTORS
330
5E01
102
}
330
5E01
100
AcDbDimAssoc
330
5DF2
 90
        1
 70
     0
 71
     0
  1
AcDbOsnapPointRef
 72
     1
331
514A
331
5123
 73
     2
 91
        0
 40
1.0
 10
0.0
 20
0.0
 30
2.000000000000000E+50
 75
     0
  0
DIMASSOC
  5
5E25
102
{ACAD_REACTORS
330
5E1B
102
}
330
5E1B
100
AcDbDimAssoc
330
5E0E
 90
        3
 70
     0
 71
     0
  1
AcDbOsnapPointRef
 72
     1
331
514A
331
5123
 73
     2
 91
        0
 40
1.0
 10
0.0
 20
0.0
 30
2.000000000000000E+50
 75
     0
  1
AcDbOsnapPointRef
 72
     8
331
514A
331
5131
 73
     2
 91
        0
 40
0.5
 10
0.0
 20
0.0
 30
0.0
 75
     1
  1
AcDbOsnapPointRef
 72
     1
331
514A
331
5123
 73
     2
 91
        0
 40
1.0
 10
0.0
 20
0.0
 30
2.000000000000000E+50
 75
     0
  0
DIMASSOC
  5
5E76
102
{ACAD_REACTORS
330
5E6A
102
}
330
5E6A
100
AcDbDimAssoc
330
5E5B
 90
        2
 70
     0
 71
     0
  1
AcDbOsnapPointRef
 72
     1
331
5852
331
583F
 73
     2
 91
        0
 40
1.0
 10
0.0
 20
0.0
 30
2.000000000000000E+50
 75
     0
  0
DIMASSOC
  5
5EED
102
{ACAD_REACTORS
330
5EE3
102
}
330
5EE3
100
AcDbDimAssoc
330
5ED6
 90
        3
 70
     0
 71
     0
  1
AcDbOsnapPointRef
 72
    13
331
514A
331
5140
 73
     2
 91
        0
 40
0.0
 10
0.0
 20
0.0
 30
2.000000000000000E+50
 75
     0
  1
AcDbOsnapPointRef
 72
    13
331
514A
331
5133
 73
     2
 91
        0
 40
0.0
 10
0.0
 20
0.0
 30
2.000000000000000E+50
 75
     0
  0
DIMASSOC
  5
5F05
102
{ACAD_REACTORS
330
5EFB
102
}
330
5EFB
100
AcDbDimAssoc
330
5EEE
 90
        3
 70
     0
 71
     0
  1
AcDbOsnapPointRef
 72
    13
331
56AA
331
5687
 73
     2
 91
        0
 40
0.0
 10
0.0
 20
0.0
 30
2.000000000000000E+50
 75
     0
  1
AcDbOsnapPointRef
 72
    13
331
56AA
331
5683
 73
     2
 91
        0
 40
0.0
 10
0.0
 20
0.0
 30
2.000000000000000E+50
 75
     0
  0
DIMASSOC
  5
5F1D
102
{ACAD_REACTORS
330
5F13
102
}
330
5F13
100
AcDbDimAssoc
330
5F06
 90
        3
 70
     0
 71
     0
  1
AcDbOsnapPointRef
 72
     1
331
5752
331
4E84
 73
     2
 91
        0
 40
1.0
 10
0.0
 20
0.0
 30
2.000000000000000E+50
 75
     0
  1
AcDbOsnapPointRef
 72
     1
331
5752
331
4E71
 73
     2
 91
        0
 40
1.0
 10
0.0
 20
0.0
 30
2.000000000000000E+50
 75
     0
  0
DIMASSOC
  5
60B4
102
{ACAD_REACTORS
330
60A8
102
}
330
60A8
100
AcDbDimAssoc
330
6099
 90
        3
 70
     0
 71
     0
  1
AcDbOsnapPointRef
 72
     1
331
5752
331
4E6F
 73
     2
 91
        0
 40
1.0
 10
0.0
 20
0.0
 30
2.000000000000000E+50
 75
     0
  1
AcDbOsnapPointRef
 72
    13
331
5752
331
4E6E
 73
     2
 91
        0
 40
0.0
 10
0.0
 20
0.0
 30
2.000000000000000E+50
 75
     0
  0
DIMASSOC
  5
60D0
102
{ACAD_REACTORS
330
60C4
102
}
330
60C4
100
AcDbDimAssoc
330
60B5
 90
        3
 70
     0
 71
     0
  1
AcDbOsnapPointRef
 72
     1
331
5752
331
4E6F
 73
     2
 91
        0
 40
1.0
 10
0.0
 20
0.0
 30
2.000000000000000E+50
 75
     0
  1
AcDbOsnapPointRef
 72
    13
331
5030
331
4FFD
 73
     2
 91
        0
 40
0.0
 10
0.0
 20
0.0
 30
2.000000000000000E+50
 75
     0
  0
DIMASSOC
  5
6100
102
{ACAD_REACTORS
330
60F6
102
}
330
60F6
100
AcDbDimAssoc
330
60E9
 90
        2
 70
     0
 71
     0
  1
AcDbOsnapPointRef
 72
     1
331
5852
331
5828
 73
     2
 91
        0
 40
1.0
 10
0.0
 20
0.0
 30
2.000000000000000E+50
 75
     0
  0
DIMASSOC
  5
6149
102
{ACAD_REACTORS
330
613F
102
}
330
613F
100
AcDbDimAssoc
330
6132
 90
        1
 70
     0
 71
     0
  1
AcDbOsnapPointRef
 72
    13
331
514A
331
5131
 73
     2
 91
        0
 40
0.0
 10
0.0
 20
0.0
 30
2.000000000000000E+50
 75
     0
  0
LAYOUT
  5
22
102
{ACAD_REACTORS
330
1A
102
}
330
1A
100
AcDbPlotSettings
  1

  2
KONICA MINOLTA 501 PCL
  4
A4
  6

 40
5.027082920074462
 41
5.027085781097412
 42
5.027069091796875
 43
5.027069091796875
 44
209.9733276367186
 45
296.9259948730469
 46
12.32915307955962
 47
0.0
 48
0.0
 49
0.0
140
0.0
141
0.0
142
1.0
143
13.64968566294811
 70
 11956
 72
     1
 73
     1
 74
     1
  7
SEISA.ctb
 75
     0
147
0.0732617603579317
 76
     0
 77
     2
 78
   300
148
-3566.917452819097
149
-3796.339447445652
100
AcDbLayout
  1
Model
 70
     1
 71
     0
 10
0.0
 20
0.0
 11
12.0
 21
9.0
 12
0.0
 22
0.0
 32
0.0
 14
0.0
 24
0.0
 34
0.0
 15
0.0
 25
0.0
 35
0.0
146
0.0
 13
0.0
 23
0.0
 33
0.0
 16
1.0
 26
0.0
 36
0.0
 17
0.0
 27
1.0
 37
0.0
 76
     0
330
1F
331
27A
1001
ACAD_PSEXT
1000
KONICA MINOLTA 501 PCL
1000
KONICA MINOLTA 501/421/361PCL
1000
IP_192.168.20.231_(1)
1000

1070
     0
  0
LAYOUT
  5
1E
102
{ACAD_REACTORS
330
1A
102
}
330
1A
100
AcDbPlotSettings
  1

  2
none_device
  4
Letter_(8.50_x_11.00_Inches)
  6

 40
6.349999904632567
 41
6.349999904632567
 42
6.350006103515625
 43
6.350006103515625
 44
215.8999938964844
 45
279.3999938964844
 46
0.0
 47
0.0
 48
0.0
 49
0.0
140
0.0
141
0.0
142
1.0
143
1.0
 70
 15024
 72
     1
 73
     1
 74
     5
  7
SEISA.ctb
 75
    16
147
1.0
 76
     0
 77
     2
 78
   300
148
0.0
149
0.0
100
AcDbLayout
  1
レイアウト1
 70
     1
 71
     1
 10
0.0
 20
0.0
 11
420.0
 21
297.0
 12
0.0
 22
0.0
 32
0.0
 14
1.000000000000000E+20
 24
1.000000000000000E+20
 34
1.000000000000000E+20
 15
-1.000000000000000E+20
 25
-1.000000000000000E+20
 35
-1.000000000000000E+20
146
0.0
 13
0.0
 23
0.0
 33
0.0
 16
1.0
 26
0.0
 36
0.0
 17
0.0
 27
1.0
 37
0.0
 76
     0
330
1B
  0
LAYOUT
  5
26
102
{ACAD_REACTORS
330
1A
102
}
330
1A
100
AcDbPlotSettings
  1

  2
none_device
  4
Letter_(8.50_x_11.00_Inches)
  6

 40
6.349999904632567
 41
6.349999904632567
 42
6.350006103515625
 43
6.350006103515625
 44
215.8999938964844
 45
279.3999938964844
 46
0.0
 47
0.0
 48
0.0
 49
0.0
140
0.0
141
0.0
142
1.0
143
1.0
 70
 15024
 72
     1
 73
     1
 74
     5
  7
SEISA.ctb
 75
    16
147
1.0
 76
     0
 77
     2
 78
   300
148
0.0
149
0.0
100
AcDbLayout
  1
レイアウト2
 70
     1
 71
     2
 10
0.0
 20
0.0
 11
12.0
 21
9.0
 12
0.0
 22
0.0
 32
0.0
 14
0.0
 24
0.0
 34
0.0
 15
0.0
 25
0.0
 35
0.0
146
0.0
 13
0.0
 23
0.0
 33
0.0
 16
1.0
 26
0.0
 36
0.0
 17
0.0
 27
1.0
 37
0.0
 76
     0
330
23
  0
MATERIAL
  5
27D
102
{ACAD_REACTORS
330
C4
102
}
330
C4
100
AcDbMaterial
  1
ByBlock
 73
     1
 78
     1
172
     1
176
     1
270
     1
274
     1
 94
       63
  0
MATERIAL
  5
27C
102
{ACAD_REACTORS
330
C4
102
}
330
C4
100
AcDbMaterial
  1
ByLayer
 73
     1
 78
     1
172
     1
176
     1
270
     1
274
     1
 94
       63
  0
MATERIAL
  5
27E
102
{ACAD_REACTORS
330
C4
102
}
330
C4
100
AcDbMaterial
  1
Global
 73
     1
 78
     1
172
     1
176
     1
270
     1
274
     1
 94
       63
  0
MLEADERSTYLE
  5
2D6
102
{ACAD_REACTORS
330
2D5
102
}
330
2D5
100
AcDbMLeaderStyle
170
     2
171
     1
172
     0
 90
        2
 40
0.0
 41
0.0
173
     1
 91
-1056964608
340
14
 92
       -2
290
     1
 42
2.0
291
     1
 43
0.36
  3
Standard
 44
4.0
300

342
11
174
     1
178
     6
175
     1
176
     0
 93
-1056964608
 45
4.0
292
     0
297
     0
 46
4.0
 94
-1056964608
 47
1.0
 49
1.0
140
1.0
293
     1
141
0.0
294
     1
177
     0
142
1.0
295
     0
296
     0
143
0.125
1001
ACAD_MLEADERVER
1070
     2
  0
MLINESTYLE
  5
18
102
{ACAD_REACTORS
330
17
102
}
330
17
100
AcDbMlineStyle
  2
STANDARD
 70
     0
  3

 62
   256
 51
90.0
 52
90.0
 71
     2
 49
0.5
 62
   256
  6
BYLAYER
 49
-0.5
 62
   256
  6
BYLAYER
  0
PLOTSETTINGS
  5
1C7E
102
{ACAD_REACTORS
330
19
102
}
330
19
100
AcDbPlotSettings
  1
SEISA基本
  2
none_device
  4
Letter_(8.50_x_11.00_Inches)
  6

 40
6.349999904632567
 41
6.349999904632567
 42
6.350006103515625
 43
6.350006103515625
 44
215.8999938964844
 45
279.3999938964844
 46
7.302498226506357
 47
0.0
 48
0.0
 49
0.0
140
0.0
141
0.0
142
1.0
143
1.574803221122935
 70
 11956
 72
     1
 73
     1
 74
     2
  7
SEISA.ctb
 75
     0
147
0.6349999711627054
 76
     0
 77
     2
 78
   300
148
0.0
149
0.0
1001
ACAD_PSEXT
1000
なし
1000
なし
1000
適切ではありません
1000
新しいプロッタ環境設定名を選択しない限り、レイアウトは印刷されません。
1070
     0
  0
ACDBPLACEHOLDER
  5
F
102
{ACAD_REACTORS
330
E
102
}
330
E
  0
SCALE
  5
2A04
102
{ACAD_REACTORS
330
2B3
102
}
330
2B3
100
AcDbScale
 70
     0
300
1:25
140
1.0
141
25.0
290
     0
  0
SCALE
  5
722B
102
{ACAD_REACTORS
330
2B3
102
}
330
2B3
100
AcDbScale
 70
     0
300
1:15
140
1.0
141
15.0
290
     0
  0
SCALE
  5
722C
102
{ACAD_REACTORS
330
2B3
102
}
330
2B3
100
AcDbScale
 70
     0
300
1:6
140
1.0
141
6.0
290
     0
  0
SCALE
  5
722D
102
{ACAD_REACTORS
330
2B3
102
}
330
2B3
100
AcDbScale
 70
     0
300
1:3
140
1.0
141
3.0
290
     0
  0
SCALE
  5
722E
102
{ACAD_REACTORS
330
2B3
102
}
330
2B3
100
AcDbScale
 70
     0
300
1:2.5
140
1.0
141
2.5
290
     0
  0
SCALE
  5
722F
102
{ACAD_REACTORS
330
2B3
102
}
330
2B3
100
AcDbScale
 70
     0
300
1:1.5
140
1.0
141
1.5
290
     0
  0
SCALE
  5
2B4
102
{ACAD_REACTORS
330
2B3
102
}
330
2B3
100
AcDbScale
 70
     0
300
1:1
140
1.0
141
1.0
290
     1
  0
SCALE
  5
2B5
102
{ACAD_REACTORS
330
2B3
102
}
330
2B3
100
AcDbScale
 70
     0
300
1:2
140
1.0
141
2.0
290
     0
  0
SCALE
  5
2B6
102
{ACAD_REACTORS
330
2B3
102
}
330
2B3
100
AcDbScale
 70
     0
300
1:4
140
1.0
141
4.0
290
     0
  0
SCALE
  5
2B7
102
{ACAD_REACTORS
330
2B3
102
}
330
2B3
100
AcDbScale
 70
     0
300
1:5
140
1.0
141
5.0
290
     0
  0
SCALE
  5
2B8
102
{ACAD_REACTORS
330
2B3
102
}
330
2B3
100
AcDbScale
 70
     0
300
1:8
140
1.0
141
8.0
290
     0
  0
SCALE
  5
2B9
102
{ACAD_REACTORS
330
2B3
102
}
330
2B3
100
AcDbScale
 70
     0
300
1:10
140
1.0
141
10.0
290
     0
  0
SCALE
  5
2BA
102
{ACAD_REACTORS
330
2B3
102
}
330
2B3
100
AcDbScale
 70
     0
300
1:16
140
1.0
141
16.0
290
     0
  0
SCALE
  5
2BB
102
{ACAD_REACTORS
330
2B3
102
}
330
2B3
100
AcDbScale
 70
     0
300
1:20
140
1.0
141
20.0
290
     0
  0
SCALE
  5
2BC
102
{ACAD_REACTORS
330
2B3
102
}
330
2B3
100
AcDbScale
 70
     0
300
1:30
140
1.0
141
30.0
290
     0
  0
SCALE
  5
2BD
102
{ACAD_REACTORS
330
2B3
102
}
330
2B3
100
AcDbScale
 70
     0
300
1:40
140
1.0
141
40.0
290
     0
  0
SCALE
  5
2BE
102
{ACAD_REACTORS
330
2B3
102
}
330
2B3
100
AcDbScale
 70
     0
300
1:50
140
1.0
141
50.0
290
     0
  0
SCALE
  5
2BF
102
{ACAD_REACTORS
330
2B3
102
}
330
2B3
100
AcDbScale
 70
     0
300
1:100
140
1.0
141
100.0
290
     0
  0
SCALE
  5
2C0
102
{ACAD_REACTORS
330
2B3
102
}
330
2B3
100
AcDbScale
 70
     0
300
2:1
140
2.0
141
1.0
290
     0
  0
SCALE
  5
2C1
102
{ACAD_REACTORS
330
2B3
102
}
330
2B3
100
AcDbScale
 70
     0
300
4:1
140
4.0
141
1.0
290
     0
  0
SCALE
  5
2C2
102
{ACAD_REACTORS
330
2B3
102
}
330
2B3
100
AcDbScale
 70
     0
300
8:1
140
8.0
141
1.0
290
     0
  0
SCALE
  5
2C3
102
{ACAD_REACTORS
330
2B3
102
}
330
2B3
100
AcDbScale
 70
     0
300
10:1
140
10.0
141
1.0
290
     0
  0
SCALE
  5
2C4
102
{ACAD_REACTORS
330
2B3
102
}
330
2B3
100
AcDbScale
 70
     0
300
100:1
140
100.0
141
1.0
290
     0
  0
SCALE
  5
2C5
102
{ACAD_REACTORS
330
2B3
102
}
330
2B3
100
AcDbScale
 70
     0
300
1/128" = 1'-0"
140
0.0078125
141
12.0
290
     0
  0
SCALE
  5
2C6
102
{ACAD_REACTORS
330
2B3
102
}
330
2B3
100
AcDbScale
 70
     0
300
1/64" = 1'-0"
140
0.015625
141
12.0
290
     0
  0
SCALE
  5
2C7
102
{ACAD_REACTORS
330
2B3
102
}
330
2B3
100
AcDbScale
 70
     0
300
1/32" = 1'-0"
140
0.03125
141
12.0
290
     0
  0
SCALE
  5
2C8
102
{ACAD_REACTORS
330
2B3
102
}
330
2B3
100
AcDbScale
 70
     0
300
1/16" = 1'-0"
140
0.0625
141
12.0
290
     0
  0
SCALE
  5
2C9
102
{ACAD_REACTORS
330
2B3
102
}
330
2B3
100
AcDbScale
 70
     0
300
3/32" = 1'-0"
140
0.09375
141
12.0
290
     0
  0
SCALE
  5
2CA
102
{ACAD_REACTORS
330
2B3
102
}
330
2B3
100
AcDbScale
 70
     0
300
1/8" = 1'-0"
140
0.125
141
12.0
290
     0
  0
SCALE
  5
2CB
102
{ACAD_REACTORS
330
2B3
102
}
330
2B3
100
AcDbScale
 70
     0
300
3/16" = 1'-0"
140
0.1875
141
12.0
290
     0
  0
SCALE
  5
2CC
102
{ACAD_REACTORS
330
2B3
102
}
330
2B3
100
AcDbScale
 70
     0
300
1/4" = 1'-0"
140
0.25
141
12.0
290
     0
  0
SCALE
  5
2CD
102
{ACAD_REACTORS
330
2B3
102
}
330
2B3
100
AcDbScale
 70
     0
300
3/8" = 1'-0"
140
0.375
141
12.0
290
     0
  0
SCALE
  5
2CE
102
{ACAD_REACTORS
330
2B3
102
}
330
2B3
100
AcDbScale
 70
     0
300
1/2" = 1'-0"
140
0.5
141
12.0
290
     0
  0
SCALE
  5
2CF
102
{ACAD_REACTORS
330
2B3
102
}
330
2B3
100
AcDbScale
 70
     0
300
3/4" = 1'-0"
140
0.75
141
12.0
290
     0
  0
SCALE
  5
2D0
102
{ACAD_REACTORS
330
2B3
102
}
330
2B3
100
AcDbScale
 70
     0
300
1" = 1'-0"
140
1.0
141
12.0
290
     0
  0
SCALE
  5
2D1
102
{ACAD_REACTORS
330
2B3
102
}
330
2B3
100
AcDbScale
 70
     0
300
1-1/2" = 1'-0"
140
1.5
141
12.0
290
     0
  0
SCALE
  5
2D2
102
{ACAD_REACTORS
330
2B3
102
}
330
2B3
100
AcDbScale
 70
     0
300
3" = 1'-0"
140
3.0
141
12.0
290
     0
  0
SCALE
  5
2D3
102
{ACAD_REACTORS
330
2B3
102
}
330
2B3
100
AcDbScale
 70
     0
300
6" = 1'-0"
140
6.0
141
12.0
290
     0
  0
SCALE
  5
2D4
102
{ACAD_REACTORS
330
2B3
102
}
330
2B3
100
AcDbScale
 70
     0
300
1'-0" = 1'-0"
140
12.0
141
12.0
290
     0
  0
TABLESTYLE
  5
122
102
{ACAD_XDICTIONARY
360
2F5
102
}
102
{ACAD_REACTORS
330
121
102
}
330
121
100
AcDbTableStyle
  3
Standard
 70
     0
 71
     0
 40
1.5
 41
1.5
280
     0
281
     0
  7
STANDARD
140
4.5
170
     2
 62
     0
 63
     7
283
     0
 90
      512
 91
        0
  1

274
    -2
284
     1
 64
     0
275
    -2
285
     1
 65
     0
276
    -2
286
     1
 66
     0
277
    -2
287
     1
 67
     0
278
    -2
288
     1
 68
     0
279
    -2
289
     1
 69
     0
  7
STANDARD
140
6.0
170
     5
 62
     0
 63
     7
283
     0
 90
      512
 91
        0
  1

274
    -2
284
     1
 64
     0
275
    -2
285
     1
 65
     0
276
    -2
286
     1
 66
     0
277
    -2
287
     1
 67
     0
278
    -2
288
     1
 68
     0
279
    -2
289
     1
 69
     0
  7
STANDARD
140
4.5
170
     5
 62
     0
 63
     7
283
     0
 90
      512
 91
        0
  1

274
    -2
284
     1
 64
     0
275
    -2
285
     1
 65
     0
276
    -2
286
     1
 66
     0
277
    -2
287
     1
 67
     0
278
    -2
288
     1
 68
     0
279
    -2
289
     1
 69
     0
  0
VISUALSTYLE
  5
285
102
{ACAD_REACTORS
330
27F
102
}
330
27F
100
AcDbVisualStyle
  2
2dWireframe
 70
     4
 71
     0
 72
     2
 73
     0
 90
        0
 40
-0.6
 41
-30.0
 62
     5
 63
     7
421
 16777215
 74
     1
 91
        4
 64
     7
 65
   257
 75
     1
175
     1
 42
1.0
 92
        0
 66
   257
 43
1.0
 76
     1
 77
     6
 78
     2
 67
     7
 79
     5
170
     0
171
     0
290
     0
174
     0
 93
        1
 44
0.0
173
     0
291
     0
 45
0.0
  0
VISUALSTYLE
  5
287
102
{ACAD_REACTORS
330
27F
102
}
330
27F
100
AcDbVisualStyle
  2
3D Hidden
 70
     6
 71
     1
 72
     2
 73
     2
 90
        0
 40
-0.6
 41
-30.0
 62
     5
 63
     7
421
 16777215
 74
     2
 91
        2
 64
     7
 65
   257
 75
     2
175
     1
 42
40.0
 92
        0
 66
   257
 43
1.0
 76
     1
 77
     6
 78
     2
 67
     7
 79
     3
170
     0
171
     0
290
     0
174
     0
 93
        1
 44
0.0
173
     0
291
     0
 45
0.0
  0
VISUALSTYLE
  5
286
102
{ACAD_REACTORS
330
27F
102
}
330
27F
100
AcDbVisualStyle
  2
3dWireframe
 70
     5
 71
     0
 72
     2
 73
     0
 90
        0
 40
-0.6
 41
-30.0
 62
     5
 63
     7
421
 16777215
 74
     1
 91
        4
 64
     7
 65
   257
 75
     1
175
     1
 42
1.0
 92
        0
 66
   257
 43
1.0
 76
     1
 77
     6
 78
     2
 67
     7
 79
     5
170
     0
171
     0
290
     0
174
     0
 93
        1
 44
0.0
173
     0
291
     0
 45
0.0
  0
VISUALSTYLE
  5
284
102
{ACAD_REACTORS
330
27F
102
}
330
27F
100
AcDbVisualStyle
  2
Basic
 70
     7
 71
     1
 72
     0
 73
     1
 90
        0
 40
-0.6
 41
-30.0
 62
     5
 63
     7
421
 16777215
 74
     0
 91
        4
 64
     7
 65
   257
 75
     1
175
     1
 42
1.0
 92
        8
 66
     7
 43
1.0
 76
     1
 77
     6
 78
     2
 67
     7
 79
     5
170
     0
171
     0
290
     0
174
     0
 93
        1
 44
0.0
173
     0
291
     1
 45
0.0
  0
VISUALSTYLE
  5
28B
102
{ACAD_REACTORS
330
27F
102
}
330
27F
100
AcDbVisualStyle
  2
Brighten
 70
    12
 71
     2
 72
     2
 73
     0
 90
        0
 40
-0.6
 41
-30.0
 62
     5
 63
     7
421
 16777215
 74
     1
 91
        4
 64
     7
 65
   257
 75
     1
175
     1
 42
1.0
 92
        8
 66
     7
 43
1.0
 76
     1
 77
     6
 78
     2
 67
     7
 79
     5
170
     0
171
     0
290
     0
174
     0
 93
        1
 44
50.0
173
     0
291
     1
 45
0.0
  0
VISUALSTYLE
  5
28F
102
{ACAD_REACTORS
330
27F
102
}
330
27F
100
AcDbVisualStyle
  2
ColorChange
 70
    16
 71
     2
 72
     2
 73
     3
 90
        0
 40
-0.6
 41
-30.0
 62
     5
 63
     8
421
  8421504
 74
     1
 91
        4
 64
     7
 65
   257
 75
     1
175
     1
 42
1.0
 92
        8
 66
     8
424
  8421504
 43
1.0
 76
     1
 77
     6
 78
     2
 67
     7
 79
     5
170
     0
171
     0
290
     0
174
     0
 93
        1
 44
0.0
173
     0
291
     1
 45
0.0
  0
VISUALSTYLE
  5
288
102
{ACAD_REACTORS
330
27F
102
}
330
27F
100
AcDbVisualStyle
  2
Conceptual
 70
     9
 71
     3
 72
     2
 73
     0
 90
        0
 40
-0.6
 41
-30.0
 62
     5
 63
     7
421
 16777215
 74
     2
 91
        2
 64
     7
 65
   257
 75
     1
175
     1
 42
40.0
 92
        8
 66
     7
 43
1.0
 76
     1
 77
     6
 78
     2
 67
     7
 79
     3
170
     0
171
     0
290
     0
174
     0
 93
        1
 44
0.0
173
     0
291
     0
 45
0.0
  0
VISUALSTYLE
  5
28A
102
{ACAD_REACTORS
330
27F
102
}
330
27F
100
AcDbVisualStyle
  2
Dim
 70
    11
 71
     2
 72
     2
 73
     0
 90
        0
 40
-0.6
 41
-30.0
 62
     5
 63
     7
421
 16777215
 74
     1
 91
        4
 64
     7
 65
   257
 75
     1
175
     1
 42
1.0
 92
        8
 66
     7
 43
1.0
 76
     1
 77
     6
 78
     2
 67
     7
 79
     5
170
     0
171
     0
290
     0
174
     0
 93
        1
 44
-50.0
173
     0
291
     1
 45
0.0
  0
VISUALSTYLE
  5
28E
102
{ACAD_REACTORS
330
27F
102
}
330
27F
100
AcDbVisualStyle
  2
Facepattern
 70
    15
 71
     2
 72
     2
 73
     0
 90
        0
 40
-0.6
 41
-30.0
 62
     5
 63
     7
421
 16777215
 74
     1
 91
        4
 64
     7
 65
   257
 75
     1
175
     1
 42
1.0
 92
        8
 66
     7
 43
1.0
 76
     1
 77
     6
 78
     2
 67
     7
 79
     5
170
     0
171
     0
290
     0
174
     0
 93
        1
 44
0.0
173
     0
291
     1
 45
0.0
  0
VISUALSTYLE
  5
280
102
{ACAD_REACTORS
330
27F
102
}
330
27F
100
AcDbVisualStyle
  2
Flat
 70
     0
 71
     2
 72
     1
 73
     1
 90
        2
 40
-0.6
 41
30.0
 62
     5
 63
     7
421
 16777215
 74
     0
 91
        4
 64
     7
 65
   257
 75
     1
175
     1
 42
1.0
 92
        8
 66
     7
 43
1.0
 76
     1
 77
     6
 78
     2
 67
     7
 79
     5
170
     0
171
     0
290
     0
174
     0
 93
       13
 44
0.0
173
     0
291
     1
 45
0.0
  0
VISUALSTYLE
  5
281
102
{ACAD_REACTORS
330
27F
102
}
330
27F
100
AcDbVisualStyle
  2
FlatWithEdges
 70
     1
 71
     2
 72
     1
 73
     1
 90
        2
 40
-0.6
 41
30.0
 62
     5
 63
     7
421
 16777215
 74
     1
 91
        4
 64
     7
 65
   257
 75
     1
175
     1
 42
1.0
 92
        0
 66
   257
 43
1.0
 76
     1
 77
     6
 78
     2
 67
     7
 79
     5
170
     0
171
     0
290
     0
174
     0
 93
       13
 44
0.0
173
     0
291
     1
 45
0.0
  0
VISUALSTYLE
  5
282
102
{ACAD_REACTORS
330
27F
102
}
330
27F
100
AcDbVisualStyle
  2
Gouraud
 70
     2
 71
     2
 72
     2
 73
     1
 90
        2
 40
-0.6
 41
30.0
 62
     5
 63
     7
421
 16777215
 74
     0
 91
        4
 64
     7
 65
   257
 75
     1
175
     1
 42
1.0
 92
        0
 66
     7
 43
1.0
 76
     1
 77
     6
 78
     2
 67
     7
 79
     5
170
     0
171
     0
290
     0
174
     0
 93
       13
 44
0.0
173
     0
291
     1
 45
0.0
  0
VISUALSTYLE
  5
283
102
{ACAD_REACTORS
330
27F
102
}
330
27F
100
AcDbVisualStyle
  2
GouraudWithEdges
 70
     3
 71
     2
 72
     2
 73
     1
 90
        2
 40
-0.6
 41
30.0
 62
     5
 63
     7
421
 16777215
 74
     1
 91
        4
 64
     7
 65
   257
 75
     1
175
     1
 42
1.0
 92
        0
 66
   257
 43
1.0
 76
     1
 77
     6
 78
     2
 67
     7
 79
     5
170
     0
171
     0
290
     0
174
     0
 93
       13
 44
0.0
173
     0
291
     1
 45
0.0
  0
VISUALSTYLE
  5
28D
102
{ACAD_REACTORS
330
27F
102
}
330
27F
100
AcDbVisualStyle
  2
Linepattern
 70
    14
 71
     2
 72
     2
 73
     0
 90
        0
 40
-0.6
 41
-30.0
 62
     5
 63
     7
421
 16777215
 74
     1
 91
        4
 64
     7
 65
   257
 75
     7
175
     7
 42
1.0
 92
        8
 66
     7
 43
1.0
 76
     1
 77
     6
 78
     2
 67
     7
 79
     5
170
     0
171
     0
290
     0
174
     0
 93
        1
 44
0.0
173
     0
291
     1
 45
0.0
  0
VISUALSTYLE
  5
289
102
{ACAD_REACTORS
330
27F
102
}
330
27F
100
AcDbVisualStyle
  2
Realistic
 70
     8
 71
     2
 72
     2
 73
     0
 90
        0
 40
-0.6
 41
-30.0
 62
     5
 63
     7
421
 16777215
 74
     1
 91
        0
 64
     7
 65
   257
 75
     1
175
     1
 42
1.0
 92
        8
 66
     8
424
  7895160
 43
1.0
 76
     1
 77
     6
 78
     2
 67
     7
 79
     5
170
     0
171
     0
290
     0
174
     0
 93
       13
 44
0.0
173
     0
291
     0
 45
0.0
  0
VISUALSTYLE
  5
28C
102
{ACAD_REACTORS
330
27F
102
}
330
27F
100
AcDbVisualStyle
  2
Thicken
 70
    13
 71
     2
 72
     2
 73
     0
 90
        0
 40
-0.6
 41
-30.0
 62
     5
 63
     7
421
 16777215
 74
     1
 91
        4
 64
     7
 65
   257
 75
     1
175
     1
 42
1.0
 92
       12
 66
     7
 43
1.0
 76
     1
 77
     6
 78
     2
 67
     7
 79
     5
170
     0
171
     0
290
     0
174
     0
 93
        1
 44
0.0
173
     0
291
     1
 45
0.0
  0
DICTIONARYVAR
  5
2FA
102
{ACAD_REACTORS
330
34
102
}
330
34
100
DictionaryVariables
280
     0
  1
1:25
  0
DICTIONARYVAR
  5
2F8
102
{ACAD_REACTORS
330
34
102
}
330
34
100
DictionaryVariables
280
     0
  1
STANDARD
  0
DICTIONARYVAR
  5
140
102
{ACAD_REACTORS
330
34
102
}
330
34
100
DictionaryVariables
280
     0
  1
STANDARD
  0
DICTIONARYVAR
  5
AC
102
{ACAD_REACTORS
330
34
102
}
330
34
100
DictionaryVariables
280
     0
  1
1
  0
DICTIONARYVAR
  5
35
102
{ACAD_REACTORS
330
34
102
}
330
34
100
DictionaryVariables
280
     0
  1
1
  0
DICTIONARYVAR
  5
6EF7
102
{ACAD_REACTORS
330
34
102
}
330
34
100
DictionaryVariables
280
     0
  1
1
  0
DICTIONARYVAR
  5
6EF8
102
{ACAD_REACTORS
330
34
102
}
330
34
100
DictionaryVariables
280
     0
  1
15
  0
DICTIONARYVAR
  5
2FB
102
{ACAD_REACTORS
330
34
102
}
330
34
100
DictionaryVariables
280
     0
  1
0
  0
DICTIONARYVAR
  5
2F9
102
{ACAD_REACTORS
330
34
102
}
330
34
100
DictionaryVariables
280
     0
  1
0
  0
DICTIONARY
  5
161B
102
{ACAD_REACTORS
330
49
102
}
330
49
100
AcDbDictionary
281
     1
  0
DICTIONARY
  5
4A
102
{ACAD_REACTORS
330
49
102
}
330
49
100
AcDbDictionary
281
     1
  0
XRECORD
  5
12B
102
{ACAD_REACTORS
330
49
102
}
330
49
100
AcDbXrecord
280
     1
 90
-1023410169
  0
DICTIONARY
  5
2F5
330
122
100
AcDbDictionary
280
     1
281
     1
  3
ACAD_ROUNDTRIP_2008_TABLESTYLE_CELLSTYLEMAP
360
762C
  0
CELLSTYLEMAP
  5
762C
102
{ACAD_REACTORS
330
2F5
102
}
330
2F5
100
AcDbCellStyleMap
 90
        3
300
CELLSTYLE
  1
TABLEFORMAT_BEGIN
 90
        5
170
     1
 91
        0
 92
    32768
 62
   257
 93
        1
300
CONTENTFORMAT
  1
CONTENTFORMAT_BEGIN
 90
        0
 91
        0
 92
      512
 93
        0
300

 40
0.0
140
1.0
 94
        5
 62
     0
340
11
144
6.0
309
CONTENTFORMAT_END
171
     1
301
MARGIN
  1
CELLMARGIN_BEGIN
 40
1.5
 40
1.5
 40
1.5
 40
1.5
 40
0.18
 40
0.18
309
CELLMARGIN_END
 94
        6
 95
        1
302
GRIDFORMAT
  1
GRIDFORMAT_BEGIN
 90
        0
 91
        1
 62
     0
 92
       -2
340
0
 93
        0
 40
0.045
309
GRIDFORMAT_END
 95
        2
302
GRIDFORMAT
  1
GRIDFORMAT_BEGIN
 90
        0
 91
        1
 62
     0
 92
       -2
340
0
 93
        0
 40
0.045
309
GRIDFORMAT_END
 95
        4
302
GRIDFORMAT
  1
GRIDFORMAT_BEGIN
 90
        0
 91
        1
 62
     0
 92
       -2
340
0
 93
        0
 40
0.045
309
GRIDFORMAT_END
 95
        8
302
GRIDFORMAT
  1
GRIDFORMAT_BEGIN
 90
        0
 91
        1
 62
     0
 92
       -2
340
0
 93
        0
 40
0.045
309
GRIDFORMAT_END
 95
       16
302
GRIDFORMAT
  1
GRIDFORMAT_BEGIN
 90
        0
 91
        1
 62
     0
 92
       -2
340
0
 93
        0
 40
0.045
309
GRIDFORMAT_END
 95
       32
302
GRIDFORMAT
  1
GRIDFORMAT_BEGIN
 90
        0
 91
        1
 62
     0
 92
       -2
340
0
 93
        0
 40
0.045
309
GRIDFORMAT_END
309
TABLEFORMAT_END
  1
CELLSTYLE_BEGIN
 90
        1
 91
        1
300
_TITLE
309
CELLSTYLE_END
300
CELLSTYLE
  1
TABLEFORMAT_BEGIN
 90
        5
170
     1
 91
        0
 92
        0
 62
   257
 93
        1
300
CONTENTFORMAT
  1
CONTENTFORMAT_BEGIN
 90
        0
 91
        0
 92
      512
 93
        0
300

 40
0.0
140
1.0
 94
        5
 62
     0
340
11
144
4.5
309
CONTENTFORMAT_END
171
     1
301
MARGIN
  1
CELLMARGIN_BEGIN
 40
1.5
 40
1.5
 40
1.5
 40
1.5
 40
0.18
 40
0.18
309
CELLMARGIN_END
 94
        6
 95
        1
302
GRIDFORMAT
  1
GRIDFORMAT_BEGIN
 90
        0
 91
        1
 62
     0
 92
       -2
340
0
 93
        0
 40
0.045
309
GRIDFORMAT_END
 95
        2
302
GRIDFORMAT
  1
GRIDFORMAT_BEGIN
 90
        0
 91
        1
 62
     0
 92
       -2
340
0
 93
        0
 40
0.045
309
GRIDFORMAT_END
 95
        4
302
GRIDFORMAT
  1
GRIDFORMAT_BEGIN
 90
        0
 91
        1
 62
     0
 92
       -2
340
0
 93
        0
 40
0.045
309
GRIDFORMAT_END
 95
        8
302
GRIDFORMAT
  1
GRIDFORMAT_BEGIN
 90
        0
 91
        1
 62
     0
 92
       -2
340
0
 93
        0
 40
0.045
309
GRIDFORMAT_END
 95
       16
302
GRIDFORMAT
  1
GRIDFORMAT_BEGIN
 90
        0
 91
        1
 62
     0
 92
       -2
340
0
 93
        0
 40
0.045
309
GRIDFORMAT_END
 95
       32
302
GRIDFORMAT
  1
GRIDFORMAT_BEGIN
 90
        0
 91
        1
 62
     0
 92
       -2
340
0
 93
        0
 40
0.045
309
GRIDFORMAT_END
309
TABLEFORMAT_END
  1
CELLSTYLE_BEGIN
 90
        2
 91
        1
300
_HEADER
309
CELLSTYLE_END
300
CELLSTYLE
  1
TABLEFORMAT_BEGIN
 90
        5
170
     1
 91
        0
 92
        0
 62
   257
 93
        1
300
CONTENTFORMAT
  1
CONTENTFORMAT_BEGIN
 90
        0
 91
        0
 92
      512
 93
        0
300

 40
0.0
140
1.0
 94
        2
 62
     0
340
11
144
4.5
309
CONTENTFORMAT_END
171
     1
301
MARGIN
  1
CELLMARGIN_BEGIN
 40
1.5
 40
1.5
 40
1.5
 40
1.5
 40
0.18
 40
0.18
309
CELLMARGIN_END
 94
        6
 95
        1
302
GRIDFORMAT
  1
GRIDFORMAT_BEGIN
 90
        0
 91
        1
 62
     0
 92
       -2
340
0
 93
        0
 40
0.045
309
GRIDFORMAT_END
 95
        2
302
GRIDFORMAT
  1
GRIDFORMAT_BEGIN
 90
        0
 91
        1
 62
     0
 92
       -2
340
0
 93
        0
 40
0.045
309
GRIDFORMAT_END
 95
        4
302
GRIDFORMAT
  1
GRIDFORMAT_BEGIN
 90
        0
 91
        1
 62
     0
 92
       -2
340
0
 93
        0
 40
0.045
309
GRIDFORMAT_END
 95
        8
302
GRIDFORMAT
  1
GRIDFORMAT_BEGIN
 90
        0
 91
        1
 62
     0
 92
       -2
340
0
 93
        0
 40
0.045
309
GRIDFORMAT_END
 95
       16
302
GRIDFORMAT
  1
GRIDFORMAT_BEGIN
 90
        0
 91
        1
 62
     0
 92
       -2
340
0
 93
        0
 40
0.045
309
GRIDFORMAT_END
 95
       32
302
GRIDFORMAT
  1
GRIDFORMAT_BEGIN
 90
        0
 91
        1
 62
     0
 92
       -2
340
0
 93
        0
 40
0.045
309
GRIDFORMAT_END
309
TABLEFORMAT_END
  1
CELLSTYLE_BEGIN
 90
        3
 91
        2
300
_DATA
309
CELLSTYLE_END
  0
ENDSEC
  0
EOF
