  0
SECTION
  2
HEADER
  9
$ACADVER
  1
AC1021
  9
$ACADMAINTVER
 70
    26
  9
$DWGCODEPAGE
  3
ANSI_932
  9
$LASTSAVEDBY
  1
Htm_Terada
  9
$CUSTOMPROPERTYTAG
  1
AmdtFileType
  9
$CUSTOMPROPERTY
  1
84
  9
$INSBASE
 10
0.0
 20
0.0
 30
0.0
  9
$EXTMIN
 10
2789.447048118171
 20
2968.640466568266
 30
-0.0015258207003583
  9
$EXTMAX
 10
6070.697042159161
 20
5002.539387802215
 30
0.0000000349246037
  9
$LIMMIN
 10
0.0000038286771087
 20
0.0000073876412898
  9
$LIMMAX
 10
8400.000003828678
 20
5940.000007387642
  9
$ORTHOMODE
 70
     1
  9
$REGENMODE
 70
     1
  9
$FILLMODE
 70
     1
  9
$QTEXTMODE
 70
     0
  9
$MIRRTEXT
 70
     1
  9
$LTSCALE
 40
20.0
  9
$ATTMODE
 70
     1
  9
$TEXTSIZE
 40
25.0
  9
$TRACEWID
 40
1.0
  9
$TEXTSTYLE
  7
SEISA
  9
$CLAYER
  8
AM_0 外形線1
  9
$CELTYPE
  6
ByLayer
  9
$CECOLOR
 62
   256
  9
$CELTSCALE
 40
1.0
  9
$DISPSILH
 70
     0
  9
$DIMSCALE
 40
20.0
  9
$DIMASZ
 40
2.5
  9
$DIMEXO
 40
0.625
  9
$DIMDLI
 40
10.0
  9
$DIMRND
 40
0.0
  9
$DIMDLE
 40
0.0
  9
$DIMEXE
 40
0.625
  9
$DIMTP
 40
0.1
  9
$DIMTM
 40
0.1
  9
$DIMTXT
 40
3.5
  9
$DIMCEN
 40
0.0
  9
$DIMTSZ
 40
0.0
  9
$DIMTOL
 70
     0
  9
$DIMLIM
 70
     0
  9
$DIMTIH
 70
     0
  9
$DIMTOH
 70
     0
  9
$DIMSE1
 70
     0
  9
$DIMSE2
 70
     0
  9
$DIMTAD
 70
     3
  9
$DIMZIN
 70
     8
  9
$DIMBLK
  1
Open30
  9
$DIMASO
 70
     1
  9
$DIMSHO
 70
     1
  9
$DIMPOST
  1

  9
$DIMAPOST
  1
"
  9
$DIMALT
 70
     0
  9
$DIMALTD
 70
     2
  9
$DIMALTF
 40
0.0393701
  9
$DIMLFAC
 40
1.0
  9
$DIMTOFL
 70
     1
  9
$DIMTVP
 40
0.0
  9
$DIMTIX
 70
     0
  9
$DIMSOXD
 70
     0
  9
$DIMSAH
 70
     0
  9
$DIMBLK1
  1

  9
$DIMBLK2
  1

  9
$DIMSTYLE
  2
SEISA
  9
$DIMCLRD
 70
     3
  9
$DIMCLRE
 70
     3
  9
$DIMCLRT
 70
     3
  9
$DIMTFAC
 40
0.71
  9
$DIMGAP
 40
1.5
  9
$DIMJUST
 70
     0
  9
$DIMSD1
 70
     0
  9
$DIMSD2
 70
     0
  9
$DIMTOLJ
 70
     0
  9
$DIMTZIN
 70
     0
  9
$DIMALTZ
 70
     0
  9
$DIMALTTZ
 70
     8
  9
$DIMUPT
 70
     0
  9
$DIMDEC
 70
     2
  9
$DIMTDEC
 70
     2
  9
$DIMALTU
 70
     2
  9
$DIMALTTD
 70
     2
  9
$DIMTXSTY
  7
SEISA
  9
$DIMAUNIT
 70
     0
  9
$DIMADEC
 70
     0
  9
$DIMALTRND
 40
0.0
  9
$DIMAZIN
 70
     2
  9
$DIMDSEP
 70
    46
  9
$DIMATFIT
 70
     3
  9
$DIMFRAC
 70
     0
  9
$DIMLDRBLK
  1
Open30
  9
$DIMLUNIT
 70
     2
  9
$DIMLWD
 70
    -1
  9
$DIMLWE
 70
    -1
  9
$DIMTMOVE
 70
     0
  9
$DIMFXL
 40
1.0
  9
$DIMFXLON
 70
     0
  9
$DIMJOGANG
 40
0.7853981633974483
  9
$DIMTFILL
 70
     0
  9
$DIMTFILLCLR
 70
     0
  9
$DIMARCSYM
 70
     1
  9
$DIMLTYPE
  6

  9
$DIMLTEX1
  6

  9
$DIMLTEX2
  6

  9
$LUNITS
 70
     2
  9
$LUPREC
 70
     2
  9
$SKETCHINC
 40
1.0
  9
$FILLETRAD
 40
3.0
  9
$AUNITS
 70
     0
  9
$AUPREC
 70
     0
  9
$MENU
  1
.
  9
$ELEVATION
 40
0.0
  9
$PELEVATION
 40
0.0
  9
$THICKNESS
 40
0.0
  9
$LIMCHECK
 70
     0
  9
$CHAMFERA
 40
20.08250000000407
  9
$CHAMFERB
 40
20.08250000000316
  9
$CHAMFERC
 40
20.08250000000407
  9
$CHAMFERD
 40
0.7853981633974258
  9
$SKPOLY
 70
     0
  9
$TDCREATE
 40
2454940.724229803
  9
$TDUCREATE
 40
2454940.349229803
  9
$TDUPDATE
 40
2456479.696028646
  9
$TDUUPDATE
 40
2456479.321028646
  9
$TDINDWG
 40
0.2302954167
  9
$TDUSRTIMER
 40
0.2302946991
  9
$USRTIMER
 70
     1
  9
$ANGBASE
 50
0.0
  9
$ANGDIR
 70
     0
  9
$PDMODE
 70
     0
  9
$PDSIZE
 40
0.0
  9
$PLINEWID
 40
0.0
  9
$SPLFRAME
 70
     0
  9
$SPLINETYPE
 70
     6
  9
$SPLINESEGS
 70
     8
  9
$HANDSEED
  5
7634
  9
$SURFTAB1
 70
     6
  9
$SURFTAB2
 70
     6
  9
$SURFTYPE
 70
     6
  9
$SURFU
 70
     6
  9
$SURFV
 70
     6
  9
$UCSBASE
  2

  9
$UCSNAME
  2

  9
$UCSORG
 10
0.0
 20
0.0
 30
0.0
  9
$UCSXDIR
 10
1.0
 20
0.0
 30
0.0
  9
$UCSYDIR
 10
0.0
 20
1.0
 30
0.0
  9
$UCSORTHOREF
  2

  9
$UCSORTHOVIEW
 70
     0
  9
$UCSORGTOP
 10
0.0
 20
0.0
 30
0.0
  9
$UCSORGBOTTOM
 10
0.0
 20
0.0
 30
0.0
  9
$UCSORGLEFT
 10
0.0
 20
0.0
 30
0.0
  9
$UCSORGRIGHT
 10
0.0
 20
0.0
 30
0.0
  9
$UCSORGFRONT
 10
0.0
 20
0.0
 30
0.0
  9
$UCSORGBACK
 10
0.0
 20
0.0
 30
0.0
  9
$PUCSBASE
  2

  9
$PUCSNAME
  2

  9
$PUCSORG
 10
0.0
 20
0.0
 30
0.0
  9
$PUCSXDIR
 10
1.0
 20
0.0
 30
0.0
  9
$PUCSYDIR
 10
0.0
 20
1.0
 30
0.0
  9
$PUCSORTHOREF
  2

  9
$PUCSORTHOVIEW
 70
     0
  9
$PUCSORGTOP
 10
0.0
 20
0.0
 30
0.0
  9
$PUCSORGBOTTOM
 10
0.0
 20
0.0
 30
0.0
  9
$PUCSORGLEFT
 10
0.0
 20
0.0
 30
0.0
  9
$PUCSORGRIGHT
 10
0.0
 20
0.0
 30
0.0
  9
$PUCSORGFRONT
 10
0.0
 20
0.0
 30
0.0
  9
$PUCSORGBACK
 10
0.0
 20
0.0
 30
0.0
  9
$USERI1
 70
     0
  9
$USERI2
 70
     0
  9
$USERI3
 70
     0
  9
$USERI4
 70
     0
  9
$USERI5
 70
     0
  9
$USERR1
 40
0.0
  9
$USERR2
 40
0.0
  9
$USERR3
 40
0.0
  9
$USERR4
 40
0.0
  9
$USERR5
 40
0.0
  9
$WORLDVIEW
 70
     1
  9
$SHADEDGE
 70
     3
  9
$SHADEDIF
 70
    70
  9
$TILEMODE
 70
     1
  9
$MAXACTVP
 70
    64
  9
$PINSBASE
 10
0.0
 20
0.0
 30
0.0
  9
$PLIMCHECK
 70
     0
  9
$PEXTMIN
 10
1.000000000000000E+20
 20
1.000000000000000E+20
 30
1.000000000000000E+20
  9
$PEXTMAX
 10
-1.000000000000000E+20
 20
-1.000000000000000E+20
 30
-1.000000000000000E+20
  9
$PLIMMIN
 10
0.0
 20
0.0
  9
$PLIMMAX
 10
420.0
 20
297.0
  9
$UNITMODE
 70
     0
  9
$VISRETAIN
 70
     1
  9
$PLINEGEN
 70
     0
  9
$PSLTSCALE
 70
     1
  9
$TREEDEPTH
 70
  3020
  9
$CMLSTYLE
  2
Standard
  9
$CMLJUST
 70
     0
  9
$CMLSCALE
 40
20.0
  9
$PROXYGRAPHICS
 70
     1
  9
$MEASUREMENT
 70
     1
  9
$CELWEIGHT
370
    -1
  9
$ENDCAPS
280
     0
  9
$JOINSTYLE
280
     0
  9
$LWDISPLAY
290
     0
  9
$INSUNITS
 70
     4
  9
$HYPERLINKBASE
  1

  9
$STYLESHEET
  1
SEISA.CTB
  9
$XEDIT
290
     1
  9
$CEPSNTYPE
380
     0
  9
$PSTYLEMODE
290
     1
  9
$FINGERPRINTGUID
  2
{F53F56AA-A038-45E2-9EAB-C6504FC5B3ED}
  9
$VERSIONGUID
  2
{468521CE-F3EE-4446-B804-B5DA5450CA13}
  9
$EXTNAMES
290
     1
  9
$PSVPSCALE
 40
0.0
  9
$OLESTARTUP
290
     0
  9
$SORTENTS
280
   127
  9
$INDEXCTL
280
     0
  9
$HIDETEXT
280
     0
  9
$XCLIPFRAME
290
     0
  9
$HALOGAP
280
     0
  9
$OBSCOLOR
 70
   257
  9
$OBSLTYPE
280
     0
  9
$INTERSECTIONDISPLAY
280
     0
  9
$INTERSECTIONCOLOR
 70
   257
  9
$DIMASSOC
280
     2
  9
$PROJECTNAME
  1

  9
$CAMERADISPLAY
290
     0
  9
$LENSLENGTH
 40
50.0
  9
$CAMERAHEIGHT
 40
0.0
  9
$STEPSPERSEC
 40
2.0
  9
$STEPSIZE
 40
6.0
  9
$3DDWFPREC
 40
2.0
  9
$PSOLWIDTH
 40
0.25
  9
$PSOLHEIGHT
 40
4.0
  9
$LOFTANG1
 40
1.570796326794896
  9
$LOFTANG2
 40
1.570796326794896
  9
$LOFTMAG1
 40
0.0
  9
$LOFTMAG2
 40
0.0
  9
$LOFTPARAM
 70
     7
  9
$LOFTNORMALS
280
     1
  9
$LATITUDE
 40
37.795
  9
$LONGITUDE
 40
-122.394
  9
$NORTHDIRECTION
 40
0.0
  9
$TIMEZONE
 70
 -8000
  9
$LIGHTGLYPHDISPLAY
280
     1
  9
$TILEMODELIGHTSYNCH
280
     1
  9
$CMATERIAL
347
27C
  9
$SOLIDHIST
280
     1
  9
$SHOWHIST
280
     1
  9
$DWFFRAME
280
     2
  9
$DGNFRAME
280
     0
  9
$REALWORLDSCALE
290
     1
  9
$INTERFERECOLOR
 62
     1
  9
$INTERFEREOBJVS
345
289
  9
$INTERFEREVPVS
346
286
  9
$CSHADOW
280
     0
  9
$SHADOWPLANELOCATION
 40
0.0
  0
ENDSEC
  0
SECTION
  2
CLASSES
  0
CLASS
  1
ACDBDICTIONARYWDFLT
  2
AcDbDictionaryWithDefault
  3
ObjectDBX Classes
 90
        0
 91
        1
280
     0
281
     0
  0
CLASS
  1
AMGSETTINGSOBJ
  2
AmgSettingsObj
  3
"AcadM|Product Description: AutoCAD Mechanical|Company: Autodesk, Inc."
 90
     1024
 91
        2
280
     0
281
     0
  0
CLASS
  1
ACME_DOCUMENT
  2
AcMeDbDoc
  3
AcMeServices
 90
     1024
 91
        1
280
     0
281
     0
  0
CLASS
  1
ACMESCOPE
  2
AcMeScope
  3
AcMeServices
 90
     1024
 91
        1
280
     0
281
     0
  0
CLASS
  1
ACMECOMMANDHISTORY
  2
AcMeCommandHistory
  3
AcMeServices
 90
     1024
 91
        1
280
     0
281
     0
  0
CLASS
  1
DICTIONARYVAR
  2
AcDbDictionaryVar
  3
ObjectDBX Classes
 90
        0
 91
        9
280
     0
281
     0
  0
CLASS
  1
ACIMSYSVARMAN
  2
AcImSysVarManager
  3
AcMeServices
 90
     1024
 91
        5
280
     0
281
     0
  0
CLASS
  1
ACIMREALSYSVAR
  2
AcImRealSysVar
  3
AcMeServices
 90
     1024
 91
        1
280
     0
281
     0
  0
CLASS
  1
ACIMINTSYSVAR
  2
AcImIntSysVar
  3
AcMeServices
 90
     1024
 91
       27
280
     0
281
     0
  0
CLASS
  1
ACMEDRAWINGMAN
  2
AcMeDrawingMan
  3
AcMeServices
 90
     1024
 91
        1
280
     0
281
     0
  0
CLASS
  1
ACMEVIEW
  2
AcMeView
  3
AcMeServices
 90
     1024
 91
        1
280
     0
281
     0
  0
CLASS
  1
ACDBENTITYCACHE
  2
AcMeEntityCache
  3
AcMeServices
 90
     1024
 91
        1
280
     0
281
     0
  0
CLASS
  1
GSMANAGER
  2
AcMeGSManager
  3
AcMeServices
 90
     1024
 91
        1
280
     0
281
     0
  0
CLASS
  1
AMDTINTERNALREACTOR
  2
AmdtInternalReactor
  3
AcMeServices
 90
     1024
 91
        2
280
     0
281
     0
  0
CLASS
  1
ACMESTATEMGR
  2
AcMeStateMgr
  3
AcMeServices
 90
     1024
 91
        1
280
     0
281
     0
  0
CLASS
  1
ACGREFMASTER
  2
AcGrefMaster
  3
AcAttribServices
 90
     1024
 91
        1
280
     0
281
     0
  0
CLASS
  1
ACME_DATABASE
  2
AcMeDbDatabase
  3
AcMeServices
 90
     1024
 91
        1
280
     0
281
     0
  0
CLASS
  1
ACRFINSADJUSTERMGR
  2
AcRfInsAdjusterMgr
  3
AcMeServices
 90
     1024
 91
        1
280
     0
281
     0
  0
CLASS
  1
ACGREFACADMASTER
  2
AcGrefacadMaster
  3
AcGrefServices
 90
     1024
 91
        1
280
     0
281
     0
  0
CLASS
  1
AMIMASTER
  2
AmiMaster
  3
AmiServices
 90
     1024
 91
        1
280
     0
281
     0
  0
CLASS
  1
ACIMSTRSYSVAR
  2
AcImStrSysVar
  3
AcMeServices
 90
     1024
 91
        5
280
     0
281
     0
  0
CLASS
  1
ACMSTANDARDJIS
  2
AcmStandardJIS
  3
"Amdt_StdImp|Product Description: AutoCAD Mechanical|Company: Autodesk, Inc."
 90
     1024
 91
        0
280
     0
281
     0
  0
CLASS
  1
AMGOBJPROPCFG
  2
AmgObjPropCfg
  3
"AmgLay|Product Description: AutoCAD Mechanical|Company: Autodesk, Inc."
 90
     1025
 91
        1
280
     0
281
     0
  0
CLASS
  1
ACMSURFSTANDARDJIS
  2
AcmSurfTextStdJIS
  3
"Amdt_StdImp|Product Description: AutoCAD Mechanical|Company: Autodesk, Inc."
 90
     1024
 91
        0
280
     0
281
     0
  0
CLASS
  1
ACMFCFSTANDARDJIS
  2
AcmFCFStdJIS
  3
"Amdt_StdImp|Product Description: AutoCAD Mechanical|Company: Autodesk, Inc."
 90
     1024
 91
        0
280
     0
281
     0
  0
CLASS
  1
ACMWELDSTANDARDJIS
  2
AcmWeldingStdJIS
  3
"Amdt_StdImp|Product Description: AutoCAD Mechanical|Company: Autodesk, Inc."
 90
     1024
 91
        0
280
     0
281
     0
  0
CLASS
  1
ACMIDSTANDARDJIS
  2
AcmIdStdJIS
  3
"Amdt_StdImp|Product Description: AutoCAD Mechanical|Company: Autodesk, Inc."
 90
     1024
 91
        0
280
     0
281
     0
  0
CLASS
  1
ACMDATUMSTANDARDJIS
  2
AcmDatumStdJIS
  3
"Amdt_StdImp|Product Description: AutoCAD Mechanical|Company: Autodesk, Inc."
 90
     1024
 91
        0
280
     0
281
     0
  0
CLASS
  1
ACMBOMSTANDARDJIS
  2
AcmBOMStdJIS
  3
"Amdt_StdImp|Product Description: AutoCAD Mechanical|Company: Autodesk, Inc."
 90
     1024
 91
        0
280
     0
281
     0
  0
CLASS
  1
ACMDETAILSTANDARDJIS
  2
AmdtDetailSymStdJIS
  3
"Amdt_StdImp|Product Description: AutoCAD Mechanical|Company: Autodesk, Inc."
 90
     1024
 91
        0
280
     0
281
     0
  0
CLASS
  1
ACMSECTIONSTANDARDJIS
  2
AmdtSectionSymStdJIS
  3
"Amdt_StdImp|Product Description: AutoCAD Mechanical|Company: Autodesk, Inc."
 90
     1024
 91
        0
280
     0
281
     0
  0
CLASS
  1
ACMCENTERLINESTANDARDJIS
  2
AmdtCenterLineStdJIS
  3
"Amdt_StdImp|Product Description: AutoCAD Mechanical|Company: Autodesk, Inc."
 90
     1024
 91
        0
280
     0
281
     0
  0
CLASS
  1
ACMTHREADLINESTANDARDJIS
  2
AmdtThreadLineStdJIS
  3
"Amdt_StdImp|Product Description: AutoCAD Mechanical|Company: Autodesk, Inc."
 90
     1024
 91
        0
280
     0
281
     0
  0
CLASS
  1
ACAMGLAYSTD
  2
AcAmgLayStd
  3
"AmgLay|Product Description: AutoCAD Mechanical|Company: Autodesk, Inc."
 90
     1024
 91
        1
280
     0
281
     0
  0
CLASS
  1
ACAMGDIMSTD
  2
AcAmgDimStd
  3
"AmgDim|Product Description: AutoCAD Mechanical|Company: Autodesk, Inc."
 90
     1024
 91
        1
280
     0
281
     0
  0
CLASS
  1
ACAMGTITLESTD
  2
AcAmgTitleStd
  3
"AmgTitle|Product Description: AutoCAD Mechanical|Company: Autodesk, Inc."
 90
     4095
 91
        1
280
     0
281
     0
  0
CLASS
  1
ACMDATADICTIONARY
  2
AcmDataDictionary
  3
"AcmSymBB|Product Description: AutoCAD Mechanical|Company: Autodesk, Inc."
 90
     1024
 91
        1
280
     0
281
     0
  0
CLASS
  1
ACMDATAENTRYBLOCK
  2
AcmDataEntryBlock
  3
AcmSymBB|Product Description: AutoCAD Mechanical|Company: Autodesk, Inc.
 90
     1024
 91
        0
280
     0
281
     0
  0
CLASS
  1
LAYER_INDEX
  2
AcDbLayerIndex
  3
ObjectDBX Classes
 90
        0
 91
        0
280
     0
281
     0
  0
CLASS
  1
IDBUFFER
  2
AcDbIdBuffer
  3
ObjectDBX Classes
 90
        0
 91
        0
280
     0
281
     0
  0
CLASS
  1
ACMNOTESTANDARDJIS
  2
AmdtNoteStdJIS
  3
"Amdt_StdImp|Product Description: AutoCAD Mechanical|Company: Autodesk, Inc."
 90
     1024
 91
        0
280
     0
281
     0
  0
CLASS
  1
ACAMGHOLECHARTSTDJIS
  2
AcAmgHoleChartStdJIS
  3
AmgDim|Product Description: AutoCAD Mechanical|Company: Autodesk, Inc.
 90
     1024
 91
        0
280
     0
281
     0
  0
CLASS
  1
AM_DRAWING_MGR
  2
AcDmDwgMgr
  3
AcMechDwgViewMgmt
 90
     1024
 91
        1
280
     0
281
     0
  0
CLASS
  1
AM_DWG_DOCUMENT
  2
AcDmDwgDocument
  3
AcMechDwgViewMgmt
 90
     1024
 91
        1
280
     0
281
     0
  0
CLASS
  1
AM_DWG_SHEET
  2
AcDmSheet
  3
AcMechDwgViewMgmt
 90
     1024
 91
        2
280
     0
281
     0
  0
CLASS
  1
AM_VIEWDIMPARMAP
  2
AcDmViewDimParMap
  3
AcMechDwgViewMgmt
 90
     1024
 91
        2
280
     0
281
     0
  0
CLASS
  1
AM_DWGMGR_NAME
  2
AcDmDwgMgrName
  3
AcMechDwgViewMgmt
 90
     1024
 91
        1
280
     0
281
     0
  0
CLASS
  1
AMDTMENUSTATEMGR
  2
AmdtMenuStateMgr
  3
McadcomServices
 90
     1024
 91
        1
280
     0
281
     0
  0
CLASS
  1
AMDTMCOMMENUSTATE
  2
AmdtMcomMenuState
  3
McadcomServices
 90
     1024
 91
        1
280
     0
281
     0
  0
CLASS
  1
MAPIAMMOUDLE
  2
MApiAmModule
  3
MApiAmServices
 90
     1024
 91
        1
280
     0
281
     0
  0
CLASS
  1
AMDTADMENUSTATE
  2
AmdtAdMenuState
  3
DesignerServices
 90
     1024
 91
        1
280
     0
281
     0
  0
CLASS
  1
ADAPPL
  2
AcAdAppl
  3
DesignerServices
 90
     1024
 91
        1
280
     0
281
     0
  0
CLASS
  1
DEPMGR
  2
AcAdDepMgr
  3
DesignerServices
 90
     1024
 91
        1
280
     0
281
     0
  0
CLASS
  1
PARAMMGR
  2
AcAdParamMgr
  3
DesignerServices
 90
     1024
 91
        1
280
     0
281
     0
  0
CLASS
  1
PARAMSCOPE
  2
AcAdParamScope
  3
DesignerServices
 90
     1024
 91
        1
280
     0
281
     0
  0
CLASS
  1
NAMEDAPPL
  2
AcAdNamedAppl
  3
DesignerServices
 90
     1024
 91
        1
280
     0
281
     0
  0
CLASS
  1
AMDTDMMENUSTATE
  2
AmdtDmMenuState
  3
AcMechDwgViewMgmt
 90
     1024
 91
        1
280
     0
281
     0
  0
CLASS
  1
AMDTAMMENUSTATE
  2
AmdtAmMenuState
  3
DesignerAssemblies
 90
     1024
 91
        1
280
     0
281
     0
  0
CLASS
  1
ACAMPROJECT
  2
AcAmProject
  3
DesignerAssemblies
 90
     1024
 91
        1
280
     0
281
     0
  0
CLASS
  1
ACAMGRCOMPDEF
  2
AcAmGrCompDef
  3
DesignerAssemblies
 90
     1024
 91
        1
280
     0
281
     0
  0
CLASS
  1
ACCMCONTEXT
  2
AcCmContext
  3
DesignerAssemblies
 90
     1024
 91
        1
280
     0
281
     0
  0
CLASS
  1
ACAMCOMPDEF
  2
AcAmCompDef
  3
DesignerAssemblies
 90
     1024
 91
        1
280
     0
281
     0
  0
CLASS
  1
ACAMCOMPDEFMGR
  2
AcAmCompDefMgr
  3
DesignerAssemblies
 90
     1024
 91
        1
280
     0
281
     0
  0
CLASS
  1
AMCONTEXTMGR
  2
AcAmContextMgr
  3
DesignerAssemblies
 90
     1024
 91
        1
280
     0
281
     0
  0
CLASS
  1
ACAMCONTEXTMODELER
  2
AcAmContextModeler
  3
DesignerAssemblies
 90
     1024
 91
        1
280
     0
281
     0
  0
CLASS
  1
CATALOGSTATE
  2
AcAmCatalogState
  3
DesignerAssemblies
 90
     1024
 91
        1
280
     0
281
     0
  0
CLASS
  1
ACAMGRCOMPDEFSET
  2
AcAmGrCompDefSet
  3
DesignerAssemblies
 90
     1024
 91
        1
280
     0
281
     0
  0
CLASS
  1
AMDTBROWSERDBTAB
  2
AmdtBrowserDbTab
  3
McadcomServices
 90
     1024
 91
        1
280
     0
281
     0
  0
CLASS
  1
CBROWSERAPPOBJECT
  2
CBrowserAppObject
  3
McadcomServices
 90
     1024
 91
        3
280
     0
281
     0
  0
CLASS
  1
DM_PLACEHOLDER
  2
AcDmSelsetPlaceholder
  3
AcMechDwgViewMgmt
 90
     1024
 91
        1
280
     0
281
     0
  0
CLASS
  1
TABLESTYLE
  2
AcDbTableStyle
  3
ObjectDBX Classes
 90
     4095
 91
        1
280
     0
281
     0
  0
CLASS
  1
VAACXREFPANELOBJECT
  2
VaAcXREFPanelObject
  3
VAAC_ADDIN
 90
        0
 91
        0
280
     0
281
     0
  0
CLASS
  1
VAACIMAGEINVENTORY
  2
VaAcImageInventory
  3
VAAC_ADDIN
 90
        0
 91
        0
280
     0
281
     0
  0
CLASS
  1
AMDTNOTETEMPLATEDB
  2
AmdtNoteTemplateDB
  3
AcmSymBB|Product Description: AutoCAD Mechanical|Company: Autodesk, Inc.
 90
     1024
 91
        6
280
     0
281
     0
  0
CLASS
  1
ACAMGFILTERDAT
  2
AcAmgFilterDat
  3
"AcadM|Product Description: AutoCAD Mechanical|Company: Autodesk, Inc."
 90
     1024
 91
        0
280
     0
281
     0
  0
CLASS
  1
MATERIAL
  2
AcDbMaterial
  3
ObjectDBX Classes
 90
     1153
 91
        3
280
     0
281
     0
  0
CLASS
  1
VISUALSTYLE
  2
AcDbVisualStyle
  3
ObjectDBX Classes
 90
     4095
 91
       16
280
     0
281
     0
  0
CLASS
  1
ACRFATTGENMGR
  2
AcRfAttGeneralMgr
  3
AcAttribServices
 90
     1024
 91
        0
280
     0
281
     0
  0
CLASS
  1
ACRFOBJATTMGR
  2
AcRfObjAttGroupMgr
  3
AcAttribServices
 90
     1024
 91
        0
280
     0
281
     0
  0
CLASS
  1
ACRFMCADAPIATTHOLDER
  2
AcRfMCADAPIAttHolder
  3
AcAttribServices
 90
     1024
 91
        0
280
     0
281
     0
  0
CLASS
  1
AMDTSYSATTR
  2
AmdtSystemAttribute
  3
AcAttribServices
 90
     1024
 91
        0
280
     0
281
     0
  0
CLASS
  1
ACMTAPERSTANDARDJIS
  2
AcmTaperStdJIS
  3
"Amdt_StdImp|Product Description: AutoCAD Mechanical|Company: Autodesk, Inc."
 90
     1024
 91
        0
280
     0
281
     0
  0
CLASS
  1
CAMSSTRUCTBTNSTATE
  2
StructBtnState
  3
DesignerAssemblies
 90
     1024
 91
        0
280
     0
281
     0
  0
CLASS
  1
SCALE
  2
AcDbScale
  3
ObjectDBX Classes
 90
     1153
 91
       38
280
     0
281
     0
  0
CLASS
  1
MLEADERSTYLE
  2
AcDbMLeaderStyle
  3
ACDB_MLEADERSTYLE_CLASS
 90
     4095
 91
        1
280
     0
281
     0
  0
CLASS
  1
ACMANOOTATIONVIEWSTANDARDJIS
  2
AmdtAnViewStdJIS
  3
"Amdt_StdImp|Product Description: AutoCAD Mechanical|Company: Autodesk, Inc."
 90
     1024
 91
        0
280
     0
281
     0
  0
CLASS
  1
ACMSURFSTANDARDJIS2003
  2
AcmSurfTextStdJIS2003
  3
"Amdt_StdImp|Product Description: AutoCAD Mechanical|Company: Autodesk, Inc."
 90
     1024
 91
        0
280
     0
281
     0
  0
CLASS
  1
CELLSTYLEMAP
  2
AcDbCellStyleMap
  3
ObjectDBX Classes
 90
     1152
 91
        2
280
     0
281
     0
  0
CLASS
  1
ACMFCFSTANDARDJIS98
  2
AcmFCFStdJIS98
  3
"Amdt_StdImp|Product Description: AutoCAD Mechanical|Company: Autodesk, Inc."
 90
     1024
 91
        0
280
     0
281
     0
  0
CLASS
  1
SORTENTSTABLE
  2
AcDbSortentsTable
  3
ObjectDBX Classes
 90
        0
 91
       12
280
     0
281
     0
  0
CLASS
  1
DIMASSOC
  2
AcDbDimAssoc
  3
"AcDbDimAssoc|Product Desc:     AcDim ARX App For Dimension|Company:          Autodesk, Inc.|WEB Address:      www.autodesk.com"
 90
        0
 91
       11
280
     0
281
     0
  0
CLASS
  1
STDPART2D
  2
AmgStdPart
  3
AmgStdPart|Product Description: AutoCAD Mechanical|Company: Autodesk, Inc.
 90
     4095
 91
        0
280
     0
281
     1
  0
CLASS
  1
ACMDATAENTRYPART
  2
AcmDataEntryPart
  3
AcmSymBB|Product Description: AutoCAD Mechanical|Company: Autodesk, Inc.
 90
     1024
 91
        0
280
     0
281
     0
  0
CLASS
  1
ACMPARTREF
  2
AcmPartRef
  3
"AcmSymBB|Product Description: AutoCAD Mechanical|Company: Autodesk, Inc."
 90
     4095
 91
        0
280
     0
281
     1
  0
CLASS
  1
ACDBSTDPARTRES_LINE
  2
AcDbStdPartRes_Line
  3
AmgStdPart|Product Description: AutoCAD Mechanical|Company: Autodesk, Inc.
 90
     1024
 91
        0
280
     0
281
     0
  0
CLASS
  1
ACMBOM
  2
AcmBom
  3
"AcmSymBB|Product Description: AutoCAD Mechanical|Company: Autodesk, Inc."
 90
     1024
 91
        0
280
     0
281
     0
  0
CLASS
  1
AMDTFORMULAUPDATEDISPATCHER
  2
AmdtFormulaUpdateDispatcher
  3
AcMeServices
 90
     1024
 91
        0
280
     0
281
     0
  0
CLASS
  1
ACMBOMROW
  2
AcmBomRow
  3
"AcmSymBB|Product Description: AutoCAD Mechanical|Company: Autodesk, Inc."
 90
     1024
 91
        0
280
     0
281
     0
  0
CLASS
  1
ACMPARTLIST
  2
AcmPartList
  3
"AcmSymBB|Product Description: AutoCAD Mechanical|Company: Autodesk, Inc."
 90
     4095
 91
        0
280
     0
281
     1
  0
CLASS
  1
ACDBLINERES
  2
AcDbLineRes
  3
AcGrefServices
 90
     1024
 91
        0
280
     0
281
     0
  0
CLASS
  1
ACRFINSADJ
  2
AcRfInsAdjuster
  3
AcMeServices
 90
     1024
 91
        0
280
     0
281
     0
  0
CLASS
  1
ACMSTANDARDISO
  2
AcmStandardISO
  3
"Amdt_StdImp|Product Description: AutoCAD Mechanical|Company: Autodesk, Inc."
 90
     1024
 91
        1
280
     0
281
     0
  0
CLASS
  1
AMDTEDGESTANDARDISO13715
  2
AmdtEdgeStdISO13715
  3
"Amdt_StdImp|Product Description: AutoCAD Mechanical|Company: Autodesk, Inc."
 90
     1024
 91
        1
280
     0
281
     0
  0
CLASS
  1
ACMSURFSTANDARDISO2002
  2
AcmSurfTextStdISO2002
  3
"Amdt_StdImp|Product Description: AutoCAD Mechanical|Company: Autodesk, Inc."
 90
     1024
 91
        1
280
     0
281
     0
  0
CLASS
  1
ACMFCFSTANDARDISO
  2
AcmFCFStdISO
  3
"Amdt_StdImp|Product Description: AutoCAD Mechanical|Company: Autodesk, Inc."
 90
     1024
 91
        1
280
     0
281
     0
  0
CLASS
  1
ACMWELDSTANDARDISO
  2
AcmWeldingStdISO
  3
"Amdt_StdImp|Product Description: AutoCAD Mechanical|Company: Autodesk, Inc."
 90
     1024
 91
        1
280
     0
281
     0
  0
CLASS
  1
ACMIDSTANDARDISO
  2
AcmIdStdISO
  3
"Amdt_StdImp|Product Description: AutoCAD Mechanical|Company: Autodesk, Inc."
 90
     1024
 91
        1
280
     0
281
     0
  0
CLASS
  1
ACMDATUMSTANDARDISO
  2
AcmDatumStdISO
  3
"Amdt_StdImp|Product Description: AutoCAD Mechanical|Company: Autodesk, Inc."
 90
     1024
 91
        1
280
     0
281
     0
  0
CLASS
  1
ACMBOMSTANDARDISO
  2
AcmBOMStdISO
  3
"Amdt_StdImp|Product Description: AutoCAD Mechanical|Company: Autodesk, Inc."
 90
     1024
 91
        1
280
     0
281
     0
  0
CLASS
  1
ACMDETAILSTANDARDISO
  2
AmdtDetailSymStdISO
  3
"Amdt_StdImp|Product Description: AutoCAD Mechanical|Company: Autodesk, Inc."
 90
     1024
 91
        1
280
     0
281
     0
  0
CLASS
  1
ACMSECTIONSTANDARDISO2001
  2
AmdtSectionSymStdISO2001
  3
"Amdt_StdImp|Product Description: AutoCAD Mechanical|Company: Autodesk, Inc."
 90
     1024
 91
        1
280
     0
281
     0
  0
CLASS
  1
ACMCENTERLINESTANDARDISO
  2
AmdtCenterLineStdISO
  3
"Amdt_StdImp|Product Description: AutoCAD Mechanical|Company: Autodesk, Inc."
 90
     1024
 91
        1
280
     0
281
     0
  0
CLASS
  1
ACMTHREADLINESTANDARDISO
  2
AmdtThreadLineStdISO
  3
"Amdt_StdImp|Product Description: AutoCAD Mechanical|Company: Autodesk, Inc."
 90
     1024
 91
        1
280
     0
281
     0
  0
CLASS
  1
ACMNOTESTANDARDISO
  2
AmdtNoteStdISO
  3
"Amdt_StdImp|Product Description: AutoCAD Mechanical|Company: Autodesk, Inc."
 90
     1024
 91
        1
280
     0
281
     0
  0
CLASS
  1
ACMTAPERSTANDARDISO
  2
AcmTaperStdISO
  3
"Amdt_StdImp|Product Description: AutoCAD Mechanical|Company: Autodesk, Inc."
 90
     1024
 91
        1
280
     0
281
     0
  0
CLASS
  1
ACMANOOTATIONVIEWSTANDARDISO
  2
AmdtAnViewStdISO
  3
"Amdt_StdImp|Product Description: AutoCAD Mechanical|Company: Autodesk, Inc."
 90
     1024
 91
        1
280
     0
281
     0
  0
CLASS
  1
ACAMGHOLECHARTSTDISO
  2
AcAmgHoleChartStdISO
  3
AmgDim|Product Description: AutoCAD Mechanical|Company: Autodesk, Inc.
 90
     1024
 91
        1
280
     0
281
     0
  0
CLASS
  1
EXACXREFPANELOBJECT
  2
ExAcXREFPanelObject
  3
EXAC_ESW
 90
     1025
 91
        0
280
     0
281
     0
  0
CLASS
  1
NPOCOLLECTION
  2
AcDbImpNonPersistentObjectsCollection
  3
ObjectDBX Classes
 90
     1153
 91
        0
280
     0
281
     0
  0
CLASS
  1
ACDBSTDPARTRES_ARC
  2
AcDbStdPartRes_Arc
  3
AmgStdPart|Product Description: AutoCAD Mechanical|Company: Autodesk, Inc.
 90
     1024
 91
        0
280
     0
281
     0
  0
CLASS
  1
AMDTNOTE
  2
AmdtNote
  3
"AcmSymBB|Product Description: AutoCAD Mechanical|Company: Autodesk, Inc."
 90
     4095
 91
        0
280
     0
281
     1
  0
CLASS
  1
PLOTSETTINGS
  2
AcDbPlotSettings
  3
ObjectDBX Classes
 90
        0
 91
        1
280
     0
281
     0
  0
CLASS
  1
ACMSTANDARDANSI
  2
AcmStandardANSI
  3
"Amdt_StdImp|Product Description: AutoCAD Mechanical|Company: Autodesk, Inc."
 90
     1024
 91
        0
280
     0
281
     0
  0
CLASS
  1
ACMSURFSTANDARDANSI
  2
AcmSurfTextStdANSI
  3
"Amdt_StdImp|Product Description: AutoCAD Mechanical|Company: Autodesk, Inc."
 90
     1024
 91
        0
280
     0
281
     0
  0
CLASS
  1
ACMFCFSTANDARDANSI
  2
AcmFCFStdANSI
  3
"Amdt_StdImp|Product Description: AutoCAD Mechanical|Company: Autodesk, Inc."
 90
     1024
 91
        0
280
     0
281
     0
  0
CLASS
  1
ACMWELDSTANDARDANSI
  2
AcmWeldingStdANSI
  3
"Amdt_StdImp|Product Description: AutoCAD Mechanical|Company: Autodesk, Inc."
 90
     1024
 91
        0
280
     0
281
     0
  0
CLASS
  1
ACMIDSTANDARDANSI
  2
AcmIdStdANSI
  3
"Amdt_StdImp|Product Description: AutoCAD Mechanical|Company: Autodesk, Inc."
 90
     1024
 91
        0
280
     0
281
     0
  0
CLASS
  1
ACMDATUMSTANDARDANSI
  2
AcmDatumStdANSI
  3
"Amdt_StdImp|Product Description: AutoCAD Mechanical|Company: Autodesk, Inc."
 90
     1024
 91
        0
280
     0
281
     0
  0
CLASS
  1
ACMBOMSTANDARDANSI
  2
AcmBOMStdANSI
  3
"Amdt_StdImp|Product Description: AutoCAD Mechanical|Company: Autodesk, Inc."
 90
     1024
 91
        0
280
     0
281
     0
  0
CLASS
  1
ACMDETAILSTANDARDANSI
  2
AmdtDetailSymStdANSI
  3
"Amdt_StdImp|Product Description: AutoCAD Mechanical|Company: Autodesk, Inc."
 90
     1024
 91
        0
280
     0
281
     0
  0
CLASS
  1
ACMSECTIONSTANDARDANSI
  2
AmdtSectionSymStdANSI
  3
"Amdt_StdImp|Product Description: AutoCAD Mechanical|Company: Autodesk, Inc."
 90
     1024
 91
        0
280
     0
281
     0
  0
CLASS
  1
ACMCENTERLINESTANDARDANSI
  2
AmdtCenterLineStdANSI
  3
"Amdt_StdImp|Product Description: AutoCAD Mechanical|Company: Autodesk, Inc."
 90
     1024
 91
        0
280
     0
281
     0
  0
CLASS
  1
ACMTHREADLINESTANDARDANSI
  2
AmdtThreadLineStdANSI
  3
"Amdt_StdImp|Product Description: AutoCAD Mechanical|Company: Autodesk, Inc."
 90
     1024
 91
        0
280
     0
281
     0
  0
CLASS
  1
ACMNOTESTANDARDANSI
  2
AmdtNoteStdANSI
  3
"Amdt_StdImp|Product Description: AutoCAD Mechanical|Company: Autodesk, Inc."
 90
     1024
 91
        0
280
     0
281
     0
  0
CLASS
  1
ACMTAPERSTANDARDANSI
  2
AcmTaperStdANSI
  3
"Amdt_StdImp|Product Description: AutoCAD Mechanical|Company: Autodesk, Inc."
 90
     1024
 91
        0
280
     0
281
     0
  0
CLASS
  1
ACMANOOTATIONVIEWSTANDARDANSI
  2
AmdtAnViewStdANSI
  3
"Amdt_StdImp|Product Description: AutoCAD Mechanical|Company: Autodesk, Inc."
 90
     1024
 91
        0
280
     0
281
     0
  0
CLASS
  1
ACAMGHOLECHARTSTDANSI
  2
AcAmgHoleChartStdANSI
  3
AmgDim|Product Description: AutoCAD Mechanical|Company: Autodesk, Inc.
 90
     1024
 91
        0
280
     0
281
     0
  0
CLASS
  1
ACMSTANDARDBSI
  2
AcmStandardBSI
  3
"Amdt_StdImp|Product Description: AutoCAD Mechanical|Company: Autodesk, Inc."
 90
     1024
 91
        0
280
     0
281
     0
  0
CLASS
  1
ACMSURFSTANDARDBSI2002
  2
AcmSurfTextStdBSI2002
  3
"Amdt_StdImp|Product Description: AutoCAD Mechanical|Company: Autodesk, Inc."
 90
     1024
 91
        0
280
     0
281
     0
  0
CLASS
  1
ACMFCFSTANDARDBSI
  2
AcmFCFStdBSI
  3
"Amdt_StdImp|Product Description: AutoCAD Mechanical|Company: Autodesk, Inc."
 90
     1024
 91
        0
280
     0
281
     0
  0
CLASS
  1
ACMWELDSTANDARDBSI
  2
AcmWeldingStdBSI
  3
"Amdt_StdImp|Product Description: AutoCAD Mechanical|Company: Autodesk, Inc."
 90
     1024
 91
        0
280
     0
281
     0
  0
CLASS
  1
ACMIDSTANDARDBSI
  2
AcmIdStdBSI
  3
"Amdt_StdImp|Product Description: AutoCAD Mechanical|Company: Autodesk, Inc."
 90
     1024
 91
        0
280
     0
281
     0
  0
CLASS
  1
ACMDATUMSTANDARDBSI
  2
AcmDatumStdBSI
  3
"Amdt_StdImp|Product Description: AutoCAD Mechanical|Company: Autodesk, Inc."
 90
     1024
 91
        0
280
     0
281
     0
  0
CLASS
  1
ACMBOMSTANDARDBSI
  2
AcmBOMStdBSI
  3
"Amdt_StdImp|Product Description: AutoCAD Mechanical|Company: Autodesk, Inc."
 90
     1024
 91
        0
280
     0
281
     0
  0
CLASS
  1
ACMDETAILSTANDARDBSI
  2
AmdtDetailSymStdBSI
  3
"Amdt_StdImp|Product Description: AutoCAD Mechanical|Company: Autodesk, Inc."
 90
     1024
 91
        0
280
     0
281
     0
  0
CLASS
  1
ACMSECTIONSTANDARDBSI2001
  2
AmdtSectionSymStdBSI2001
  3
"Amdt_StdImp|Product Description: AutoCAD Mechanical|Company: Autodesk, Inc."
 90
     1024
 91
        0
280
     0
281
     0
  0
CLASS
  1
ACMCENTERLINESTANDARDBSI
  2
AmdtCenterLineStdBSI
  3
"Amdt_StdImp|Product Description: AutoCAD Mechanical|Company: Autodesk, Inc."
 90
     1024
 91
        0
280
     0
281
     0
  0
CLASS
  1
ACMTHREADLINESTANDARDBSI
  2
AmdtThreadLineStdBSI
  3
"Amdt_StdImp|Product Description: AutoCAD Mechanical|Company: Autodesk, Inc."
 90
     1024
 91
        0
280
     0
281
     0
  0
CLASS
  1
ACMNOTESTANDARDBSI
  2
AmdtNoteStdBSI
  3
"Amdt_StdImp|Product Description: AutoCAD Mechanical|Company: Autodesk, Inc."
 90
     1024
 91
        0
280
     0
281
     0
  0
CLASS
  1
ACMTAPERSTANDARDBSI
  2
AcmTaperStdBSI
  3
"Amdt_StdImp|Product Description: AutoCAD Mechanical|Company: Autodesk, Inc."
 90
     1024
 91
        0
280
     0
281
     0
  0
CLASS
  1
ACMANOOTATIONVIEWSTANDARDBSI
  2
AmdtAnViewStdBSI
  3
"Amdt_StdImp|Product Description: AutoCAD Mechanical|Company: Autodesk, Inc."
 90
     1024
 91
        0
280
     0
281
     0
  0
CLASS
  1
ACAMGHOLECHARTSTDBSI
  2
AcAmgHoleChartStdBSI
  3
AmgDim|Product Description: AutoCAD Mechanical|Company: Autodesk, Inc.
 90
     1024
 91
        0
280
     0
281
     0
  0
CLASS
  1
AMDTEDGESTANDARDJIS
  2
AmdtEdgeStdJIS
  3
"Amdt_StdImp|Product Description: AutoCAD Mechanical|Company: Autodesk, Inc."
 90
     1024
 91
        0
280
     0
281
     0
  0
CLASS
  1
ACDB_BLKREFOBJECTCONTEXTDATA_CLASS
  2
AcDbBlkRefObjectContextData
  3
ObjectDBX Classes
 90
     1153
 91
        0
280
     0
281
     0
  0
CLASS
  1
ACMSURFSYM
  2
AcmSurfaceTexture
  3
"AcmSymBB|Product Description: AutoCAD Mechanical|Company: Autodesk, Inc."
 90
     4095
 91
        0
280
     0
281
     1
  0
CLASS
  1
ACDBDIMENSIONRES
  2
AcDbDimensionRes
  3
AcmSymBB|Product Description: AutoCAD Mechanical|Company: Autodesk, Inc.
 90
     1024
 91
        0
280
     0
281
     0
  0
CLASS
  1
ACDBCIRCARCRES
  2
AcDbCircArcRes
  3
AcGrefServices
 90
     1024
 91
        0
280
     0
281
     0
  0
CLASS
  1
AMDTACMWBLOCKBOMENTITY
  2
AmdtAcmWblockBomEntity
  3
"AcmSymBB|Product Description: AutoCAD Mechanical|Company: Autodesk, Inc."
 90
     4095
 91
        0
280
     0
281
     1
  0
CLASS
  1
ACDBOPPOLYLINERES
  2
AcDbOpPolylineRes
  3
AcGrefServices
 90
     1024
 91
        0
280
     0
281
     0
  0
CLASS
  1
ACMPICKOBJ
  2
AcmPickEnt
  3
"AcmSymBB|Product Description: AutoCAD Mechanical|Company: Autodesk, Inc."
 90
     1024
 91
        0
280
     0
281
     1
  0
CLASS
  1
ACMBALLOON
  2
AcmBalloon
  3
"AcmSymBB|Product Description: AutoCAD Mechanical|Company: Autodesk, Inc."
 90
     4095
 91
        0
280
     0
281
     1
  0
ENDSEC
  0
SECTION
  2
TABLES
  0
TABLE
  2
VPORT
  5
8
330
0
100
AcDbSymbolTable
 70
     1
  0
VPORT
  5
27A
330
8
100
AcDbSymbolTableRecord
100
AcDbViewportTableRecord
  2
*Active
 70
     0
 10
0.0
 20
0.0
 11
1.0
 21
1.0
 12
4430.072045138666
 22
3985.589927185241
 13
0.0
 23
0.0
 14
50.0
 24
50.0
 15
200.0
 25
200.0
 16
0.0
 26
0.0
 36
1.0
 17
0.0
 27
0.0
 37
0.0
 40
2098.224386882726
 41
1.571428571428571
 42
50.0
 43
0.0
 44
0.0
 50
0.0
 51
0.0
 71
    16
 72
 20000
 73
     1
 74
     3
 75
     0
 76
     0
 77
     0
 78
     0
281
     0
 65
     0
110
0.0
120
0.0
130
0.0
111
1.0
121
0.0
131
0.0
112
0.0
122
1.0
132
0.0
 79
     0
146
0.0
348
285
 60
     3
 61
     5
292
     1
282
     0
141
0.0
142
0.0
 63
   250
421
  3355443
  0
ENDTAB
  0
TABLE
  2
LTYPE
  5
5
330
0
100
AcDbSymbolTable
 70
    22
  0
LTYPE
  5
14
330
5
100
AcDbSymbolTableRecord
100
AcDbLinetypeTableRecord
  2
ByBlock
 70
     0
  3

 72
    65
 73
     0
 40
0.0
  0
LTYPE
  5
15
330
5
100
AcDbSymbolTableRecord
100
AcDbLinetypeTableRecord
  2
ByLayer
 70
     0
  3

 72
    65
 73
     0
 40
0.0
  0
LTYPE
  5
16
330
5
100
AcDbSymbolTableRecord
100
AcDbLinetypeTableRecord
  2
Continuous
 70
     0
  3
Solid line
 72
    65
 73
     0
 40
0.0
  0
LTYPE
  5
4D
330
5
100
AcDbSymbolTableRecord
100
AcDbLinetypeTableRecord
  2
AM_ISO02W050
 70
     0
  3
__ __ __ __ __ __ __ __ __ __ __ __ __ __ __
 72
    65
 73
     2
 40
7.5
 49
6.0
 74
     0
 49
-1.5
 74
     0
  0
LTYPE
  5
4E
330
5
100
AcDbSymbolTableRecord
100
AcDbLinetypeTableRecord
  2
AM_ISO08W050
 70
     0
  3
____ . ____ . ____ . ____ . ____ . ____ . ____
 72
    65
 73
     4
 40
18.0
 49
12.0
 74
     0
 49
-1.5
 74
     0
 49
3.0
 74
     0
 49
-1.5
 74
     0
  0
LTYPE
  5
4F
330
5
100
AcDbSymbolTableRecord
100
AcDbLinetypeTableRecord
  2
AM_ISO09W050
 70
     0
  3
_____ . . _____ . . _____ . . ____ .. ____
 72
    65
 73
     6
 40
22.5
 49
12.0
 74
     0
 49
-1.5
 74
     0
 49
3.0
 74
     0
 49
-1.5
 74
     0
 49
3.0
 74
     0
 49
-1.5
 74
     0
  0
LTYPE
  5
50
330
5
100
AcDbSymbolTableRecord
100
AcDbLinetypeTableRecord
  2
Amconstr
 70
     0
  3
_______________________
 72
    65
 73
     2
 40
9999.0
 49
9999.0
 74
     0
 49
0.0
 74
     0
  0
LTYPE
  5
51
330
5
100
AcDbSymbolTableRecord
100
AcDbLinetypeTableRecord
  2
AM_ISO08W050x2
 70
     0
  3
__ . __ . __ . __ . __ . __
 72
    65
 73
     4
 40
9.0
 49
6.0
 74
     0
 49
-0.75
 74
     0
 49
1.5
 74
     0
 49
-0.75
 74
     0
  0
LTYPE
  5
52
330
5
100
AcDbSymbolTableRecord
100
AcDbLinetypeTableRecord
  2
AM_ISO02W050x2
 70
     0
  3
 _ _ _ _ _ _ _ _ _ _ _ _
 72
    65
 73
     2
 40
3.75
 49
3.0
 74
     0
 49
-0.75
 74
     0
  0
LTYPE
  5
55
330
5
100
AcDbSymbolTableRecord
100
AcDbLinetypeTableRecord
  2
Amzigzag
 70
     0
  3
/\/-/\/-/\/-/\/-/\/-/\/
 72
    65
 73
     2
 40
11.0001
 49
0.0001
 74
     4
 75
   136
340
23D
 46
0.04
 50
0.0
 44
0.0
 45
0.0
 49
-11.0
 74
     0
  0
LTYPE
  5
65
330
5
100
AcDbSymbolTableRecord
100
AcDbLinetypeTableRecord
  2
CENTER
 70
     0
  3
__ . __
 72
    65
 73
     4
 40
7.0
 49
4.0
 74
     0
 49
-1.0
 74
     0
 49
1.0
 74
     0
 49
-1.0
 74
     0
  0
LTYPE
  5
E0
330
5
100
AcDbSymbolTableRecord
100
AcDbLinetypeTableRecord
  2
HIDDEN
 70
     0
  3
Hidden __ __ __ __ __ __ __ __ __ __ __ __ __ _
 72
    65
 73
     2
 40
9.524999999999996
 49
6.349999999999998
 74
     0
 49
-3.174999999999998
 74
     0
  0
LTYPE
  5
E1
330
5
100
AcDbSymbolTableRecord
100
AcDbLinetypeTableRecord
  2
PHANTOM2
 70
     0
  3
Phantom (.5x) ___ _ _ ___ _ _ ___ _ _ ___ _ _
 72
    65
 73
     6
 40
31.75
 49
15.875
 74
     0
 49
-3.174999999999998
 74
     0
 49
3.174999999999998
 74
     0
 49
-3.174999999999998
 74
     0
 49
3.174999999999998
 74
     0
 49
-3.174999999999998
 74
     0
  0
LTYPE
  5
5A2
330
5
100
AcDbSymbolTableRecord
100
AcDbLinetypeTableRecord
  2
ACJISWELD
 70
     0
  3
_ _ _ _ _
 72
    65
 73
     2
 40
2.0
 49
2.0
 74
     0
 49
-1.0
 74
     0
  0
LTYPE
  5
761F
330
5
100
AcDbSymbolTableRecord
100
AcDbLinetypeTableRecord
  2
ACISOWELD
 70
     0
  3
_ _ _ _ _
 72
    65
 73
     2
 40
2.0
 49
2.0
 74
     0
 49
-1.0
 74
     0
  0
LTYPE
  5
7620
330
5
100
AcDbSymbolTableRecord
100
AcDbLinetypeTableRecord
  2
ACISOTGB
 70
     0
  3
__ . . __ . .
 72
    65
 73
     6
 40
9.0
 49
4.0
 74
     0
 49
-1.0
 74
     0
 49
1.0
 74
     0
 49
-1.0
 74
     0
 49
1.0
 74
     0
 49
-1.0
 74
     0
  0
LTYPE
  5
7621
330
5
100
AcDbSymbolTableRecord
100
AcDbLinetypeTableRecord
  2
ACISOTGL
 70
     0
  3
_ _ _ _ _
 72
    65
 73
     2
 40
3.0
 49
2.0
 74
     0
 49
-1.0
 74
     0
  0
ENDTAB
  0
TABLE
  2
LAYER
  5
2
102
{ACAD_XDICTIONARY
360
BF
102
}
330
0
100
AcDbSymbolTable
 70
     9
  0
LAYER
  5
10
102
{ACAD_XDICTIONARY
360
29F7
102
}
330
2
100
AcDbSymbolTableRecord
100
AcDbLayerTableRecord
  2
0
 70
     0
 62
     7
  6
Continuous
370
    -3
390
F
347
27E
  0
LAYER
  5
81
102
{ACAD_XDICTIONARY
360
29F9
102
}
330
2
100
AcDbSymbolTableRecord
100
AcDbLayerTableRecord
  2
AM_0 外形線1
 70
     0
 62
     7
  6
Continuous
370
    25
390
F
347
27E
  0
LAYER
  5
427
330
2
100
AcDbSymbolTableRecord
100
AcDbLayerTableRecord
  2
Defpoints
 70
     0
 62
     7
  6
Continuous
290
     0
370
    -3
390
F
347
27E
  0
LAYER
  5
2D6B
330
2
100
AcDbSymbolTableRecord
100
AcDbLayerTableRecord
  2
AM_5 寸法線
 70
     0
 62
     3
  6
Continuous
370
    13
390
F
347
27E
1001
AcAecLayerStandard
1000

1000

  0
LAYER
  5
2D6C
330
2
100
AcDbSymbolTableRecord
100
AcDbLayerTableRecord
  2
AM_4 細線
 70
     0
 62
     4
  6
Continuous
370
    13
390
F
347
27E
1001
AcAecLayerStandard
1000

1000

  0
LAYER
  5
2D6D
330
2
100
AcDbSymbolTableRecord
100
AcDbLayerTableRecord
  2
AM_7 中心線
 70
     0
 62
     1
  6
AM_ISO08W050
370
    13
390
F
347
27E
1001
AcAecLayerStandard
1000

1000

  0
LAYER
  5
2D6E
330
2
100
AcDbSymbolTableRecord
100
AcDbLayerTableRecord
  2
AM_3 隠れ線
 70
     0
 62
     8
  6
ACJISWELD
370
    13
390
F
347
27E
1001
AcAecLayerStandard
1000

1000

  0
LAYER
  5
2D71
330
2
100
AcDbSymbolTableRecord
100
AcDbLayerTableRecord
  2
AM_6 文字
 70
     0
 62
     2
  6
Continuous
370
    13
390
F
347
27E
1001
AcAecLayerStandard
1000

1000

  0
ENDTAB
  0
TABLE
  2
STYLE
  5
3
330
0
100
AcDbSymbolTable
 70
    11
  0
STYLE
  5
11
330
3
100
AcDbSymbolTableRecord
100
AcDbTextStyleTableRecord
  2
STANDARD
 70
     0
 40
0.0
 41
1.0
 50
0.0
 71
     0
 42
25.0
  3
ISOCP.SHX
  4
EXTFONT.SHX
  0
STYLE
  5
23D
330
3
100
AcDbSymbolTableRecord
100
AcDbTextStyleTableRecord
  2

 70
     1
 40
0.0
 41
1.0
 50
0.0
 71
     0
 42
2.5
  3
genltshp.shx
  4

  0
STYLE
  5
5D5
330
3
100
AcDbSymbolTableRecord
100
AcDbTextStyleTableRecord
  2
SEISA
 70
     0
 40
0.0
 41
0.9
 50
0.0
 71
     0
 42
25.0
  3
romans.shx
  4
extfont2.shx
  0
STYLE
  5
760F
330
3
100
AcDbSymbolTableRecord
100
AcDbTextStyleTableRecord
  2
ACISOTS
 70
     0
 40
1.0
 41
1.0
 50
0.0
 71
     0
 42
25.0
  3
isocp.shx
  4
extfont.shx
  0
STYLE
  5
761E
330
3
100
AcDbSymbolTableRecord
100
AcDbTextStyleTableRecord
  2
ACISOGDT
 70
     0
 40
0.0
 41
1.0
 50
0.0
 71
     0
 42
25.0
  3
amgdt.shx
  4

  0
ENDTAB
  0
TABLE
  2
VIEW
  5
6
330
0
100
AcDbSymbolTable
 70
     6
  0
VIEW
  5
91B
330
6
100
AcDbSymbolTableRecord
100
AcDbViewTableRecord
  2
AM_VIEW1
 70
     0
 40
2970.0
 10
2871.243846193209
 20
4455.000007387641
 41
5742.487684729063
 11
0.0
 21
0.0
 31
1.0
 12
0.0
 22
0.0
 32
0.0
 42
50.0
 43
0.0
 44
0.0
 50
0.0
 71
    16
281
     0
 72
     0
 73
     0
  0
VIEW
  5
91C
330
6
100
AcDbSymbolTableRecord
100
AcDbViewTableRecord
  2
AM_VIEW2
 70
     0
 40
2970.0
 10
5528.756161464145
 20
4455.000007387641
 41
5742.487684729063
 11
0.0
 21
0.0
 31
1.0
 12
0.0
 22
0.0
 32
0.0
 42
50.0
 43
0.0
 44
0.0
 50
0.0
 71
    16
281
     0
 72
     0
 73
     0
  0
VIEW
  5
91D
330
6
100
AcDbSymbolTableRecord
100
AcDbViewTableRecord
  2
AM_VIEW3
 70
     0
 40
2970.0
 10
2871.243846193209
 20
1485.000007387641
 41
5742.487684729063
 11
0.0
 21
0.0
 31
1.0
 12
0.0
 22
0.0
 32
0.0
 42
50.0
 43
0.0
 44
0.0
 50
0.0
 71
    16
281
     0
 72
     0
 73
     0
  0
VIEW
  5
91E
330
6
100
AcDbSymbolTableRecord
100
AcDbViewTableRecord
  2
AM_VIEW4
 70
     0
 40
2970.0
 10
5528.756161464145
 20
1485.000007387641
 41
5742.487684729063
 11
0.0
 21
0.0
 31
1.0
 12
0.0
 22
0.0
 32
0.0
 42
50.0
 43
0.0
 44
0.0
 50
0.0
 71
    16
281
     0
 72
     0
 73
     0
  0
VIEW
  5
91F
330
6
100
AcDbSymbolTableRecord
100
AcDbViewTableRecord
  2
AM_VIEW5
 70
     0
 40
2970.0
 10
4200.000003828677
 20
2970.000007387643
 41
5742.487684729063
 11
0.0
 21
0.0
 31
1.0
 12
0.0
 22
0.0
 32
0.0
 42
50.0
 43
0.0
 44
0.0
 50
0.0
 71
    16
281
     0
 72
     0
 73
     0
  0
VIEW
  5
920
330
6
100
AcDbSymbolTableRecord
100
AcDbViewTableRecord
  2
AM_VIEW6
 70
     0
 40
5939.940599999999
 10
4200.000003828677
 20
2970.000007387641
 41
11484.86051970443
 11
0.0
 21
0.0
 31
1.0
 12
0.0
 22
0.0
 32
0.0
 42
50.0
 43
0.0
 44
0.0
 50
0.0
 71
    16
281
     0
 72
     0
 73
     0
  0
ENDTAB
  0
TABLE
  2
UCS
  5
7
330
0
100
AcDbSymbolTable
 70
     0
  0
ENDTAB
  0
TABLE
  2
APPID
  5
9
330
0
100
AcDbSymbolTable
 70
   396
  0
APPID
  5
12
330
9
100
AcDbSymbolTableRecord
100
AcDbRegAppTableRecord
  2
ACAD
 70
     0
  0
APPID
  5
30
330
9
100
AcDbSymbolTableRecord
100
AcDbRegAppTableRecord
  2
MCAD_NO_VIS
 70
     0
  0
APPID
  5
31
330
9
100
AcDbSymbolTableRecord
100
AcDbRegAppTableRecord
  2
ACAD_TEMP_GRAPHIC
 70
     0
  0
APPID
  5
44
330
9
100
AcDbSymbolTableRecord
100
AcDbRegAppTableRecord
  2
ACATTRIBSERVICES
 70
     0
  0
APPID
  5
F6
330
9
100
AcDbSymbolTableRecord
100
AcDbRegAppTableRecord
  2
AD_DRAW
 70
     0
  0
APPID
  5
114
330
9
100
AcDbSymbolTableRecord
100
AcDbRegAppTableRecord
  2
DESIGNERASSEMBLIES
 70
     0
  0
APPID
  5
118
330
9
100
AcDbSymbolTableRecord
100
AcDbRegAppTableRecord
  2
ACADM_DIM_EDIT
 70
     0
  0
APPID
  5
119
330
9
100
AcDbSymbolTableRecord
100
AcDbRegAppTableRecord
  2
AMDT_DM_ADJ
 70
     0
  0
APPID
  5
1AF
330
9
100
AcDbSymbolTableRecord
100
AcDbRegAppTableRecord
  2
ACAD_DSTYLE_DIMARC_LENGTH_SYMBOL
 70
     0
  0
APPID
  5
1B0
330
9
100
AcDbSymbolTableRecord
100
AcDbRegAppTableRecord
  2
ACAD_DSTYLE_DIMJOGGED_JOGANGLE_SYMBOL
 70
     0
  0
APPID
  5
2D7
330
9
100
AcDbSymbolTableRecord
100
AcDbRegAppTableRecord
  2
ACAD_MLEADERVER
 70
     0
  0
APPID
  5
355
330
9
100
AcDbSymbolTableRecord
100
AcDbRegAppTableRecord
  2
AcadAnnoPO
 70
     0
  0
APPID
  5
428
330
9
100
AcDbSymbolTableRecord
100
AcDbRegAppTableRecord
  2
ACAD_DSTYLE_DIMTEXT_FILL
 70
     0
  0
APPID
  5
429
330
9
100
AcDbSymbolTableRecord
100
AcDbRegAppTableRecord
  2
GENIUS_GENSCREG_15
 70
     0
  0
APPID
  5
42A
330
9
100
AcDbSymbolTableRecord
100
AcDbRegAppTableRecord
  2
GENIUS_GENOBJ-N-SDF_13
 70
     0
  0
APPID
  5
42B
330
9
100
AcDbSymbolTableRecord
100
AcDbRegAppTableRecord
  2
GENIUS_GENODEF_13
 70
     0
  0
APPID
  5
42C
330
9
100
AcDbSymbolTableRecord
100
AcDbRegAppTableRecord
  2
ACAD_EXEMPT_FROM_CAD_STANDARDS
 70
     0
  0
APPID
  5
42D
330
9
100
AcDbSymbolTableRecord
100
AcDbRegAppTableRecord
  2
AcAecLayerStandard
 70
     0
  0
APPID
  5
42E
330
9
100
AcDbSymbolTableRecord
100
AcDbRegAppTableRecord
  2
GENIUS_GENOBJ-N-CEN_13
 70
     0
  0
APPID
  5
42F
330
9
100
AcDbSymbolTableRecord
100
AcDbRegAppTableRecord
  2
GENIUS_GENCEN_19
 70
     0
  0
APPID
  5
430
330
9
100
AcDbSymbolTableRecord
100
AcDbRegAppTableRecord
  2
ACAD_DSTYLE_DIMINSPECT
 70
     0
  0
APPID
  5
431
330
9
100
AcDbSymbolTableRecord
100
AcDbRegAppTableRecord
  2
GENIUS_AMGTXT_16
 70
     0
  0
APPID
  5
432
330
9
100
AcDbSymbolTableRecord
100
AcDbRegAppTableRecord
  2
GENIUS_GENFIL_13
 70
     0
  0
APPID
  5
433
330
9
100
AcDbSymbolTableRecord
100
AcDbRegAppTableRecord
  2
GENIUS_GENOLIS_13
 70
     0
  0
APPID
  5
434
330
9
100
AcDbSymbolTableRecord
100
AcDbRegAppTableRecord
  2
GENIUS_GENOBJ-N-CHA_13
 70
     0
  0
APPID
  5
435
330
9
100
AcDbSymbolTableRecord
100
AcDbRegAppTableRecord
  2
GENIUS_GENOENT_13
 70
     0
  0
APPID
  5
436
330
9
100
AcDbSymbolTableRecord
100
AcDbRegAppTableRecord
  2
GENIUS_GENOREF_13
 70
     0
  0
APPID
  5
437
330
9
100
AcDbSymbolTableRecord
100
AcDbRegAppTableRecord
  2
GENIUS_GENOBJ-N-FIL_13
 70
     0
  0
APPID
  5
438
330
9
100
AcDbSymbolTableRecord
100
AcDbRegAppTableRecord
  2
GEVID1208829536
 70
     0
  0
APPID
  5
439
330
9
100
AcDbSymbolTableRecord
100
AcDbRegAppTableRecord
  2
GEVDC
 70
     0
  0
APPID
  5
43A
330
9
100
AcDbSymbolTableRecord
100
AcDbRegAppTableRecord
  2
GEVRADREF
 70
     0
  0
APPID
  5
43B
330
9
100
AcDbSymbolTableRecord
100
AcDbRegAppTableRecord
  2
GENIUS_GENBH_13
 70
     0
  0
APPID
  5
43C
330
9
100
AcDbSymbolTableRecord
100
AcDbRegAppTableRecord
  2
GENIUS_GENOBJ-NBEHI-BHF_13
 70
     0
  0
APPID
  5
43D
330
9
100
AcDbSymbolTableRecord
100
AcDbRegAppTableRecord
  2
GENIUS_GENOBJ-NBEHI-BHB_13
 70
     0
  0
APPID
  5
43E
330
9
100
AcDbSymbolTableRecord
100
AcDbRegAppTableRecord
  2
GEVID1208829537
 70
     0
  0
APPID
  5
43F
330
9
100
AcDbSymbolTableRecord
100
AcDbRegAppTableRecord
  2
ACAD_DSTYLE_DIMJAG
 70
     0
  0
APPID
  5
440
330
9
100
AcDbSymbolTableRecord
100
AcDbRegAppTableRecord
  2
ACAD_DSTYLE_DIMTALN
 70
     0
  0
APPID
  5
441
330
9
100
AcDbSymbolTableRecord
100
AcDbRegAppTableRecord
  2
AMG_2DHIDE
 70
     0
  0
APPID
  5
442
330
9
100
AcDbSymbolTableRecord
100
AcDbRegAppTableRecord
  2
AMG_2DSTRUCT_BTR
 70
     0
  0
APPID
  5
443
330
9
100
AcDbSymbolTableRecord
100
AcDbRegAppTableRecord
  2
GEVID1208845772
 70
     0
  0
APPID
  5
444
330
9
100
AcDbSymbolTableRecord
100
AcDbRegAppTableRecord
  2
GEVID1208845773
 70
     0
  0
APPID
  5
445
330
9
100
AcDbSymbolTableRecord
100
AcDbRegAppTableRecord
  2
ACADM_2DVIEW_IGN_NOTIFY
 70
     0
  0
APPID
  5
446
330
9
100
AcDbSymbolTableRecord
100
AcDbRegAppTableRecord
  2
GEVID1208845774
 70
     0
  0
APPID
  5
447
330
9
100
AcDbSymbolTableRecord
100
AcDbRegAppTableRecord
  2
GEVID1208845775
 70
     0
  0
APPID
  5
448
330
9
100
AcDbSymbolTableRecord
100
AcDbRegAppTableRecord
  2
GEVID1208845776
 70
     0
  0
APPID
  5
449
330
9
100
AcDbSymbolTableRecord
100
AcDbRegAppTableRecord
  2
GEVID1208845777
 70
     0
  0
APPID
  5
44A
330
9
100
AcDbSymbolTableRecord
100
AcDbRegAppTableRecord
  2
GEVCON
 70
     0
  0
APPID
  5
44B
330
9
100
AcDbSymbolTableRecord
100
AcDbRegAppTableRecord
  2
GENIUS_GENOBJ-F-SCPASSM_13
 70
     0
  0
APPID
  5
44C
330
9
100
AcDbSymbolTableRecord
100
AcDbRegAppTableRecord
  2
GEVID1208845778
 70
     0
  0
APPID
  5
44D
330
9
100
AcDbSymbolTableRecord
100
AcDbRegAppTableRecord
  2
GEVID1208845779
 70
     0
  0
APPID
  5
44E
330
9
100
AcDbSymbolTableRecord
100
AcDbRegAppTableRecord
  2
GEVID1208845780
 70
     0
  0
APPID
  5
44F
330
9
100
AcDbSymbolTableRecord
100
AcDbRegAppTableRecord
  2
GEVID1208845781
 70
     0
  0
APPID
  5
450
330
9
100
AcDbSymbolTableRecord
100
AcDbRegAppTableRecord
  2
GEVID1208845782
 70
     0
  0
APPID
  5
451
330
9
100
AcDbSymbolTableRecord
100
AcDbRegAppTableRecord
  2
GEVID1208845783
 70
     0
  0
APPID
  5
452
330
9
100
AcDbSymbolTableRecord
100
AcDbRegAppTableRecord
  2
GEVID1208845784
 70
     0
  0
APPID
  5
453
330
9
100
AcDbSymbolTableRecord
100
AcDbRegAppTableRecord
  2
GEVID1208845785
 70
     0
  0
APPID
  5
454
330
9
100
AcDbSymbolTableRecord
100
AcDbRegAppTableRecord
  2
GEVID1208845787
 70
     0
  0
APPID
  5
455
330
9
100
AcDbSymbolTableRecord
100
AcDbRegAppTableRecord
  2
GEVID1208845788
 70
     0
  0
APPID
  5
456
330
9
100
AcDbSymbolTableRecord
100
AcDbRegAppTableRecord
  2
GEVID1208845789
 70
     0
  0
APPID
  5
457
330
9
100
AcDbSymbolTableRecord
100
AcDbRegAppTableRecord
  2
GEVID1208845790
 70
     0
  0
APPID
  5
458
330
9
100
AcDbSymbolTableRecord
100
AcDbRegAppTableRecord
  2
GEVID1208845791
 70
     0
  0
APPID
  5
459
330
9
100
AcDbSymbolTableRecord
100
AcDbRegAppTableRecord
  2
GEVID1208845792
 70
     0
  0
APPID
  5
45A
330
9
100
AcDbSymbolTableRecord
100
AcDbRegAppTableRecord
  2
GEVID1208845793
 70
     0
  0
APPID
  5
45B
330
9
100
AcDbSymbolTableRecord
100
AcDbRegAppTableRecord
  2
GEVID1208845794
 70
     0
  0
APPID
  5
45C
330
9
100
AcDbSymbolTableRecord
100
AcDbRegAppTableRecord
  2
GEVID1208845795
 70
     0
  0
APPID
  5
45D
330
9
100
AcDbSymbolTableRecord
100
AcDbRegAppTableRecord
  2
GEVID1208845796
 70
     0
  0
APPID
  5
45E
330
9
100
AcDbSymbolTableRecord
100
AcDbRegAppTableRecord
  2
GEVID1208845797
 70
     0
  0
APPID
  5
45F
330
9
100
AcDbSymbolTableRecord
100
AcDbRegAppTableRecord
  2
GEVID1208845798
 70
     0
  0
APPID
  5
460
330
9
100
AcDbSymbolTableRecord
100
AcDbRegAppTableRecord
  2
GEVID1208845799
 70
     0
  0
APPID
  5
461
330
9
100
AcDbSymbolTableRecord
100
AcDbRegAppTableRecord
  2
GEVID1208845800
 70
     0
  0
APPID
  5
462
330
9
100
AcDbSymbolTableRecord
100
AcDbRegAppTableRecord
  2
GEVID1208845801
 70
     0
  0
APPID
  5
463
330
9
100
AcDbSymbolTableRecord
100
AcDbRegAppTableRecord
  2
GEVID1208845802
 70
     0
  0
APPID
  5
464
330
9
100
AcDbSymbolTableRecord
100
AcDbRegAppTableRecord
  2
GENIUS_GENOBJ-N-DIM_13
 70
     0
  0
APPID
  5
465
330
9
100
AcDbSymbolTableRecord
100
AcDbRegAppTableRecord
  2
GENIUS_GENDIM_13
 70
     0
  0
APPID
  5
466
330
9
100
AcDbSymbolTableRecord
100
AcDbRegAppTableRecord
  2
GENIUS_GENDIMSH_14
 70
     0
  0
APPID
  5
467
330
9
100
AcDbSymbolTableRecord
100
AcDbRegAppTableRecord
  2
GEVID1208845803
 70
     0
  0
APPID
  5
468
330
9
100
AcDbSymbolTableRecord
100
AcDbRegAppTableRecord
  2
GEVID1208845804
 70
     0
  0
APPID
  5
469
330
9
100
AcDbSymbolTableRecord
100
AcDbRegAppTableRecord
  2
GEVID1208845805
 70
     0
  0
APPID
  5
46A
330
9
100
AcDbSymbolTableRecord
100
AcDbRegAppTableRecord
  2
GEVID1208845806
 70
     0
  0
APPID
  5
46B
330
9
100
AcDbSymbolTableRecord
100
AcDbRegAppTableRecord
  2
GEVID1208845807
 70
     0
  0
APPID
  5
46C
330
9
100
AcDbSymbolTableRecord
100
AcDbRegAppTableRecord
  2
GEVID1208845808
 70
     0
  0
APPID
  5
46D
330
9
100
AcDbSymbolTableRecord
100
AcDbRegAppTableRecord
  2
GEVID1208845809
 70
     0
  0
APPID
  5
46E
330
9
100
AcDbSymbolTableRecord
100
AcDbRegAppTableRecord
  2
GEVID1208845810
 70
     0
  0
APPID
  5
46F
330
9
100
AcDbSymbolTableRecord
100
AcDbRegAppTableRecord
  2
GEVID1208845811
 70
     0
  0
APPID
  5
470
330
9
100
AcDbSymbolTableRecord
100
AcDbRegAppTableRecord
  2
GEVID1208845813
 70
     0
  0
APPID
  5
471
330
9
100
AcDbSymbolTableRecord
100
AcDbRegAppTableRecord
  2
GEVID1208845814
 70
     0
  0
APPID
  5
472
330
9
100
AcDbSymbolTableRecord
100
AcDbRegAppTableRecord
  2
GEVID1208845815
 70
     0
  0
APPID
  5
473
330
9
100
AcDbSymbolTableRecord
100
AcDbRegAppTableRecord
  2
GEVID1208845816
 70
     0
  0
APPID
  5
474
330
9
100
AcDbSymbolTableRecord
100
AcDbRegAppTableRecord
  2
GEVID1208845817
 70
     0
  0
APPID
  5
475
330
9
100
AcDbSymbolTableRecord
100
AcDbRegAppTableRecord
  2
GEVID1208845818
 70
     0
  0
APPID
  5
476
330
9
100
AcDbSymbolTableRecord
100
AcDbRegAppTableRecord
  2
GEVID1208845819
 70
     0
  0
APPID
  5
477
330
9
100
AcDbSymbolTableRecord
100
AcDbRegAppTableRecord
  2
GEVID1208845820
 70
     0
  0
APPID
  5
478
330
9
100
AcDbSymbolTableRecord
100
AcDbRegAppTableRecord
  2
GENIUS_GENOBJ-F-SHCL_13
 70
     0
  0
APPID
  5
479
330
9
100
AcDbSymbolTableRecord
100
AcDbRegAppTableRecord
  2
GENIUS_GEFMSH_13
 70
     0
  0
APPID
  5
47A
330
9
100
AcDbSymbolTableRecord
100
AcDbRegAppTableRecord
  2
GENIUS_GENOBJ-F-SHCA_13
 70
     0
  0
APPID
  5
47B
330
9
100
AcDbSymbolTableRecord
100
AcDbRegAppTableRecord
  2
GENIUS_GEFSH_13
 70
     0
  0
APPID
  5
47C
330
9
100
AcDbSymbolTableRecord
100
AcDbRegAppTableRecord
  2
GENIUS_GEFSHP_13
 70
     0
  0
APPID
  5
47D
330
9
100
AcDbSymbolTableRecord
100
AcDbRegAppTableRecord
  2
GENIUS_GEFSHP0_13
 70
     0
  0
APPID
  5
47E
330
9
100
AcDbSymbolTableRecord
100
AcDbRegAppTableRecord
  2
GENIUS_GEFSH0_13
 70
     0
  0
APPID
  5
47F
330
9
100
AcDbSymbolTableRecord
100
AcDbRegAppTableRecord
  2
GENIUS_GEFSHP1_13
 70
     0
  0
APPID
  5
480
330
9
100
AcDbSymbolTableRecord
100
AcDbRegAppTableRecord
  2
GENIUS_GEFSH1_13
 70
     0
  0
APPID
  5
481
330
9
100
AcDbSymbolTableRecord
100
AcDbRegAppTableRecord
  2
GEVID1208866337
 70
     0
  0
APPID
  5
482
330
9
100
AcDbSymbolTableRecord
100
AcDbRegAppTableRecord
  2
GEVID1208866338
 70
     0
  0
APPID
  5
483
330
9
100
AcDbSymbolTableRecord
100
AcDbRegAppTableRecord
  2
GEVID1208866339
 70
     0
  0
APPID
  5
484
330
9
100
AcDbSymbolTableRecord
100
AcDbRegAppTableRecord
  2
GEVID1208866340
 70
     0
  0
APPID
  5
485
330
9
100
AcDbSymbolTableRecord
100
AcDbRegAppTableRecord
  2
GEVID1208866341
 70
     0
  0
APPID
  5
486
330
9
100
AcDbSymbolTableRecord
100
AcDbRegAppTableRecord
  2
ACAD_PSEXT
 70
     0
  0
APPID
  5
487
330
9
100
AcDbSymbolTableRecord
100
AcDbRegAppTableRecord
  2
GEVID1208866342
 70
     0
  0
APPID
  5
488
330
9
100
AcDbSymbolTableRecord
100
AcDbRegAppTableRecord
  2
GEVID1208913836
 70
     0
  0
APPID
  5
489
330
9
100
AcDbSymbolTableRecord
100
AcDbRegAppTableRecord
  2
GEVID1208913837
 70
     0
  0
APPID
  5
48A
330
9
100
AcDbSymbolTableRecord
100
AcDbRegAppTableRecord
  2
GEVID1208913838
 70
     0
  0
APPID
  5
48B
330
9
100
AcDbSymbolTableRecord
100
AcDbRegAppTableRecord
  2
GEVID1208913839
 70
     0
  0
APPID
  5
48C
330
9
100
AcDbSymbolTableRecord
100
AcDbRegAppTableRecord
  2
GENIUS_GENDTOL_13
 70
     0
  0
APPID
  5
48D
330
9
100
AcDbSymbolTableRecord
100
AcDbRegAppTableRecord
  2
GEVID1208928889
 70
     0
  0
APPID
  5
48E
330
9
100
AcDbSymbolTableRecord
100
AcDbRegAppTableRecord
  2
GEVID1208928890
 70
     0
  0
APPID
  5
48F
330
9
100
AcDbSymbolTableRecord
100
AcDbRegAppTableRecord
  2
GEVID1208928891
 70
     0
  0
APPID
  5
490
330
9
100
AcDbSymbolTableRecord
100
AcDbRegAppTableRecord
  2
GEVID1208928892
 70
     0
  0
APPID
  5
491
330
9
100
AcDbSymbolTableRecord
100
AcDbRegAppTableRecord
  2
GEVID1208933827
 70
     0
  0
APPID
  5
492
330
9
100
AcDbSymbolTableRecord
100
AcDbRegAppTableRecord
  2
GEVID1208933829
 70
     0
  0
APPID
  5
493
330
9
100
AcDbSymbolTableRecord
100
AcDbRegAppTableRecord
  2
GEVID1208933830
 70
     0
  0
APPID
  5
494
330
9
100
AcDbSymbolTableRecord
100
AcDbRegAppTableRecord
  2
GEVID1208933831
 70
     0
  0
APPID
  5
495
330
9
100
AcDbSymbolTableRecord
100
AcDbRegAppTableRecord
  2
GEVID1208933832
 70
     0
  0
APPID
  5
496
330
9
100
AcDbSymbolTableRecord
100
AcDbRegAppTableRecord
  2
GEVID1208933833
 70
     0
  0
APPID
  5
497
330
9
100
AcDbSymbolTableRecord
100
AcDbRegAppTableRecord
  2
GEVID1208933834
 70
     0
  0
APPID
  5
498
330
9
100
AcDbSymbolTableRecord
100
AcDbRegAppTableRecord
  2
GEVID1208933835
 70
     0
  0
APPID
  5
499
330
9
100
AcDbSymbolTableRecord
100
AcDbRegAppTableRecord
  2
GEVID1208933836
 70
     0
  0
APPID
  5
49A
330
9
100
AcDbSymbolTableRecord
100
AcDbRegAppTableRecord
  2
GEVID1208933837
 70
     0
  0
APPID
  5
49B
330
9
100
AcDbSymbolTableRecord
100
AcDbRegAppTableRecord
  2
GEVID1208933838
 70
     0
  0
APPID
  5
49C
330
9
100
AcDbSymbolTableRecord
100
AcDbRegAppTableRecord
  2
GEVID1208933840
 70
     0
  0
APPID
  5
49D
330
9
100
AcDbSymbolTableRecord
100
AcDbRegAppTableRecord
  2
GEVID1208933842
 70
     0
  0
APPID
  5
49E
330
9
100
AcDbSymbolTableRecord
100
AcDbRegAppTableRecord
  2
GEVID1208933843
 70
     0
  0
APPID
  5
49F
330
9
100
AcDbSymbolTableRecord
100
AcDbRegAppTableRecord
  2
GEVID1208933844
 70
     0
  0
APPID
  5
4A0
330
9
100
AcDbSymbolTableRecord
100
AcDbRegAppTableRecord
  2
GEVID1208933845
 70
     0
  0
APPID
  5
4A1
330
9
100
AcDbSymbolTableRecord
100
AcDbRegAppTableRecord
  2
GEVID1208933846
 70
     0
  0
APPID
  5
4A2
330
9
100
AcDbSymbolTableRecord
100
AcDbRegAppTableRecord
  2
GEVID1208933847
 70
     0
  0
APPID
  5
4A3
330
9
100
AcDbSymbolTableRecord
100
AcDbRegAppTableRecord
  2
GEVID1208933848
 70
     0
  0
APPID
  5
4A4
330
9
100
AcDbSymbolTableRecord
100
AcDbRegAppTableRecord
  2
GEVID1208933849
 70
     0
  0
APPID
  5
4A5
330
9
100
AcDbSymbolTableRecord
100
AcDbRegAppTableRecord
  2
GEVID1208933850
 70
     0
  0
APPID
  5
4A6
330
9
100
AcDbSymbolTableRecord
100
AcDbRegAppTableRecord
  2
GEVID1208933851
 70
     0
  0
APPID
  5
4A7
330
9
100
AcDbSymbolTableRecord
100
AcDbRegAppTableRecord
  2
GEVID1208933852
 70
     0
  0
APPID
  5
4A8
330
9
100
AcDbSymbolTableRecord
100
AcDbRegAppTableRecord
  2
GEVID1208933853
 70
     0
  0
APPID
  5
4A9
330
9
100
AcDbSymbolTableRecord
100
AcDbRegAppTableRecord
  2
GEVID1208933854
 70
     0
  0
APPID
  5
4AA
330
9
100
AcDbSymbolTableRecord
100
AcDbRegAppTableRecord
  2
GEVID1208933855
 70
     0
  0
APPID
  5
4AB
330
9
100
AcDbSymbolTableRecord
100
AcDbRegAppTableRecord
  2
GEVID1208933856
 70
     0
  0
APPID
  5
4AC
330
9
100
AcDbSymbolTableRecord
100
AcDbRegAppTableRecord
  2
GEVID1208933857
 70
     0
  0
APPID
  5
4AD
330
9
100
AcDbSymbolTableRecord
100
AcDbRegAppTableRecord
  2
GEVID1208933858
 70
     0
  0
APPID
  5
4AE
330
9
100
AcDbSymbolTableRecord
100
AcDbRegAppTableRecord
  2
GEVID1208933859
 70
     0
  0
APPID
  5
4AF
330
9
100
AcDbSymbolTableRecord
100
AcDbRegAppTableRecord
  2
GEVID1208933860
 70
     0
  0
APPID
  5
4B0
330
9
100
AcDbSymbolTableRecord
100
AcDbRegAppTableRecord
  2
GEVID1208933861
 70
     0
  0
APPID
  5
4B1
330
9
100
AcDbSymbolTableRecord
100
AcDbRegAppTableRecord
  2
GEVID1208933862
 70
     0
  0
APPID
  5
4B2
330
9
100
AcDbSymbolTableRecord
100
AcDbRegAppTableRecord
  2
GEVID1208933863
 70
     0
  0
APPID
  5
4B3
330
9
100
AcDbSymbolTableRecord
100
AcDbRegAppTableRecord
  2
GEVID1208933864
 70
     0
  0
APPID
  5
4B4
330
9
100
AcDbSymbolTableRecord
100
AcDbRegAppTableRecord
  2
GEVID1208933865
 70
     0
  0
APPID
  5
4B5
330
9
100
AcDbSymbolTableRecord
100
AcDbRegAppTableRecord
  2
GEVID1208933866
 70
     0
  0
APPID
  5
4B6
330
9
100
AcDbSymbolTableRecord
100
AcDbRegAppTableRecord
  2
GEVID1208933867
 70
     0
  0
APPID
  5
4B7
330
9
100
AcDbSymbolTableRecord
100
AcDbRegAppTableRecord
  2
GEVID1208933868
 70
     0
  0
APPID
  5
4B8
330
9
100
AcDbSymbolTableRecord
100
AcDbRegAppTableRecord
  2
GEVID1208933869
 70
     0
  0
APPID
  5
4B9
330
9
100
AcDbSymbolTableRecord
100
AcDbRegAppTableRecord
  2
GEVID1208933870
 70
     0
  0
APPID
  5
4BA
330
9
100
AcDbSymbolTableRecord
100
AcDbRegAppTableRecord
  2
GEVID1208933871
 70
     0
  0
APPID
  5
4BB
330
9
100
AcDbSymbolTableRecord
100
AcDbRegAppTableRecord
  2
GEVID1208933872
 70
     0
  0
APPID
  5
4BC
330
9
100
AcDbSymbolTableRecord
100
AcDbRegAppTableRecord
  2
GEVID1208933873
 70
     0
  0
APPID
  5
4BD
330
9
100
AcDbSymbolTableRecord
100
AcDbRegAppTableRecord
  2
GEVID1208933874
 70
     0
  0
APPID
  5
4BE
330
9
100
AcDbSymbolTableRecord
100
AcDbRegAppTableRecord
  2
GEVID1208933875
 70
     0
  0
APPID
  5
4BF
330
9
100
AcDbSymbolTableRecord
100
AcDbRegAppTableRecord
  2
GEVID1208933876
 70
     0
  0
APPID
  5
4C0
330
9
100
AcDbSymbolTableRecord
100
AcDbRegAppTableRecord
  2
ACAD_DSTYLE_DIMRADIAL_EXTENSION
 70
     0
  0
APPID
  5
4C1
330
9
100
AcDbSymbolTableRecord
100
AcDbRegAppTableRecord
  2
GEVID1208999100
 70
     0
  0
APPID
  5
4C2
330
9
100
AcDbSymbolTableRecord
100
AcDbRegAppTableRecord
  2
GEVID1208999101
 70
     0
  0
APPID
  5
4C3
330
9
100
AcDbSymbolTableRecord
100
AcDbRegAppTableRecord
  2
GEVID1208999102
 70
     0
  0
APPID
  5
4C4
330
9
100
AcDbSymbolTableRecord
100
AcDbRegAppTableRecord
  2
GEVID1208999103
 70
     0
  0
APPID
  5
4C5
330
9
100
AcDbSymbolTableRecord
100
AcDbRegAppTableRecord
  2
GEVID1208999105
 70
     0
  0
APPID
  5
4C6
330
9
100
AcDbSymbolTableRecord
100
AcDbRegAppTableRecord
  2
GEVID1208999106
 70
     0
  0
APPID
  5
4C7
330
9
100
AcDbSymbolTableRecord
100
AcDbRegAppTableRecord
  2
GEVID1208999108
 70
     0
  0
APPID
  5
4C8
330
9
100
AcDbSymbolTableRecord
100
AcDbRegAppTableRecord
  2
GEVID1208999109
 70
     0
  0
APPID
  5
4C9
330
9
100
AcDbSymbolTableRecord
100
AcDbRegAppTableRecord
  2
GEVID1208999110
 70
     0
  0
APPID
  5
4CA
330
9
100
AcDbSymbolTableRecord
100
AcDbRegAppTableRecord
  2
GEVID1208999111
 70
     0
  0
APPID
  5
4CB
330
9
100
AcDbSymbolTableRecord
100
AcDbRegAppTableRecord
  2
GEVID1208999112
 70
     0
  0
APPID
  5
4CC
330
9
100
AcDbSymbolTableRecord
100
AcDbRegAppTableRecord
  2
GEVID1208999113
 70
     0
  0
APPID
  5
4CD
330
9
100
AcDbSymbolTableRecord
100
AcDbRegAppTableRecord
  2
GEVID1208999114
 70
     0
  0
APPID
  5
4CE
330
9
100
AcDbSymbolTableRecord
100
AcDbRegAppTableRecord
  2
GEVID1210218799
 70
     0
  0
APPID
  5
4CF
330
9
100
AcDbSymbolTableRecord
100
AcDbRegAppTableRecord
  2
GEVID1210218800
 70
     0
  0
APPID
  5
4D0
330
9
100
AcDbSymbolTableRecord
100
AcDbRegAppTableRecord
  2
GENIUS_GEFWELD_13
 70
     0
  0
APPID
  5
4D1
330
9
100
AcDbSymbolTableRecord
100
AcDbRegAppTableRecord
  2
GENIUS_GENOBJ-F-WELS_13
 70
     0
  0
APPID
  5
4D2
330
9
100
AcDbSymbolTableRecord
100
AcDbRegAppTableRecord
  2
AcadAnnotative
 70
     0
  0
APPID
  5
4D3
330
9
100
AcDbSymbolTableRecord
100
AcDbRegAppTableRecord
  2
GEVID1210145339
 70
     0
  0
APPID
  5
4D4
330
9
100
AcDbSymbolTableRecord
100
AcDbRegAppTableRecord
  2
ACAD_DSTYLE_DIMBREAK
 70
     0
  0
APPID
  5
4D5
330
9
100
AcDbSymbolTableRecord
100
AcDbRegAppTableRecord
  2
GEVID1210145340
 70
     0
  0
APPID
  5
4D6
330
9
100
AcDbSymbolTableRecord
100
AcDbRegAppTableRecord
  2
GEVID1210145341
 70
     0
  0
APPID
  5
4D7
330
9
100
AcDbSymbolTableRecord
100
AcDbRegAppTableRecord
  2
GEVID1210145342
 70
     0
  0
APPID
  5
4D8
330
9
100
AcDbSymbolTableRecord
100
AcDbRegAppTableRecord
  2
GEVID1210145343
 70
     0
  0
APPID
  5
4D9
330
9
100
AcDbSymbolTableRecord
100
AcDbRegAppTableRecord
  2
GEVID1210145344
 70
     0
  0
APPID
  5
4DA
330
9
100
AcDbSymbolTableRecord
100
AcDbRegAppTableRecord
  2
GEVID1210145345
 70
     0
  0
APPID
  5
4DB
330
9
100
AcDbSymbolTableRecord
100
AcDbRegAppTableRecord
  2
GEVID1210152816
 70
     0
  0
APPID
  5
4DC
330
9
100
AcDbSymbolTableRecord
100
AcDbRegAppTableRecord
  2
GEVID1210153850
 70
     0
  0
APPID
  5
4DD
330
9
100
AcDbSymbolTableRecord
100
AcDbRegAppTableRecord
  2
GEVID1210153851
 70
     0
  0
APPID
  5
4DE
330
9
100
AcDbSymbolTableRecord
100
AcDbRegAppTableRecord
  2
GEVID1210153852
 70
     0
  0
APPID
  5
4DF
330
9
100
AcDbSymbolTableRecord
100
AcDbRegAppTableRecord
  2
GEVID1210549898
 70
     0
  0
APPID
  5
4E0
330
9
100
AcDbSymbolTableRecord
100
AcDbRegAppTableRecord
  2
GEVID1210549899
 70
     0
  0
APPID
  5
4E1
330
9
100
AcDbSymbolTableRecord
100
AcDbRegAppTableRecord
  2
GEVID1210549900
 70
     0
  0
APPID
  5
4E2
330
9
100
AcDbSymbolTableRecord
100
AcDbRegAppTableRecord
  2
GEVID1210549901
 70
     0
  0
APPID
  5
4E3
330
9
100
AcDbSymbolTableRecord
100
AcDbRegAppTableRecord
  2
GEVID1210549902
 70
     0
  0
APPID
  5
4E4
330
9
100
AcDbSymbolTableRecord
100
AcDbRegAppTableRecord
  2
GEVID1210549903
 70
     0
  0
APPID
  5
4E5
330
9
100
AcDbSymbolTableRecord
100
AcDbRegAppTableRecord
  2
GEVID1210549904
 70
     0
  0
APPID
  5
4E6
330
9
100
AcDbSymbolTableRecord
100
AcDbRegAppTableRecord
  2
GEVID1210549905
 70
     0
  0
APPID
  5
4E7
330
9
100
AcDbSymbolTableRecord
100
AcDbRegAppTableRecord
  2
GEVID1210549906
 70
     0
  0
APPID
  5
4E8
330
9
100
AcDbSymbolTableRecord
100
AcDbRegAppTableRecord
  2
GEVID1210549907
 70
     0
  0
APPID
  5
4E9
330
9
100
AcDbSymbolTableRecord
100
AcDbRegAppTableRecord
  2
GEVID1210549908
 70
     0
  0
APPID
  5
4EA
330
9
100
AcDbSymbolTableRecord
100
AcDbRegAppTableRecord
  2
GEVID1210549909
 70
     0
  0
APPID
  5
4EB
330
9
100
AcDbSymbolTableRecord
100
AcDbRegAppTableRecord
  2
GEVID1210549910
 70
     0
  0
APPID
  5
4EC
330
9
100
AcDbSymbolTableRecord
100
AcDbRegAppTableRecord
  2
GEVID1210549911
 70
     0
  0
APPID
  5
4ED
330
9
100
AcDbSymbolTableRecord
100
AcDbRegAppTableRecord
  2
GEVID1210549912
 70
     0
  0
APPID
  5
4EE
330
9
100
AcDbSymbolTableRecord
100
AcDbRegAppTableRecord
  2
GEVID1210549913
 70
     0
  0
APPID
  5
4EF
330
9
100
AcDbSymbolTableRecord
100
AcDbRegAppTableRecord
  2
GEVID1210549914
 70
     0
  0
APPID
  5
4F0
330
9
100
AcDbSymbolTableRecord
100
AcDbRegAppTableRecord
  2
GEVID1210549915
 70
     0
  0
APPID
  5
4F1
330
9
100
AcDbSymbolTableRecord
100
AcDbRegAppTableRecord
  2
GEVID1210549916
 70
     0
  0
APPID
  5
4F2
330
9
100
AcDbSymbolTableRecord
100
AcDbRegAppTableRecord
  2
GEVID1210549917
 70
     0
  0
APPID
  5
4F3
330
9
100
AcDbSymbolTableRecord
100
AcDbRegAppTableRecord
  2
GENIUS_GENOBJ-N-CRS_13
 70
     0
  0
APPID
  5
4F4
330
9
100
AcDbSymbolTableRecord
100
AcDbRegAppTableRecord
  2
GEVID1210549918
 70
     0
  0
APPID
  5
4F5
330
9
100
AcDbSymbolTableRecord
100
AcDbRegAppTableRecord
  2
GENIUS_GENOBJ-N-CRC_13
 70
     0
  0
APPID
  5
4F6
330
9
100
AcDbSymbolTableRecord
100
AcDbRegAppTableRecord
  2
GENIUS_GENCRC_14
 70
     0
  0
APPID
  5
4F7
330
9
100
AcDbSymbolTableRecord
100
AcDbRegAppTableRecord
  2
GEVID1210549919
 70
     0
  0
APPID
  5
4F8
330
9
100
AcDbSymbolTableRecord
100
AcDbRegAppTableRecord
  2
GEVID1210549921
 70
     0
  0
APPID
  5
4F9
330
9
100
AcDbSymbolTableRecord
100
AcDbRegAppTableRecord
  2
GEVID1210549922
 70
     0
  0
APPID
  5
4FA
330
9
100
AcDbSymbolTableRecord
100
AcDbRegAppTableRecord
  2
GEVID1210635173
 70
     0
  0
APPID
  5
4FB
330
9
100
AcDbSymbolTableRecord
100
AcDbRegAppTableRecord
  2
GEVID1210635174
 70
     0
  0
APPID
  5
4FC
330
9
100
AcDbSymbolTableRecord
100
AcDbRegAppTableRecord
  2
GEVID1210635175
 70
     0
  0
APPID
  5
4FD
330
9
100
AcDbSymbolTableRecord
100
AcDbRegAppTableRecord
  2
GEVID1210635176
 70
     0
  0
APPID
  5
4FE
330
9
100
AcDbSymbolTableRecord
100
AcDbRegAppTableRecord
  2
GEVID1210635177
 70
     0
  0
APPID
  5
4FF
330
9
100
AcDbSymbolTableRecord
100
AcDbRegAppTableRecord
  2
GEVID1210635178
 70
     0
  0
APPID
  5
500
330
9
100
AcDbSymbolTableRecord
100
AcDbRegAppTableRecord
  2
GENIUS_GENIUS_GENBHEDTMP_13
 70
     0
  0
APPID
  5
501
330
9
100
AcDbSymbolTableRecord
100
AcDbRegAppTableRecord
  2
GEVID1210635179
 70
     0
  0
APPID
  5
502
330
9
100
AcDbSymbolTableRecord
100
AcDbRegAppTableRecord
  2
GEVID1210635180
 70
     0
  0
APPID
  5
503
330
9
100
AcDbSymbolTableRecord
100
AcDbRegAppTableRecord
  2
GEVID1210635181
 70
     0
  0
APPID
  5
504
330
9
100
AcDbSymbolTableRecord
100
AcDbRegAppTableRecord
  2
GEVID1210635182
 70
     0
  0
APPID
  5
505
330
9
100
AcDbSymbolTableRecord
100
AcDbRegAppTableRecord
  2
GEVID1210635184
 70
     0
  0
APPID
  5
506
330
9
100
AcDbSymbolTableRecord
100
AcDbRegAppTableRecord
  2
GEVID1210635185
 70
     0
  0
APPID
  5
507
330
9
100
AcDbSymbolTableRecord
100
AcDbRegAppTableRecord
  2
GEVID1210635186
 70
     0
  0
APPID
  5
508
330
9
100
AcDbSymbolTableRecord
100
AcDbRegAppTableRecord
  2
GEVID1210635187
 70
     0
  0
APPID
  5
509
330
9
100
AcDbSymbolTableRecord
100
AcDbRegAppTableRecord
  2
GEVID1210635188
 70
     0
  0
APPID
  5
50A
330
9
100
AcDbSymbolTableRecord
100
AcDbRegAppTableRecord
  2
GEVID1210635189
 70
     0
  0
APPID
  5
50B
330
9
100
AcDbSymbolTableRecord
100
AcDbRegAppTableRecord
  2
GEVID1210635190
 70
     0
  0
APPID
  5
50C
330
9
100
AcDbSymbolTableRecord
100
AcDbRegAppTableRecord
  2
GENIUS_GENREC_14
 70
     0
  0
APPID
  5
50D
330
9
100
AcDbSymbolTableRecord
100
AcDbRegAppTableRecord
  2
GENIUS_GENOBJ-N-REC_13
 70
     0
  0
APPID
  5
50E
330
9
100
AcDbSymbolTableRecord
100
AcDbRegAppTableRecord
  2
GEVID1210676655
 70
     0
  0
APPID
  5
50F
330
9
100
AcDbSymbolTableRecord
100
AcDbRegAppTableRecord
  2
GEVID1210676656
 70
     0
  0
APPID
  5
510
330
9
100
AcDbSymbolTableRecord
100
AcDbRegAppTableRecord
  2
GEVID1210676657
 70
     0
  0
APPID
  5
511
330
9
100
AcDbSymbolTableRecord
100
AcDbRegAppTableRecord
  2
GEVID1210676659
 70
     0
  0
APPID
  5
512
330
9
100
AcDbSymbolTableRecord
100
AcDbRegAppTableRecord
  2
GEVID1210676660
 70
     0
  0
APPID
  5
513
330
9
100
AcDbSymbolTableRecord
100
AcDbRegAppTableRecord
  2
GEVID1210676661
 70
     0
  0
APPID
  5
514
330
9
100
AcDbSymbolTableRecord
100
AcDbRegAppTableRecord
  2
GEVID1210676662
 70
     0
  0
APPID
  5
515
330
9
100
AcDbSymbolTableRecord
100
AcDbRegAppTableRecord
  2
GEVID1210721646
 70
     0
  0
APPID
  5
516
330
9
100
AcDbSymbolTableRecord
100
AcDbRegAppTableRecord
  2
GEVID1210721647
 70
     0
  0
APPID
  5
517
330
9
100
AcDbSymbolTableRecord
100
AcDbRegAppTableRecord
  2
GEVID1210721648
 70
     0
  0
APPID
  5
518
330
9
100
AcDbSymbolTableRecord
100
AcDbRegAppTableRecord
  2
GEVID1210721649
 70
     0
  0
APPID
  5
519
330
9
100
AcDbSymbolTableRecord
100
AcDbRegAppTableRecord
  2
GEVID1210721650
 70
     0
  0
APPID
  5
51A
330
9
100
AcDbSymbolTableRecord
100
AcDbRegAppTableRecord
  2
GEVID1210721651
 70
     0
  0
APPID
  5
51B
330
9
100
AcDbSymbolTableRecord
100
AcDbRegAppTableRecord
  2
GEVID1210721652
 70
     0
  0
APPID
  5
51C
330
9
100
AcDbSymbolTableRecord
100
AcDbRegAppTableRecord
  2
GEVID1210721653
 70
     0
  0
APPID
  5
51D
330
9
100
AcDbSymbolTableRecord
100
AcDbRegAppTableRecord
  2
PE_URL
 70
     0
  0
APPID
  5
51E
330
9
100
AcDbSymbolTableRecord
100
AcDbRegAppTableRecord
  2
GEVID1210825555
 70
     0
  0
APPID
  5
51F
330
9
100
AcDbSymbolTableRecord
100
AcDbRegAppTableRecord
  2
GEVID1210825556
 70
     0
  0
APPID
  5
520
330
9
100
AcDbSymbolTableRecord
100
AcDbRegAppTableRecord
  2
GEVID1210825557
 70
     0
  0
APPID
  5
521
330
9
100
AcDbSymbolTableRecord
100
AcDbRegAppTableRecord
  2
GEVID1210825558
 70
     0
  0
APPID
  5
522
330
9
100
AcDbSymbolTableRecord
100
AcDbRegAppTableRecord
  2
GEVID1210825559
 70
     0
  0
APPID
  5
523
330
9
100
AcDbSymbolTableRecord
100
AcDbRegAppTableRecord
  2
GEVID1210825560
 70
     0
  0
APPID
  5
524
330
9
100
AcDbSymbolTableRecord
100
AcDbRegAppTableRecord
  2
GEVID1210825561
 70
     0
  0
APPID
  5
525
330
9
100
AcDbSymbolTableRecord
100
AcDbRegAppTableRecord
  2
GEVID1210825562
 70
     0
  0
APPID
  5
526
330
9
100
AcDbSymbolTableRecord
100
AcDbRegAppTableRecord
  2
GEVID1210825563
 70
     0
  0
APPID
  5
527
330
9
100
AcDbSymbolTableRecord
100
AcDbRegAppTableRecord
  2
GEVID1210825564
 70
     0
  0
APPID
  5
528
330
9
100
AcDbSymbolTableRecord
100
AcDbRegAppTableRecord
  2
GEVID1210825565
 70
     0
  0
APPID
  5
529
330
9
100
AcDbSymbolTableRecord
100
AcDbRegAppTableRecord
  2
GEVID1210825566
 70
     0
  0
APPID
  5
52A
330
9
100
AcDbSymbolTableRecord
100
AcDbRegAppTableRecord
  2
GEVID1210825567
 70
     0
  0
APPID
  5
52B
330
9
100
AcDbSymbolTableRecord
100
AcDbRegAppTableRecord
  2
GENIUS_GENOBJ-N-ZOO_13
 70
     0
  0
APPID
  5
52C
330
9
100
AcDbSymbolTableRecord
100
AcDbRegAppTableRecord
  2
GENIUS_GENZOO_17
 70
     0
  0
APPID
  5
52D
330
9
100
AcDbSymbolTableRecord
100
AcDbRegAppTableRecord
  2
ACADANNOTATIVEDECOMPOSITION
 70
     0
  0
APPID
  5
52E
330
9
100
AcDbSymbolTableRecord
100
AcDbRegAppTableRecord
  2
GENIUS_GENOBJ-N-HTC_13
 70
     0
  0
APPID
  5
52F
330
9
100
AcDbSymbolTableRecord
100
AcDbRegAppTableRecord
  2
GENIUS_GENHATCH_13
 70
     0
  0
APPID
  5
530
330
9
100
AcDbSymbolTableRecord
100
AcDbRegAppTableRecord
  2
GEVID1210896020
 70
     0
  0
APPID
  5
531
330
9
100
AcDbSymbolTableRecord
100
AcDbRegAppTableRecord
  2
GEVID1210896021
 70
     0
  0
APPID
  5
532
330
9
100
AcDbSymbolTableRecord
100
AcDbRegAppTableRecord
  2
GEVID1209083540
 70
     0
  0
APPID
  5
533
330
9
100
AcDbSymbolTableRecord
100
AcDbRegAppTableRecord
  2
GEVMK
 70
     0
  0
APPID
  5
534
330
9
100
AcDbSymbolTableRecord
100
AcDbRegAppTableRecord
  2
GEVID1209083542
 70
     0
  0
APPID
  5
535
330
9
100
AcDbSymbolTableRecord
100
AcDbRegAppTableRecord
  2
GEVID1209083543
 70
     0
  0
APPID
  5
536
330
9
100
AcDbSymbolTableRecord
100
AcDbRegAppTableRecord
  2
GEVID1209083544
 70
     0
  0
APPID
  5
537
330
9
100
AcDbSymbolTableRecord
100
AcDbRegAppTableRecord
  2
GEVID1209083545
 70
     0
  0
APPID
  5
538
330
9
100
AcDbSymbolTableRecord
100
AcDbRegAppTableRecord
  2
GEVID1209083546
 70
     0
  0
APPID
  5
539
330
9
100
AcDbSymbolTableRecord
100
AcDbRegAppTableRecord
  2
GEVID1209083547
 70
     0
  0
APPID
  5
53A
330
9
100
AcDbSymbolTableRecord
100
AcDbRegAppTableRecord
  2
GEVID1209083548
 70
     0
  0
APPID
  5
53B
330
9
100
AcDbSymbolTableRecord
100
AcDbRegAppTableRecord
  2
GEVID1209083549
 70
     0
  0
APPID
  5
53C
330
9
100
AcDbSymbolTableRecord
100
AcDbRegAppTableRecord
  2
GEVID1209083550
 70
     0
  0
APPID
  5
53D
330
9
100
AcDbSymbolTableRecord
100
AcDbRegAppTableRecord
  2
GEVID1209083551
 70
     0
  0
APPID
  5
53E
330
9
100
AcDbSymbolTableRecord
100
AcDbRegAppTableRecord
  2
GEVID1209083552
 70
     0
  0
APPID
  5
53F
330
9
100
AcDbSymbolTableRecord
100
AcDbRegAppTableRecord
  2
GEVID1209083553
 70
     0
  0
APPID
  5
540
330
9
100
AcDbSymbolTableRecord
100
AcDbRegAppTableRecord
  2
GEVID1210896022
 70
     0
  0
APPID
  5
541
330
9
100
AcDbSymbolTableRecord
100
AcDbRegAppTableRecord
  2
GEVID1211508364
 70
     0
  0
APPID
  5
542
330
9
100
AcDbSymbolTableRecord
100
AcDbRegAppTableRecord
  2
GEVID1211414908
 70
     0
  0
APPID
  5
543
330
9
100
AcDbSymbolTableRecord
100
AcDbRegAppTableRecord
  2
GEVID1211414909
 70
     0
  0
APPID
  5
544
330
9
100
AcDbSymbolTableRecord
100
AcDbRegAppTableRecord
  2
GEVID1211508359
 70
     0
  0
APPID
  5
545
330
9
100
AcDbSymbolTableRecord
100
AcDbRegAppTableRecord
  2
GEVID1211508360
 70
     0
  0
APPID
  5
546
330
9
100
AcDbSymbolTableRecord
100
AcDbRegAppTableRecord
  2
GEVID1211508361
 70
     0
  0
APPID
  5
547
330
9
100
AcDbSymbolTableRecord
100
AcDbRegAppTableRecord
  2
GEVID1211508362
 70
     0
  0
APPID
  5
548
330
9
100
AcDbSymbolTableRecord
100
AcDbRegAppTableRecord
  2
GEVID1211508363
 70
     0
  0
APPID
  5
549
330
9
100
AcDbSymbolTableRecord
100
AcDbRegAppTableRecord
  2
GEVID1211878469
 70
     0
  0
APPID
  5
54A
330
9
100
AcDbSymbolTableRecord
100
AcDbRegAppTableRecord
  2
GEVID1212642819
 70
     0
  0
APPID
  5
54B
330
9
100
AcDbSymbolTableRecord
100
AcDbRegAppTableRecord
  2
GEVID1212642820
 70
     0
  0
APPID
  5
54C
330
9
100
AcDbSymbolTableRecord
100
AcDbRegAppTableRecord
  2
GEVID1212642821
 70
     0
  0
APPID
  5
54D
330
9
100
AcDbSymbolTableRecord
100
AcDbRegAppTableRecord
  2
GEVID1212642822
 70
     0
  0
APPID
  5
54E
330
9
100
AcDbSymbolTableRecord
100
AcDbRegAppTableRecord
  2
GEVID1212642823
 70
     0
  0
APPID
  5
54F
330
9
100
AcDbSymbolTableRecord
100
AcDbRegAppTableRecord
  2
GEVID1212642825
 70
     0
  0
APPID
  5
550
330
9
100
AcDbSymbolTableRecord
100
AcDbRegAppTableRecord
  2
GEVID1212642826
 70
     0
  0
APPID
  5
551
330
9
100
AcDbSymbolTableRecord
100
AcDbRegAppTableRecord
  2
GEVID1212642827
 70
     0
  0
APPID
  5
552
330
9
100
AcDbSymbolTableRecord
100
AcDbRegAppTableRecord
  2
GEVID1212642828
 70
     0
  0
APPID
  5
553
330
9
100
AcDbSymbolTableRecord
100
AcDbRegAppTableRecord
  2
GEVID1212642831
 70
     0
  0
APPID
  5
554
330
9
100
AcDbSymbolTableRecord
100
AcDbRegAppTableRecord
  2
GEVID1212642834
 70
     0
  0
APPID
  5
555
330
9
100
AcDbSymbolTableRecord
100
AcDbRegAppTableRecord
  2
GEVID1212642835
 70
     0
  0
APPID
  5
556
330
9
100
AcDbSymbolTableRecord
100
AcDbRegAppTableRecord
  2
GEVID1212642836
 70
     0
  0
APPID
  5
557
330
9
100
AcDbSymbolTableRecord
100
AcDbRegAppTableRecord
  2
GEVID1212642837
 70
     0
  0
APPID
  5
558
330
9
100
AcDbSymbolTableRecord
100
AcDbRegAppTableRecord
  2
GEVID1212642839
 70
     0
  0
APPID
  5
559
330
9
100
AcDbSymbolTableRecord
100
AcDbRegAppTableRecord
  2
GEVID1212642840
 70
     0
  0
APPID
  5
55A
330
9
100
AcDbSymbolTableRecord
100
AcDbRegAppTableRecord
  2
GEVID1212642841
 70
     0
  0
APPID
  5
55B
330
9
100
AcDbSymbolTableRecord
100
AcDbRegAppTableRecord
  2
GEVID1212655312
 70
     0
  0
APPID
  5
55C
330
9
100
AcDbSymbolTableRecord
100
AcDbRegAppTableRecord
  2
GEVID1212655313
 70
     0
  0
APPID
  5
55D
330
9
100
AcDbSymbolTableRecord
100
AcDbRegAppTableRecord
  2
GEVID1212656533
 70
     0
  0
APPID
  5
55E
330
9
100
AcDbSymbolTableRecord
100
AcDbRegAppTableRecord
  2
GEVID1212656534
 70
     0
  0
APPID
  5
55F
330
9
100
AcDbSymbolTableRecord
100
AcDbRegAppTableRecord
  2
GEVID1212656535
 70
     0
  0
APPID
  5
560
330
9
100
AcDbSymbolTableRecord
100
AcDbRegAppTableRecord
  2
GEVID1212656536
 70
     0
  0
APPID
  5
561
330
9
100
AcDbSymbolTableRecord
100
AcDbRegAppTableRecord
  2
GEVID1212656538
 70
     0
  0
APPID
  5
562
330
9
100
AcDbSymbolTableRecord
100
AcDbRegAppTableRecord
  2
GEVID1212656541
 70
     0
  0
APPID
  5
563
330
9
100
AcDbSymbolTableRecord
100
AcDbRegAppTableRecord
  2
GEVID1212656543
 70
     0
  0
APPID
  5
564
330
9
100
AcDbSymbolTableRecord
100
AcDbRegAppTableRecord
  2
GENIUS_GENOBJ-F-PFASSM_13
 70
     0
  0
APPID
  5
565
330
9
100
AcDbSymbolTableRecord
100
AcDbRegAppTableRecord
  2
GEVID1212656544
 70
     0
  0
APPID
  5
566
330
9
100
AcDbSymbolTableRecord
100
AcDbRegAppTableRecord
  2
GEVID1212656545
 70
     0
  0
APPID
  5
567
330
9
100
AcDbSymbolTableRecord
100
AcDbRegAppTableRecord
  2
GEVID1212656546
 70
     0
  0
APPID
  5
568
330
9
100
AcDbSymbolTableRecord
100
AcDbRegAppTableRecord
  2
GEVID1212656547
 70
     0
  0
APPID
  5
569
330
9
100
AcDbSymbolTableRecord
100
AcDbRegAppTableRecord
  2
GEVID1212656548
 70
     0
  0
APPID
  5
56A
330
9
100
AcDbSymbolTableRecord
100
AcDbRegAppTableRecord
  2
GEVID1212656549
 70
     0
  0
APPID
  5
56B
330
9
100
AcDbSymbolTableRecord
100
AcDbRegAppTableRecord
  2
GEVID1212656550
 70
     0
  0
APPID
  5
56C
330
9
100
AcDbSymbolTableRecord
100
AcDbRegAppTableRecord
  2
GEVID1212656552
 70
     0
  0
APPID
  5
56D
330
9
100
AcDbSymbolTableRecord
100
AcDbRegAppTableRecord
  2
GEVID1212656553
 70
     0
  0
APPID
  5
56E
330
9
100
AcDbSymbolTableRecord
100
AcDbRegAppTableRecord
  2
GEVID1212656554
 70
     0
  0
APPID
  5
56F
330
9
100
AcDbSymbolTableRecord
100
AcDbRegAppTableRecord
  2
GEVID1212656555
 70
     0
  0
APPID
  5
570
330
9
100
AcDbSymbolTableRecord
100
AcDbRegAppTableRecord
  2
GEVID1212656556
 70
     0
  0
APPID
  5
571
330
9
100
AcDbSymbolTableRecord
100
AcDbRegAppTableRecord
  2
GEVID1212656557
 70
     0
  0
APPID
  5
572
330
9
100
AcDbSymbolTableRecord
100
AcDbRegAppTableRecord
  2
GEVID1212656559
 70
     0
  0
APPID
  5
573
330
9
100
AcDbSymbolTableRecord
100
AcDbRegAppTableRecord
  2
GEVID1212656560
 70
     0
  0
APPID
  5
574
330
9
100
AcDbSymbolTableRecord
100
AcDbRegAppTableRecord
  2
GEVID1212656561
 70
     0
  0
APPID
  5
575
330
9
100
AcDbSymbolTableRecord
100
AcDbRegAppTableRecord
  2
GEVID1212656562
 70
     0
  0
APPID
  5
576
330
9
100
AcDbSymbolTableRecord
100
AcDbRegAppTableRecord
  2
GEVID1212656563
 70
     0
  0
APPID
  5
577
330
9
100
AcDbSymbolTableRecord
100
AcDbRegAppTableRecord
  2
GEVID1212711781
 70
     0
  0
APPID
  5
578
330
9
100
AcDbSymbolTableRecord
100
AcDbRegAppTableRecord
  2
GEVID1212711782
 70
     0
  0
APPID
  5
579
330
9
100
AcDbSymbolTableRecord
100
AcDbRegAppTableRecord
  2
GEVID1212711783
 70
     0
  0
APPID
  5
57A
330
9
100
AcDbSymbolTableRecord
100
AcDbRegAppTableRecord
  2
GEVID1212711784
 70
     0
  0
APPID
  5
57B
330
9
100
AcDbSymbolTableRecord
100
AcDbRegAppTableRecord
  2
GEVID1212711788
 70
     0
  0
APPID
  5
57C
330
9
100
AcDbSymbolTableRecord
100
AcDbRegAppTableRecord
  2
GEVID1212711789
 70
     0
  0
APPID
  5
57D
330
9
100
AcDbSymbolTableRecord
100
AcDbRegAppTableRecord
  2
GEVID1212711790
 70
     0
  0
APPID
  5
57E
330
9
100
AcDbSymbolTableRecord
100
AcDbRegAppTableRecord
  2
GEVID1212711791
 70
     0
  0
APPID
  5
57F
330
9
100
AcDbSymbolTableRecord
100
AcDbRegAppTableRecord
  2
GEVID1212711792
 70
     0
  0
APPID
  5
580
330
9
100
AcDbSymbolTableRecord
100
AcDbRegAppTableRecord
  2
GEVID1212711793
 70
     0
  0
APPID
  5
581
330
9
100
AcDbSymbolTableRecord
100
AcDbRegAppTableRecord
  2
GEVID1212711794
 70
     0
  0
APPID
  5
582
330
9
100
AcDbSymbolTableRecord
100
AcDbRegAppTableRecord
  2
GEVID1212711795
 70
     0
  0
APPID
  5
583
330
9
100
AcDbSymbolTableRecord
100
AcDbRegAppTableRecord
  2
GEVID1212711797
 70
     0
  0
APPID
  5
584
330
9
100
AcDbSymbolTableRecord
100
AcDbRegAppTableRecord
  2
GEVID1212711798
 70
     0
  0
APPID
  5
585
330
9
100
AcDbSymbolTableRecord
100
AcDbRegAppTableRecord
  2
GEVID1212711799
 70
     0
  0
APPID
  5
586
330
9
100
AcDbSymbolTableRecord
100
AcDbRegAppTableRecord
  2
GEVID1212711800
 70
     0
  0
APPID
  5
587
330
9
100
AcDbSymbolTableRecord
100
AcDbRegAppTableRecord
  2
GEVID1212711801
 70
     0
  0
APPID
  5
588
330
9
100
AcDbSymbolTableRecord
100
AcDbRegAppTableRecord
  2
GEVID1212711802
 70
     0
  0
APPID
  5
589
330
9
100
AcDbSymbolTableRecord
100
AcDbRegAppTableRecord
  2
GEVID1212711803
 70
     0
  0
APPID
  5
58A
330
9
100
AcDbSymbolTableRecord
100
AcDbRegAppTableRecord
  2
GEVID1212711804
 70
     0
  0
APPID
  5
58B
330
9
100
AcDbSymbolTableRecord
100
AcDbRegAppTableRecord
  2
GEVID1212711805
 70
     0
  0
APPID
  5
58C
330
9
100
AcDbSymbolTableRecord
100
AcDbRegAppTableRecord
  2
GEVID1212711806
 70
     0
  0
APPID
  5
58D
330
9
100
AcDbSymbolTableRecord
100
AcDbRegAppTableRecord
  2
GEVID1212711807
 70
     0
  0
APPID
  5
58E
330
9
100
AcDbSymbolTableRecord
100
AcDbRegAppTableRecord
  2
GEVID1212711808
 70
     0
  0
APPID
  5
58F
330
9
100
AcDbSymbolTableRecord
100
AcDbRegAppTableRecord
  2
GEVID1212711809
 70
     0
  0
APPID
  5
590
330
9
100
AcDbSymbolTableRecord
100
AcDbRegAppTableRecord
  2
GEVID1212711810
 70
     0
  0
APPID
  5
591
330
9
100
AcDbSymbolTableRecord
100
AcDbRegAppTableRecord
  2
GEVID1212711811
 70
     0
  0
APPID
  5
90A
330
9
100
AcDbSymbolTableRecord
100
AcDbRegAppTableRecord
  2
GENIUS_GENTRA_14
 70
     0
  0
APPID
  5
919
330
9
100
AcDbSymbolTableRecord
100
AcDbRegAppTableRecord
  2
GENIUS_GENOBJ-N-TIT_13
 70
     0
  0
APPID
  5
91A
330
9
100
AcDbSymbolTableRecord
100
AcDbRegAppTableRecord
  2
GENIUS_GENTITLE_13
 70
     0
  0
APPID
  5
949
330
9
100
AcDbSymbolTableRecord
100
AcDbRegAppTableRecord
  2
GENIUS_GENBLLY_14
 70
     0
  0
APPID
  5
DDD
330
9
100
AcDbSymbolTableRecord
100
AcDbRegAppTableRecord
  2
GEVID1213165152
 70
     0
  0
APPID
  5
12F9
330
9
100
AcDbSymbolTableRecord
100
AcDbRegAppTableRecord
  2
AcDbDynamicBlockTrueName
 70
     0
  0
APPID
  5
12FA
330
9
100
AcDbSymbolTableRecord
100
AcDbRegAppTableRecord
  2
ACDBBLOCKREPETAG
 70
     0
  0
APPID
  5
1C15
330
9
100
AcDbSymbolTableRecord
100
AcDbRegAppTableRecord
  2
GEVID1214872427
 70
     0
  0
APPID
  5
1C2A
330
9
100
AcDbSymbolTableRecord
100
AcDbRegAppTableRecord
  2
GEVID1214872428
 70
     0
  0
APPID
  5
1C2F
330
9
100
AcDbSymbolTableRecord
100
AcDbRegAppTableRecord
  2
GEVID1214872429
 70
     0
  0
APPID
  5
1C33
330
9
100
AcDbSymbolTableRecord
100
AcDbRegAppTableRecord
  2
GEVID1214872430
 70
     0
  0
APPID
  5
1C3F
330
9
100
AcDbSymbolTableRecord
100
AcDbRegAppTableRecord
  2
GEVID1214872432
 70
     0
  0
APPID
  5
1C4E
330
9
100
AcDbSymbolTableRecord
100
AcDbRegAppTableRecord
  2
GEVID1214872433
 70
     0
  0
APPID
  5
20DC
330
9
100
AcDbSymbolTableRecord
100
AcDbRegAppTableRecord
  2
AcDbDynamicBlockGUID
 70
     0
  0
APPID
  5
20FD
330
9
100
AcDbSymbolTableRecord
100
AcDbRegAppTableRecord
  2
GENIUS_GENOBJ-N-REV_13
 70
     0
  0
APPID
  5
20FE
330
9
100
AcDbSymbolTableRecord
100
AcDbRegAppTableRecord
  2
GENIUS_GENOBJ-N-RSSYM_13
 70
     0
  0
APPID
  5
20FF
330
9
100
AcDbSymbolTableRecord
100
AcDbRegAppTableRecord
  2
GENIUS_GENSYMENT_13
 70
     0
  0
APPID
  5
2100
330
9
100
AcDbSymbolTableRecord
100
AcDbRegAppTableRecord
  2
GENIUS_GENSCSYM_13
 70
     0
  0
APPID
  5
5750
330
9
100
AcDbSymbolTableRecord
100
AcDbRegAppTableRecord
  2
GEVID1240187032
 70
     0
  0
APPID
  5
5754
330
9
100
AcDbSymbolTableRecord
100
AcDbRegAppTableRecord
  2
GEVID1240187033
 70
     0
  0
APPID
  5
5933
330
9
100
AcDbSymbolTableRecord
100
AcDbRegAppTableRecord
  2
GEVID1240187034
 70
     0
  0
APPID
  5
5937
330
9
100
AcDbSymbolTableRecord
100
AcDbRegAppTableRecord
  2
GEVID1240187035
 70
     0
  0
ENDTAB
  0
TABLE
  2
DIMSTYLE
  5
A
330
0
100
AcDbSymbolTable
 70
    29
100
AcDbDimStyleTable
 71
     1
340
5AB
  0
DIMSTYLE
105
5AB
330
A
100
AcDbSymbolTableRecord
100
AcDbDimStyleTableRecord
  2
SEISA
 70
     0
  4
"
 40
20.0
 41
2.5
 42
0.625
 43
10.0
 44
0.625
 47
0.1
 48
0.1
 73
     0
 74
     0
 77
     3
 78
     8
 79
     2
 90
     1
140
3.5
141
0.0
143
0.0393701
146
0.71
147
1.5
172
     1
176
     3
177
     3
178
     3
271
     2
272
     2
283
     0
286
     8
340
5D5
341
69
342
69
371
    -1
372
    -1
1001
ACAD_DSTYLE_DIMJAG
1070
   388
1040
1.5
1001
ACAD_DSTYLE_DIMTALN
1070
   392
1070
     1
  0
DIMSTYLE
105
5E9
102
{ACAD_REACTORS
330
5A3A
330
5AF0
330
5C69
330
5C99
330
5CB1
330
5CFF
330
5D1B
330
5D75
330
5DBD
330
61CE
330
61E6
330
6202
330
7334
330
7362
102
}
330
A
100
AcDbSymbolTableRecord
100
AcDbDimStyleTableRecord
  2
SEISA$0
 70
     0
  4
"
 40
20.0
 41
2.5
 42
0.625
 43
10.0
 44
0.625
 47
0.1
 48
0.1
 73
     0
 74
     0
 77
     3
 78
     8
 79
     2
 90
     1
140
3.5
141
0.0
143
0.0393701
146
0.71
147
1.5
172
     1
176
     3
177
     3
178
     3
271
     2
272
     2
283
     0
286
     8
340
5D5
341
69
342
69
371
    -1
372
    -1
  0
DIMSTYLE
105
762A
330
A
100
AcDbSymbolTableRecord
100
AcDbDimStyleTableRecord
  2
AM_ISO
 70
     0
  4
"
 41
2.5
 42
1.0
 43
10.0
 44
1.0
 47
0.1
 48
0.1
 73
     0
 74
     0
 77
     1
 78
     8
 79
     2
 90
     1
140
3.5
141
0.0
143
0.0393701
146
0.71
147
1.5
172
     1
176
   256
177
   256
178
     2
271
     2
272
     3
274
     4
283
     0
284
     8
340
11
371
    -1
372
    -1
  0
DIMSTYLE
105
762B
330
A
100
AcDbSymbolTableRecord
100
AcDbDimStyleTableRecord
  2
AM_ISO$3
 70
     0
  4
"
 41
2.5
 42
1.0
 43
10.0
 44
1.0
 47
0.1
 48
0.1
 73
     0
 77
     1
 78
     8
 79
     2
 90
     1
140
3.5
141
0.0
143
0.0393701
146
0.71
147
1.5
176
   256
177
   256
178
     2
271
     2
272
     3
274
     4
283
     0
284
     8
288
     1
289
     0
340
11
371
    -1
372
    -1
  0
DIMSTYLE
105
762C
330
A
100
AcDbSymbolTableRecord
100
AcDbDimStyleTableRecord
  2
AM_ISO$4
 70
     0
  4
"
 41
2.5
 42
1.0
 43
10.0
 44
1.0
 47
0.1
 48
0.1
 73
     0
 77
     1
 78
     8
 79
     2
 90
     1
140
3.5
141
0.0
143
0.0393701
146
0.71
147
1.5
176
   256
177
   256
178
     2
271
     2
272
     3
274
     4
283
     0
284
     8
288
     1
289
     0
340
11
371
    -1
372
    -1
  0
DIMSTYLE
105
762D
330
A
100
AcDbSymbolTableRecord
100
AcDbDimStyleTableRecord
  2
AM_ISO$6
 70
     0
  4
"
 41
2.5
 42
1.0
 43
10.0
 44
1.0
 47
0.1
 48
0.1
 73
     0
 74
     0
 78
     8
 79
     2
 90
     1
140
3.5
141
0.0
143
0.0393701
146
0.71
147
1.5
172
     1
176
   256
177
   256
178
     2
271
     2
272
     3
274
     4
283
     0
284
     8
340
11
371
    -1
372
    -1
  0
DIMSTYLE
105
762E
330
A
100
AcDbSymbolTableRecord
100
AcDbDimStyleTableRecord
  2
AM_ISO$7
 70
     0
  4
"
 41
2.5
 42
1.0
 43
10.0
 44
1.0
 47
0.1
 48
0.1
 73
     0
 74
     0
 77
     1
 78
     8
 79
     2
 90
     1
140
5.0
141
0.0
143
0.0393701
146
0.71
147
1.5
172
     1
176
   256
177
   256
178
     2
271
     2
272
     3
274
     4
283
     0
284
     8
340
11
371
    -1
372
    -1
  0
DIMSTYLE
105
762F
330
A
100
AcDbSymbolTableRecord
100
AcDbDimStyleTableRecord
  2
AM_ISO$SF
 70
     0
  4
"
 41
2.5
 42
1.0
 43
10.0
 44
1.0
 47
0.1
 48
0.1
 73
     0
 74
     0
 75
     1
 76
     1
 77
     1
 78
     8
 79
     2
 90
     1
140
3.5
141
0.0
143
0.0393701
146
0.71
147
1.5
172
     1
176
   256
177
   256
178
     2
271
     2
272
     3
274
     4
283
     0
284
     8
340
11
371
    -1
372
    -1
  0
DIMSTYLE
105
7630
330
A
100
AcDbSymbolTableRecord
100
AcDbDimStyleTableRecord
  2
AM_ISO$SH
 70
     0
  4
"
 41
2.5
 42
1.0
 43
10.0
 44
1.0
 47
0.1
 48
0.1
 73
     0
 74
     0
 75
     1
 76
     1
 77
     1
 78
     8
 79
     2
 90
     1
140
3.5
141
0.0
143
0.0393701
144
2.0
146
0.71
147
1.5
172
     1
173
     1
176
   256
177
   256
178
     2
271
     2
272
     3
274
     4
283
     0
284
     8
340
11
343
74
371
    -1
372
    -1
  0
ENDTAB
  0
TABLE
  2
BLOCK_RECORD
  5
1
330
0
100
AcDbSymbolTable
 70
    31
  0
BLOCK_RECORD
  5
1F
102
{ACAD_XDICTIONARY
360
82
102
}
330
1
100
AcDbSymbolTableRecord
100
AcDbBlockTableRecord
  2
*Model_Space
340
22
 70
     0
280
     1
281
     0
  0
BLOCK_RECORD
  5
1B
330
1
100
AcDbSymbolTableRecord
100
AcDbBlockTableRecord
  2
*Paper_Space
340
1E
 70
     0
280
     1
281
     0
  0
BLOCK_RECORD
  5
23
330
1
100
AcDbSymbolTableRecord
100
AcDbBlockTableRecord
  2
*Paper_Space0
340
26
 70
     0
280
     1
281
     0
  0
BLOCK_RECORD
  5
69
330
1
100
AcDbSymbolTableRecord
100
AcDbBlockTableRecord
  2
_Open30
340
0
102
{BLKREFS
331
64EE
331
64EF
331
6509
331
650A
331
6512
331
6513
331
651B
331
651C
331
6527
331
6532
331
655E
331
655F
331
659C
331
659D
331
65A4
331
65A5
331
724E
331
724F
331
7257
331
7258
331
739E
331
739F
331
7443
331
7444
331
7510
331
7511
102
}
 70
     0
280
     1
281
     0
  0
BLOCK_RECORD
  5
74
330
1
100
AcDbSymbolTableRecord
100
AcDbBlockTableRecord
  2
GENAXEH
340
0
 70
     0
280
     1
281
     0
  0
BLOCK_RECORD
  5
2C8C
330
1
100
AcDbSymbolTableRecord
100
AcDbBlockTableRecord
  2
GENDOT
340
0
102
{BLKREFS
331
6526
331
6531
102
}
 70
     0
280
     1
281
     0
  0
BLOCK_RECORD
  5
4D7E
102
{ACAD_XDICTIONARY
360
4DB3
102
}
330
1
100
AcDbSymbolTableRecord
100
AcDbBlockTableRecord
  2
ロッカクアナツキプラグA R1
340
0
310
2800000020000000200000000100080000000000000400000000000000000000000000000000000000000000000080000080000000808000800000008000800080800000C0C0C000C0DCC000F0CAA6000020400000206000002080000020A0000020C0000020E00000400000004020000040400000406000004080000040A0
310
000040C0000040E00000600000006020000060400000606000006080000060A0000060C0000060E00000800000008020000080400000806000008080000080A0000080C0000080E00000A0000000A0200000A0400000A0600000A0800000A0A00000A0C00000A0E00000C0000000C0200000C0400000C0600000C0800000C0
310
A00000C0C00000C0E00000E0000000E0200000E0400000E0600000E0800000E0A00000E0C00000E0E00040000000400020004000400040006000400080004000A0004000C0004000E00040200000402020004020400040206000402080004020A0004020C0004020E000404000004040200040404000404060004040800040
310
40A0004040C0004040E00040600000406020004060400040606000406080004060A0004060C0004060E00040800000408020004080400040806000408080004080A0004080C0004080E00040A0000040A0200040A0400040A0600040A0800040A0A00040A0C00040A0E00040C0000040C0200040C0400040C0600040C08000
310
40C0A00040C0C00040C0E00040E0000040E0200040E0400040E0600040E0800040E0A00040E0C00040E0E00080000000800020008000400080006000800080008000A0008000C0008000E00080200000802020008020400080206000802080008020A0008020C0008020E00080400000804020008040400080406000804080
310
008040A0008040C0008040E00080600000806020008060400080606000806080008060A0008060C0008060E00080800000808020008080400080806000808080008080A0008080C0008080E00080A0000080A0200080A0400080A0600080A0800080A0A00080A0C00080A0E00080C0000080C0200080C0400080C0600080C0
310
800080C0A00080C0C00080C0E00080E0000080E0200080E0400080E0600080E0800080E0A00080E0C00080E0E000C0000000C0002000C0004000C0006000C0008000C000A000C000C000C000E000C0200000C0202000C0204000C0206000C0208000C020A000C020C000C020E000C0400000C0402000C0404000C0406000C0
310
408000C040A000C040C000C040E000C0600000C0602000C0604000C0606000C0608000C060A000C060C000C060E000C0800000C0802000C0804000C0806000C0808000C080A000C080C000C080E000C0A00000C0A02000C0A04000C0A06000C0A08000C0A0A000C0A0C000C0A0E000C0C00000C0C02000C0C04000C0C06000
310
C0C08000C0C0A000F0FBFF00A4A0A000808080000000FF0000FF000000FFFF00FF000000FF00FF00FFFF0000FFFFFF00000000000000000000000000000000000000000000000000000000000000000000000000000000000000000000000000F9000000000000000000000000000000000000000000000000000000000000
310
00F90000000000000000000000000000000000000000FF00000000000000000000F90000000000000000000000000000000000000000FF00000000000000000000F90000000000000000000000000000000000000000FF00000000000000000000F90000000000000000000000000000000000000000FF0000000000000000
310
0000F90000000000000000000000000000000000000000FF00000000000000000000F90000000000000000000000000000000000000000FF00000000000000000000F90000000000000000000000000000000000000000FF00000000000000000000F90000000000000000000000000000000000000000FF00000000000000
310
000000F90000000000000000000000000000000000000000FF00000000000000000000F90000000000000000000000000000000000000000FF00000000000000000000F90000000000000000000000000000000000000000FF00000000000000000000F90000000000000000000000000000000000000000FF000000FFFFFF
310
FFFFFFFFFFFFFFFFFFFFFF00000000000000000000000000FF0000FFFF00000000000000F9000000000000FFFF0000000000000000000000FFFFFFFFFFFFFFFFFFFFFFFFFFFFFFFFFFFFFFFFFFFFFF000000000000000000FF00FE000000000000000000F90000000000000000FEFF000000000000000000FF00FE00000000
310
0000000000F90000000000000000FEFF000000000000000000FF00FE000000000000000000F90000000000000000FEFF000000000000000000FF00FE000000000000000000F90000000000000000FEFF000000000000000000FFFE00000000000000000000F9000000000000000000FEFF0000000000000000FFFE00000000
310
000000000000F9000000000000000000FEFF0000000000000000FFFE00000000000000000000F9000000000000000000FEFF0000000000000000FFFE00000000000000000000F9000000000000000000FEFF0000000000000000FFFFFFFFFFFFFFFFFFFFFFFFFFFFFFFFFFFFFFFFFFFFFFFF000000000000000000FFFF0000
310
00000000000000F90000000000000000FFFF000000000000000000000000000000000000000000F900000000000000000000000000000000000000000000000000000000000000F900000000000000000000000000000000000000000000000000000000000000F90000000000000000000000000000000000000000000000
310
0000000000000000F90000000000000000000000000000000000000000000000000000000000000000000000000000000000000000000000
102
{BLKREFS
331
4ECA
102
}
 70
     4
280
     1
281
     0
  0
BLOCK_RECORD
  5
4DDE
102
{ACAD_XDICTIONARY
360
4E0D
102
}
330
1
100
AcDbSymbolTableRecord
100
AcDbBlockTableRecord
  2
ロッカクアナツキプラグB R1
340
0
310
2800000020000000200000000100080000000000000400000000000000000000000000000000000000000000000080000080000000808000800000008000800080800000C0C0C000C0DCC000F0CAA6000020400000206000002080000020A0000020C0000020E00000400000004020000040400000406000004080000040A0
310
000040C0000040E00000600000006020000060400000606000006080000060A0000060C0000060E00000800000008020000080400000806000008080000080A0000080C0000080E00000A0000000A0200000A0400000A0600000A0800000A0A00000A0C00000A0E00000C0000000C0200000C0400000C0600000C0800000C0
310
A00000C0C00000C0E00000E0000000E0200000E0400000E0600000E0800000E0A00000E0C00000E0E00040000000400020004000400040006000400080004000A0004000C0004000E00040200000402020004020400040206000402080004020A0004020C0004020E000404000004040200040404000404060004040800040
310
40A0004040C0004040E00040600000406020004060400040606000406080004060A0004060C0004060E00040800000408020004080400040806000408080004080A0004080C0004080E00040A0000040A0200040A0400040A0600040A0800040A0A00040A0C00040A0E00040C0000040C0200040C0400040C0600040C08000
310
40C0A00040C0C00040C0E00040E0000040E0200040E0400040E0600040E0800040E0A00040E0C00040E0E00080000000800020008000400080006000800080008000A0008000C0008000E00080200000802020008020400080206000802080008020A0008020C0008020E00080400000804020008040400080406000804080
310
008040A0008040C0008040E00080600000806020008060400080606000806080008060A0008060C0008060E00080800000808020008080400080806000808080008080A0008080C0008080E00080A0000080A0200080A0400080A0600080A0800080A0A00080A0C00080A0E00080C0000080C0200080C0400080C0600080C0
310
800080C0A00080C0C00080C0E00080E0000080E0200080E0400080E0600080E0800080E0A00080E0C00080E0E000C0000000C0002000C0004000C0006000C0008000C000A000C000C000C000E000C0200000C0202000C0204000C0206000C0208000C020A000C020C000C020E000C0400000C0402000C0404000C0406000C0
310
408000C040A000C040C000C040E000C0600000C0602000C0604000C0606000C0608000C060A000C060C000C060E000C0800000C0802000C0804000C0806000C0808000C080A000C080C000C080E000C0A00000C0A02000C0A04000C0A06000C0A08000C0A0A000C0A0C000C0A0E000C0C00000C0C02000C0C04000C0C06000
310
C0C08000C0C0A000F0FBFF00A4A0A000808080000000FF0000FF000000FFFF00FF000000FF00FF00FFFF0000FFFFFF00000000000000000000000000000000000000000000000000000000000000000000000000000000000000000000000000F9000000000000000000000000000000000000000000000000000000000000
310
00F90000000000000000000000000000000000000000FF00000000000000000000F90000000000000000000000000000000000000000FF00000000000000000000F90000000000000000000000000000000000000000FF00000000000000000000F90000000000000000000000000000000000000000FF0000000000000000
310
0000F90000000000000000000000000000000000000000FF00000000000000000000F90000000000000000000000000000000000000000FF00000000000000000000F90000000000000000000000000000000000000000FF00000000000000000000F90000000000000000000000000000000000000000FF00000000000000
310
000000F90000000000000000000000000000000000000000FF00000000000000000000F90000000000000000000000000000000000000000FF00000000000000000000F90000000000000000000000000000000000000000FF00000000000000000000F90000000000000000000000000000000000000000FF000000FFFFFF
310
FFFFFFFFFFFFFFFFFFFFFF00000000000000000000000000FF0000FFFF00000000000000F9000000000000FFFF0000000000000000000000FFFFFFFFFFFFFFFFFFFFFFFFFFFFFFFFFFFFFFFFFFFFFF000000000000000000FF00FE000000000000000000F90000000000000000FEFF000000000000000000FF00FE00000000
310
0000000000F90000000000000000FEFF000000000000000000FF00FE000000000000000000F90000000000000000FEFF000000000000000000FF00FE000000000000000000F90000000000000000FEFF000000000000000000FFFE00000000000000000000F9000000000000000000FEFF0000000000000000FFFE00000000
310
000000000000F9000000000000000000FEFF0000000000000000FFFE00000000000000000000F9000000000000000000FEFF0000000000000000FFFE00000000000000000000F9000000000000000000FEFF0000000000000000FFFFFFFFFFFFFFFFFFFFFFFFFFFFFFFFFFFFFFFFFFFFFFFF000000000000000000FFFF0000
310
00000000000000F90000000000000000FFFF000000000000000000000000000000000000000000F900000000000000000000000000000000000000000000000000000000000000F900000000000000000000000000000000000000000000000000000000000000F90000000000000000000000000000000000000000000000
310
0000000000000000F90000000000000000000000000000000000000000000000000000000000000000000000000000000000000000000000
102
{BLKREFS
331
4FF8
102
}
 70
     4
280
     1
281
     0
  0
BLOCK_RECORD
  5
4E8E
102
{ACAD_XDICTIONARY
360
4F4A
102
}
330
1
100
AcDbSymbolTableRecord
100
AcDbBlockTableRecord
  2
ケースＡ CCMH1400
340
0
310
2800000020000000200000000100080000000000000400000000000000000000000000000000000000000000000080000080000000808000800000008000800080800000C0C0C000C0DCC000F0CAA6000020400000206000002080000020A0000020C0000020E00000400000004020000040400000406000004080000040A0
310
000040C0000040E00000600000006020000060400000606000006080000060A0000060C0000060E00000800000008020000080400000806000008080000080A0000080C0000080E00000A0000000A0200000A0400000A0600000A0800000A0A00000A0C00000A0E00000C0000000C0200000C0400000C0600000C0800000C0
310
A00000C0C00000C0E00000E0000000E0200000E0400000E0600000E0800000E0A00000E0C00000E0E00040000000400020004000400040006000400080004000A0004000C0004000E00040200000402020004020400040206000402080004020A0004020C0004020E000404000004040200040404000404060004040800040
310
40A0004040C0004040E00040600000406020004060400040606000406080004060A0004060C0004060E00040800000408020004080400040806000408080004080A0004080C0004080E00040A0000040A0200040A0400040A0600040A0800040A0A00040A0C00040A0E00040C0000040C0200040C0400040C0600040C08000
310
40C0A00040C0C00040C0E00040E0000040E0200040E0400040E0600040E0800040E0A00040E0C00040E0E00080000000800020008000400080006000800080008000A0008000C0008000E00080200000802020008020400080206000802080008020A0008020C0008020E00080400000804020008040400080406000804080
310
008040A0008040C0008040E00080600000806020008060400080606000806080008060A0008060C0008060E00080800000808020008080400080806000808080008080A0008080C0008080E00080A0000080A0200080A0400080A0600080A0800080A0A00080A0C00080A0E00080C0000080C0200080C0400080C0600080C0
310
800080C0A00080C0C00080C0E00080E0000080E0200080E0400080E0600080E0800080E0A00080E0C00080E0E000C0000000C0002000C0004000C0006000C0008000C000A000C000C000C000E000C0200000C0202000C0204000C0206000C0208000C020A000C020C000C020E000C0400000C0402000C0404000C0406000C0
310
408000C040A000C040C000C040E000C0600000C0602000C0604000C0606000C0608000C060A000C060C000C060E000C0800000C0802000C0804000C0806000C0808000C080A000C080C000C080E000C0A00000C0A02000C0A04000C0A06000C0A08000C0A0A000C0A0C000C0A0E000C0C00000C0C02000C0C04000C0C06000
310
C0C08000C0C0A000F0FBFF00A4A0A000808080000000FF0000FF000000FFFF00FF000000FF00FF00FFFF0000FFFFFF00000000000000000000000000000000000000000000000000000000000000000000000000000000000000000000FFFF000000000000000000000000000000000000000000000000000000000000FFFF
310
000000000000000000000000000000000000000000000000000000000000FFFFFFFFFFFFFFFFFF0000000000000000000000000000000000000000000000FFFF00000000FFFF000000000000000000000000000000000000000000000000FFFF00000000FFFF000000000000000000000000000000000000000000000000FF
310
FF00000000FFFF000000000000000000000000000000000000000000000000FFFF00000000FFFF000000000000000000000000000000000000000000000000FFFF00000000FFFF000000000000000000000000000000000000000000000000FFFF00000000FFFF000000000000000000000000000000000000000000000000
310
FFFF00000000FFFF000000000000000000000000000000000000000000000000FFFF00000000FFFF000000000000000000000000000000000000000000000000FFFF00000000FFFF000000000000000000000000000000000000000000000000FFFF00000000FFFF0000000000000000000000000000000000000000000000
310
00FFFF00000000FFFF00000000000000000000000000000000000000000000000000000000000000000000000000000000000000000000000000000000000000000000000000000000000000000000000000000000000000000000000000000000000000000000000000000000000000000000000000000000000000000000
310
00000000000000000000000000000000000000000000000000000000000000000000000000000000000000000000000000000000000000000000000000000000000000000000000000000000000000000000000000000000000000000000000000000000000000000000000000000000000000000000000000000000000000
310
0000000000000000000000000000000000000000000000000000000000000000000000000000000000000000000000000000000000000000000000000000000000000000000000000000000000000000000000000000000000000000000000000000FFFFFFFFFFFFFFFFFF0000000000000000000000000000000000000000
310
000000FFFFFFFFFFFFFFFFFFFF0000000000000000000000000000000000000000F9FFFFFFFFF90000000000000000000000000000000000000000000000000000000000FA0000000000000000000000000000000000000000000000000000000000000000FA00000000000000000000000000000000000000000000000000
310
000000000000FA00000000000000000000000000000000000000000000000000000000000000000000000000000000000000000000000000
102
{BLKREFS
331
5122
102
}
 70
     4
280
     1
281
     0
  0
BLOCK_RECORD
  5
4FC3
102
{ACAD_XDICTIONARY
360
506F
102
}
330
1
100
AcDbSymbolTableRecord
100
AcDbBlockTableRecord
  2
ケースＢ CCMH1400
340
0
310
2800000020000000200000000100080000000000000400000000000000000000000000000000000000000000000080000080000000808000800000008000800080800000C0C0C000C0DCC000F0CAA6000020400000206000002080000020A0000020C0000020E00000400000004020000040400000406000004080000040A0
310
000040C0000040E00000600000006020000060400000606000006080000060A0000060C0000060E00000800000008020000080400000806000008080000080A0000080C0000080E00000A0000000A0200000A0400000A0600000A0800000A0A00000A0C00000A0E00000C0000000C0200000C0400000C0600000C0800000C0
310
A00000C0C00000C0E00000E0000000E0200000E0400000E0600000E0800000E0A00000E0C00000E0E00040000000400020004000400040006000400080004000A0004000C0004000E00040200000402020004020400040206000402080004020A0004020C0004020E000404000004040200040404000404060004040800040
310
40A0004040C0004040E00040600000406020004060400040606000406080004060A0004060C0004060E00040800000408020004080400040806000408080004080A0004080C0004080E00040A0000040A0200040A0400040A0600040A0800040A0A00040A0C00040A0E00040C0000040C0200040C0400040C0600040C08000
310
40C0A00040C0C00040C0E00040E0000040E0200040E0400040E0600040E0800040E0A00040E0C00040E0E00080000000800020008000400080006000800080008000A0008000C0008000E00080200000802020008020400080206000802080008020A0008020C0008020E00080400000804020008040400080406000804080
310
008040A0008040C0008040E00080600000806020008060400080606000806080008060A0008060C0008060E00080800000808020008080400080806000808080008080A0008080C0008080E00080A0000080A0200080A0400080A0600080A0800080A0A00080A0C00080A0E00080C0000080C0200080C0400080C0600080C0
310
800080C0A00080C0C00080C0E00080E0000080E0200080E0400080E0600080E0800080E0A00080E0C00080E0E000C0000000C0002000C0004000C0006000C0008000C000A000C000C000C000E000C0200000C0202000C0204000C0206000C0208000C020A000C020C000C020E000C0400000C0402000C0404000C0406000C0
310
408000C040A000C040C000C040E000C0600000C0602000C0604000C0606000C0608000C060A000C060C000C060E000C0800000C0802000C0804000C0806000C0808000C080A000C080C000C080E000C0A00000C0A02000C0A04000C0A06000C0A08000C0A0A000C0A0C000C0A0E000C0C00000C0C02000C0C04000C0C06000
310
C0C08000C0C0A000F0FBFF00A4A0A000808080000000FF0000FF000000FFFF00FF000000FF00FF00FFFF0000FFFFFF000000000000000000000000000000000000000000000000000000000000000000000000000000000000000000000000000000FFFF000000000000000000000000000000000000000000000000000000
310
000000F9F9F9F90000000000000000000000000000000000000000FFFFFFFFFFFFFFFFFF000000000000000000000000000000000000000000000000FFFFFF00000000FF000000000000000000000000000000000000000000000000FFFFFF00000000FF000000000000000000000000000000000000000000000000FFFFFF
310
00000000FF000000000000000000000000000000000000000000000000FFFFFF00000000FF000000000000000000000000000000000000000000000000FFFFFF00000000FF000000000000000000000000000000000000000000000000FFFFFF00000000FF000000000000000000000000000000000000000000000000FFFF
310
FF00000000FF000000000000000000000000000000000000000000000000FFFFFF00000000FF000000000000000000000000000000000000000000000000FFFFFF00000000FF000000000000000000000000000000000000000000000000FFFFFF00000000FF000000000000000000000000000000000000000000000000FF
310
FFFF00000000FF000000000000000000000000000000000000000000000000FFFFFF00000000FF000000000000000000000000000000000000000000000000FFFFFF00000000FF0000000000000000000000000000000000000000000000000000000000000000000000000000000000000000000000000000000000000000
310
00000000000000000000000000000000000000000000000000000000000000000000000000000000000000000000000000000000000000000000000000000000000000000000000000000000000000000000000000000000000000000000000000000000000000000000000000000000000000000000000000000000000000
310
00000000000000000000000000000000000000000000000000000000000000000000000000000000000000000000000000000000000000000000000000000000000000000000000000000000000000000000000000000000000000000000000000000000000000000000000000000000000000000000000000000000000000
310
00000000000000000000000000000000000000000000000000000000000000000000FFFFFFFFFFFFFFFFFF00000000000000000000000000000000000000000000FFFFFFFFFFFFFFFFFFFFFFFF00000000000000000000000000000000000000000000000000000000FFFF0000000000000000000000000000000000000000
310
00000000000000000000FFFF0000000000000000000000000000000000000000000000000000000000000000000000000000000000000000
102
{BLKREFS
331
4FFA
102
}
 70
     4
280
     1
281
     0
  0
BLOCK_RECORD
  5
50C6
102
{ACAD_XDICTIONARY
360
5151
102
}
330
1
100
AcDbSymbolTableRecord
100
AcDbBlockTableRecord
  2
センタＡ CCMH1400
340
0
310
2800000020000000200000000100080000000000000400000000000000000000000000000000000000000000000080000080000000808000800000008000800080800000C0C0C000C0DCC000F0CAA6000020400000206000002080000020A0000020C0000020E00000400000004020000040400000406000004080000040A0
310
000040C0000040E00000600000006020000060400000606000006080000060A0000060C0000060E00000800000008020000080400000806000008080000080A0000080C0000080E00000A0000000A0200000A0400000A0600000A0800000A0A00000A0C00000A0E00000C0000000C0200000C0400000C0600000C0800000C0
310
A00000C0C00000C0E00000E0000000E0200000E0400000E0600000E0800000E0A00000E0C00000E0E00040000000400020004000400040006000400080004000A0004000C0004000E00040200000402020004020400040206000402080004020A0004020C0004020E000404000004040200040404000404060004040800040
310
40A0004040C0004040E00040600000406020004060400040606000406080004060A0004060C0004060E00040800000408020004080400040806000408080004080A0004080C0004080E00040A0000040A0200040A0400040A0600040A0800040A0A00040A0C00040A0E00040C0000040C0200040C0400040C0600040C08000
310
40C0A00040C0C00040C0E00040E0000040E0200040E0400040E0600040E0800040E0A00040E0C00040E0E00080000000800020008000400080006000800080008000A0008000C0008000E00080200000802020008020400080206000802080008020A0008020C0008020E00080400000804020008040400080406000804080
310
008040A0008040C0008040E00080600000806020008060400080606000806080008060A0008060C0008060E00080800000808020008080400080806000808080008080A0008080C0008080E00080A0000080A0200080A0400080A0600080A0800080A0A00080A0C00080A0E00080C0000080C0200080C0400080C0600080C0
310
800080C0A00080C0C00080C0E00080E0000080E0200080E0400080E0600080E0800080E0A00080E0C00080E0E000C0000000C0002000C0004000C0006000C0008000C000A000C000C000C000E000C0200000C0202000C0204000C0206000C0208000C020A000C020C000C020E000C0400000C0402000C0404000C0406000C0
310
408000C040A000C040C000C040E000C0600000C0602000C0604000C0606000C0608000C060A000C060C000C060E000C0800000C0802000C0804000C0806000C0808000C080A000C080C000C080E000C0A00000C0A02000C0A04000C0A06000C0A08000C0A0A000C0A0C000C0A0E000C0C00000C0C02000C0C04000C0C06000
310
C0C08000C0C0A000F0FBFF00A4A0A000808080000000FF0000FF000000FFFF00FF000000FF00FF00FFFF0000FFFFFF000000000000000000000000000000000000000000000000000000000000000000000000000000000000FFFF000000000000000000000000000000000000000000000000000000000000FFFF00000000
310
0000000000000000000000000000000000000000000000000000FFFFFFFFFFFFFFFFFF0000000000000000000000000000000000000000000000FFFF00000000FFFFFFFF00000000000000000000000000000000000000000000FFFF00000000FFFFFFFFFFFFFFFFFFFF00000000000000000000000000000000FFFF000000
310
00FFFFFFFF0000000000FF00000000000000000000000000000000FFFF00000000FFFFFFFF0000000000FF00000000000000000000000000000000FFFF00000000FFFFFFFF0000000000FF00000000000000000000000000000000FFFF00000000FFFFFFFF0000000000FF00000000000000000000000000000000FFFF0000
310
0000FFFFFFFF0000000000FF00000000000000000000000000000000FFFF00000000FFFFFFFF0000000000FF00000000000000000000000000000000FFFF00000000FFFFFFFF0000000000FF00000000000000000000000000000000FFFF00000000FFFFFFFF0000000000FF00000000000000000000000000000000FFFFA4
310
A40000FFFFFFFF000000A4A4FF0000000000000000000000000000000000A4A40000000000000000000000A4A40000000000000000000000000000000000FF00000000000000000000000000FF0000000000000000000000000000000000FF00000000000000000000000000FF0000000000000000000000000000000000FF
310
00000000000000000000000000FF0000000000000000000000000000000000FF00000000000000000000000000FF0000000000000000000000000000000000FF00000000000000000000000000FF0000000000000000000000000000000000FFFFFFFFFFFFFFFFFFFFFFFFFFFFFF0000000000000000000000000000000000
310
FF00000000000000000000000000FF0000000000000000000000000000000000FF00000000000000000000000000FF0000000000000000000000000000000000FFFFFFFF0000FFFFFFFFFFFFFFFFFF00000000000000000000000000000000FFFFFFFFFFA4A4FFFF0000000000000000000000000000000000000000000000
310
FFFFFFFFFFFFFFFFFF000000000000000000000000000000000000000000F9F9FFFFF9000000000000000000000000000000000000000000000000000000000000FA0000000000000000000000000000000000000000000000000000000000000000FA00000000000000000000000000000000000000000000000000000000
310
000000FA00000000000000000000000000000000000000000000000000000000000000000000000000000000000000000000000000000000
102
{BLKREFS
331
50F5
102
}
 70
     4
280
     1
281
     0
  0
BLOCK_RECORD
  5
52BB
102
{ACAD_XDICTIONARY
360
5351
102
}
330
1
100
AcDbSymbolTableRecord
100
AcDbBlockTableRecord
  2
リーマボルト CCMH1400 M42
340
0
310
2800000020000000200000000100080000000000000400000000000000000000000000000000000000000000000080000080000000808000800000008000800080800000C0C0C000C0DCC000F0CAA6000020400000206000002080000020A0000020C0000020E00000400000004020000040400000406000004080000040A0
310
000040C0000040E00000600000006020000060400000606000006080000060A0000060C0000060E00000800000008020000080400000806000008080000080A0000080C0000080E00000A0000000A0200000A0400000A0600000A0800000A0A00000A0C00000A0E00000C0000000C0200000C0400000C0600000C0800000C0
310
A00000C0C00000C0E00000E0000000E0200000E0400000E0600000E0800000E0A00000E0C00000E0E00040000000400020004000400040006000400080004000A0004000C0004000E00040200000402020004020400040206000402080004020A0004020C0004020E000404000004040200040404000404060004040800040
310
40A0004040C0004040E00040600000406020004060400040606000406080004060A0004060C0004060E00040800000408020004080400040806000408080004080A0004080C0004080E00040A0000040A0200040A0400040A0600040A0800040A0A00040A0C00040A0E00040C0000040C0200040C0400040C0600040C08000
310
40C0A00040C0C00040C0E00040E0000040E0200040E0400040E0600040E0800040E0A00040E0C00040E0E00080000000800020008000400080006000800080008000A0008000C0008000E00080200000802020008020400080206000802080008020A0008020C0008020E00080400000804020008040400080406000804080
310
008040A0008040C0008040E00080600000806020008060400080606000806080008060A0008060C0008060E00080800000808020008080400080806000808080008080A0008080C0008080E00080A0000080A0200080A0400080A0600080A0800080A0A00080A0C00080A0E00080C0000080C0200080C0400080C0600080C0
310
800080C0A00080C0C00080C0E00080E0000080E0200080E0400080E0600080E0800080E0A00080E0C00080E0E000C0000000C0002000C0004000C0006000C0008000C000A000C000C000C000E000C0200000C0202000C0204000C0206000C0208000C020A000C020C000C020E000C0400000C0402000C0404000C0406000C0
310
408000C040A000C040C000C040E000C0600000C0602000C0604000C0606000C0608000C060A000C060C000C060E000C0800000C0802000C0804000C0806000C0808000C080A000C080C000C080E000C0A00000C0A02000C0A04000C0A06000C0A08000C0A0A000C0A0C000C0A0E000C0C00000C0C02000C0C04000C0C06000
310
C0C08000C0C0A000F0FBFF00A4A0A000808080000000FF0000FF000000FFFF00FF000000FF00FF00FFFF0000FFFFFF0000000000000000000000000000000000000000000000000000000000000000000000000000000000000000000000000000000000000000000000000000000000000000000000000000000000000000
310
00000000000000000000000000000000000000000000000000000000000000000000000000000000000000000000000000000000000000000000000000000000000000000000000000000000000000000000000000000000000000000000000000000000000000000000000000000000000000000000000000000000000000
310
00000000000000000000000000000000000000000000000000000000000000000000000000000000000000000000000000000000000000000000000000000000000000000000000000000000000000000000000000000000000000000000000000000000000000000000000000000000000000000000000000000000000000
310
00000000000000000000000000000000000000000000FFFFFFFFFFFF0000000000000000000000000000000000FFFFFFFFFF00000000FF000000FF000000000000000000000000000000000000FF0000FFFF0000FFFFFFFFFFFFFFFFFF00000000000000000000000000000000FFFFFFFFFF0000FFFFFF000000FF00FF0000
310
0000000000000000000000000000FF0000FFFF0000FFFFFF000000FF00FF00000000000000000000000000000000FF0000FFFF0000FFFFFF000000FFFFFF00000000000000000000000000000000FF0000FFFF0000FFFFFF000000FF00FF00000000000000000000000000000000FF0000FFFF0000FFFFFFFFFFFFFFFFFF00
310
000000000000000000000000000000FFFFFFFFFF00000000FF000000FF000000000000000000000000000000000000FF0000FFFF00000000FFFFFFFFFFFF0000000000000000000000000000000000FFFFFFFFFF00000000000000000000000000000000000000000000000000000000000000000000000000000000000000
310
00000000000000000000000000000000000000000000000000000000000000000000000000000000000000000000000000000000000000000000000000000000000000000000000000000000000000000000000000000000000000000000000000000000000000000000000000000000000000000000000000000000000000
310
00000000000000000000000000000000000000000000000000000000000000000000000000000000000000000000000000000000000000000000000000000000000000000000000000000000000000000000000000000000000000000000000000000000000000000000000000000000000000000000000000000000000000
310
0000000000000000000000000000000000000000000000000000000000000000000000000000000000000000000000000000000000000000
102
{BLKREFS
331
52EB
102
}
 70
     4
280
     1
281
     0
  0
BLOCK_RECORD
  5
53F2
102
{ACAD_XDICTIONARY
360
54A5
102
}
330
1
100
AcDbSymbolTableRecord
100
AcDbBlockTableRecord
  2
ＧＣサイドカバ－A CCMH1400
340
0
310
2800000020000000200000000100080000000000000400000000000000000000000000000000000000000000000080000080000000808000800000008000800080800000C0C0C000C0DCC000F0CAA6000020400000206000002080000020A0000020C0000020E00000400000004020000040400000406000004080000040A0
310
000040C0000040E00000600000006020000060400000606000006080000060A0000060C0000060E00000800000008020000080400000806000008080000080A0000080C0000080E00000A0000000A0200000A0400000A0600000A0800000A0A00000A0C00000A0E00000C0000000C0200000C0400000C0600000C0800000C0
310
A00000C0C00000C0E00000E0000000E0200000E0400000E0600000E0800000E0A00000E0C00000E0E00040000000400020004000400040006000400080004000A0004000C0004000E00040200000402020004020400040206000402080004020A0004020C0004020E000404000004040200040404000404060004040800040
310
40A0004040C0004040E00040600000406020004060400040606000406080004060A0004060C0004060E00040800000408020004080400040806000408080004080A0004080C0004080E00040A0000040A0200040A0400040A0600040A0800040A0A00040A0C00040A0E00040C0000040C0200040C0400040C0600040C08000
310
40C0A00040C0C00040C0E00040E0000040E0200040E0400040E0600040E0800040E0A00040E0C00040E0E00080000000800020008000400080006000800080008000A0008000C0008000E00080200000802020008020400080206000802080008020A0008020C0008020E00080400000804020008040400080406000804080
310
008040A0008040C0008040E00080600000806020008060400080606000806080008060A0008060C0008060E00080800000808020008080400080806000808080008080A0008080C0008080E00080A0000080A0200080A0400080A0600080A0800080A0A00080A0C00080A0E00080C0000080C0200080C0400080C0600080C0
310
800080C0A00080C0C00080C0E00080E0000080E0200080E0400080E0600080E0800080E0A00080E0C00080E0E000C0000000C0002000C0004000C0006000C0008000C000A000C000C000C000E000C0200000C0202000C0204000C0206000C0208000C020A000C020C000C020E000C0400000C0402000C0404000C0406000C0
310
408000C040A000C040C000C040E000C0600000C0602000C0604000C0606000C0608000C060A000C060C000C060E000C0800000C0802000C0804000C0806000C0808000C080A000C080C000C080E000C0A00000C0A02000C0A04000C0A06000C0A08000C0A0A000C0A0C000C0A0E000C0C00000C0C02000C0C04000C0C06000
310
C0C08000C0C0A000F0FBFF00A4A0A000808080000000FF0000FF000000FFFF00FF000000FF00FF00FFFF0000FFFFFF00000000000000000000000000000000000000000000000000000000000000000000000000000000000000000000000000FF0000000000000000000000000000000000000000000000000000000000F9
310
F9F9F9000000000000000000000000000000000000000000000000000000000000FF00000000000000000000000000000000000000000000000000000000000000FF00000000000000000000000000000000000000000000000000000000000000FF0000000000000000000000000000000000000000000000000000000000
310
0000FF00000000000000000000000000000000000000000000000000000000000000FF00000000000000000000000000000000000000000000000000000000000000FF00000000000000000000000000000000000000000000000000000000000000FF00000000000000000000000000000000000000000000000000000000
310
000000FF00000000000000000000000000000000000000000000000000000000000000FF00000000000000000000000000000000000000000000000000000000000000FF00000000000000000000000000000000000000000000000000000000000000FF000000000000000000000000000000000000000000000000000000
310
00000000FF00000000000000000000000000000000000000000000000000000000000000FF00000000000000000000000000000000000000000000000000000000000000FF00000000000000000000000000000000000000000000000000000000000000000000000000000000000000000000000000000000000000000000
310
00000000000000000000000000000000000000000000000000000000000000000000000000000000000000000000000000000000000000000000000000000000000000000000000000000000000000000000000000000000000000000000000000000000000000000000000000000000000000000000000000000000000000
310
00000000000000000000000000000000000000000000000000000000000000000000000000000000000000000000000000000000000000000000000000000000000000000000000000000000000000000000000000000000000000000000000000000000000000000000000000000000000000000000000000000000000000
310
00000000000000000000000000000000000000000000000000000000000000000000000000000000000000000000000000000000000000000000000000000000000000000000FFFF0000000000000000000000000000000000000000000000000000000000F9FFFFF900000000000000000000000000000000000000000000
310
00000000000000FFFFFF00000000000000000000000000000000000000000000000000000000000000000000000000000000000000000000
102
{BLKREFS
331
542C
102
}
 70
     4
280
     1
281
     0
  0
BLOCK_RECORD
  5
551C
102
{ACAD_XDICTIONARY
360
55C9
102
}
330
1
100
AcDbSymbolTableRecord
100
AcDbBlockTableRecord
  2
ＧＣサイドカバ－Ｂ CCMH1400
340
0
310
2800000020000000200000000100080000000000000400000000000000000000000000000000000000000000000080000080000000808000800000008000800080800000C0C0C000C0DCC000F0CAA6000020400000206000002080000020A0000020C0000020E00000400000004020000040400000406000004080000040A0
310
000040C0000040E00000600000006020000060400000606000006080000060A0000060C0000060E00000800000008020000080400000806000008080000080A0000080C0000080E00000A0000000A0200000A0400000A0600000A0800000A0A00000A0C00000A0E00000C0000000C0200000C0400000C0600000C0800000C0
310
A00000C0C00000C0E00000E0000000E0200000E0400000E0600000E0800000E0A00000E0C00000E0E00040000000400020004000400040006000400080004000A0004000C0004000E00040200000402020004020400040206000402080004020A0004020C0004020E000404000004040200040404000404060004040800040
310
40A0004040C0004040E00040600000406020004060400040606000406080004060A0004060C0004060E00040800000408020004080400040806000408080004080A0004080C0004080E00040A0000040A0200040A0400040A0600040A0800040A0A00040A0C00040A0E00040C0000040C0200040C0400040C0600040C08000
310
40C0A00040C0C00040C0E00040E0000040E0200040E0400040E0600040E0800040E0A00040E0C00040E0E00080000000800020008000400080006000800080008000A0008000C0008000E00080200000802020008020400080206000802080008020A0008020C0008020E00080400000804020008040400080406000804080
310
008040A0008040C0008040E00080600000806020008060400080606000806080008060A0008060C0008060E00080800000808020008080400080806000808080008080A0008080C0008080E00080A0000080A0200080A0400080A0600080A0800080A0A00080A0C00080A0E00080C0000080C0200080C0400080C0600080C0
310
800080C0A00080C0C00080C0E00080E0000080E0200080E0400080E0600080E0800080E0A00080E0C00080E0E000C0000000C0002000C0004000C0006000C0008000C000A000C000C000C000E000C0200000C0202000C0204000C0206000C0208000C020A000C020C000C020E000C0400000C0402000C0404000C0406000C0
310
408000C040A000C040C000C040E000C0600000C0602000C0604000C0606000C0608000C060A000C060C000C060E000C0800000C0802000C0804000C0806000C0808000C080A000C080C000C080E000C0A00000C0A02000C0A04000C0A06000C0A08000C0A0A000C0A0C000C0A0E000C0C00000C0C02000C0C04000C0C06000
310
C0C08000C0C0A000F0FBFF00A4A0A000808080000000FF0000FF000000FFFF00FF000000FF00FF00FFFF0000FFFFFF000000000000000000000000000000000000000000000000000000000000000000000000000000000000000000000000FFFF0000000000000000000000000000000000000000000000000000000000F9
310
FFF9F90000000000000000000000000000000000000000000000000000000000FF00000000000000000000000000000000000000000000000000000000000000FF00000000000000000000000000000000000000000000000000000000000000FF000000000000000000000000000000000000000000000000000000000000
310
00FF00000000000000000000000000000000000000000000000000000000000000FF00000000000000000000000000000000000000000000000000000000000000FF00000000000000000000000000000000000000000000000000000000000000FF0000000000000000000000000000000000000000000000000000000000
310
0000FF00000000000000000000000000000000000000000000000000000000000000FF00000000000000000000000000000000000000000000000000000000000000FF00000000000000000000000000000000000000000000000000000000000000FF00000000000000000000000000000000000000000000000000000000
310
000000FF00000000000000000000000000000000000000000000000000000000000000FF00000000000000000000000000000000000000000000000000000000000000FF0000000000000000000000000000000000000000000000000000000000000000000000000000000000000000000000000000000000000000000000
310
00000000000000000000000000000000000000000000000000000000000000000000000000000000000000000000000000000000000000000000000000000000000000000000000000000000000000000000000000000000000000000000000000000000000000000000000000000000000000000000000000000000000000
310
00000000000000000000000000000000000000000000000000000000000000000000000000000000000000000000000000000000000000000000000000000000000000000000000000000000000000000000000000000000000000000000000000000000000000000000000000000000000000000000000000000000000000
310
00000000000000000000000000000000000000000000000000000000000000000000000000000000000000000000000000000000000000000000000000000000000000000000FFFF0000000000000000000000000000000000000000000000000000000000FFFFFFFF00000000000000000000000000000000000000000000
310
000000000000FFFFFF0000000000000000000000000000000000000000000000000000000000000000000000000000000000000000000000
102
{BLKREFS
331
5554
102
}
 70
     4
280
     1
281
     0
  0
BLOCK_RECORD
  5
5A3B
330
1
100
AcDbSymbolTableRecord
100
AcDbBlockTableRecord
  2
*D15
340
0
 70
     0
280
     1
281
     0
  0
BLOCK_RECORD
  5
5AF1
330
1
100
AcDbSymbolTableRecord
100
AcDbBlockTableRecord
  2
*D16
340
0
 70
     0
280
     1
281
     0
  0
BLOCK_RECORD
  5
5C6A
330
1
100
AcDbSymbolTableRecord
100
AcDbBlockTableRecord
  2
*D17
340
0
 70
     0
280
     1
281
     0
  0
BLOCK_RECORD
  5
5C9A
330
1
100
AcDbSymbolTableRecord
100
AcDbBlockTableRecord
  2
*D18
340
0
 70
     0
280
     1
281
     0
  0
BLOCK_RECORD
  5
5CB2
330
1
100
AcDbSymbolTableRecord
100
AcDbBlockTableRecord
  2
*D19
340
0
 70
     0
280
     1
281
     0
  0
BLOCK_RECORD
  5
5D00
330
1
100
AcDbSymbolTableRecord
100
AcDbBlockTableRecord
  2
*D20
340
0
 70
     0
280
     1
281
     0
  0
BLOCK_RECORD
  5
5D1C
330
1
100
AcDbSymbolTableRecord
100
AcDbBlockTableRecord
  2
*D21
340
0
 70
     0
280
     1
281
     0
  0
BLOCK_RECORD
  5
5D76
330
1
100
AcDbSymbolTableRecord
100
AcDbBlockTableRecord
  2
*D22
340
0
 70
     0
280
     1
281
     0
  0
BLOCK_RECORD
  5
5DBE
330
1
100
AcDbSymbolTableRecord
100
AcDbBlockTableRecord
  2
*D23
340
0
 70
     0
280
     1
281
     0
  0
BLOCK_RECORD
  5
61CF
330
1
100
AcDbSymbolTableRecord
100
AcDbBlockTableRecord
  2
*D24
340
0
 70
     0
280
     1
281
     0
  0
BLOCK_RECORD
  5
61E7
330
1
100
AcDbSymbolTableRecord
100
AcDbBlockTableRecord
  2
*D25
340
0
 70
     0
280
     1
281
     0
  0
BLOCK_RECORD
  5
6203
330
1
100
AcDbSymbolTableRecord
100
AcDbBlockTableRecord
  2
*D26
340
0
 70
     0
280
     1
281
     0
  0
BLOCK_RECORD
  5
7335
330
1
100
AcDbSymbolTableRecord
100
AcDbBlockTableRecord
  2
*D27
340
0
 70
     0
280
     1
281
     0
  0
BLOCK_RECORD
  5
7363
330
1
100
AcDbSymbolTableRecord
100
AcDbBlockTableRecord
  2
*D28
340
0
 70
     0
280
     1
281
     0
  0
BLOCK_RECORD
  5
755D
330
1
100
AcDbSymbolTableRecord
100
AcDbBlockTableRecord
  2
センタB CCMH1400
340
0
310
2800000020000000200000000100080000000000000400000000000000000000000000000000000000000000000080000080000000808000800000008000800080800000C0C0C000C0DCC000F0CAA6000020400000206000002080000020A0000020C0000020E00000400000004020000040400000406000004080000040A0
310
000040C0000040E00000600000006020000060400000606000006080000060A0000060C0000060E00000800000008020000080400000806000008080000080A0000080C0000080E00000A0000000A0200000A0400000A0600000A0800000A0A00000A0C00000A0E00000C0000000C0200000C0400000C0600000C0800000C0
310
A00000C0C00000C0E00000E0000000E0200000E0400000E0600000E0800000E0A00000E0C00000E0E00040000000400020004000400040006000400080004000A0004000C0004000E00040200000402020004020400040206000402080004020A0004020C0004020E000404000004040200040404000404060004040800040
310
40A0004040C0004040E00040600000406020004060400040606000406080004060A0004060C0004060E00040800000408020004080400040806000408080004080A0004080C0004080E00040A0000040A0200040A0400040A0600040A0800040A0A00040A0C00040A0E00040C0000040C0200040C0400040C0600040C08000
310
40C0A00040C0C00040C0E00040E0000040E0200040E0400040E0600040E0800040E0A00040E0C00040E0E00080000000800020008000400080006000800080008000A0008000C0008000E00080200000802020008020400080206000802080008020A0008020C0008020E00080400000804020008040400080406000804080
310
008040A0008040C0008040E00080600000806020008060400080606000806080008060A0008060C0008060E00080800000808020008080400080806000808080008080A0008080C0008080E00080A0000080A0200080A0400080A0600080A0800080A0A00080A0C00080A0E00080C0000080C0200080C0400080C0600080C0
310
800080C0A00080C0C00080C0E00080E0000080E0200080E0400080E0600080E0800080E0A00080E0C00080E0E000C0000000C0002000C0004000C0006000C0008000C000A000C000C000C000E000C0200000C0202000C0204000C0206000C0208000C020A000C020C000C020E000C0400000C0402000C0404000C0406000C0
310
408000C040A000C040C000C040E000C0600000C0602000C0604000C0606000C0608000C060A000C060C000C060E000C0800000C0802000C0804000C0806000C0808000C080A000C080C000C080E000C0A00000C0A02000C0A04000C0A06000C0A08000C0A0A000C0A0C000C0A0E000C0C00000C0C02000C0C04000C0C06000
310
C0C08000C0C0A000F0FBFF00A4A0A000808080000000FF0000FF000000FFFF00FF000000FF00FF00FFFF0000FFFFFF000000000000000000000000000000000000000000000000000000000000000000000000000000FFFFFFFFFFFFFFFFFFFF000000000000000000000000000000000000000000FF00000000000000FFFF
310
00000000000000000000000000000000000000000000FF00000000000000FFFF00000000000000000000000000000000000000000000FF00000000000000FFFF00000000000000000000000000000000000000000000FF00000000000000FFFF00000000000000000000000000000000000000000000FF00000000000000FF
310
FF00000000000000000000000000000000000000000000FF00000000000000FFFF00000000000000000000000000000000000000000000FF00000000000000FFFF00000000000000000000000000000000000000000000FF00000000000000FFFF00000000000000000000000000000000000000000000FF00000000000000
310
FFFF00000000000000000000000000000000000000000000FF00000000000000FFFF00000000000000000000000000000000000000000000FF00000000000000FFFF00000000000000000000000000000000000000000000FF00000000000000FFFF00000000000000000000000000000000000000000000FF000000000000
310
00FFFF00000000000000000000000000000000000000000000A4A4A4A400000000FFFF0000000000000000A4A4A4FF00000000000000000000A4A4A4A40000000000000000000000000000A4A4A4FF00000000000000000000FF0000000000000000000000000000000000000000FF00000000000000000000FF0000000000
310
000000000000000000000000000000FF00000000000000000000FF0000000000000000000000000000000000000000FF00000000000000000000FF0000000000000000000000000000000000000000FF00000000000000000000FF0000000000000000000000000000000000000000FF00000000000000000000FF00000000
310
00000000000000000000000000000000FF00000000000000000000FF0000000000000000000000000000000000000000FF00000000000000000000FFFFFFFFFFFFFFFFFFFFFFFFFFFFFFFFFFFFFFFFFFFF00000000000000000000FF0000000000000000000000000000000000000000FF00000000000000000000FF000000
310
0000000000000000000000000000000000FF00000000000000000000FF0000000000000000000000000000000000000000FF00000000000000000000FFFFFFFFFFFFFFFFFFFFFFFF00000000FFFFFFFFFFFF000000000000000000000000000000000000000000F9F9F9F9F9F9F90000000000000000000000000000000000
310
0000000000000000000000F90000000000000000000000000000000000000000000000000000000000000000000000000000000000000000
102
{BLKREFS
331
7585
102
}
 70
     4
280
     1
281
     1
  0
ENDTAB
  0
ENDSEC
  0
SECTION
  2
BLOCKS
  0
BLOCK
  5
20
330
1F
100
AcDbEntity
  8
0
100
AcDbBlockBegin
  2
*Model_Space
 70
     0
 10
0.0
 20
0.0
 30
0.0
  3
*Model_Space
  1

  0
ENDBLK
  5
21
330
1F
100
AcDbEntity
  8
0
100
AcDbBlockEnd
  0
BLOCK
  5
1C
330
1B
100
AcDbEntity
 67
     1
  8
0
100
AcDbBlockBegin
  2
*Paper_Space
 70
     0
 10
0.0
 20
0.0
 30
0.0
  3
*Paper_Space
  1

  0
ENDBLK
  5
1D
330
1B
100
AcDbEntity
 67
     1
  8
0
100
AcDbBlockEnd
  0
BLOCK
  5
24
330
23
100
AcDbEntity
 67
     1
  8
0
100
AcDbBlockBegin
  2
*Paper_Space0
 70
     0
 10
0.0
 20
0.0
 30
0.0
  3
*Paper_Space0
  1

  0
ENDBLK
  5
25
330
23
100
AcDbEntity
 67
     1
  8
0
100
AcDbBlockEnd
  0
BLOCK
  5
6D
330
69
100
AcDbEntity
  8
0
100
AcDbBlockBegin
  2
_Open30
 70
     0
 10
0.0
 20
0.0
 30
0.0
  3
_Open30
  1

  0
LINE
  5
6A
330
69
100
AcDbEntity
  8
0
  6
ByBlock
 62
     0
370
    -2
100
AcDbLine
 10
-1.0
 20
0.26794919
 30
0.0
 11
0.0
 21
0.0
 31
0.0
  0
LINE
  5
6B
330
69
100
AcDbEntity
  8
0
  6
ByBlock
 62
     0
370
    -2
100
AcDbLine
 10
0.0
 20
0.0
 30
0.0
 11
-1.0
 21
-0.26794919
 31
0.0
  0
LINE
  5
6C
330
69
100
AcDbEntity
  8
0
  6
ByBlock
 62
     0
370
    -2
100
AcDbLine
 10
0.0
 20
0.0
 30
0.0
 11
-1.0
 21
0.0
 31
0.0
  0
ENDBLK
  5
6E
330
69
100
AcDbEntity
  8
0
100
AcDbBlockEnd
  0
BLOCK
  5
76
330
74
100
AcDbEntity
  8
0
100
AcDbBlockBegin
  2
GENAXEH
 70
     0
 10
0.0
 20
0.0
 30
0.0
  3
GENAXEH
  1

  0
LINE
  5
75
330
74
100
AcDbEntity
  8
0
100
AcDbLine
 10
-1.0
 20
0.0
 30
0.0
 11
1.0
 21
0.0
 31
0.0
  0
ENDBLK
  5
77
330
74
100
AcDbEntity
  8
0
100
AcDbBlockEnd
  0
BLOCK
  5
2C8D
330
2C8C
100
AcDbEntity
  8
0
100
AcDbBlockBegin
  2
GENDOT
 70
     0
 10
0.0
 20
0.0
 30
0.0
  3
GENDOT
  1

  0
LINE
  5
2C8E
330
2C8C
100
AcDbEntity
  8
0
100
AcDbLine
 10
0.0
 20
0.0
 30
0.0
 11
-1.0
 21
0.0
 31
0.0
  0
LWPOLYLINE
  5
2C8F
330
2C8C
100
AcDbEntity
  8
0
100
AcDbPolyline
 90
        2
 70
     1
 43
0.25
 10
-0.125
 20
0.0
 42
1.0
 10
0.125
 20
0.0
 42
1.0
  0
ENDBLK
  5
2C90
330
2C8C
100
AcDbEntity
  8
0
100
AcDbBlockEnd
  0
BLOCK
  5
4D7F
330
4D7E
100
AcDbEntity
  8
0
100
AcDbBlockBegin
  2
ロッカクアナツキプラグA R1
 70
     0
 10
0.0
 20
0.0
 30
0.0
  3
ロッカクアナツキプラグA R1
  1

  0
LINE
  5
4D81
330
4D7E
100
AcDbEntity
  8
AM_0 外形線1
100
AcDbLine
 10
9.473152999999911
 20
-19.0
 30
0.0
 11
16.40135699999973
 21
-15.0
 31
0.0
  0
LINE
  5
4D83
330
4D7E
100
AcDbEntity
  8
AM_0 外形線1
100
AcDbLine
 10
-16.4013560000003
 20
-15.0
 30
0.0
 11
-9.473152999999911
 21
-19.0
 31
0.0
  0
LINE
  5
4D84
330
4D7E
100
AcDbEntity
  8
AM_7 中心線
100
AcDbLine
 10
0.0
 20
5.168250999999144
 30
0.0
 11
0.0
 21
-37.38536600000043
 31
0.0
  0
LINE
  5
4D85
330
4D7E
100
AcDbEntity
  8
AM_0 外形線1
100
AcDbLine
 10
-9.473152999999911
 20
-19.0
 30
0.0
 11
9.473152999999911
 21
-19.0
 31
0.0
  0
LINE
  5
4D86
330
4D7E
100
AcDbEntity
  8
AM_0 外形線1
100
AcDbLine
 10
16.40135699999973
 20
-15.0
 30
0.0
 11
16.83786599999985
 21
-2.5
 31
0.0
  0
LINE
  5
4D87
330
4D7E
100
AcDbEntity
  8
AM_0 外形線1
100
AcDbLine
 10
16.83786599999985
 20
-2.5
 30
0.0
 11
14.33786599999985
 21
0.0
 31
0.0
  0
LINE
  5
4D88
330
4D7E
100
AcDbEntity
  8
AM_4 細線
100
AcDbLine
 10
15.40877099999943
 20
-1.070905000000492
 30
0.0
 11
14.89192399999956
 21
-15.87147100000038
 31
0.0
  0
LINE
  5
4D89
330
4D7E
100
AcDbEntity
  8
AM_0 外形線1
100
AcDbLine
 10
-14.33786600000076
 20
0.0
 30
0.0
 11
-16.83786600000076
 21
-2.5
 31
0.0
  0
LINE
  5
4D8A
330
4D7E
100
AcDbEntity
  8
AM_4 細線
100
AcDbLine
 10
-15.40877100000034
 20
-1.070905000000492
 30
0.0
 11
-14.89192400000047
 21
-15.87147100000038
 31
0.0
  0
LINE
  5
4D8B
330
4D7E
100
AcDbEntity
  8
AM_0 外形線1
100
AcDbLine
 10
16.83786599999985
 20
-2.5
 30
0.0
 11
-16.83786600000076
 21
-2.5
 31
0.0
  0
LINE
  5
4D8C
330
4D7E
100
AcDbEntity
  8
AM_0 外形線1
100
AcDbLine
 10
-16.4013560000003
 20
-15.0
 30
0.0
 11
16.40135699999973
 21
-15.0
 31
0.0
  0
LINE
  5
4DB1
330
4D7E
100
AcDbEntity
  8
AM_0 外形線1
100
AcDbLine
 10
-16.40133021614565
 20
-15.0007450643543
 30
0.0
 11
-16.83786600000076
 21
-2.5
 31
0.0
  0
LINE
  5
4DB2
330
4D7E
100
AcDbEntity
  8
AM_0 外形線1
100
AcDbLine
 10
-14.33786600000076
 20
0.0
 30
0.0
 11
14.33786599999985
 21
0.0
 31
0.0
  0
ENDBLK
  5
4D80
330
4D7E
100
AcDbEntity
  8
0
100
AcDbBlockEnd
  0
BLOCK
  5
4DDF
330
4DDE
100
AcDbEntity
  8
0
100
AcDbBlockBegin
  2
ロッカクアナツキプラグB R1
 70
     0
 10
0.0
 20
0.0
 30
0.0
  3
ロッカクアナツキプラグB R1
  1

  0
LINE
  5
4DE1
330
4DDE
100
AcDbEntity
  8
AM_0 外形線1
100
AcDbLine
 10
9.473152999999911
 20
-19.0
 30
0.0
 11
16.40135699999973
 21
-15.0
 31
0.0
  0
LINE
  5
4DE2
330
4DDE
100
AcDbEntity
  8
AM_0 外形線1
100
AcDbLine
 10
-16.4013560000003
 20
-15.0
 30
0.0
 11
-9.473152999999911
 21
-19.0
 31
0.0
  0
LINE
  5
4DE4
330
4DDE
100
AcDbEntity
  8
AM_7 中心線
100
AcDbLine
 10
0.0
 20
5.168250999999144
 30
0.0
 11
0.0
 21
-37.38536600000043
 31
0.0
  0
LINE
  5
4DE5
330
4DDE
100
AcDbEntity
  8
AM_0 外形線1
100
AcDbLine
 10
-9.473152999999911
 20
-19.0
 30
0.0
 11
9.473152999999911
 21
-19.0
 31
0.0
  0
LINE
  5
4DE6
330
4DDE
100
AcDbEntity
  8
AM_0 外形線1
100
AcDbLine
 10
16.40135699999973
 20
-15.0
 30
0.0
 11
16.83786599999985
 21
-2.5
 31
0.0
  0
LINE
  5
4DE7
330
4DDE
100
AcDbEntity
  8
AM_0 外形線1
100
AcDbLine
 10
16.83786599999985
 20
-2.5
 30
0.0
 11
14.33786599999985
 21
0.0
 31
0.0
  0
LINE
  5
4DE8
330
4DDE
100
AcDbEntity
  8
AM_4 細線
100
AcDbLine
 10
15.40877099999943
 20
-1.070905000000492
 30
0.0
 11
14.89192399999956
 21
-15.87147100000038
 31
0.0
  0
LINE
  5
4DE9
330
4DDE
100
AcDbEntity
  8
AM_0 外形線1
100
AcDbLine
 10
-14.33786600000076
 20
0.0
 30
0.0
 11
-16.83786600000076
 21
-2.5
 31
0.0
  0
LINE
  5
4DEA
330
4DDE
100
AcDbEntity
  8
AM_4 細線
100
AcDbLine
 10
-15.40877100000034
 20
-1.070905000000492
 30
0.0
 11
-14.89192400000047
 21
-15.87147100000038
 31
0.0
  0
LINE
  5
4DEB
330
4DDE
100
AcDbEntity
  8
AM_0 外形線1
100
AcDbLine
 10
16.83786599999985
 20
-2.5
 30
0.0
 11
-16.83786600000076
 21
-2.5
 31
0.0
  0
LINE
  5
4DEC
330
4DDE
100
AcDbEntity
  8
AM_0 外形線1
100
AcDbLine
 10
-16.4013560000003
 20
-15.0
 30
0.0
 11
16.40135699999973
 21
-15.0
 31
0.0
  0
LINE
  5
4E0B
330
4DDE
100
AcDbEntity
  8
AM_0 外形線1
100
AcDbLine
 10
-16.40135623437527
 20
-15.0
 30
0.0
 11
-16.83786600000076
 21
-2.5
 31
0.0
  0
LINE
  5
4E0C
330
4DDE
100
AcDbEntity
  8
AM_0 外形線1
100
AcDbLine
 10
-14.33786600000076
 20
0.0
 30
0.0
 11
14.33786599999985
 21
0.0
 31
0.0
  0
ENDBLK
  5
4DE0
330
4DDE
100
AcDbEntity
  8
0
100
AcDbBlockEnd
  0
BLOCK
  5
4E8F
330
4E8E
100
AcDbEntity
  8
0
100
AcDbBlockBegin
  2
ケースＡ CCMH1400
 70
     0
 10
0.0
 20
0.0
 30
0.0
  3
ケースＡ CCMH1400
  1

  0
LINE
  5
4E91
330
4E8E
100
AcDbEntity
  8
AM_0 外形線1
100
AcDbLine
 10
-0.0000000000009095
 20
0.0
 30
0.0
 11
-0.0000000000009095
 21
-696.9303
 31
0.0
  0
LINE
  5
4E92
330
4E8E
100
AcDbEntity
  8
AM_0 外形線1
100
AcDbLine
 10
134.8919239999995
 20
596.6285289999996
 30
0.0
 11
134.2414019999996
 21
578.0
 31
0.0
  0
LINE
  5
4E93
330
4E8E
100
AcDbEntity
  8
AM_0 外形線1
100
AcDbLine
 10
136.4013569999997
 20
597.5
 30
0.0
 11
135.7204019999999
 21
578.0
 31
0.0
  0
LINE
  5
4E94
330
4E8E
100
AcDbEntity
  8
AM_0 外形線1
100
AcDbLine
 10
105.1080759999995
 20
596.6285289999996
 30
0.0
 11
105.7585989999997
 21
578.0
 31
0.0
  0
LINE
  5
4E95
330
4E8E
100
AcDbEntity
  8
AM_0 外形線1
100
AcDbLine
 10
-15.0
 20
578.0
 30
0.0
 11
-15.0
 21
601.0
 31
0.0
  0
LINE
  5
4E96
330
4E8E
100
AcDbEntity
  8
AM_0 外形線1
100
AcDbLine
 10
411.0
 20
-627.5
 30
0.0
 11
411.0
 21
0.0
 31
0.0
  0
LINE
  5
4E97
330
4E8E
100
AcDbEntity
  8
AM_0 外形線1
100
AcDbLine
 10
336.0
 20
-612.5
 30
0.0
 11
336.0
 21
0.0
 31
0.0
  0
LINE
  5
4E98
330
4E8E
100
AcDbEntity
  8
AM_0 外形線1
100
AcDbLine
 10
351.0
 20
-627.5
 30
0.0
 11
351.0
 21
0.0
 31
0.0
  0
LINE
  5
4E99
330
4E8E
100
AcDbEntity
  8
AM_0 外形線1
100
AcDbLine
 10
70.0
 20
-697.0
 30
0.0
 11
70.0
 21
0.0
 31
0.0
  0
LINE
  5
4E9A
330
4E8E
100
AcDbEntity
  8
AM_0 外形線1
100
AcDbLine
 10
78.0
 20
-612.5
 30
0.0
 11
336.0
 21
-612.5
 31
0.0
  0
LINE
  5
4E9B
330
4E8E
100
AcDbEntity
  8
AM_0 外形線1
100
AcDbLine
 10
3.0
 20
-700.0
 30
0.0
 11
67.0
 21
-700.0
 31
0.0
  0
LINE
  5
4E9C
330
4E8E
100
AcDbEntity
  8
AM_0 外形線1
100
AcDbLine
 10
0.0
 20
-697.0
 30
0.0
 11
3.0
 21
-700.0
 31
0.0
  0
ARC
  5
4E9D
330
4E8E
100
AcDbEntity
  8
AM_0 外形線1
100
AcDbCircle
 10
78.0
 20
-620.5
 30
0.0
 40
8.0
100
AcDbArc
 50
90.0
 51
180.0
  0
LINE
  5
4E9E
330
4E8E
100
AcDbEntity
  8
AM_0 外形線1
100
AcDbLine
 10
67.0
 20
-700.0
 30
0.0
 11
70.0
 21
-697.0
 31
0.0
  0
LINE
  5
4E9F
330
4E8E
100
AcDbEntity
  8
AM_0 外形線1
100
AcDbLine
 10
351.0
 20
-627.5
 30
0.0
 11
411.0
 21
-627.5
 31
0.0
  0
LINE
  5
4EA0
330
4E8E
100
AcDbEntity
  8
AM_0 外形線1
100
AcDbLine
 10
336.0
 20
-612.5
 30
0.0
 11
351.0
 21
-627.5
 31
0.0
  0
LINE
  5
4EA1
330
4E8E
100
AcDbEntity
  8
AM_0 外形線1
100
AcDbLine
 10
181.0
 20
576.0
 30
0.0
 11
401.0
 21
576.0
 31
0.0
  0
LINE
  5
4EA2
330
4E8E
100
AcDbEntity
  8
AM_7 中心線
100
AcDbLine
 10
179.0
 20
564.0
 30
0.0
 11
403.0
 21
564.0
 31
0.0
  0
LINE
  5
4EA3
330
4E8E
100
AcDbEntity
  8
AM_3 隠れ線
100
AcDbLine
 10
386.5
 20
554.3999999999996
 30
0.0
 11
197.5
 21
554.3999999999996
 31
0.0
  0
LINE
  5
4EA4
330
4E8E
100
AcDbEntity
  8
AM_0 外形線1
100
AcDbLine
 10
180.0
 20
578.0
 30
0.0
 11
-15.0
 21
578.0
 31
0.0
  0
LINE
  5
4EA5
330
4E8E
100
AcDbEntity
  8
AM_0 外形線1
100
AcDbLine
 10
183.0
 20
554.3999999999996
 30
0.0
 11
181.0
 21
556.3999999999996
 31
0.0
  0
LINE
  5
4EA6
330
4E8E
100
AcDbEntity
  8
AM_0 外形線1
100
AcDbLine
 10
181.0
 20
556.3999999999996
 30
0.0
 11
181.0
 21
577.0
 31
0.0
  0
LINE
  5
4EA7
330
4E8E
100
AcDbEntity
  8
AM_0 外形線1
100
AcDbLine
 10
197.5
 20
554.3999999999996
 30
0.0
 11
183.0
 21
554.3999999999996
 31
0.0
  0
ARC
  5
4EA8
330
4E8E
100
AcDbEntity
  8
AM_0 外形線1
100
AcDbCircle
 10
180.0
 20
577.0
 30
0.0
 40
1.0
100
AcDbArc
 50
0.0
 51
90.0
  0
LINE
  5
4EA9
330
4E8E
100
AcDbEntity
  8
AM_0 外形線1
100
AcDbLine
 10
411.0
 20
585.1999999999987
 30
0.0
 11
411.0
 21
578.0
 31
0.0
  0
LINE
  5
4EAA
330
4E8E
100
AcDbEntity
  8
AM_0 外形線1
100
AcDbLine
 10
411.0
 20
592.0
 30
0.0
 11
411.0
 21
585.1999999999987
 31
0.0
  0
LINE
  5
4EAB
330
4E8E
100
AcDbEntity
  8
AM_0 外形線1
100
AcDbLine
 10
401.0
 20
577.0
 30
0.0
 11
401.0
 21
556.3999999999996
 31
0.0
  0
LINE
  5
4EAC
330
4E8E
100
AcDbEntity
  8
AM_0 外形線1
100
AcDbLine
 10
401.0
 20
556.3999999999996
 30
0.0
 11
399.0
 21
554.3999999999996
 31
0.0
  0
LINE
  5
4EAD
330
4E8E
100
AcDbEntity
  8
AM_0 外形線1
100
AcDbLine
 10
386.5
 20
554.3999999999996
 30
0.0
 11
399.0
 21
554.3999999999996
 31
0.0
  0
ARC
  5
4EAE
330
4E8E
100
AcDbEntity
  8
AM_0 外形線1
100
AcDbCircle
 10
402.0
 20
577.0
 30
0.0
 40
1.0
100
AcDbArc
 50
90.0
 51
180.0
  0
LINE
  5
4EB0
330
4E8E
100
AcDbEntity
  8
AM_7 中心線
100
AcDbLine
 10
106.7877079999998
 20
660.0
 30
0.0
 11
-135.0609300000005
 21
660.0
 31
0.0
  0
LINE
  5
4EB1
330
4E8E
100
AcDbEntity
  8
AM_0 外形線1
100
AcDbLine
 10
78.0
 20
612.5
 30
0.0
 11
336.0
 21
612.5
 31
0.0
  0
LINE
  5
4EB3
330
4E8E
100
AcDbEntity
  8
AM_0 外形線1
100
AcDbLine
 10
3.0
 20
700.0
 30
0.0
 11
67.0
 21
700.0
 31
0.0
  0
LINE
  5
4EB5
330
4E8E
100
AcDbEntity
  8
AM_0 外形線1
100
AcDbLine
 10
0.0
 20
638.0
 30
0.0
 11
70.0
 21
638.0
 31
0.0
  0
LINE
  5
4EB6
330
4E8E
100
AcDbEntity
  8
AM_0 外形線1
100
AcDbLine
 10
0.0
 20
682.0
 30
0.0
 11
0.0
 21
697.0
 31
0.0
  0
LINE
  5
4EB7
330
4E8E
100
AcDbEntity
  8
AM_0 外形線1
100
AcDbLine
 10
0.0
 20
697.0
 30
0.0
 11
3.0
 21
700.0
 31
0.0
  0
LINE
  5
4EB8
330
4E8E
100
AcDbEntity
  8
AM_0 外形線1
100
AcDbLine
 10
-15.0
 20
601.0
 30
0.0
 11
-11.0
 21
605.0
 31
0.0
  0
LINE
  5
4EB9
330
4E8E
100
AcDbEntity
  8
AM_0 外形線1
100
AcDbLine
 10
-11.0
 20
605.0
 30
0.0
 11
6.199999999999817
 21
605.0
 31
0.0
  0
ARC
  5
4EBA
330
4E8E
100
AcDbEntity
  8
AM_0 外形線1
100
AcDbCircle
 10
6.199999999999817
 20
605.4999999999998
 30
0.0
 40
0.5
100
AcDbArc
 50
270.0
 51
0.0
  0
LINE
  5
4EBB
330
4E8E
100
AcDbEntity
  8
AM_0 外形線1
100
AcDbLine
 10
6.699999999999817
 20
605.4999999999998
 30
0.0
 11
6.699999999999817
 21
615.0
 31
0.0
  0
ARC
  5
4EBC
330
4E8E
100
AcDbEntity
  8
AM_0 外形線1
100
AcDbCircle
 10
6.199999999999817
 20
615.0
 30
0.0
 40
0.5
100
AcDbArc
 50
0.0
 51
90.0
  0
LINE
  5
4EBD
330
4E8E
100
AcDbEntity
  8
AM_0 外形線1
100
AcDbLine
 10
6.199999999999817
 20
615.5
 30
0.0
 11
0.0
 21
615.5
 31
0.0
  0
LINE
  5
4EBE
330
4E8E
100
AcDbEntity
  8
AM_0 外形線1
100
AcDbLine
 10
-0.0000000000009095
 20
615.5
 30
0.0
 11
0.0
 21
638.0
 31
0.0
  0
LWPOLYLINE
  5
4EBF
330
4E8E
100
AcDbEntity
  8
AM_0 外形線1
100
AcDbPolyline
 90
       73
 70
     0
 43
0.0
 10
3.349999999999453
 20
605.0
 10
3.641972000000349
 20
605.0199779999992
 10
3.931722000000263
 20
605.0797589999993
 10
4.217043999999987
 20
605.1788899999992
 10
4.495767999999769
 20
605.3166139999992
 10
4.765770999999403
 20
605.4918839999991
 10
5.024999999999637
 20
605.7033669999992
 10
5.271480999999766
 20
605.9494519999987
 10
5.503338999999868
 20
606.2282669999984
 10
5.718807999999625
 20
606.5376899999992
 10
5.916248999999877
 20
606.8753649999997
 10
6.094159999999646
 20
607.2387239999989
 10
6.251185000000077
 20
607.6249999999999
 10
6.386131000000204
 20
608.0312539999994
 10
6.497970999999778
 20
608.4543939999985
 10
6.585851999999248
 20
608.8912
 10
6.649105999999846
 20
609.338346999999
 10
6.687252999999143
 20
609.7924319999992
 10
6.699999999999817
 20
610.25
 10
6.687252999999143
 20
610.7075679999998
 10
6.649105999999846
 20
611.1616529999992
 10
6.585851999999248
 20
611.6087999999998
 10
6.497970999999778
 20
612.0456059999995
 10
6.386131000000204
 20
612.4687459999986
 10
6.251185000000077
 20
612.875
 10
6.094159999999646
 20
613.2612759999992
 10
5.916248999999877
 20
613.6246349999992
 10
5.718807999999625
 20
613.9623109999992
 10
5.503338999999868
 20
614.2717329999996
 10
5.271480999999766
 20
614.5505479999992
 10
5.024999999999637
 20
614.796632999999
 10
4.765770999999403
 20
615.0081159999992
 10
4.495767999999769
 20
615.1833859999988
 10
4.217043999999987
 20
615.3211109999992
 10
3.931722000000263
 20
615.4202409999998
 10
3.641972000000349
 20
615.4800219999997
 10
3.349999999999453
 20
615.5
 10
3.058028999999804
 20
615.4800219999997
 10
2.768278999999893
 20
615.4202409999998
 10
2.48295599999983
 20
615.3211109999992
 10
2.204232999999475
 20
615.1833859999988
 10
1.934228999999504
 20
615.0081159999992
 10
1.675000000000181
 20
614.796632999999
 10
1.42851900000005
 20
614.5505479999992
 10
1.196661999999377
 20
614.2717329999996
 10
0.9811929999996207
 20
613.9623109999992
 10
0.7837509999999384
 20
613.6246349999992
 10
0.6058409999996002
 20
613.2612759999992
 10
0.4488149999997404
 20
612.875
 10
0.3138689999996131
 20
612.4687459999986
 10
0.2020299999994677
 20
612.0456059999995
 10
0.1141489999999976
 20
611.6087999999998
 10
0.0508939999990616
 20
611.1616529999992
 10
0.0127480000001015
 20
610.7075679999998
 10
0.0
 20
610.25
 10
0.0127480000001015
 20
609.7924319999992
 10
0.0508939999990616
 20
609.338346999999
 10
0.1141489999999976
 20
608.8912
 10
0.2020299999994677
 20
608.4543939999985
 10
0.3138689999996131
 20
608.0312539999994
 10
0.4488149999997404
 20
607.6249999999999
 10
0.6058409999996002
 20
607.2387239999989
 10
0.7837509999999384
 20
606.8753649999997
 10
0.9811929999996207
 20
606.5376899999992
 10
1.196661999999377
 20
606.2282669999984
 10
1.42851900000005
 20
605.9494519999987
 10
1.675000000000181
 20
605.7033669999992
 10
1.934228999999504
 20
605.4918839999991
 10
2.204232999999475
 20
605.3166139999992
 10
2.48295599999983
 20
605.1788899999992
 10
2.768278999999893
 20
605.0797589999993
 10
3.058028999999804
 20
605.0199779999992
 10
3.349999999999453
 20
605.0
  0
LINE
  5
4EC0
330
4E8E
100
AcDbEntity
  8
AM_0 外形線1
100
AcDbLine
 10
67.0
 20
700.0
 30
0.0
 11
70.0
 21
697.0
 31
0.0
  0
LINE
  5
4EC1
330
4E8E
100
AcDbEntity
  8
AM_0 外形線1
100
AcDbLine
 10
135.4461679999995
 20
612.5
 30
0.0
 11
135.4087709999994
 21
611.4290949999995
 31
0.0
  0
LINE
  5
4EC2
330
4E8E
100
AcDbEntity
  8
AM_0 外形線1
100
AcDbLine
 10
136.8378659999998
 20
610.0
 30
0.0
 11
136.9251679999997
 21
612.5
 31
0.0
  0
LINE
  5
4EC3
330
4E8E
100
AcDbEntity
  8
AM_0 外形線1
100
AcDbLine
 10
70.0
 20
697.0
 30
0.0
 11
70.0
 21
620.5
 31
0.0
  0
ARC
  5
4EC4
330
4E8E
100
AcDbEntity
  8
AM_0 外形線1
100
AcDbCircle
 10
78.0
 20
620.5
 30
0.0
 40
8.0
100
AcDbArc
 50
180.0
 51
270.0
  0
LINE
  5
4EC5
330
4E8E
100
AcDbEntity
  8
AM_0 外形線1
100
AcDbLine
 10
104.5912289999996
 20
611.4290949999995
 30
0.0
 11
104.5538320000005
 21
612.5
 31
0.0
  0
LINE
  5
4EC6
330
4E8E
100
AcDbEntity
  8
AM_0 外形線1
100
AcDbLine
 10
103.0748319999993
 20
612.5
 30
0.0
 11
103.1621339999992
 21
610.0
 31
0.0
  0
LINE
  5
4EC7
330
4E8E
100
AcDbEntity
  8
AM_0 外形線1
100
AcDbLine
 10
351.0
 20
627.5
 30
0.0
 11
411.0
 21
627.5
 31
0.0
  0
LINE
  5
4EC8
330
4E8E
100
AcDbEntity
  8
AM_0 外形線1
100
AcDbLine
 10
336.0
 20
612.5
 30
0.0
 11
351.0
 21
627.5
 31
0.0
  0
LINE
  5
4EC9
330
4E8E
100
AcDbEntity
  8
AM_0 外形線1
100
AcDbLine
 10
411.0
 20
627.5
 30
0.0
 11
411.0
 21
616.0
 31
0.0
  0
INSERT
  5
4ECA
330
4E8E
100
AcDbEntity
  8
AM_0 外形線1
100
AcDbBlockReference
  2
ロッカクアナツキプラグA R1
 10
120.0
 20
612.5
 30
0.0
  0
LINE
  5
4ECB
330
4E8E
100
AcDbEntity
  8
AM_0 外形線1
100
AcDbLine
 10
104.2795989999995
 20
578.0
 30
0.0
 11
103.5986697838543
 21
597.4992549356458
 31
0.0
  0
LINE
  5
4F48
330
4E8E
100
AcDbEntity
  8
AM_0 外形線1
100
AcDbLine
 10
0.0
 20
682.0
 30
0.0
 11
70.0
 21
682.0
 31
0.0
  0
LINE
  5
4F49
330
4E8E
100
AcDbEntity
  8
AM_0 外形線1
100
AcDbLine
 10
411.0
 20
578.0
 30
0.0
 11
402.0
 21
578.0
 31
0.0
  0
ENDBLK
  5
4E90
330
4E8E
100
AcDbEntity
  8
0
100
AcDbBlockEnd
  0
BLOCK
  5
4FC4
330
4FC3
100
AcDbEntity
  8
0
100
AcDbBlockBegin
  2
ケースＢ CCMH1400
 70
     0
 10
0.0
 20
0.0
 30
0.0
  3
ケースＢ CCMH1400
  1

  0
LINE
  5
4FC6
330
4FC3
100
AcDbEntity
  8
AM_0 外形線1
100
AcDbLine
 10
-16.99999999999909
 20
578.0
 30
0.0
 11
-16.99999999999909
 21
605.0
 31
0.0
  0
LINE
  5
4FC7
330
4FC3
100
AcDbEntity
  8
AM_0 外形線1
100
AcDbLine
 10
-115.1080759999995
 20
596.6285289999996
 30
0.0
 11
-115.7585979999994
 21
578.0
 31
0.0
  0
LINE
  5
4FC8
330
4FC3
100
AcDbEntity
  8
AM_0 外形線1
100
AcDbLine
 10
-113.5986429999993
 20
597.5
 30
0.0
 11
-114.2795979999991
 21
578.0
 31
0.0
  0
LINE
  5
4FC9
330
4FC3
100
AcDbEntity
  8
AM_0 外形線1
100
AcDbLine
 10
-144.8919239999995
 20
596.6285289999996
 30
0.0
 11
-144.2414009999993
 21
578.0
 31
0.0
  0
LINE
  5
4FCA
330
4FC3
100
AcDbEntity
  8
AM_0 外形線1
100
AcDbLine
 10
-179.9999999999991
 20
578.0
 30
0.0
 11
-16.99999999999909
 21
578.0
 31
0.0
  0
LINE
  5
4FCB
330
4FC3
100
AcDbEntity
  8
AM_0 外形線1
100
AcDbLine
 10
-77.99999999999909
 20
-612.5
 30
0.0
 11
-335.9999999999991
 21
-612.5
 31
0.0
  0
LINE
  5
4FCC
330
4FC3
100
AcDbEntity
  8
AM_0 外形線1
100
AcDbLine
 10
-410.999999999999
 20
-627.5
 30
0.0
 11
-410.999999999999
 21
0.0
 31
0.0
  0
LINE
  5
4FCD
330
4FC3
100
AcDbEntity
  8
AM_0 外形線1
100
AcDbLine
 10
-350.9999999999991
 20
-627.5
 30
0.0
 11
-350.9999999999991
 21
0.0
 31
0.0
  0
LINE
  5
4FCE
330
4FC3
100
AcDbEntity
  8
AM_0 外形線1
100
AcDbLine
 10
-335.9999999999991
 20
-612.5
 30
0.0
 11
-335.9999999999991
 21
0.0
 31
0.0
  0
LINE
  5
4FCF
330
4FC3
100
AcDbEntity
  8
AM_0 外形線1
100
AcDbLine
 10
-350.9999999999991
 20
-627.5
 30
0.0
 11
-410.999999999999
 21
-627.5
 31
0.0
  0
LINE
  5
4FD0
330
4FC3
100
AcDbEntity
  8
AM_0 外形線1
100
AcDbLine
 10
-335.9999999999991
 20
-612.5
 30
0.0
 11
-350.9999999999991
 21
-627.5
 31
0.0
  0
LINE
  5
4FD1
330
4FC3
100
AcDbEntity
  8
AM_0 外形線1
100
AcDbLine
 10
-180.9999999999991
 20
576.0
 30
0.0
 11
-400.999999999999
 21
576.0
 31
0.0
  0
LINE
  5
4FD2
330
4FC3
100
AcDbEntity
  8
AM_7 中心線
100
AcDbLine
 10
-178.9999999999991
 20
564.0
 30
0.0
 11
-402.9999999999991
 21
564.0
 31
0.0
  0
LINE
  5
4FD3
330
4FC3
100
AcDbEntity
  8
AM_3 隠れ線
100
AcDbLine
 10
-197.4999999999991
 20
554.3999999999996
 30
0.0
 11
-386.4999999999992
 21
554.3999999999996
 31
0.0
  0
LINE
  5
4FD4
330
4FC3
100
AcDbEntity
  8
AM_0 外形線1
100
AcDbLine
 10
-410.999999999999
 20
592.0
 30
0.0
 11
-410.999999999999
 21
578.0
 31
0.0
  0
LINE
  5
4FD7
330
4FC3
100
AcDbEntity
  8
AM_0 外形線1
100
AcDbLine
 10
-400.999999999999
 20
577.0
 30
0.0
 11
-400.999999999999
 21
556.3999999999996
 31
0.0
  0
LINE
  5
4FD8
330
4FC3
100
AcDbEntity
  8
AM_0 外形線1
100
AcDbLine
 10
-400.999999999999
 20
556.3999999999996
 30
0.0
 11
-398.9999999999992
 21
554.3999999999996
 31
0.0
  0
LINE
  5
4FD9
330
4FC3
100
AcDbEntity
  8
AM_0 外形線1
100
AcDbLine
 10
-386.4999999999992
 20
554.3999999999996
 30
0.0
 11
-398.9999999999992
 21
554.3999999999996
 31
0.0
  0
ARC
  5
4FDA
330
4FC3
100
AcDbEntity
  8
AM_0 外形線1
100
AcDbCircle
 10
-401.999999999999
 20
577.0
 30
0.0
 40
1.0
100
AcDbArc
 50
0.0
 51
90.0
  0
LINE
  5
4FDB
330
4FC3
100
AcDbEntity
  8
AM_0 外形線1
100
AcDbLine
 10
-182.9999999999991
 20
554.3999999999996
 30
0.0
 11
-180.9999999999991
 21
556.3999999999996
 31
0.0
  0
LINE
  5
4FDC
330
4FC3
100
AcDbEntity
  8
AM_0 外形線1
100
AcDbLine
 10
-180.9999999999991
 20
556.3999999999996
 30
0.0
 11
-180.9999999999991
 21
577.0
 31
0.0
  0
LINE
  5
4FDD
330
4FC3
100
AcDbEntity
  8
AM_0 外形線1
100
AcDbLine
 10
-197.4999999999991
 20
554.3999999999996
 30
0.0
 11
-182.9999999999991
 21
554.3999999999996
 31
0.0
  0
ARC
  5
4FDE
330
4FC3
100
AcDbEntity
  8
AM_0 外形線1
100
AcDbCircle
 10
-179.9999999999991
 20
577.0
 30
0.0
 40
1.0
100
AcDbArc
 50
90.0
 51
180.0
  0
LINE
  5
4FDF
330
4FC3
100
AcDbEntity
  8
AM_0 外形線1
100
AcDbLine
 10
-69.99999999999909
 20
-697.0
 30
0.0
 11
-69.99999999999909
 21
0.0
 31
0.0
  0
ARC
  5
4FE1
330
4FC3
100
AcDbEntity
  8
AM_0 外形線1
100
AcDbCircle
 10
-77.99999999999909
 20
-620.5
 30
0.0
 40
8.0
100
AcDbArc
 50
0.0
 51
90.0
  0
LINE
  5
4FE2
330
4FC3
100
AcDbEntity
  8
AM_0 外形線1
100
AcDbLine
 10
0.0000000000009095
 20
-697.0
 30
0.0
 11
-2.999999999999089
 21
-700.0
 31
0.0
  0
LINE
  5
4FE3
330
4FC3
100
AcDbEntity
  8
AM_0 外形線1
100
AcDbLine
 10
-66.99999999999909
 20
-700.0
 30
0.0
 11
-69.99999999999909
 21
-697.0
 31
0.0
  0
LINE
  5
4FE4
330
4FC3
100
AcDbEntity
  8
AM_0 外形線1
100
AcDbLine
 10
-2.999999999999089
 20
-700.0
 30
0.0
 11
-66.99999999999909
 21
-700.0
 31
0.0
  0
LINE
  5
4FE5
330
4FC3
100
AcDbEntity
  8
AM_7 中心線
100
AcDbLine
 10
75.00000000000091
 20
-660.0
 30
0.0
 11
-74.99999999999909
 21
-660.0
 31
0.0
  0
LINE
  5
4FE6
330
4FC3
100
AcDbEntity
  8
AM_0 外形線1
100
AcDbLine
 10
-77.99999999999909
 20
612.5
 30
0.0
 11
-335.9999999999991
 21
612.5
 31
0.0
  0
LINE
  5
4FE7
330
4FC3
100
AcDbEntity
  8
AM_0 外形線1
100
AcDbLine
 10
-350.9999999999991
 20
627.5
 30
0.0
 11
-410.999999999999
 21
627.5
 31
0.0
  0
LINE
  5
4FE8
330
4FC3
100
AcDbEntity
  8
AM_0 外形線1
100
AcDbLine
 10
-410.999999999999
 20
627.5
 30
0.0
 11
-410.999999999999
 21
616.0
 31
0.0
  0
LINE
  5
4FE9
330
4FC3
100
AcDbEntity
  8
AM_0 外形線1
100
AcDbLine
 10
-335.9999999999991
 20
612.5
 30
0.0
 11
-350.9999999999991
 21
627.5
 31
0.0
  0
LINE
  5
4FEA
330
4FC3
100
AcDbEntity
  8
AM_0 外形線1
100
AcDbLine
 10
-114.5538319999996
 20
612.5
 30
0.0
 11
-114.5912289999996
 21
611.4290949999995
 31
0.0
  0
LINE
  5
4FEB
330
4FC3
100
AcDbEntity
  8
AM_0 外形線1
100
AcDbLine
 10
-113.1621339999992
 20
610.0
 30
0.0
 11
-113.0748319999993
 21
612.5
 31
0.0
  0
LINE
  5
4FEC
330
4FC3
100
AcDbEntity
  8
AM_0 外形線1
100
AcDbLine
 10
-145.4087709999994
 20
611.4290949999995
 30
0.0
 11
-145.4461679999986
 21
612.5
 31
0.0
  0
LINE
  5
4FED
330
4FC3
100
AcDbEntity
  8
AM_0 外形線1
100
AcDbLine
 10
-146.9251679999997
 20
612.5
 30
0.0
 11
-146.8378659999998
 21
610.0
 31
0.0
  0
LINE
  5
4FEE
330
4FC3
100
AcDbEntity
  8
AM_0 外形線1
100
AcDbLine
 10
-69.99999999999909
 20
638.0
 30
0.0
 11
0.0000000000009095
 21
638.0
 31
0.0
  0
LINE
  5
4FEF
330
4FC3
100
AcDbEntity
  8
AM_0 外形線1
100
AcDbLine
 10
0.0000000000009095
 20
697.0
 30
0.0
 11
-2.999999999999089
 21
700.0
 31
0.0
  0
LINE
  5
4FF0
330
4FC3
100
AcDbEntity
  8
AM_0 外形線1
100
AcDbLine
 10
-66.99999999999909
 20
700.0
 30
0.0
 11
-69.99999999999909
 21
697.0
 31
0.0
  0
LINE
  5
4FF2
330
4FC3
100
AcDbEntity
  8
AM_0 外形線1
100
AcDbLine
 10
-2.999999999999089
 20
700.0
 30
0.0
 11
-66.99999999999909
 21
700.0
 31
0.0
  0
LINE
  5
4FF3
330
4FC3
100
AcDbEntity
  8
AM_0 外形線1
100
AcDbLine
 10
-69.99999999999909
 20
682.0
 30
0.0
 11
0.0000000000009095
 21
682.0
 31
0.0
  0
LINE
  5
4FF4
330
4FC3
100
AcDbEntity
  8
AM_0 外形線1
100
AcDbLine
 10
-3.999999999999089
 20
605.0
 30
0.0
 11
0.0000000000009095
 21
609.0
 31
0.0
  0
LINE
  5
4FF5
330
4FC3
100
AcDbEntity
  8
AM_0 外形線1
100
AcDbLine
 10
-69.99999999999909
 20
697.0
 30
0.0
 11
-69.99999999999909
 21
620.5
 31
0.0
  0
LINE
  5
4FF6
330
4FC3
100
AcDbEntity
  8
AM_0 外形線1
100
AcDbLine
 10
-16.99999999999909
 20
605.0
 30
0.0
 11
-3.999999999999089
 21
605.0
 31
0.0
  0
ARC
  5
4FF7
330
4FC3
100
AcDbEntity
  8
AM_0 外形線1
100
AcDbCircle
 10
-77.99999999999909
 20
620.5
 30
0.0
 40
8.0
100
AcDbArc
 50
270.0
 51
0.0
  0
INSERT
  5
4FF8
330
4FC3
100
AcDbEntity
  8
AM_0 外形線1
100
AcDbBlockReference
  2
ロッカクアナツキプラグB R1
 10
-129.9999999999991
 20
612.5
 30
0.0
  0
LINE
  5
4FF9
330
4FC3
100
AcDbEntity
  8
AM_0 外形線1
100
AcDbLine
 10
-145.7204009999996
 20
578.0
 30
0.0
 11
-146.4013562343743
 21
597.5
 31
0.0
  0
LINE
  5
506B
330
4FC3
100
AcDbEntity
  8
AM_0 外形線1
100
AcDbLine
 10
0.0
 20
-696.9303
 30
0.0
 11
0.0000000000009095
 21
0.0
 31
0.0
  0
LINE
  5
506C
330
4FC3
100
AcDbEntity
  8
AM_0 外形線1
100
AcDbLine
 10
0.0000000000009095
 20
697.0
 30
0.0
 11
0.0000000000009095
 21
682.0
 31
0.0
  0
LINE
  5
506D
330
4FC3
100
AcDbEntity
  8
AM_0 外形線1
100
AcDbLine
 10
0.0000000000009095
 20
638.0
 30
0.0
 11
0.0000000000009095
 21
609.0
 31
0.0
  0
LINE
  5
506E
330
4FC3
100
AcDbEntity
  8
AM_0 外形線1
100
AcDbLine
 10
-410.999999999999
 20
578.0
 30
0.0
 11
-401.999999999999
 21
578.0
 31
0.0
  0
ENDBLK
  5
4FC5
330
4FC3
100
AcDbEntity
  8
0
100
AcDbBlockEnd
  0
BLOCK
  5
50C7
330
50C6
100
AcDbEntity
  8
0
100
AcDbBlockBegin
  2
センタＡ CCMH1400
 70
     0
 10
0.0
 20
0.0
 30
0.0
  3
センタＡ CCMH1400
  1

  0
LINE
  5
50CB
330
50C6
100
AcDbEntity
  8
AM_0 外形線1
100
AcDbLine
 10
474.0
 20
-535.0
 30
0.0
 11
474.0
 21
0.0
 31
0.0
  0
LINE
  5
50CC
330
50C6
100
AcDbEntity
  8
AM_0 外形線1
100
AcDbLine
 10
480.0
 20
-533.0
 30
0.0
 11
480.0
 21
0.0
 31
0.0
  0
LINE
  5
50CD
330
50C6
100
AcDbEntity
  8
AM_0 外形線1
100
AcDbLine
 10
800.0000000000008
 20
-503.0000000000003
 30
0.0
 11
800.0000000000008
 21
503.0
 31
0.0
  0
LINE
  5
50CE
330
50C6
100
AcDbEntity
  8
AM_0 外形線1
100
AcDbLine
 10
474.0
 20
-535.0
 30
0.0
 11
480.0
 21
-533.0
 31
0.0
  0
LINE
  5
50CF
330
50C6
100
AcDbEntity
  8
AM_0 外形線1
100
AcDbLine
 10
424.0
 20
-535.0
 30
0.0
 11
474.0
 21
-535.0
 31
0.0
  0
ARC
  5
50D0
330
50C6
100
AcDbEntity
  8
AM_0 外形線1
100
AcDbCircle
 10
770.0000000000009
 20
-503.0000000000003
 30
0.0
 40
30.0
100
AcDbArc
 50
270.0
 51
0.0
  0
LINE
  5
50D1
330
50C6
100
AcDbEntity
  8
AM_0 外形線1
100
AcDbLine
 10
480.0
 20
-533.0
 30
0.0
 11
770.0000000000009
 21
-533.0
 31
0.0
  0
LINE
  5
50D2
330
50C6
100
AcDbEntity
  8
AM_0 外形線1
100
AcDbLine
 10
480.0
 20
533.0
 30
0.0
 11
474.0
 21
535.0
 31
0.0
  0
LINE
  5
50D3
330
50C6
100
AcDbEntity
  8
AM_0 外形線1
100
AcDbLine
 10
0.0
 20
462.0
 30
0.0
 11
0.0
 21
0.0
 31
0.0
  0
LINE
  5
50D4
330
50C6
100
AcDbEntity
  8
AM_3 隠れ線
100
AcDbLine
 10
101.9872999999988
 20
21.49784999999974
 30
0.0
 11
101.9872999999988
 21
0.0
 31
0.0
  0
LINE
  5
50D5
330
50C6
100
AcDbEntity
  8
AM_3 隠れ線
100
AcDbLine
 10
83.98910000000432
 20
22.99769999999989
 30
0.0
 11
83.98910000000432
 21
0.0
 31
0.0
  0
LINE
  5
50D6
330
50C6
100
AcDbEntity
  8
AM_3 隠れ線
100
AcDbLine
 10
84.85503500000595
 20
21.49784999999974
 30
0.0
 11
84.85503500000595
 21
0.0
 31
0.0
  0
LINE
  5
50D7
330
50C6
100
AcDbEntity
  8
AM_3 隠れ線
100
AcDbLine
 10
101.9872999999988
 20
21.49784999999974
 30
0.0
 11
114.3990950000043
 21
0.0
 31
0.0
  0
LINE
  5
50D8
330
50C6
100
AcDbEntity
  8
AM_3 隠れ線
100
AcDbLine
 10
-0.0024999999950524
 20
21.49784999999974
 30
0.0
 11
101.9872999999988
 21
21.49784999999974
 31
0.0
  0
LINE
  5
50D9
330
50C6
100
AcDbEntity
  8
AM_3 隠れ線
100
AcDbLine
 10
-0.0024999999950524
 20
22.99769999999989
 30
0.0
 11
83.98910000000432
 21
22.99769999999989
 31
0.0
  0
LINE
  5
50DA
330
50C6
100
AcDbEntity
  8
AM_3 隠れ線
100
AcDbLine
 10
83.98910000000432
 20
22.99769999999989
 30
0.0
 11
84.85503500000595
 21
21.49784999999974
 31
0.0
  0
ARC
  5
50DB
330
50C6
100
AcDbEntity
  8
AM_0 外形線1
100
AcDbCircle
 10
267.0
 20
0.0
 30
0.0
 40
575.4999999999999
100
AcDbArc
 50
80.75074100001911
 51
99.24925899998092
  0
LINE
  5
50DE
330
50C6
100
AcDbEntity
  8
AM_0 外形線1
100
AcDbLine
 10
172.0
 20
535.0
 30
0.0
 11
6.0
 21
535.0
 31
0.0
  0
LINE
  5
50DF
330
50C6
100
AcDbEntity
  8
AM_0 外形線1
100
AcDbLine
 10
6.0
 20
535.0
 30
0.0
 11
0.0
 21
529.0
 31
0.0
  0
LINE
  5
50E0
330
50C6
100
AcDbEntity
  8
AM_0 外形線1
100
AcDbLine
 10
0.0
 20
529.0
 30
0.0
 11
0.0
 21
462.0
 31
0.0
  0
LINE
  5
50E1
330
50C6
100
AcDbEntity
  8
AM_0 外形線1
100
AcDbLine
 10
174.5
 20
568.0176049999992
 30
0.0
 11
172.5
 21
565.6882949999998
 31
0.0
  0
LINE
  5
50E2
330
50C6
100
AcDbEntity
  8
AM_0 外形線1
100
AcDbLine
 10
172.5
 20
565.6882949999998
 30
0.0
 11
172.5
 21
535.5
 31
0.0
  0
ARC
  5
50E3
330
50C6
100
AcDbEntity
  8
AM_0 外形線1
100
AcDbCircle
 10
172.0
 20
535.5
 30
0.0
 40
0.5
100
AcDbArc
 50
270.0
 51
0.0
  0
LINE
  5
50E4
330
50C6
100
AcDbEntity
  8
AM_7 中心線
100
AcDbLine
 10
267.0
 20
580.4999999999998
 30
0.0
 11
267.0
 21
547.0
 31
0.0
  0
ARC
  5
50E5
330
50C6
100
AcDbEntity
  8
AM_0 外形線1
100
AcDbCircle
 10
362.0
 20
535.5
 30
0.0
 40
0.5
100
AcDbArc
 50
180.0
 51
270.0
  0
LINE
  5
50E6
330
50C6
100
AcDbEntity
  8
AM_0 外形線1
100
AcDbLine
 10
361.5
 20
535.5
 30
0.0
 11
361.5
 21
565.6882949999998
 31
0.0
  0
LINE
  5
50E7
330
50C6
100
AcDbEntity
  8
AM_0 外形線1
100
AcDbLine
 10
361.5
 20
565.6882949999998
 30
0.0
 11
359.5
 21
568.0176049999992
 31
0.0
  0
LINE
  5
50E8
330
50C6
100
AcDbEntity
  8
AM_0 外形線1
100
AcDbLine
 10
474.0
 20
535.0
 30
0.0
 11
362.0
 21
535.0
 31
0.0
  0
LINE
  5
50E9
330
50C6
100
AcDbEntity
  8
AM_3 隠れ線
100
AcDbLine
 10
799.917500000005
 20
21.49784999999974
 30
0.0
 11
697.9277000000038
 21
21.49784999999974
 31
0.0
  0
LINE
  5
50EA
330
50C6
100
AcDbEntity
  8
AM_3 隠れ線
100
AcDbLine
 10
799.917500000005
 20
22.99769999999989
 30
0.0
 11
715.9259000000056
 21
22.99769999999989
 31
0.0
  0
LINE
  5
50EB
330
50C6
100
AcDbEntity
  8
AM_3 隠れ線
100
AcDbLine
 10
697.9277000000038
 20
21.49784999999974
 30
0.0
 11
697.9277000000038
 21
0.0
 31
0.0
  0
LINE
  5
50EC
330
50C6
100
AcDbEntity
  8
AM_3 隠れ線
100
AcDbLine
 10
697.9277000000038
 20
21.49784999999974
 30
0.0
 11
685.5159200000033
 21
0.0
 31
0.0
  0
LINE
  5
50ED
330
50C6
100
AcDbEntity
  8
AM_3 隠れ線
100
AcDbLine
 10
715.059965000004
 20
21.49784999999974
 30
0.0
 11
715.059965000004
 21
0.0
 31
0.0
  0
LINE
  5
50EE
330
50C6
100
AcDbEntity
  8
AM_3 隠れ線
100
AcDbLine
 10
715.9259000000056
 20
22.99769999999989
 30
0.0
 11
715.9259000000056
 21
0.0
 31
0.0
  0
LINE
  5
50EF
330
50C6
100
AcDbEntity
  8
AM_3 隠れ線
100
AcDbLine
 10
715.9259000000056
 20
22.99769999999989
 30
0.0
 11
715.059965000004
 21
21.49784999999974
 31
0.0
  0
ARC
  5
50F0
330
50C6
100
AcDbEntity
  8
AM_0 外形線1
100
AcDbCircle
 10
770.0000000000009
 20
503.0
 30
0.0
 40
30.0
100
AcDbArc
 50
0.0
 51
90.0
  0
LINE
  5
50F1
330
50C6
100
AcDbEntity
  8
AM_0 外形線1
100
AcDbLine
 10
770.0000000000009
 20
533.0
 30
0.0
 11
480.0
 21
533.0
 31
0.0
  0
LINE
  5
50F3
330
50C6
100
AcDbEntity
  8
AM_0 外形線1
100
AcDbLine
 10
0.0
 20
340.0
 30
0.0
 11
800.0000000000008
 21
340.0
 31
0.0
  0
ARC
  5
730B
330
50C6
100
AcDbEntity
  8
AM_0 外形線1
100
AcDbCircle
 10
266.9999999999982
 20
0.0
 30
0.0
 40
552.0
100
AcDbArc
 50
80.14265593040764
 51
99.85734406959236
  0
ARC
  5
749D
330
50C6
100
AcDbEntity
  8
AM_7 中心線
100
AcDbCircle
 10
267.0
 20
0.0
 30
0.0
 40
564.0
100
AcDbArc
 50
79.58754847071296
 51
100.6832422639929
  0
ENDBLK
  5
50C8
330
50C6
100
AcDbEntity
  8
0
100
AcDbBlockEnd
  0
BLOCK
  5
52BC
330
52BB
100
AcDbEntity
  8
0
100
AcDbBlockBegin
  2
リーマボルト CCMH1400 M42
 70
     0
 10
0.0
 20
0.0
 30
0.0
  3
リーマボルト CCMH1400 M42
  1

  0
LINE
  5
52BE
330
52BB
100
AcDbEntity
  8
AM_0 外形線1
100
AcDbLine
 10
-148.0
 20
37.5
 30
0.0
 11
-179.1132480000005
 21
37.5
 31
0.0
  0
LINE
  5
52BF
330
52BB
100
AcDbEntity
  8
AM_0 外形線1
100
AcDbLine
 10
-148.0
 20
18.76388399999996
 30
0.0
 11
-179.1132480000005
 21
18.76388399999996
 31
0.0
  0
LINE
  5
52C0
330
52BB
100
AcDbEntity
  8
AM_0 外形線1
100
AcDbLine
 10
-179.1132480000005
 20
-37.5
 30
0.0
 11
-148.0
 21
-37.5
 31
0.0
  0
LINE
  5
52C1
330
52BB
100
AcDbEntity
  8
AM_0 外形線1
100
AcDbLine
 10
-148.0
 20
-18.76388399999996
 30
0.0
 11
-179.1132480000005
 21
-18.76388399999996
 31
0.0
  0
LINE
  5
52C2
330
52BB
100
AcDbEntity
  8
AM_0 外形線1
100
AcDbLine
 10
-179.1132480000005
 20
37.5
 30
0.0
 11
-182.0
 21
32.5
 31
0.0
  0
ARC
  5
52C3
330
52BB
100
AcDbEntity
  8
AM_0 外形線1
100
AcDbCircle
 10
-165.3560569999999
 20
28.13194199999907
 30
0.0
 40
16.643942
100
AcDbArc
 50
145.7468130000188
 51
214.2531869999811
  0
LINE
  5
52C4
330
52BB
100
AcDbEntity
  8
AM_0 外形線1
100
AcDbLine
 10
-182.0
 20
21.0
 30
0.0
 11
-191.0
 21
21.0
 31
0.0
  0
LINE
  5
52C5
330
52BB
100
AcDbEntity
  8
AM_0 外形線1
100
AcDbLine
 10
-191.0
 20
21.0
 30
0.0
 11
-194.0
 21
18.0
 31
0.0
  0
LINE
  5
52C6
330
52BB
100
AcDbEntity
  8
AM_4 細線
100
AcDbLine
 10
-192.5
 20
19.5
 30
0.0
 11
-182.0
 21
19.5
 31
0.0
  0
LINE
  5
52C7
330
52BB
100
AcDbEntity
  8
AM_0 外形線1
100
AcDbLine
 10
-182.0
 20
-32.5
 30
0.0
 11
-179.1132480000005
 21
-37.5
 31
0.0
  0
ARC
  5
52C8
330
52BB
100
AcDbEntity
  8
AM_0 外形線1
100
AcDbCircle
 10
-165.3560569999999
 20
-28.13194200000089
 30
0.0
 40
16.643942
100
AcDbArc
 50
145.7468130000188
 51
214.2531869999811
  0
LINE
  5
52C9
330
52BB
100
AcDbEntity
  8
AM_0 外形線1
100
AcDbLine
 10
-194.0
 20
-18.0
 30
0.0
 11
-191.0
 21
-21.0
 31
0.0
  0
LINE
  5
52CA
330
52BB
100
AcDbEntity
  8
AM_0 外形線1
100
AcDbLine
 10
-191.0
 20
-21.0
 30
0.0
 11
-182.0
 21
-21.0
 31
0.0
  0
LINE
  5
52CB
330
52BB
100
AcDbEntity
  8
AM_4 細線
100
AcDbLine
 10
-182.0
 20
-19.5
 30
0.0
 11
-192.5
 21
-19.5
 31
0.0
  0
LINE
  5
52CC
330
52BB
100
AcDbEntity
  8
AM_0 外形線1
100
AcDbLine
 10
-182.0
 20
32.5
 30
0.0
 11
-182.0
 21
-32.5
 31
0.0
  0
ARC
  5
52CD
330
52BB
100
AcDbEntity
  8
AM_0 外形線1
100
AcDbCircle
 10
-119.5740020000003
 20
0.0
 30
0.0
 40
62.425998
100
AcDbArc
 50
162.5076749999833
 51
197.4923250000166
  0
LINE
  5
52CE
330
52BB
100
AcDbEntity
  8
AM_0 外形線1
100
AcDbLine
 10
-194.0
 20
18.0
 30
0.0
 11
-194.0
 21
-18.0
 31
0.0
  0
LINE
  5
52CF
330
52BB
100
AcDbEntity
  8
AM_0 外形線1
100
AcDbLine
 10
-191.0
 20
21.0
 30
0.0
 11
-191.0
 21
-21.0
 31
0.0
  0
LINE
  5
52D0
330
52BB
100
AcDbEntity
  8
AM_0 外形線1
100
AcDbLine
 10
-136.0
 20
22.0
 30
0.0
 11
-138.0
 21
20.84529999999904
 31
0.0
  0
LINE
  5
52D1
330
52BB
100
AcDbEntity
  8
AM_0 外形線1
100
AcDbLine
 10
-140.0
 20
21.0
 30
0.0
 11
-138.0
 21
21.0
 31
0.0
  0
LINE
  5
52D2
330
52BB
100
AcDbEntity
  8
AM_0 外形線1
100
AcDbLine
 10
-138.0
 20
21.0
 30
0.0
 11
-137.7320509999999
 21
21.0
 31
0.0
  0
LINE
  5
52D3
330
52BB
100
AcDbEntity
  8
AM_0 外形線1
100
AcDbLine
 10
-138.0
 20
-20.84529900000053
 30
0.0
 11
-136.0
 21
-22.0
 31
0.0
  0
LINE
  5
52D4
330
52BB
100
AcDbEntity
  8
AM_0 外形線1
100
AcDbLine
 10
-140.0
 20
-21.0
 30
0.0
 11
-137.7320509999999
 21
-21.0
 31
0.0
  0
LINE
  5
52D5
330
52BB
100
AcDbEntity
  8
AM_0 外形線1
100
AcDbLine
 10
-138.0
 20
20.84529999999904
 30
0.0
 11
-138.0
 21
-20.84529900000053
 31
0.0
  0
LINE
  5
52D6
330
52BB
100
AcDbEntity
  8
AM_0 外形線1
100
AcDbLine
 10
-136.0
 20
22.0
 30
0.0
 11
-136.0
 21
-22.0
 31
0.0
  0
LINE
  5
52D7
330
52BB
100
AcDbEntity
  8
AM_0 外形線1
100
AcDbLine
 10
-148.0
 20
-37.5
 30
0.0
 11
-148.0
 21
37.5
 31
0.0
  0
LINE
  5
52D8
330
52BB
100
AcDbEntity
  8
AM_0 外形線1
100
AcDbLine
 10
-148.0
 20
-5.333333000000492
 30
0.0
 11
-140.0
 21
2.666666999999506
 31
0.0
  0
LINE
  5
52D9
330
52BB
100
AcDbEntity
  8
AM_0 外形線1
100
AcDbLine
 10
-148.0
 20
-2.666667000001325
 30
0.0
 11
-140.0
 21
5.333332999998673
 31
0.0
  0
LINE
  5
52DA
330
52BB
100
AcDbEntity
  8
AM_0 外形線1
100
AcDbLine
 10
-148.0
 20
35.5
 30
0.0
 11
-140.0
 21
35.5
 31
0.0
  0
LINE
  5
52DB
330
52BB
100
AcDbEntity
  8
AM_0 外形線1
100
AcDbLine
 10
-148.0
 20
-35.5
 30
0.0
 11
-140.0
 21
-35.5
 31
0.0
  0
LINE
  5
52DC
330
52BB
100
AcDbEntity
  8
AM_0 外形線1
100
AcDbLine
 10
0.0
 20
37.5
 30
0.0
 11
23.11324899999909
 21
37.5
 31
0.0
  0
LINE
  5
52DD
330
52BB
100
AcDbEntity
  8
AM_0 外形線1
100
AcDbLine
 10
23.11324899999909
 20
37.5
 30
0.0
 11
26.0
 21
32.5
 31
0.0
  0
LINE
  5
52DE
330
52BB
100
AcDbEntity
  8
AM_0 外形線1
100
AcDbLine
 10
0.0
 20
18.76388399999996
 30
0.0
 11
23.11324899999909
 21
18.76388399999996
 31
0.0
  0
ARC
  5
52DF
330
52BB
100
AcDbEntity
  8
AM_0 外形線1
100
AcDbCircle
 10
9.356058000000302
 20
28.13194199999907
 30
0.0
 40
16.643942
100
AcDbArc
 50
325.7468130000189
 51
34.25318699998113
  0
LINE
  5
52E0
330
52BB
100
AcDbEntity
  8
AM_0 外形線1
100
AcDbLine
 10
26.0
 20
-32.5
 30
0.0
 11
23.11324899999909
 21
-37.5
 31
0.0
  0
LINE
  5
52E1
330
52BB
100
AcDbEntity
  8
AM_0 外形線1
100
AcDbLine
 10
23.11324899999909
 20
-37.5
 30
0.0
 11
0.0
 21
-37.5
 31
0.0
  0
LINE
  5
52E2
330
52BB
100
AcDbEntity
  8
AM_0 外形線1
100
AcDbLine
 10
0.0
 20
-18.76388399999996
 30
0.0
 11
23.11324899999909
 21
-18.76388399999996
 31
0.0
  0
ARC
  5
52E3
330
52BB
100
AcDbEntity
  8
AM_0 外形線1
100
AcDbCircle
 10
9.356058000000302
 20
-28.13194200000089
 30
0.0
 40
16.643942
100
AcDbArc
 50
325.7468130000189
 51
34.25318699998113
  0
ARC
  5
52E4
330
52BB
100
AcDbEntity
  8
AM_0 外形線1
100
AcDbCircle
 10
-2.0
 20
-22.0
 30
0.0
 40
2.0
100
AcDbArc
 50
0.0
 51
75.52248781406404
  0
ARC
  5
52E6
330
52BB
100
AcDbEntity
  8
AM_0 外形線1
100
AcDbCircle
 10
-1.0
 20
-22.0
 30
0.0
 40
2.0
100
AcDbArc
 50
104.4775121859359
 51
180.0
  0
LINE
  5
52E7
330
52BB
100
AcDbEntity
  8
AM_0 外形線1
100
AcDbLine
 10
26.0
 20
32.5
 30
0.0
 11
26.0
 21
-32.5
 31
0.0
  0
LINE
  5
52E8
330
52BB
100
AcDbEntity
  8
AM_0 外形線1
100
AcDbLine
 10
0.0
 20
-37.5
 30
0.0
 11
0.0
 21
37.5
 31
0.0
  0
ARC
  5
52E9
330
52BB
100
AcDbEntity
  8
AM_0 外形線1
100
AcDbCircle
 10
-36.42599799999971
 20
0.0
 30
0.0
 40
62.425998
100
AcDbArc
 50
342.5076749999834
 51
17.49232500001665
  0
LINE
  5
52EA
330
52BB
100
AcDbEntity
  8
AM_0 外形線1
100
AcDbLine
 10
-3.0
 20
-22.0
 30
0.0
 11
-3.0
 21
22.0
 31
0.0
  0
ARC
  5
5320
330
52BB
100
AcDbEntity
  8
AM_0 外形線1
100
AcDbCircle
 10
-2.0
 20
22.0
 30
0.0
 40
2.0
100
AcDbArc
 50
284.477512185936
 51
0.0
  0
ARC
  5
5321
330
52BB
100
AcDbEntity
  8
AM_0 外形線1
100
AcDbCircle
 10
-1.0
 20
22.0
 30
0.0
 40
2.0
100
AcDbArc
 50
180.0
 51
255.522487814064
  0
LINE
  5
534E
330
52BB
100
AcDbEntity
  8
AM_0 外形線1
100
AcDbLine
 10
-136.0
 20
22.0
 30
0.0
 11
-3.0
 21
22.0
 31
0.0
  0
LINE
  5
534F
330
52BB
100
AcDbEntity
  8
AM_0 外形線1
100
AcDbLine
 10
-136.0
 20
-22.0
 30
0.0
 11
-3.0
 21
-22.0
 31
0.0
  0
LINE
  5
5350
330
52BB
100
AcDbEntity
  8
AM_0 外形線1
100
AcDbLine
 10
-140.0
 20
35.5
 30
0.0
 11
-140.0
 21
-35.5
 31
0.0
  0
ENDBLK
  5
52BD
330
52BB
100
AcDbEntity
  8
0
100
AcDbBlockEnd
  0
BLOCK
  5
53F3
330
53F2
100
AcDbEntity
  8
0
100
AcDbBlockBegin
  2
ＧＣサイドカバ－A CCMH1400
 70
     0
 10
0.0
 20
0.0
 30
0.0
  3
ＧＣサイドカバ－A CCMH1400
  1

  0
LINE
  5
53F5
330
53F2
100
AcDbEntity
  8
AM_0 外形線1
100
AcDbLine
 10
43.89999999999964
 20
583.1999999999989
 30
0.0
 11
43.89999999999964
 21
624.1999999999989
 31
0.0
  0
ARC
  5
53F6
330
53F2
100
AcDbEntity
  8
AM_0 外形線1
100
AcDbCircle
 10
28.89999999999965
 20
604.0
 30
0.0
 40
30.0
100
AcDbArc
 50
339.7007620000286
 51
20.29923799997135
  0
LINE
  5
53F7
330
53F2
100
AcDbEntity
  8
AM_0 外形線1
100
AcDbLine
 10
58.89999999999964
 20
619.9076949999997
 30
0.0
 11
58.89999999999964
 21
588.6999999999988
 31
0.0
  0
LINE
  5
53F8
330
53F2
100
AcDbEntity
  8
AM_0 外形線1
100
AcDbLine
 10
38.0
 20
608.4999999999999
 30
0.0
 11
38.0
 21
538.0
 31
0.0
  0
LINE
  5
53F9
330
53F2
100
AcDbEntity
  8
AM_0 外形線1
100
AcDbLine
 10
-36.10000000000037
 20
592.0
 30
0.0
 11
-36.10000000000037
 21
604.0
 31
0.0
  0
LINE
  5
53FA
330
53F2
100
AcDbEntity
  8
AM_0 外形線1
100
AcDbLine
 10
-37.10000000000036
 20
592.0
 30
0.0
 11
-37.10000000000036
 21
604.0
 31
0.0
  0
LINE
  5
53FB
330
53F2
100
AcDbEntity
  8
AM_0 外形線1
100
AcDbLine
 10
-43.0
 20
593.5
 30
0.0
 11
-43.0
 21
604.0
 31
0.0
  0
LINE
  5
53FC
330
53F2
100
AcDbEntity
  8
AM_0 外形線1
100
AcDbLine
 10
-43.0
 20
593.5
 30
0.0
 11
-49.06217800000013
 21
604.0
 31
0.0
  0
LINE
  5
53FD
330
53F2
100
AcDbEntity
  8
AM_0 外形線1
100
AcDbLine
 10
38.0
 20
-608.4999999999999
 30
0.0
 11
38.0
 21
0.0
 31
0.0
  0
LINE
  5
53FE
330
53F2
100
AcDbEntity
  8
AM_0 外形線1
100
AcDbLine
 10
0.0
 20
-627.5
 30
0.0
 11
38.0
 21
-627.5
 31
0.0
  0
LINE
  5
53FF
330
53F2
100
AcDbEntity
  8
AM_0 外形線1
100
AcDbLine
 10
38.0
 20
-627.5
 30
0.0
 11
38.0
 21
-608.4999999999999
 31
0.0
  0
LINE
  5
5400
330
53F2
100
AcDbEntity
  8
AM_7 中心線
100
AcDbLine
 10
-51.42593600000054
 20
-604.0
 30
0.0
 11
64.4688299999998
 21
-604.0
 31
0.0
  0
LINE
  5
5401
330
53F2
100
AcDbEntity
  8
AM_0 外形線1
100
AcDbLine
 10
4.5
 20
585.1999999999987
 30
0.0
 11
4.5
 21
578.0
 31
0.0
  0
LINE
  5
5402
330
53F2
100
AcDbEntity
  8
AM_0 外形線1
100
AcDbLine
 10
43.89999999999964
 20
583.7999999999992
 30
0.0
 11
38.0
 21
583.7999999999992
 31
0.0
  0
ARC
  5
5403
330
53F2
100
AcDbEntity
  8
AM_0 外形線1
100
AcDbCircle
 10
50.74755499999992
 20
588.3961529999996
 30
0.0
 40
8.158106
100
AcDbArc
 50
320.4366320000437
 51
39.56336799995629
  0
LINE
  5
5404
330
53F2
100
AcDbEntity
  8
AM_0 外形線1
100
AcDbLine
 10
57.03680699999949
 20
583.1999999999989
 30
0.0
 11
43.89999999999964
 21
583.1999999999989
 31
0.0
  0
LINE
  5
5405
330
53F2
100
AcDbEntity
  8
AM_0 外形線1
100
AcDbLine
 10
43.89999999999964
 20
593.5923050000001
 30
0.0
 11
57.03680699999949
 21
593.5923050000001
 31
0.0
  0
LINE
  5
5406
330
53F2
100
AcDbEntity
  8
AM_0 外形線1
100
AcDbLine
 10
38.0
 20
538.0
 30
0.0
 11
38.0
 21
535.0
 31
0.0
  0
LINE
  5
5407
330
53F2
100
AcDbEntity
  8
AM_0 外形線1
100
AcDbLine
 10
29.0
 20
538.0
 30
0.0
 11
29.0
 21
535.0
 31
0.0
  0
LINE
  5
5408
330
53F2
100
AcDbEntity
  8
AM_0 外形線1
100
AcDbLine
 10
38.0
 20
538.0
 30
0.0
 11
29.0
 21
538.0
 31
0.0
  0
LINE
  5
5409
330
53F2
100
AcDbEntity
  8
AM_0 外形線1
100
AcDbLine
 10
29.0
 20
538.0
 30
0.0
 11
29.0
 21
551.6499999999996
 31
0.0
  0
LINE
  5
540A
330
53F2
100
AcDbEntity
  8
AM_0 外形線1
100
AcDbLine
 10
-36.10000000000037
 20
593.5
 30
0.0
 11
-43.0
 21
593.5
 31
0.0
  0
LINE
  5
540B
330
53F2
100
AcDbEntity
  8
AM_0 外形線1
100
AcDbLine
 10
-37.10000000000036
 20
592.0
 30
0.0
 11
-36.10000000000037
 21
592.0
 31
0.0
  0
LINE
  5
540C
330
53F2
100
AcDbEntity
  8
AM_0 外形線1
100
AcDbLine
 10
1.0
 20
538.0
 30
0.0
 11
1.0
 21
535.0
 31
0.0
  0
LINE
  5
540D
330
53F2
100
AcDbEntity
  8
AM_0 外形線1
100
AcDbLine
 10
-8.0
 20
538.0
 30
0.0
 11
-8.0
 21
535.0
 31
0.0
  0
LINE
  5
540E
330
53F2
100
AcDbEntity
  8
AM_0 外形線1
100
AcDbLine
 10
1.0
 20
551.6499999999996
 30
0.0
 11
1.0
 21
538.0
 31
0.0
  0
LINE
  5
540F
330
53F2
100
AcDbEntity
  8
AM_0 外形線1
100
AcDbLine
 10
1.0
 20
538.0
 30
0.0
 11
-8.0
 21
538.0
 31
0.0
  0
LINE
  5
5410
330
53F2
100
AcDbEntity
  8
AM_0 外形線1
100
AcDbLine
 10
-8.0
 20
538.0
 30
0.0
 11
-8.0
 21
578.0
 31
0.0
  0
LINE
  5
5411
330
53F2
100
AcDbEntity
  8
AM_0 外形線1
100
AcDbLine
 10
29.0
 20
551.6499999999996
 30
0.0
 11
1.0
 21
551.6499999999996
 31
0.0
  0
LINE
  5
5412
330
53F2
100
AcDbEntity
  8
AM_0 外形線1
100
AcDbLine
 10
0.0
 20
585.1999999999987
 30
0.0
 11
4.5
 21
585.1999999999987
 31
0.0
  0
LINE
  5
5413
330
53F2
100
AcDbEntity
  8
AM_0 外形線1
100
AcDbLine
 10
38.0
 20
591.0
 30
0.0
 11
0.0
 21
591.0
 31
0.0
  0
LINE
  5
5414
330
53F2
100
AcDbEntity
  8
AM_4 細線
100
AcDbLine
 10
38.0
 20
592.0
 30
0.0
 11
-36.10000000000037
 21
592.0
 31
0.0
  0
LINE
  5
5415
330
53F2
100
AcDbEntity
  8
AM_0 外形線1
100
AcDbLine
 10
38.0
 20
593.5
 30
0.0
 11
-36.10000000000037
 21
593.5
 31
0.0
  0
LWPOLYLINE
  5
5416
330
53F2
100
AcDbEntity
  8
AM_0 外形線1
100
AcDbPolyline
 90
       73
 70
     0
 43
0.0
 10
29.0
 20
543.3249999999989
 10
28.94672599999922
 20
544.0505719999999
 10
28.78730900000028
 20
544.7706209999997
 10
28.52296200000001
 20
545.4796690000002
 10
28.15569699999924
 20
546.172317999999
 10
27.68830900000012
 20
546.8432969999994
 10
27.12435599999935
 20
547.4874999999991
 10
26.46812899999986
 20
548.1000239999993
 10
25.72462199999973
 20
548.6762070000004
 10
24.89949499999966
 20
549.2116640000004
 10
23.99902699999984
 20
549.7023200000003
 10
23.0300699999998
 20
550.1444410000003
 10
22.0
 20
550.534662
 10
20.91665600000033
 20
550.8700119999994
 10
19.78828200000043
 20
551.1479409999991
 10
18.62346699999944
 20
551.3663329999998
 10
17.43107499999951
 20
551.5235250000005
 10
16.22018099999968
 20
551.6183209999998
 10
15.0
 20
551.6499999999996
 10
13.77981999999974
 20
551.6183209999998
 10
12.56892599999901
 20
551.5235250000005
 10
11.37653399999999
 20
551.3663329999998
 10
10.21171799999956
 20
551.1479409999991
 10
9.083345000000008
 20
550.8700119999994
 10
8.0
 20
550.534662
 10
6.969930000000204
 20
550.1444410000003
 10
6.000973999999587
 20
549.7023200000003
 10
5.100504999999428
 20
549.2116640000004
 10
4.275377999999363
 20
548.6762070000004
 10
3.531871999999566
 20
548.1000239999993
 10
2.875644999999166
 20
547.4874999999991
 10
2.311690999999882
 20
546.8432969999994
 10
1.844303999999283
 20
546.172317999999
 10
1.477039000000331
 20
545.4796690000002
 10
1.21269200000006
 20
544.7706209999997
 10
1.053273999999872
 20
544.0505719999999
 10
1.0
 20
543.3249999999989
 10
1.053273999999872
 20
542.5994289999998
 10
1.21269200000006
 20
541.8793789999998
 10
1.477039000000331
 20
541.1703319999997
 10
1.844303999999283
 20
540.4776819999987
 10
2.311690999999882
 20
539.8067030000001
 10
2.875644999999166
 20
539.1625000000002
 10
3.531871999999566
 20
538.549976
 10
4.275377999999363
 20
537.9737929999992
 10
5.100504999999428
 20
537.4383359999991
 10
6.000973999999587
 20
536.9476799999993
 10
6.969930000000204
 20
536.5055589999991
 10
8.0
 20
536.1153389999998
 10
9.083345000000008
 20
535.779988
 10
10.21171799999956
 20
535.5020590000004
 10
11.37653399999999
 20
535.2836679999999
 10
12.56892599999901
 20
535.1264759999993
 10
13.77981999999974
 20
535.0316789999997
 10
15.0
 20
535.0
 10
16.22018099999968
 20
535.0316789999997
 10
17.43107499999951
 20
535.1264759999993
 10
18.62346699999944
 20
535.2836679999999
 10
19.78828200000043
 20
535.5020590000004
 10
20.91665600000033
 20
535.779988
 10
22.0
 20
536.1153389999998
 10
23.0300699999998
 20
536.5055589999991
 10
23.99902699999984
 20
536.9476799999993
 10
24.89949499999966
 20
537.4383359999991
 10
25.72462199999973
 20
537.9737929999992
 10
26.46812899999986
 20
538.549976
 10
27.12435599999935
 20
539.1625000000002
 10
27.68830900000012
 20
539.8067030000001
 10
28.15569699999924
 20
540.4776819999987
 10
28.52296200000001
 20
541.1703319999997
 10
28.78730900000028
 20
541.8793789999998
 10
28.94672599999922
 20
542.5994289999998
 10
29.0
 20
543.3249999999989
  0
LWPOLYLINE
  5
5417
330
53F2
100
AcDbEntity
  8
AM_0 外形線1
100
AcDbPolyline
 90
       73
 70
     0
 43
0.0
 10
2.25
 20
578.0
 10
2.446100999999544
 20
578.0136989999991
 10
2.640709000000241
 20
578.0546919999998
 10
2.832342999999126
 20
578.1226669999996
 10
3.019546000000444
 20
578.2171070000003
 10
3.200890999999501
 20
578.3372920000001
 10
3.375
 20
578.4823089999989
 10
3.540546999999604
 20
578.6510529999994
 10
3.696272000000134
 20
578.8422399999998
 10
3.84099100000003
 20
579.054415999999
 10
3.97360000000026
 20
579.2859649999991
 10
4.093092000000068
 20
579.5351250000002
 10
4.198556999999708
 20
579.7999999999992
 10
4.289192999999612
 20
580.0785739999992
 10
4.364308999999593
 20
580.3687279999993
 10
4.423332999999728
 20
580.6682519999993
 10
4.46581799999967
 20
580.9748669999988
 10
4.491438000000016
 20
581.2862389999991
 10
4.5
 20
581.6000000000002
 10
4.491438000000016
 20
581.9137609999997
 10
4.46581799999967
 20
582.2251340000002
 10
4.423332999999728
 20
582.5317489999997
 10
4.364308999999593
 20
582.8312729999997
 10
4.289192999999612
 20
583.1214259999995
 10
4.198556999999708
 20
583.3999999999996
 10
4.093092000000068
 20
583.6648750000002
 10
3.97360000000026
 20
583.914036
 10
3.84099100000003
 20
584.145585
 10
3.696272000000134
 20
584.3577599999988
 10
3.540546999999604
 20
584.5489469999992
 10
3.375
 20
584.7176920000001
 10
3.200890999999501
 20
584.8627079999987
 10
3.019546000000444
 20
584.9828939999987
 10
2.832342999999126
 20
585.0773329999992
 10
2.640709000000241
 20
585.1453079999991
 10
2.446100999999544
 20
585.1863009999997
 10
2.25
 20
585.1999999999987
 10
2.053899999999885
 20
585.1863009999997
 10
1.859292000000094
 20
585.1453079999991
 10
1.667656999999961
 20
585.0773329999992
 10
1.480454999999891
 20
584.9828939999987
 10
1.299109000000497
 20
584.8627079999987
 10
1.125
 20
584.7176920000001
 10
0.9594529999994847
 20
584.5489469999992
 10
0.8037279999998645
 20
584.3577599999988
 10
0.6590099999993983
 20
584.145585
 10
0.5263999999997396
 20
583.914036
 10
0.4069079999999305
 20
583.6648750000002
 10
0.3014429999993808
 20
583.3999999999996
 10
0.2108079999998154
 20
583.1214259999995
 10
0.1356919999998354
 20
582.8312729999997
 10
0.0766670000002705
 20
582.5317489999997
 10
0.0341829999997572
 20
582.2251340000002
 10
0.0085619999999835
 20
581.9137609999997
 10
0.0
 20
581.6000000000002
 10
0.0085619999999835
 20
581.2862389999991
 10
0.0341829999997572
 20
580.9748669999988
 10
0.0766670000002705
 20
580.6682519999993
 10
0.1356919999998354
 20
580.3687279999993
 10
0.2108079999998154
 20
580.0785739999992
 10
0.3014429999993808
 20
579.7999999999992
 10
0.4069079999999305
 20
579.5351250000002
 10
0.5263999999997396
 20
579.2859649999991
 10
0.6590099999993983
 20
579.054415999999
 10
0.8037279999998645
 20
578.8422399999998
 10
0.9594529999994847
 20
578.6510529999994
 10
1.125
 20
578.4823089999989
 10
1.299109000000497
 20
578.3372920000001
 10
1.480454999999891
 20
578.2171070000003
 10
1.667656999999961
 20
578.1226669999996
 10
1.859292000000094
 20
578.0546919999998
 10
2.053899999999885
 20
578.0136989999991
 10
2.25
 20
578.0
  0
LINE
  5
5418
330
53F2
100
AcDbEntity
  8
AM_0 外形線1
100
AcDbLine
 10
38.0
 20
627.5
 30
0.0
 11
38.0
 21
608.4999999999999
 31
0.0
  0
LINE
  5
5419
330
53F2
100
AcDbEntity
  8
AM_0 外形線1
100
AcDbLine
 10
38.0
 20
624.1999999999989
 30
0.0
 11
43.89999999999964
 21
624.1999999999989
 31
0.0
  0
LINE
  5
541A
330
53F2
100
AcDbEntity
  8
AM_0 外形線1
100
AcDbLine
 10
43.89999999999964
 20
624.1999999999989
 30
0.0
 11
43.89999999999964
 21
624.7999999999993
 31
0.0
  0
LINE
  5
541B
330
53F2
100
AcDbEntity
  8
AM_0 外形線1
100
AcDbLine
 10
43.89999999999964
 20
624.7999999999993
 30
0.0
 11
57.03680699999949
 21
624.7999999999993
 31
0.0
  0
ARC
  5
541C
330
53F2
100
AcDbEntity
  8
AM_0 外形線1
100
AcDbCircle
 10
50.74755499999992
 20
619.6038479999988
 30
0.0
 40
8.158106
100
AcDbArc
 50
320.4366320000437
 51
39.56336799995629
  0
LINE
  5
541D
330
53F2
100
AcDbEntity
  8
AM_0 外形線1
100
AcDbLine
 10
57.03680699999949
 20
614.4076949999997
 30
0.0
 11
43.89999999999964
 21
614.4076949999997
 31
0.0
  0
LINE
  5
541E
330
53F2
100
AcDbEntity
  8
AM_0 外形線1
100
AcDbLine
 10
38.0
 20
603.0
 30
0.0
 11
43.89999999999964
 21
607.0
 31
0.0
  0
LINE
  5
541F
330
53F2
100
AcDbEntity
  8
AM_0 外形線1
100
AcDbLine
 10
43.89999999999964
 20
605.0
 30
0.0
 11
38.0
 21
601.0
 31
0.0
  0
LINE
  5
5420
330
53F2
100
AcDbEntity
  8
AM_0 外形線1
100
AcDbLine
 10
-36.10000000000037
 20
616.0
 30
0.0
 11
-36.10000000000037
 21
604.0
 31
0.0
  0
LINE
  5
5421
330
53F2
100
AcDbEntity
  8
AM_0 外形線1
100
AcDbLine
 10
-37.10000000000036
 20
616.0
 30
0.0
 11
-37.10000000000036
 21
604.0
 31
0.0
  0
LINE
  5
5422
330
53F2
100
AcDbEntity
  8
AM_0 外形線1
100
AcDbLine
 10
-43.0
 20
614.5
 30
0.0
 11
-43.0
 21
604.0
 31
0.0
  0
LINE
  5
5423
330
53F2
100
AcDbEntity
  8
AM_0 外形線1
100
AcDbLine
 10
-36.10000000000037
 20
614.5
 30
0.0
 11
-43.0
 21
614.5
 31
0.0
  0
LINE
  5
5424
330
53F2
100
AcDbEntity
  8
AM_0 外形線1
100
AcDbLine
 10
-43.0
 20
614.5
 30
0.0
 11
-49.06217800000013
 21
604.0
 31
0.0
  0
LINE
  5
5425
330
53F2
100
AcDbEntity
  8
AM_0 外形線1
100
AcDbLine
 10
-37.10000000000036
 20
616.0
 30
0.0
 11
-36.10000000000037
 21
616.0
 31
0.0
  0
LINE
  5
5426
330
53F2
100
AcDbEntity
  8
AM_0 外形線1
100
AcDbLine
 10
38.0
 20
617.0
 30
0.0
 11
0.0
 21
617.0
 31
0.0
  0
LINE
  5
5427
330
53F2
100
AcDbEntity
  8
AM_4 細線
100
AcDbLine
 10
38.0
 20
616.0
 30
0.0
 11
-36.10000000000037
 21
616.0
 31
0.0
  0
LINE
  5
5428
330
53F2
100
AcDbEntity
  8
AM_7 中心線
100
AcDbLine
 10
-51.42593600000054
 20
604.0
 30
0.0
 11
64.4688299999998
 21
604.0
 31
0.0
  0
LINE
  5
5429
330
53F2
100
AcDbEntity
  8
AM_0 外形線1
100
AcDbLine
 10
38.0
 20
614.5
 30
0.0
 11
-36.10000000000037
 21
614.5
 31
0.0
  0
LINE
  5
542A
330
53F2
100
AcDbEntity
  8
AM_0 外形線1
100
AcDbLine
 10
4.5
 20
578.0
 30
0.0
 11
-7.99999999999909
 21
578.0
 31
0.0
  0
LINE
  5
542B
330
53F2
100
AcDbEntity
  8
AM_0 外形線1
100
AcDbLine
 10
0.0
 20
627.5
 30
0.0
 11
38.0
 21
627.5
 31
0.0
  0
LINE
  5
5488
330
53F2
100
AcDbEntity
  8
AM_0 外形線1
100
AcDbLine
 10
0.0
 20
-627.5
 30
0.0
 11
0.0
 21
0.0
 31
0.0
  0
LINE
  5
5489
330
53F2
100
AcDbEntity
  8
AM_0 外形線1
100
AcDbLine
 10
0.0
 20
585.1999999999987
 30
0.0
 11
0.0000000000009095
 21
592.0
 31
0.0
  0
LINE
  5
548A
330
53F2
100
AcDbEntity
  8
AM_0 外形線1
100
AcDbLine
 10
0.0
 20
627.5
 30
0.0
 11
0.0
 21
616.0
 31
0.0
  0
ENDBLK
  5
53F4
330
53F2
100
AcDbEntity
  8
0
100
AcDbBlockEnd
  0
BLOCK
  5
551D
330
551C
100
AcDbEntity
  8
0
100
AcDbBlockBegin
  2
ＧＣサイドカバ－Ｂ CCMH1400
 70
     0
 10
0.0
 20
0.0
 30
0.0
  3
ＧＣサイドカバ－Ｂ CCMH1400
  1

  0
LINE
  5
551F
330
551C
100
AcDbEntity
  8
AM_0 外形線1
100
AcDbLine
 10
-43.90000000000054
 20
583.1999999999989
 30
0.0
 11
-43.90000000000054
 21
624.7999999999993
 31
0.0
  0
ARC
  5
5520
330
551C
100
AcDbEntity
  8
AM_0 外形線1
100
AcDbCircle
 10
-28.90000000000055
 20
604.0
 30
0.0
 40
30.0
100
AcDbArc
 50
159.7007620000286
 51
200.2992379999713
  0
LINE
  5
5521
330
551C
100
AcDbEntity
  8
AM_0 外形線1
100
AcDbLine
 10
-58.90000000000054
 20
619.9076949999997
 30
0.0
 11
-58.90000000000054
 21
588.6999999999988
 31
0.0
  0
LINE
  5
5522
330
551C
100
AcDbEntity
  8
AM_0 外形線1
100
AcDbLine
 10
-38.0
 20
608.4999999999999
 30
0.0
 11
-38.0
 21
538.0
 31
0.0
  0
LINE
  5
5523
330
551C
100
AcDbEntity
  8
AM_0 外形線1
100
AcDbLine
 10
36.09999999999946
 20
592.0
 30
0.0
 11
36.09999999999946
 21
604.0
 31
0.0
  0
LINE
  5
5524
330
551C
100
AcDbEntity
  8
AM_0 外形線1
100
AcDbLine
 10
37.09999999999946
 20
592.0
 30
0.0
 11
37.09999999999946
 21
604.0
 31
0.0
  0
LINE
  5
5525
330
551C
100
AcDbEntity
  8
AM_0 外形線1
100
AcDbLine
 10
43.0
 20
593.5
 30
0.0
 11
43.0
 21
604.0
 31
0.0
  0
LINE
  5
5526
330
551C
100
AcDbEntity
  8
AM_0 外形線1
100
AcDbLine
 10
43.0
 20
593.5
 30
0.0
 11
49.06217800000013
 21
604.0
 31
0.0
  0
LINE
  5
5527
330
551C
100
AcDbEntity
  8
AM_0 外形線1
100
AcDbLine
 10
-38.0
 20
-608.4999999999999
 30
0.0
 11
-38.0
 21
0.0
 31
0.0
  0
LINE
  5
5528
330
551C
100
AcDbEntity
  8
AM_7 中心線
100
AcDbLine
 10
51.42593599999964
 20
-604.0
 30
0.0
 11
-64.4688300000007
 21
-604.0
 31
0.0
  0
LINE
  5
5529
330
551C
100
AcDbEntity
  8
AM_0 外形線1
100
AcDbLine
 10
-38.0
 20
-627.5
 30
0.0
 11
-38.0
 21
-608.4999999999999
 31
0.0
  0
LINE
  5
552A
330
551C
100
AcDbEntity
  8
AM_4 細線
100
AcDbLine
 10
-38.0
 20
592.0
 30
0.0
 11
36.09999999999946
 21
592.0
 31
0.0
  0
LINE
  5
552B
330
551C
100
AcDbEntity
  8
AM_0 外形線1
100
AcDbLine
 10
-38.0
 20
593.5
 30
0.0
 11
36.09999999999946
 21
593.5
 31
0.0
  0
LINE
  5
552C
330
551C
100
AcDbEntity
  8
AM_0 外形線1
100
AcDbLine
 10
0.0
 20
585.1999999999987
 30
0.0
 11
-4.5
 21
585.1999999999987
 31
0.0
  0
LINE
  5
552D
330
551C
100
AcDbEntity
  8
AM_0 外形線1
100
AcDbLine
 10
-4.5
 20
585.1999999999987
 30
0.0
 11
-4.5
 21
578.0
 31
0.0
  0
LWPOLYLINE
  5
552E
330
551C
100
AcDbEntity
  8
AM_0 外形線1
100
AcDbPolyline
 90
       73
 70
     0
 43
0.0
 10
-2.25
 20
578.0
 10
-2.053899000000455
 20
578.0136989999991
 10
-1.859291000000666
 20
578.0546919999998
 10
-1.667657000000871
 20
578.1226669999996
 10
-1.480453999999553
 20
578.2171070000003
 10
-1.299109000000497
 20
578.3372920000001
 10
-1.125
 20
578.4823089999989
 10
-0.9594530000003942
 20
578.6510529999994
 10
-0.8037279999998645
 20
578.8422399999998
 10
-0.6590089999999691
 20
579.054415999999
 10
-0.5263999999997396
 20
579.2859649999991
 10
-0.4069079999999305
 20
579.5351250000002
 10
-0.3014430000002903
 20
579.7999999999992
 10
-0.2108070000003863
 20
580.0785739999992
 10
-0.1356910000004063
 20
580.3687279999993
 10
-0.0766670000002705
 20
580.6682519999993
 10
-0.0341820000003281
 20
580.9748669999988
 10
-0.0085619999999835
 20
581.2862389999991
 10
0.0
 20
581.6000000000002
 10
-0.0085619999999835
 20
581.9137609999997
 10
-0.0341820000003281
 20
582.2251340000002
 10
-0.0766670000002705
 20
582.5317489999997
 10
-0.1356910000004063
 20
582.8312729999997
 10
-0.2108070000003863
 20
583.1214259999995
 10
-0.3014430000002903
 20
583.3999999999996
 10
-0.4069079999999305
 20
583.6648750000002
 10
-0.5263999999997396
 20
583.914036
 10
-0.6590089999999691
 20
584.145585
 10
-0.8037279999998645
 20
584.3577599999988
 10
-0.9594530000003942
 20
584.5489469999992
 10
-1.125
 20
584.7176920000001
 10
-1.299109000000497
 20
584.8627079999987
 10
-1.480453999999553
 20
584.9828939999987
 10
-1.667657000000871
 20
585.0773329999992
 10
-1.859291000000666
 20
585.1453079999991
 10
-2.053899000000455
 20
585.1863009999997
 10
-2.25
 20
585.1999999999987
 10
-2.446100000000114
 20
585.1863009999997
 10
-2.640707999999904
 20
585.1453079999991
 10
-2.832343000000037
 20
585.0773329999992
 10
-3.019545000000106
 20
584.9828939999987
 10
-3.20089100000041
 20
584.8627079999987
 10
-3.375
 20
584.7176920000001
 10
-3.540546999999604
 20
584.5489469999992
 10
-3.696272000000134
 20
584.3577599999988
 10
-3.840989999999692
 20
584.145585
 10
-3.97360000000026
 20
583.914036
 10
-4.093092000000068
 20
583.6648750000002
 10
-4.198557000000618
 20
583.3999999999996
 10
-4.289192000000183
 20
583.1214259999995
 10
-4.364308000000163
 20
582.8312729999997
 10
-4.423332999999728
 20
582.5317489999997
 10
-4.465817000000241
 20
582.2251340000002
 10
-4.491438000000016
 20
581.9137609999997
 10
-4.5
 20
581.6000000000002
 10
-4.491438000000016
 20
581.2862389999991
 10
-4.465817000000241
 20
580.9748669999988
 10
-4.423332999999728
 20
580.6682519999993
 10
-4.364308000000163
 20
580.3687279999993
 10
-4.289192000000183
 20
580.0785739999992
 10
-4.198557000000618
 20
579.7999999999992
 10
-4.093092000000068
 20
579.5351250000002
 10
-3.97360000000026
 20
579.2859649999991
 10
-3.840989999999692
 20
579.054415999999
 10
-3.696272000000134
 20
578.8422399999998
 10
-3.540546999999604
 20
578.6510529999994
 10
-3.375
 20
578.4823089999989
 10
-3.20089100000041
 20
578.3372920000001
 10
-3.019545000000106
 20
578.2171070000003
 10
-2.832343000000037
 20
578.1226669999996
 10
-2.640707999999904
 20
578.0546919999998
 10
-2.446100000000114
 20
578.0136989999991
 10
-2.25
 20
578.0
  0
LINE
  5
552F
330
551C
100
AcDbEntity
  8
AM_0 外形線1
100
AcDbLine
 10
-43.90000000000054
 20
583.7999999999992
 30
0.0
 11
-38.0
 21
583.7999999999992
 31
0.0
  0
ARC
  5
5530
330
551C
100
AcDbEntity
  8
AM_0 外形線1
100
AcDbCircle
 10
-50.7475540000005
 20
588.3961529999996
 30
0.0
 40
8.158106
100
AcDbArc
 50
140.4366320000437
 51
219.5633679999563
  0
LINE
  5
5531
330
551C
100
AcDbEntity
  8
AM_0 外形線1
100
AcDbLine
 10
-57.03680600000097
 20
583.1999999999989
 30
0.0
 11
-43.90000000000054
 21
583.1999999999989
 31
0.0
  0
LINE
  5
5532
330
551C
100
AcDbEntity
  8
AM_0 外形線1
100
AcDbLine
 10
-43.90000000000054
 20
593.5923050000001
 30
0.0
 11
-57.03680600000097
 21
593.5923050000001
 31
0.0
  0
LINE
  5
5533
330
551C
100
AcDbEntity
  8
AM_0 外形線1
100
AcDbLine
 10
-38.0
 20
591.0
 30
0.0
 11
0.0
 21
591.0
 31
0.0
  0
LINE
  5
5534
330
551C
100
AcDbEntity
  8
AM_0 外形線1
100
AcDbLine
 10
-29.0
 20
538.0
 30
0.0
 11
-29.0
 21
535.0
 31
0.0
  0
LINE
  5
5535
330
551C
100
AcDbEntity
  8
AM_0 外形線1
100
AcDbLine
 10
-1.0
 20
538.0
 30
0.0
 11
-1.0
 21
535.0
 31
0.0
  0
LINE
  5
5536
330
551C
100
AcDbEntity
  8
AM_0 外形線1
100
AcDbLine
 10
-29.0
 20
538.0
 30
0.0
 11
-29.0
 21
551.6499999999996
 31
0.0
  0
LINE
  5
5537
330
551C
100
AcDbEntity
  8
AM_0 外形線1
100
AcDbLine
 10
-29.0
 20
551.6499999999996
 30
0.0
 11
-1.0
 21
551.6499999999996
 31
0.0
  0
LINE
  5
5538
330
551C
100
AcDbEntity
  8
AM_0 外形線1
100
AcDbLine
 10
-1.0
 20
551.6499999999996
 30
0.0
 11
-1.0
 21
538.0
 31
0.0
  0
LINE
  5
5539
330
551C
100
AcDbEntity
  8
AM_0 外形線1
100
AcDbLine
 10
-1.0
 20
538.0
 30
0.0
 11
8.0
 21
538.0
 31
0.0
  0
LWPOLYLINE
  5
553A
330
551C
100
AcDbEntity
  8
AM_0 外形線1
100
AcDbPolyline
 90
       73
 70
     0
 43
0.0
 10
-29.0
 20
543.3249999999989
 10
-28.94672600000013
 20
542.5994289999998
 10
-28.78730799999994
 20
541.8793789999998
 10
-28.52296099999967
 20
541.1703319999997
 10
-28.15569600000072
 20
540.4776819999987
 10
-27.68830900000012
 20
539.8067030000001
 10
-27.12435500000083
 20
539.1625000000002
 10
-26.46812800000045
 20
538.549976
 10
-25.72462200000064
 20
537.9737929999992
 10
-24.89949500000057
 20
537.4383359999991
 10
-23.99902600000041
 20
536.9476799999993
 10
-23.0300699999998
 20
536.5055589999991
 10
-22.0
 20
536.1153389999998
 10
-20.91665499999999
 20
535.779988
 10
-19.78828200000043
 20
535.5020590000004
 10
-18.62346600000001
 20
535.2836679999999
 10
-17.43107400000099
 20
535.1264759999993
 10
-16.22018000000116
 20
535.0316789999997
 10
-15.0
 20
535.0
 10
-13.77981900000031
 20
535.0316789999997
 10
-12.56892500000049
 20
535.1264759999993
 10
-11.37653299999965
 20
535.2836679999999
 10
-10.21171799999956
 20
535.5020590000004
 10
-9.083343999999668
 20
535.779988
 10
-8.0
 20
536.1153389999998
 10
-6.969930000000204
 20
536.5055589999991
 10
-6.000973000001066
 20
536.9476799999993
 10
-5.100505000001247
 20
537.4383359999991
 10
-4.275378000000272
 20
537.9737929999992
 10
-3.531871000000136
 20
538.549976
 10
-2.875643999999738
 20
539.1625000000002
 10
-2.311690999999882
 20
539.8067030000001
 10
-1.844303000000763
 20
540.4776819999987
 10
-1.477037999999993
 20
541.1703319999997
 10
-1.212691000000631
 20
541.8793789999998
 10
-1.053274000000782
 20
542.5994289999998
 10
-1.0
 20
543.3249999999989
 10
-1.053274000000782
 20
544.0505719999999
 10
-1.212691000000631
 20
544.7706209999997
 10
-1.477037999999993
 20
545.4796690000002
 10
-1.844303000000763
 20
546.172317999999
 10
-2.311690999999882
 20
546.8432969999994
 10
-2.875643999999738
 20
547.4874999999991
 10
-3.531871000000136
 20
548.1000239999993
 10
-4.275378000000272
 20
548.6762070000004
 10
-5.100505000001247
 20
549.2116640000004
 10
-6.000973000001066
 20
549.7023200000003
 10
-6.969930000000204
 20
550.1444410000003
 10
-8.0
 20
550.534662
 10
-9.083343999999668
 20
550.8700119999994
 10
-10.21171799999956
 20
551.1479409999991
 10
-11.37653299999965
 20
551.3663329999998
 10
-12.56892500000049
 20
551.5235250000005
 10
-13.77981900000031
 20
551.6183209999998
 10
-15.0
 20
551.6499999999996
 10
-16.22018000000116
 20
551.6183209999998
 10
-17.43107400000099
 20
551.5235250000005
 10
-18.62346600000001
 20
551.3663329999998
 10
-19.78828200000043
 20
551.1479409999991
 10
-20.91665499999999
 20
550.8700119999994
 10
-22.0
 20
550.534662
 10
-23.0300699999998
 20
550.1444410000003
 10
-23.99902600000041
 20
549.7023200000003
 10
-24.89949500000057
 20
549.2116640000004
 10
-25.72462200000064
 20
548.6762070000004
 10
-26.46812800000045
 20
548.1000239999993
 10
-27.12435500000083
 20
547.4874999999991
 10
-27.68830900000012
 20
546.8432969999994
 10
-28.15569600000072
 20
546.172317999999
 10
-28.52296099999967
 20
545.4796690000002
 10
-28.78730799999994
 20
544.7706209999997
 10
-28.94672600000013
 20
544.0505719999999
 10
-29.0
 20
543.3249999999989
  0
LINE
  5
553B
330
551C
100
AcDbEntity
  8
AM_0 外形線1
100
AcDbLine
 10
-38.0
 20
538.0
 30
0.0
 11
-38.0
 21
535.0
 31
0.0
  0
LINE
  5
553C
330
551C
100
AcDbEntity
  8
AM_0 外形線1
100
AcDbLine
 10
-38.0
 20
538.0
 30
0.0
 11
-29.0
 21
538.0
 31
0.0
  0
LINE
  5
553D
330
551C
100
AcDbEntity
  8
AM_0 外形線1
100
AcDbLine
 10
8.0
 20
578.0
 30
0.0
 11
8.0
 21
535.0
 31
0.0
  0
LINE
  5
553E
330
551C
100
AcDbEntity
  8
AM_0 外形線1
100
AcDbLine
 10
36.09999999999946
 20
593.5
 30
0.0
 11
43.0
 21
593.5
 31
0.0
  0
LINE
  5
553F
330
551C
100
AcDbEntity
  8
AM_0 外形線1
100
AcDbLine
 10
37.09999999999946
 20
592.0
 30
0.0
 11
36.09999999999946
 21
592.0
 31
0.0
  0
LINE
  5
5540
330
551C
100
AcDbEntity
  8
AM_4 細線
100
AcDbLine
 10
-38.0
 20
616.0
 30
0.0
 11
36.09999999999946
 21
616.0
 31
0.0
  0
LINE
  5
5541
330
551C
100
AcDbEntity
  8
AM_7 中心線
100
AcDbLine
 10
51.42593599999964
 20
604.0
 30
0.0
 11
-64.4688300000007
 21
604.0
 31
0.0
  0
LINE
  5
5542
330
551C
100
AcDbEntity
  8
AM_0 外形線1
100
AcDbLine
 10
-38.0
 20
614.5
 30
0.0
 11
36.09999999999946
 21
614.5
 31
0.0
  0
LINE
  5
5543
330
551C
100
AcDbEntity
  8
AM_0 外形線1
100
AcDbLine
 10
-38.0
 20
627.5
 30
0.0
 11
-38.0
 21
608.4999999999999
 31
0.0
  0
LINE
  5
5544
330
551C
100
AcDbEntity
  8
AM_0 外形線1
100
AcDbLine
 10
-38.0
 20
624.1999999999989
 30
0.0
 11
-43.90000000000054
 21
624.1999999999989
 31
0.0
  0
LINE
  5
5545
330
551C
100
AcDbEntity
  8
AM_0 外形線1
100
AcDbLine
 10
-43.90000000000054
 20
624.7999999999993
 30
0.0
 11
-57.03680600000097
 21
624.7999999999993
 31
0.0
  0
ARC
  5
5546
330
551C
100
AcDbEntity
  8
AM_0 外形線1
100
AcDbCircle
 10
-50.7475540000005
 20
619.6038479999988
 30
0.0
 40
8.158106
100
AcDbArc
 50
140.4366320000437
 51
219.5633679999563
  0
LINE
  5
5547
330
551C
100
AcDbEntity
  8
AM_0 外形線1
100
AcDbLine
 10
-57.03680600000097
 20
614.4076949999997
 30
0.0
 11
-43.90000000000054
 21
614.4076949999997
 31
0.0
  0
LINE
  5
5548
330
551C
100
AcDbEntity
  8
AM_0 外形線1
100
AcDbLine
 10
-43.90000000000054
 20
603.0
 30
0.0
 11
-38.0
 21
607.0
 31
0.0
  0
LINE
  5
5549
330
551C
100
AcDbEntity
  8
AM_0 外形線1
100
AcDbLine
 10
-38.0
 20
605.0
 30
0.0
 11
-43.90000000000054
 21
601.0
 31
0.0
  0
LINE
  5
554A
330
551C
100
AcDbEntity
  8
AM_0 外形線1
100
AcDbLine
 10
-38.0
 20
617.0
 30
0.0
 11
0.0
 21
617.0
 31
0.0
  0
LINE
  5
554B
330
551C
100
AcDbEntity
  8
AM_0 外形線1
100
AcDbLine
 10
36.09999999999946
 20
616.0
 30
0.0
 11
36.09999999999946
 21
604.0
 31
0.0
  0
LINE
  5
554C
330
551C
100
AcDbEntity
  8
AM_0 外形線1
100
AcDbLine
 10
37.09999999999946
 20
616.0
 30
0.0
 11
37.09999999999946
 21
604.0
 31
0.0
  0
LINE
  5
554D
330
551C
100
AcDbEntity
  8
AM_0 外形線1
100
AcDbLine
 10
43.0
 20
614.5
 30
0.0
 11
43.0
 21
604.0
 31
0.0
  0
LINE
  5
554E
330
551C
100
AcDbEntity
  8
AM_0 外形線1
100
AcDbLine
 10
36.09999999999946
 20
614.5
 30
0.0
 11
43.0
 21
614.5
 31
0.0
  0
LINE
  5
554F
330
551C
100
AcDbEntity
  8
AM_0 外形線1
100
AcDbLine
 10
43.0
 20
614.5
 30
0.0
 11
49.06217800000013
 21
604.0
 31
0.0
  0
LINE
  5
5550
330
551C
100
AcDbEntity
  8
AM_0 外形線1
100
AcDbLine
 10
37.09999999999946
 20
616.0
 30
0.0
 11
36.09999999999946
 21
616.0
 31
0.0
  0
LINE
  5
5551
330
551C
100
AcDbEntity
  8
AM_0 外形線1
100
AcDbLine
 10
-4.5
 20
578.0
 30
0.0
 11
8.0
 21
578.0
 31
0.0
  0
LINE
  5
5552
330
551C
100
AcDbEntity
  8
AM_0 外形線1
100
AcDbLine
 10
0.0000000000004547
 20
627.5
 30
0.0
 11
-38.0
 21
627.5
 31
0.0
  0
LINE
  5
5553
330
551C
100
AcDbEntity
  8
AM_0 外形線1
100
AcDbLine
 10
0.0000000000004547
 20
-627.4999999999994
 30
0.0
 11
-38.0
 21
-627.5
 31
0.0
  0
LINE
  5
55C6
330
551C
100
AcDbEntity
  8
AM_0 外形線1
100
AcDbLine
 10
0.0
 20
0.0
 30
0.0
 11
0.0
 21
-627.4999999999994
 31
0.0
  0
LINE
  5
55C7
330
551C
100
AcDbEntity
  8
AM_0 外形線1
100
AcDbLine
 10
0.0
 20
585.1999999999987
 30
0.0
 11
0.0
 21
592.0
 31
0.0
  0
LINE
  5
55C8
330
551C
100
AcDbEntity
  8
AM_0 外形線1
100
AcDbLine
 10
0.0
 20
616.0
 30
0.0
 11
0.0000000000004547
 21
627.5
 31
0.0
  0
ENDBLK
  5
551E
330
551C
100
AcDbEntity
  8
0
100
AcDbBlockEnd
  0
BLOCK
  5
5A3C
330
5A3B
100
AcDbEntity
  8
0
100
AcDbBlockBegin
  2
*D15
 70
     1
 10
0.0
 20
0.0
 30
0.0
  3
*D15
  1

  0
LINE
  5
724B
330
5A3B
100
AcDbEntity
  8
AM_5 寸法線
 62
     3
100
AcDbLine
 10
3603.241950196886
 20
4837.13300463452
 30
0.0
 11
2877.241950196886
 21
4837.13300463452
 31
0.0
  0
LINE
  5
724C
330
5A3B
100
AcDbEntity
  8
AM_5 寸法線
 62
     3
100
AcDbLine
 10
3603.241950196886
 20
3767.133004634519
 30
0.0
 11
2877.241950196886
 21
3767.133004634521
 31
0.0
  0
LINE
  5
724D
330
5A3B
100
AcDbEntity
  8
AM_5 寸法線
 62
     3
100
AcDbLine
 10
2889.741950196886
 20
4787.133004634519
 30
0.0
 11
2889.741950196886
 21
3817.13300463452
 31
0.0
  0
INSERT
  5
724E
330
5A3B
100
AcDbEntity
  8
AM_5 寸法線
 62
     3
100
AcDbBlockReference
  2
_Open30
 10
2889.741950196886
 20
4837.13300463452
 30
0.0
 41
50.0
 42
50.0
 43
50.0
 50
90.0
  0
INSERT
  5
724F
330
5A3B
100
AcDbEntity
  8
AM_5 寸法線
 62
     3
100
AcDbBlockReference
  2
_Open30
 10
2889.741950196886
 20
3767.133004634521
 30
0.0
 41
50.0
 42
50.0
 43
50.0
 50
270.0
  0
MTEXT
  5
7250
330
5A3B
100
AcDbEntity
  8
AM_5 寸法線
 62
     3
100
AcDbMText
 10
2824.741950196886
 20
4302.13300463452
 30
0.0
 40
70.0
 41
0.0
 46
0.0
 71
     5
 72
     1
  1
%%c1070
  7
SEISA
 11
0.0000000000000001
 21
1.0
 31
0.0
 73
     1
 44
1.0
  0
POINT
  5
7251
330
5A3B
100
AcDbEntity
  8
Defpoints
 62
     0
100
AcDbPoint
 10
3615.741950196886
 20
4837.13300463452
 30
0.0
  0
POINT
  5
7252
330
5A3B
100
AcDbEntity
  8
Defpoints
 62
     0
100
AcDbPoint
 10
3615.741950196886
 20
3767.133004634519
 30
0.0
  0
POINT
  5
7253
330
5A3B
100
AcDbEntity
  8
Defpoints
 62
     0
100
AcDbPoint
 10
2889.741950196886
 20
3767.133004634521
 30
0.0
  0
ENDBLK
  5
5A3D
330
5A3B
100
AcDbEntity
  8
0
100
AcDbBlockEnd
  0
BLOCK
  5
5AF2
330
5AF1
100
AcDbEntity
  8
0
100
AcDbBlockBegin
  2
*D16
 70
     1
 10
0.0
 20
0.0
 30
0.0
  3
*D16
  1

  0
LINE
  5
64E9
330
5AF1
100
AcDbEntity
  8
AM_5 寸法線
 62
     3
100
AcDbLine
 10
3728.241950196886
 20
4825.133004634519
 30
0.0
 11
3728.241950196886
 21
4691.692060662137
 31
0.0
  0
LINE
  5
64EA
330
5AF1
100
AcDbEntity
  8
AM_5 寸法線
 62
     3
100
AcDbLine
 10
3711.741950196886
 20
4824.633004634519
 30
0.0
 11
3711.741950196886
 21
4691.692060662137
 31
0.0
  0
LINE
  5
64EB
330
5AF1
100
AcDbEntity
  8
AM_5 寸法線
 62
     3
100
AcDbLine
 10
3778.241950196886
 20
4704.192060662136
 30
0.0
 11
3828.241950196886
 21
4704.192060662136
 31
0.0
  0
LINE
  5
64EC
330
5AF1
100
AcDbEntity
  8
AM_5 寸法線
 62
     3
100
AcDbLine
 10
3661.741950196886
 20
4704.192060662136
 30
0.0
 11
3368.741950196886
 21
4704.192060662136
 31
0.0
  0
LINE
  5
64ED
330
5AF1
100
AcDbEntity
  8
AM_5 寸法線
 62
     3
100
AcDbLine
 10
3728.241950196886
 20
4704.192060662136
 30
0.0
 11
3711.741950196886
 21
4704.192060662136
 31
0.0
  0
INSERT
  5
64EE
330
5AF1
100
AcDbEntity
  8
AM_5 寸法線
 62
     3
100
AcDbBlockReference
  2
_Open30
 10
3728.241950196886
 20
4704.192060662136
 30
0.0
 41
50.0
 42
50.0
 43
50.0
 50
180.0
  0
INSERT
  5
64EF
330
5AF1
100
AcDbEntity
  8
AM_5 寸法線
 62
     3
100
AcDbBlockReference
  2
_Open30
 10
3711.741950196886
 20
4704.192060662136
 30
0.0
 41
50.0
 42
50.0
 43
50.0
  0
MTEXT
  5
64F0
330
5AF1
100
AcDbEntity
  8
AM_5 寸法線
 62
     3
100
AcDbMText
 10
3490.241950196887
 20
4769.192060662137
 30
0.0
 40
70.0
 41
0.0
 46
0.0
 71
     5
 72
     1
  1
16.5
  7
SEISA
 73
     1
 44
1.0
  0
POINT
  5
64F1
330
5AF1
100
AcDbEntity
  8
Defpoints
 62
     0
100
AcDbPoint
 10
3728.241950196886
 20
4837.633004634519
 30
0.0
  0
POINT
  5
64F2
330
5AF1
100
AcDbEntity
  8
Defpoints
 62
     0
100
AcDbPoint
 10
3711.741950196886
 20
4837.13300463452
 30
0.0
  0
POINT
  5
64F3
330
5AF1
100
AcDbEntity
  8
Defpoints
 62
     0
100
AcDbPoint
 10
3711.741950196886
 20
4704.192060662136
 30
0.0
  0
ENDBLK
  5
5AF3
330
5AF1
100
AcDbEntity
  8
0
100
AcDbBlockEnd
  0
BLOCK
  5
5C6B
330
5C6A
100
AcDbEntity
  8
0
100
AcDbBlockBegin
  2
*D17
 70
     1
 10
0.0
 20
0.0
 30
0.0
  3
*D17
  1

  0
LINE
  5
6506
330
5C6A
100
AcDbEntity
  8
AM_5 寸法線
 62
     3
100
AcDbLine
 10
4626.241950196886
 20
4837.13300463452
 30
0.0
 11
5352.241950196887
 21
4837.13300463452
 31
0.0
  0
LINE
  5
6507
330
5C6A
100
AcDbEntity
  8
AM_5 寸法線
 62
     3
100
AcDbLine
 10
4626.241950196886
 20
3767.133004634519
 30
0.0
 11
5352.241950196887
 21
3767.133004634519
 31
0.0
  0
LINE
  5
6508
330
5C6A
100
AcDbEntity
  8
AM_5 寸法線
 62
     3
100
AcDbLine
 10
5339.741950196887
 20
4787.133004634519
 30
0.0
 11
5339.741950196887
 21
3817.133004634519
 31
0.0
  0
INSERT
  5
6509
330
5C6A
100
AcDbEntity
  8
AM_5 寸法線
 62
     3
100
AcDbBlockReference
  2
_Open30
 10
5339.741950196887
 20
4837.13300463452
 30
0.0
 41
50.0
 42
50.0
 43
50.0
 50
90.0
  0
INSERT
  5
650A
330
5C6A
100
AcDbEntity
  8
AM_5 寸法線
 62
     3
100
AcDbBlockReference
  2
_Open30
 10
5339.741950196887
 20
3767.133004634519
 30
0.0
 41
50.0
 42
50.0
 43
50.0
 50
270.0
  0
MTEXT
  5
650B
330
5C6A
100
AcDbEntity
  8
AM_5 寸法線
 62
     3
100
AcDbMText
 10
5274.741950196887
 20
4302.13300463452
 30
0.0
 40
70.0
 41
0.0
 46
0.0
 71
     5
 72
     1
  1
%%c1070
  7
SEISA
 11
0.0000000000000001
 21
1.0
 31
0.0
 73
     1
 44
1.0
  0
POINT
  5
650C
330
5C6A
100
AcDbEntity
  8
Defpoints
 62
     0
100
AcDbPoint
 10
4613.741950196886
 20
4837.13300463452
 30
0.0
  0
POINT
  5
650D
330
5C6A
100
AcDbEntity
  8
Defpoints
 62
     0
100
AcDbPoint
 10
4613.741950196886
 20
3767.133004634519
 30
0.0
  0
POINT
  5
650E
330
5C6A
100
AcDbEntity
  8
Defpoints
 62
     0
100
AcDbPoint
 10
5339.741950196887
 20
3767.133004634519
 30
0.0
  0
ENDBLK
  5
5C6C
330
5C6A
100
AcDbEntity
  8
0
100
AcDbBlockEnd
  0
BLOCK
  5
5C9B
330
5C9A
100
AcDbEntity
  8
0
100
AcDbBlockBegin
  2
*D18
 70
     1
 10
0.0
 20
0.0
 30
0.0
  3
*D18
  1

  0
LINE
  5
650F
330
5C9A
100
AcDbEntity
  8
AM_5 寸法線
 62
     3
100
AcDbLine
 10
4576.241950196886
 20
4929.633004634519
 30
0.0
 11
5512.241950196887
 21
4929.633004634519
 31
0.0
  0
LINE
  5
6510
330
5C9A
100
AcDbEntity
  8
AM_5 寸法線
 62
     3
100
AcDbLine
 10
4576.241950196886
 20
3674.633004634519
 30
0.0
 11
5512.241950196887
 21
3674.633004634519
 31
0.0
  0
LINE
  5
6511
330
5C9A
100
AcDbEntity
  8
AM_5 寸法線
 62
     3
100
AcDbLine
 10
5499.741950196887
 20
4879.633004634519
 30
0.0
 11
5499.741950196887
 21
3724.633004634519
 31
0.0
  0
INSERT
  5
6512
330
5C9A
100
AcDbEntity
  8
AM_5 寸法線
 62
     3
100
AcDbBlockReference
  2
_Open30
 10
5499.741950196887
 20
4929.633004634519
 30
0.0
 41
50.0
 42
50.0
 43
50.0
 50
90.0
  0
INSERT
  5
6513
330
5C9A
100
AcDbEntity
  8
AM_5 寸法線
 62
     3
100
AcDbBlockReference
  2
_Open30
 10
5499.741950196887
 20
3674.633004634519
 30
0.0
 41
50.0
 42
50.0
 43
50.0
 50
270.0
  0
MTEXT
  5
6514
330
5C9A
100
AcDbEntity
  8
AM_5 寸法線
 62
     3
100
AcDbMText
 10
5434.741950196887
 20
4302.13300463452
 30
0.0
 40
70.0
 41
0.0
 46
0.0
 71
     5
 72
     1
  1
%%c1255
  7
SEISA
 11
0.0000000000000001
 21
1.0
 31
0.0
 73
     1
 44
1.0
  0
POINT
  5
6515
330
5C9A
100
AcDbEntity
  8
Defpoints
 62
     0
100
AcDbPoint
 10
4563.741950196886
 20
4929.633004634519
 30
0.0
  0
POINT
  5
6516
330
5C9A
100
AcDbEntity
  8
Defpoints
 62
     0
100
AcDbPoint
 10
4563.741950196886
 20
3674.633004634519
 30
0.0
  0
POINT
  5
6517
330
5C9A
100
AcDbEntity
  8
Defpoints
 62
     0
100
AcDbPoint
 10
5499.741950196887
 20
3674.633004634519
 30
0.0
  0
ENDBLK
  5
5C9C
330
5C9A
100
AcDbEntity
  8
0
100
AcDbBlockEnd
  0
BLOCK
  5
5CB3
330
5CB2
100
AcDbEntity
  8
0
100
AcDbBlockBegin
  2
*D19
 70
     1
 10
0.0
 20
0.0
 30
0.0
  3
*D19
  1

  0
LINE
  5
6518
330
5CB2
100
AcDbEntity
  8
AM_5 寸法線
 62
     3
100
AcDbLine
 10
4194.241950196886
 20
5002.133004634519
 30
0.0
 11
5672.241950196887
 21
5002.133004634519
 31
0.0
  0
LINE
  5
6519
330
5CB2
100
AcDbEntity
  8
AM_5 寸法線
 62
     3
100
AcDbLine
 10
4194.241950196886
 20
3602.133004634519
 30
0.0
 11
5672.241950196887
 21
3602.133004634519
 31
0.0
  0
LINE
  5
651A
330
5CB2
100
AcDbEntity
  8
AM_5 寸法線
 62
     3
100
AcDbLine
 10
5659.741950196887
 20
4952.133004634519
 30
0.0
 11
5659.741950196887
 21
3652.133004634519
 31
0.0
  0
INSERT
  5
651B
330
5CB2
100
AcDbEntity
  8
AM_5 寸法線
 62
     3
100
AcDbBlockReference
  2
_Open30
 10
5659.741950196887
 20
5002.133004634519
 30
0.0
 41
50.0
 42
50.0
 43
50.0
 50
90.0
  0
INSERT
  5
651C
330
5CB2
100
AcDbEntity
  8
AM_5 寸法線
 62
     3
100
AcDbBlockReference
  2
_Open30
 10
5659.741950196887
 20
3602.133004634519
 30
0.0
 41
50.0
 42
50.0
 43
50.0
 50
270.0
  0
MTEXT
  5
651D
330
5CB2
100
AcDbEntity
  8
AM_5 寸法線
 62
     3
100
AcDbMText
 10
5594.741950196886
 20
4302.13300463452
 30
0.0
 40
70.0
 41
0.0
 46
0.0
 71
     5
 72
     1
  1
%%c1400
  7
SEISA
 11
0.0000000000000001
 21
1.0
 31
0.0
 73
     1
 44
1.0
  0
POINT
  5
651E
330
5CB2
100
AcDbEntity
  8
Defpoints
 62
     0
100
AcDbPoint
 10
4181.741950196886
 20
5002.133004634519
 30
0.0
  0
POINT
  5
651F
330
5CB2
100
AcDbEntity
  8
Defpoints
 62
     0
100
AcDbPoint
 10
4181.741950196886
 20
3602.133004634519
 30
0.0
  0
POINT
  5
6520
330
5CB2
100
AcDbEntity
  8
Defpoints
 62
     0
100
AcDbPoint
 10
5659.741950196887
 20
3602.133004634519
 30
0.0
  0
ENDBLK
  5
5CB4
330
5CB2
100
AcDbEntity
  8
0
100
AcDbBlockEnd
  0
BLOCK
  5
5D01
330
5D00
100
AcDbEntity
  8
0
100
AcDbBlockBegin
  2
*D20
 70
     1
 10
0.0
 20
0.0
 30
0.0
  3
*D20
  1

  0
LINE
  5
6521
330
5D00
100
AcDbEntity
  8
AM_5 寸法線
 62
     3
100
AcDbLine
 10
4114.741950196886
 20
3592.702704634521
 30
0.0
 11
4114.741950196886
 21
3289.633004634519
 31
0.0
  0
LINE
  5
6522
330
5D00
100
AcDbEntity
  8
AM_5 寸法線
 62
     3
100
AcDbLine
 10
4044.741950196884
 20
3592.702704634521
 30
0.0
 11
4044.741950196884
 21
3289.633004634519
 31
0.0
  0
LINE
  5
6523
330
5D00
100
AcDbEntity
  8
AM_5 寸法線
 62
     3
100
AcDbLine
 10
4164.741950196884
 20
3302.133004634519
 30
0.0
 11
4214.741950196883
 21
3302.133004634519
 31
0.0
  0
LINE
  5
6524
330
5D00
100
AcDbEntity
  8
AM_5 寸法線
 62
     3
100
AcDbLine
 10
3994.741950196886
 20
3302.133004634519
 30
0.0
 11
3782.741950196886
 21
3302.133004634519
 31
0.0
  0
LINE
  5
6525
330
5D00
100
AcDbEntity
  8
AM_5 寸法線
 62
     3
100
AcDbLine
 10
4114.741950196886
 20
3302.133004634519
 30
0.0
 11
4044.741950196884
 21
3302.133004634519
 31
0.0
  0
INSERT
  5
6526
330
5D00
100
AcDbEntity
  8
AM_5 寸法線
 62
     3
100
AcDbBlockReference
  2
GENDOT
 10
4114.741950196886
 20
3302.133004634519
 30
0.0
 41
50.0
 42
50.0
 43
50.0
 50
180.0
  0
INSERT
  5
6527
330
5D00
100
AcDbEntity
  8
AM_5 寸法線
 62
     3
100
AcDbBlockReference
  2
_Open30
 10
4044.741950196884
 20
3302.133004634519
 30
0.0
 41
50.0
 42
50.0
 43
50.0
  0
MTEXT
  5
6528
330
5D00
100
AcDbEntity
  8
AM_5 寸法線
 62
     3
100
AcDbMText
 10
3863.741950196887
 20
3367.133004634519
 30
0.0
 40
70.0
 41
0.0
 46
0.0
 71
     5
 72
     1
  1
70
  7
SEISA
 73
     1
 44
1.0
  0
POINT
  5
6529
330
5D00
100
AcDbEntity
  8
Defpoints
 62
     0
100
AcDbPoint
 10
4114.741950196886
 20
3605.20270463452
 30
0.0
  0
POINT
  5
652A
330
5D00
100
AcDbEntity
  8
Defpoints
 62
     0
100
AcDbPoint
 10
4044.741950196884
 20
3605.20270463452
 30
0.0
  0
POINT
  5
652B
330
5D00
100
AcDbEntity
  8
Defpoints
 62
     0
100
AcDbPoint
 10
4044.741950196884
 20
3302.133004634519
 30
0.0
  0
ENDBLK
  5
5D02
330
5D00
100
AcDbEntity
  8
0
100
AcDbBlockEnd
  0
BLOCK
  5
5D1D
330
5D1C
100
AcDbEntity
  8
0
100
AcDbBlockBegin
  2
*D21
 70
     1
 10
0.0
 20
0.0
 30
0.0
  3
*D21
  1

  0
LINE
  5
652C
330
5D1C
100
AcDbEntity
  8
AM_5 寸法線
 62
     3
100
AcDbLine
 10
4114.741950196886
 20
3592.702704634521
 30
0.0
 11
4114.741950196886
 21
3289.633004634519
 31
0.0
  0
LINE
  5
652D
330
5D1C
100
AcDbEntity
  8
AM_5 寸法線
 62
     3
100
AcDbLine
 10
4184.741950196886
 20
3592.702704634521
 30
0.0
 11
4184.741950196886
 21
3289.633004634519
 31
0.0
  0
LINE
  5
652E
330
5D1C
100
AcDbEntity
  8
AM_5 寸法線
 62
     3
100
AcDbLine
 10
4064.741950196885
 20
3302.133004634519
 30
0.0
 11
4014.741950196884
 21
3302.133004634519
 31
0.0
  0
LINE
  5
652F
330
5D1C
100
AcDbEntity
  8
AM_5 寸法線
 62
     3
100
AcDbLine
 10
4234.741950196887
 20
3302.133004634519
 30
0.0
 11
4446.741950196886
 21
3302.133004634519
 31
0.0
  0
LINE
  5
6530
330
5D1C
100
AcDbEntity
  8
AM_5 寸法線
 62
     3
100
AcDbLine
 10
4114.741950196886
 20
3302.133004634519
 30
0.0
 11
4184.741950196886
 21
3302.133004634519
 31
0.0
  0
INSERT
  5
6531
330
5D1C
100
AcDbEntity
  8
AM_5 寸法線
 62
     3
100
AcDbBlockReference
  2
GENDOT
 10
4114.741950196886
 20
3302.133004634519
 30
0.0
 41
50.0
 42
50.0
 43
50.0
  0
INSERT
  5
6532
330
5D1C
100
AcDbEntity
  8
AM_5 寸法線
 62
     3
100
AcDbBlockReference
  2
_Open30
 10
4184.741950196886
 20
3302.133004634519
 30
0.0
 41
50.0
 42
50.0
 43
50.0
 50
180.0
  0
MTEXT
  5
6533
330
5D1C
100
AcDbEntity
  8
AM_5 寸法線
 62
     3
100
AcDbMText
 10
4365.741950196886
 20
3367.133004634519
 30
0.0
 40
70.0
 41
0.0
 46
0.0
 71
     5
 72
     1
  1
70
  7
SEISA
 73
     1
 44
1.0
  0
POINT
  5
6534
330
5D1C
100
AcDbEntity
  8
Defpoints
 62
     0
100
AcDbPoint
 10
4114.741950196886
 20
3605.20270463452
 30
0.0
  0
POINT
  5
6535
330
5D1C
100
AcDbEntity
  8
Defpoints
 62
     0
100
AcDbPoint
 10
4184.741950196886
 20
3605.20270463452
 30
0.0
  0
POINT
  5
6536
330
5D1C
100
AcDbEntity
  8
Defpoints
 62
     0
100
AcDbPoint
 10
4184.741950196886
 20
3302.133004634519
 30
0.0
  0
ENDBLK
  5
5D1E
330
5D1C
100
AcDbEntity
  8
0
100
AcDbBlockEnd
  0
BLOCK
  5
5D77
330
5D76
100
AcDbEntity
  8
0
100
AcDbBlockBegin
  2
*D22
 70
     1
 10
0.0
 20
0.0
 30
0.0
  3
*D22
  1

  0
LINE
  5
750D
330
5D76
100
AcDbEntity
  8
AM_5 寸法線
 62
     3
100
AcDbLine
 10
4563.741950196886
 20
3662.133004634519
 30
0.0
 11
4563.741950196886
 21
3129.633004634519
 31
0.0
  0
LINE
  5
750E
330
5D76
100
AcDbEntity
  8
AM_5 寸法線
 62
     3
100
AcDbLine
 10
3665.741950196886
 20
3662.133004634519
 30
0.0
 11
3665.741950196886
 21
3129.633004634519
 31
0.0
  0
LINE
  5
750F
330
5D76
100
AcDbEntity
  8
AM_5 寸法線
 62
     3
100
AcDbLine
 10
4513.741950196886
 20
3142.13300463452
 30
0.0
 11
3715.741950196886
 21
3142.13300463452
 31
0.0
  0
INSERT
  5
7510
330
5D76
100
AcDbEntity
  8
AM_5 寸法線
 62
     3
100
AcDbBlockReference
  2
_Open30
 10
4563.741950196886
 20
3142.13300463452
 30
0.0
 41
50.0
 42
50.0
 43
50.0
  0
INSERT
  5
7511
330
5D76
100
AcDbEntity
  8
AM_5 寸法線
 62
     3
100
AcDbBlockReference
  2
_Open30
 10
3665.741950196886
 20
3142.13300463452
 30
0.0
 41
50.0
 42
50.0
 43
50.0
 50
180.0
  0
MTEXT
  5
7512
330
5D76
100
AcDbEntity
  8
AM_5 寸法線
 62
     3
100
AcDbMText
 10
4114.741950196886
 20
3207.13300463452
 30
0.0
 40
70.0
 41
0.0
 46
0.0
 71
     5
 72
     1
  1
898
  7
SEISA
 73
     1
 44
1.0
  0
POINT
  5
7513
330
5D76
100
AcDbEntity
  8
Defpoints
 62
     0
100
AcDbPoint
 10
4563.741950196886
 20
3674.633004634519
 30
0.0
  0
POINT
  5
7514
330
5D76
100
AcDbEntity
  8
Defpoints
 62
     0
100
AcDbPoint
 10
3665.741950196886
 20
3674.633004634519
 30
0.0
  0
POINT
  5
7515
330
5D76
100
AcDbEntity
  8
Defpoints
 62
     0
100
AcDbPoint
 10
3665.741950196886
 20
3142.13300463452
 30
0.0
  0
ENDBLK
  5
5D78
330
5D76
100
AcDbEntity
  8
0
100
AcDbBlockEnd
  0
BLOCK
  5
5DBF
330
5DBE
100
AcDbEntity
  8
0
100
AcDbBlockBegin
  2
*D23
 70
     1
 10
0.0
 20
0.0
 30
0.0
  3
*D23
  1

  0
LINE
  5
655B
330
5DBE
100
AcDbEntity
  8
AM_5 寸法線
 62
     3
100
AcDbLine
 10
4939.741950196887
 20
3786.633004634519
 30
0.0
 11
4939.741950196887
 21
2969.633004634519
 31
0.0
  0
LINE
  5
655C
330
5DBE
100
AcDbEntity
  8
AM_5 寸法線
 62
     3
100
AcDbLine
 10
3289.741950196886
 20
3786.633004634519
 30
0.0
 11
3289.741950196886
 21
2969.633004634519
 31
0.0
  0
LINE
  5
655D
330
5DBE
100
AcDbEntity
  8
AM_5 寸法線
 62
     3
100
AcDbLine
 10
4889.741950196887
 20
2982.133004634519
 30
0.0
 11
3339.741950196887
 21
2982.133004634519
 31
0.0
  0
INSERT
  5
655E
330
5DBE
100
AcDbEntity
  8
AM_5 寸法線
 62
     3
100
AcDbBlockReference
  2
_Open30
 10
4939.741950196887
 20
2982.133004634519
 30
0.0
 41
50.0
 42
50.0
 43
50.0
  0
INSERT
  5
655F
330
5DBE
100
AcDbEntity
  8
AM_5 寸法線
 62
     3
100
AcDbBlockReference
  2
_Open30
 10
3289.741950196886
 20
2982.133004634519
 30
0.0
 41
50.0
 42
50.0
 43
50.0
 50
180.0
  0
MTEXT
  5
6560
330
5DBE
100
AcDbEntity
  8
AM_5 寸法線
 62
     3
100
AcDbMText
 10
4114.741950196886
 20
3047.133004634519
 30
0.0
 40
70.0
 41
0.0
 46
0.0
 71
     5
 72
     1
  1
1650
  7
SEISA
 73
     1
 44
1.0
  0
POINT
  5
6561
330
5DBE
100
AcDbEntity
  8
Defpoints
 62
     0
100
AcDbPoint
 10
4939.741950196887
 20
3799.133004634519
 30
0.0
  0
POINT
  5
6562
330
5DBE
100
AcDbEntity
  8
Defpoints
 62
     0
100
AcDbPoint
 10
3289.741950196886
 20
3799.133004634519
 30
0.0
  0
POINT
  5
6563
330
5DBE
100
AcDbEntity
  8
Defpoints
 62
     0
100
AcDbPoint
 10
3289.741950196886
 20
2982.133004634519
 30
0.0
  0
ENDBLK
  5
5DC0
330
5DBE
100
AcDbEntity
  8
0
100
AcDbBlockEnd
  0
BLOCK
  5
61D0
330
61CF
100
AcDbEntity
  8
0
100
AcDbBlockBegin
  2
*D24
 70
     1
 10
0.0
 20
0.0
 30
0.0
  3
*D24
  1

  0
LINE
  5
7254
330
61CF
100
AcDbEntity
  8
AM_5 寸法線
 62
     3
100
AcDbLine
 10
3289.741950196886
 20
4314.633004634519
 30
0.0
 11
3289.741950196886
 21
4434.943387634519
 31
0.0
  0
LINE
  5
7255
330
61CF
100
AcDbEntity
  8
AM_5 寸法線
 62
     3
100
AcDbLine
 10
4089.741950196886
 20
4314.633004634519
 30
0.0
 11
4089.741950196886
 21
4434.943387634519
 31
0.0
  0
LINE
  5
7256
330
61CF
100
AcDbEntity
  8
AM_5 寸法線
 62
     3
100
AcDbLine
 10
3339.741950196887
 20
4422.443387634519
 30
0.0
 11
4039.741950196886
 21
4422.443387634519
 31
0.0
  0
INSERT
  5
7257
330
61CF
100
AcDbEntity
  8
AM_5 寸法線
 62
     3
100
AcDbBlockReference
  2
_Open30
 10
3289.741950196886
 20
4422.443387634519
 30
0.0
 41
50.0
 42
50.0
 43
50.0
 50
180.0
  0
INSERT
  5
7258
330
61CF
100
AcDbEntity
  8
AM_5 寸法線
 62
     3
100
AcDbBlockReference
  2
_Open30
 10
4089.741950196886
 20
4422.443387634519
 30
0.0
 41
50.0
 42
50.0
 43
50.0
  0
MTEXT
  5
7259
330
61CF
100
AcDbEntity
  8
AM_5 寸法線
 62
     3
100
AcDbMText
 10
3689.741950196886
 20
4487.443387634519
 30
0.0
 40
70.0
 41
0.0
 46
0.0
 71
     5
 72
     1
  1
800
  7
SEISA
 73
     1
 44
1.0
  0
POINT
  5
725A
330
61CF
100
AcDbEntity
  8
Defpoints
 62
     0
100
AcDbPoint
 10
3289.741950196886
 20
4302.133004634518
 30
0.0
  0
POINT
  5
725B
330
61CF
100
AcDbEntity
  8
Defpoints
 62
     0
100
AcDbPoint
 10
4089.741950196886
 20
4302.133004634518
 30
0.0
  0
POINT
  5
725C
330
61CF
100
AcDbEntity
  8
Defpoints
 62
     0
100
AcDbPoint
 10
4089.741950196886
 20
4422.443387634519
 30
0.0
  0
ENDBLK
  5
61D1
330
61CF
100
AcDbEntity
  8
0
100
AcDbBlockEnd
  0
BLOCK
  5
61E8
330
61E7
100
AcDbEntity
  8
0
100
AcDbBlockBegin
  2
*D25
 70
     1
 10
0.0
 20
0.0
 30
0.0
  3
*D25
  1

  0
LINE
  5
6596
330
61E7
100
AcDbEntity
  8
AM_5 寸法線
 62
     3
100
AcDbLine
 10
4089.741950196886
 20
4314.633004634519
 30
0.0
 11
4089.741950196886
 21
4434.943387634519
 31
0.0
  0
LINE
  5
6597
330
61E7
100
AcDbEntity
  8
AM_5 寸法線
 62
     3
100
AcDbLine
 10
4139.741950196886
 20
4314.633004634519
 30
0.0
 11
4139.741950196886
 21
4434.943387634519
 31
0.0
  0
LINE
  5
6598
330
61E7
100
AcDbEntity
  8
AM_5 寸法線
 62
     3
100
AcDbLine
 10
4039.741950196886
 20
4422.443387634519
 30
0.0
 11
3989.741950196886
 21
4422.443387634519
 31
0.0
  0
LINE
  5
6599
330
61E7
100
AcDbEntity
  8
AM_5 寸法線
 62
     3
100
AcDbLine
 10
4189.741950196886
 20
4422.443387634519
 30
0.0
 11
4239.741950196886
 21
4422.443387634519
 31
0.0
  0
MTEXT
  5
659A
330
61E7
100
AcDbEntity
  8
AM_5 寸法線
 62
     3
100
AcDbMText
 10
4247.717199507518
 20
4484.238951264821
 30
0.0
 40
70.0
 41
0.0
 46
0.0
 71
     5
 72
     1
  1
50
  7
SEISA
 73
     1
 44
1.0
  0
LINE
  5
659B
330
61E7
100
AcDbEntity
  8
AM_5 寸法線
 62
     3
100
AcDbLine
 10
4089.741950196886
 20
4422.443387634519
 30
0.0
 11
4139.741950196886
 21
4422.443387634519
 31
0.0
  0
INSERT
  5
659C
330
61E7
100
AcDbEntity
  8
AM_5 寸法線
 62
     3
100
AcDbBlockReference
  2
_Open30
 10
4089.741950196886
 20
4422.443387634519
 30
0.0
 41
50.0
 42
50.0
 43
50.0
  0
INSERT
  5
659D
330
61E7
100
AcDbEntity
  8
AM_5 寸法線
 62
     3
100
AcDbBlockReference
  2
_Open30
 10
4139.741950196886
 20
4422.443387634519
 30
0.0
 41
50.0
 42
50.0
 43
50.0
 50
180.0
  0
POINT
  5
659E
330
61E7
100
AcDbEntity
  8
Defpoints
 62
     0
100
AcDbPoint
 10
4089.741950196886
 20
4302.133004634518
 30
0.0
  0
POINT
  5
659F
330
61E7
100
AcDbEntity
  8
Defpoints
 62
     0
100
AcDbPoint
 10
4139.741950196886
 20
4302.133004634518
 30
0.0
  0
POINT
  5
65A0
330
61E7
100
AcDbEntity
  8
Defpoints
 62
     0
100
AcDbPoint
 10
4139.741950196886
 20
4422.443387634519
 30
0.0
  0
ENDBLK
  5
61E9
330
61E7
100
AcDbEntity
  8
0
100
AcDbBlockEnd
  0
BLOCK
  5
6204
330
6203
100
AcDbEntity
  8
0
100
AcDbBlockBegin
  2
*D26
 70
     1
 10
0.0
 20
0.0
 30
0.0
  3
*D26
  1

  0
LINE
  5
65A1
330
6203
100
AcDbEntity
  8
AM_5 寸法線
 62
     3
100
AcDbLine
 10
4139.741950196886
 20
4314.633004634519
 30
0.0
 11
4139.741950196886
 21
4434.943387634519
 31
0.0
  0
LINE
  5
65A2
330
6203
100
AcDbEntity
  8
AM_5 寸法線
 62
     3
100
AcDbLine
 10
4939.741950196887
 20
4314.633004634519
 30
0.0
 11
4939.741950196887
 21
4434.943387634519
 31
0.0
  0
LINE
  5
65A3
330
6203
100
AcDbEntity
  8
AM_5 寸法線
 62
     3
100
AcDbLine
 10
4189.741950196886
 20
4422.443387634519
 30
0.0
 11
4889.741950196887
 21
4422.443387634519
 31
0.0
  0
INSERT
  5
65A4
330
6203
100
AcDbEntity
  8
AM_5 寸法線
 62
     3
100
AcDbBlockReference
  2
_Open30
 10
4139.741950196886
 20
4422.443387634519
 30
0.0
 41
50.0
 42
50.0
 43
50.0
 50
180.0
  0
INSERT
  5
65A5
330
6203
100
AcDbEntity
  8
AM_5 寸法線
 62
     3
100
AcDbBlockReference
  2
_Open30
 10
4939.741950196887
 20
4422.443387634519
 30
0.0
 41
50.0
 42
50.0
 43
50.0
  0
MTEXT
  5
65A6
330
6203
100
AcDbEntity
  8
AM_5 寸法線
 62
     3
100
AcDbMText
 10
4539.741950196886
 20
4487.443387634519
 30
0.0
 40
70.0
 41
0.0
 46
0.0
 71
     5
 72
     1
  1
800
  7
SEISA
 73
     1
 44
1.0
  0
POINT
  5
65A7
330
6203
100
AcDbEntity
  8
Defpoints
 62
     0
100
AcDbPoint
 10
4139.741950196886
 20
4302.133004634518
 30
0.0
  0
POINT
  5
65A8
330
6203
100
AcDbEntity
  8
Defpoints
 62
     0
100
AcDbPoint
 10
4939.741950196887
 20
4302.133004634518
 30
0.0
  0
POINT
  5
65A9
330
6203
100
AcDbEntity
  8
Defpoints
 62
     0
100
AcDbPoint
 10
4939.741950196887
 20
4422.443387634519
 30
0.0
  0
ENDBLK
  5
6205
330
6203
100
AcDbEntity
  8
0
100
AcDbBlockEnd
  0
BLOCK
  5
7336
330
7335
100
AcDbEntity
  8
0
100
AcDbBlockBegin
  2
*D27
 70
     1
 10
0.0
 20
0.0
 30
0.0
  3
*D27
  1

  0
LINE
  5
739A
330
7335
100
AcDbEntity
  8
AM_5 寸法線
 62
     3
100
AcDbLine
 10
3728.241950196886
 20
4825.133004634519
 30
0.0
 11
3728.241950196886
 21
4691.692060662141
 31
0.0
  0
LINE
  5
739B
330
7335
100
AcDbEntity
  8
AM_5 寸法線
 62
     3
100
AcDbLine
 10
3917.241950196886
 20
4825.133004634519
 30
0.0
 11
3917.241950196886
 21
4691.692060662141
 31
0.0
  0
LINE
  5
739C
330
7335
100
AcDbEntity
  8
AM_5 寸法線
 62
     3
100
AcDbLine
 10
3778.241950196886
 20
4704.192060662141
 30
0.0
 11
3867.241950196886
 21
4704.192060662141
 31
0.0
  0
MTEXT
  5
739D
330
7335
100
AcDbEntity
  8
AM_5 寸法線
 62
     3
100
AcDbMText
 10
3826.914350537514
 20
4762.837380951827
 30
0.0
 40
70.0
 41
0.0
 46
0.0
 71
     5
 72
     1
  1
189
  7
SEISA
 73
     1
 44
1.0
  0
INSERT
  5
739E
330
7335
100
AcDbEntity
  8
AM_5 寸法線
 62
     3
100
AcDbBlockReference
  2
_Open30
 10
3728.241950196886
 20
4704.192060662141
 30
0.0
 41
50.0
 42
50.0
 43
50.0
 50
180.0
  0
INSERT
  5
739F
330
7335
100
AcDbEntity
  8
AM_5 寸法線
 62
     3
100
AcDbBlockReference
  2
_Open30
 10
3917.241950196886
 20
4704.192060662141
 30
0.0
 41
50.0
 42
50.0
 43
50.0
  0
POINT
  5
73A0
330
7335
100
AcDbEntity
  8
Defpoints
 62
     0
100
AcDbPoint
 10
3728.241950196886
 20
4837.633004634519
 30
0.0
  0
POINT
  5
73A1
330
7335
100
AcDbEntity
  8
Defpoints
 62
     0
100
AcDbPoint
 10
3917.241950196886
 20
4837.633004634519
 30
0.0
  0
POINT
  5
73A2
330
7335
100
AcDbEntity
  8
Defpoints
 62
     0
100
AcDbPoint
 10
3917.241950196886
 20
4704.192060662141
 30
0.0
  0
ENDBLK
  5
7337
330
7335
100
AcDbEntity
  8
0
100
AcDbBlockEnd
  0
BLOCK
  5
7364
330
7363
100
AcDbEntity
  8
0
100
AcDbBlockBegin
  2
*D28
 70
     1
 10
0.0
 20
0.0
 30
0.0
  3
*D28
  1

  0
LINE
  5
743E
330
7363
100
AcDbEntity
  8
AM_5 寸法線
 62
     3
100
AcDbLine
 10
3917.241950196886
 20
4825.133004634519
 30
0.0
 11
3917.241950196886
 21
4691.692060662139
 31
0.0
  0
LINE
  5
743F
330
7363
100
AcDbEntity
  8
AM_5 寸法線
 62
     3
100
AcDbLine
 10
4089.741950196886
 20
4654.633004634519
 30
0.0
 11
4089.741950196886
 21
4716.692060662139
 31
0.0
  0
LINE
  5
7440
330
7363
100
AcDbEntity
  8
AM_5 寸法線
 62
     3
100
AcDbLine
 10
3967.241950196886
 20
4704.19206066214
 30
0.0
 11
4039.741950196886
 21
4704.19206066214
 31
0.0
  0
LINE
  5
7441
330
7363
100
AcDbEntity
  8
AM_5 寸法線
 62
     3
100
AcDbLine
 10
4445.223737460604
 20
4704.19206066214
 30
0.0
 11
4089.741950196886
 21
4704.19206066214
 31
0.0
  0
MTEXT
  5
7442
330
7363
100
AcDbEntity
  8
AM_5 寸法線
 62
     3
100
AcDbMText
 10
4293.723737460604
 20
4769.19206066214
 30
0.0
 40
70.0
 41
0.0
 46
0.0
 71
     5
 72
     1
  1
172.5
  7
SEISA
 73
     1
 44
1.0
  0
INSERT
  5
7443
330
7363
100
AcDbEntity
  8
AM_5 寸法線
 62
     3
100
AcDbBlockReference
  2
_Open30
 10
3917.241950196886
 20
4704.19206066214
 30
0.0
 41
50.0
 42
50.0
 43
50.0
 50
180.0
  0
INSERT
  5
7444
330
7363
100
AcDbEntity
  8
AM_5 寸法線
 62
     3
100
AcDbBlockReference
  2
_Open30
 10
4089.741950196886
 20
4704.19206066214
 30
0.0
 41
50.0
 42
50.0
 43
50.0
  0
POINT
  5
7445
330
7363
100
AcDbEntity
  8
Defpoints
 62
     0
100
AcDbPoint
 10
3917.241950196886
 20
4837.633004634519
 30
0.0
  0
POINT
  5
7446
330
7363
100
AcDbEntity
  8
Defpoints
 62
     0
100
AcDbPoint
 10
4089.741950196886
 20
4642.133004634517
 30
0.0
  0
POINT
  5
7447
330
7363
100
AcDbEntity
  8
Defpoints
 62
     0
100
AcDbPoint
 10
4089.741950196886
 20
4704.19206066214
 30
0.0
  0
ENDBLK
  5
7365
330
7363
100
AcDbEntity
  8
0
100
AcDbBlockEnd
  0
BLOCK
  5
755E
330
755D
100
AcDbEntity
  8
0
100
AcDbBlockBegin
  2
センタB CCMH1400
 70
     0
 10
0.0
 20
0.0
 30
0.0
  3
センタB CCMH1400
  1

  0
LINE
  5
7560
330
755D
100
AcDbEntity
  8
AM_0 外形線1
100
AcDbLine
 10
-800.0
 20
0.0
 30
0.0
 11
0.0
 21
0.0
 31
0.0
  0
LINE
  5
7561
330
755D
100
AcDbEntity
  8
AM_3 隠れ線
100
AcDbLine
 10
0.0025000000041473
 20
-317.0023000000001
 30
0.0
 11
-83.98909999999522
 21
-317.0023000000001
 31
0.0
  0
LINE
  5
7562
330
755D
100
AcDbEntity
  8
AM_3 隠れ線
100
AcDbLine
 10
0.0025000000041473
 20
-318.5021500000003
 30
0.0
 11
-101.987299999997
 21
-318.5021500000003
 31
0.0
  0
LINE
  5
7563
330
755D
100
AcDbEntity
  8
AM_0 外形線1
100
AcDbLine
 10
-172.0
 20
195.0
 30
0.0
 11
-6.0
 21
195.0
 31
0.0
  0
LINE
  5
7564
330
755D
100
AcDbEntity
  8
AM_0 外形線1
100
AcDbLine
 10
-474.0
 20
-875.0
 30
0.0
 11
-474.0
 21
-340.0
 31
0.0
  0
LINE
  5
7565
330
755D
100
AcDbEntity
  8
AM_0 外形線1
100
AcDbLine
 10
-480.0
 20
-873.0
 30
0.0
 11
-480.0
 21
-340.0
 31
0.0
  0
LINE
  5
7566
330
755D
100
AcDbEntity
  8
AM_0 外形線1
100
AcDbLine
 10
-800.0
 20
-843.0000000000005
 30
0.0
 11
-800.0
 21
163.0
 31
0.0
  0
LINE
  5
7567
330
755D
100
AcDbEntity
  8
AM_0 外形線1
100
AcDbLine
 10
-480.0
 20
-873.0
 30
0.0
 11
-770.0
 21
-873.0
 31
0.0
  0
ARC
  5
7568
330
755D
100
AcDbEntity
  8
AM_0 外形線1
100
AcDbCircle
 10
-770.0
 20
-843.0000000000005
 30
0.0
 40
30.0
100
AcDbArc
 50
180.0
 51
270.0
  0
LINE
  5
7569
330
755D
100
AcDbEntity
  8
AM_0 外形線1
100
AcDbLine
 10
-424.0
 20
-875.0
 30
0.0
 11
-474.0
 21
-875.0
 31
0.0
  0
LINE
  5
756A
330
755D
100
AcDbEntity
  8
AM_0 外形線1
100
AcDbLine
 10
-474.0
 20
-875.0
 30
0.0
 11
-480.0
 21
-873.0
 31
0.0
  0
LINE
  5
756B
330
755D
100
AcDbEntity
  8
AM_0 外形線1
100
AcDbLine
 10
-770.0
 20
193.0
 30
0.0
 11
-480.0
 21
193.0
 31
0.0
  0
LINE
  5
756C
330
755D
100
AcDbEntity
  8
AM_3 隠れ線
100
AcDbLine
 10
-697.9276999999948
 20
-318.5021500000003
 30
0.0
 11
-685.5159049999964
 21
-340.0
 31
0.0
  0
LINE
  5
756D
330
755D
100
AcDbEntity
  8
AM_3 隠れ線
100
AcDbLine
 10
-697.9276999999948
 20
-318.5021500000003
 30
0.0
 11
-697.9276999999948
 21
-340.0
 31
0.0
  0
LINE
  5
756E
330
755D
100
AcDbEntity
  8
AM_3 隠れ線
100
AcDbLine
 10
-715.0599649999947
 20
-318.5021500000003
 30
0.0
 11
-715.0599649999947
 21
-340.0
 31
0.0
  0
LINE
  5
756F
330
755D
100
AcDbEntity
  8
AM_3 隠れ線
100
AcDbLine
 10
-715.9258999999965
 20
-317.0023000000001
 30
0.0
 11
-715.9258999999965
 21
-340.0
 31
0.0
  0
LINE
  5
7570
330
755D
100
AcDbEntity
  8
AM_3 隠れ線
100
AcDbLine
 10
-715.9258999999965
 20
-317.0023000000001
 30
0.0
 11
-715.0599649999947
 21
-318.5021500000003
 31
0.0
  0
LINE
  5
7571
330
755D
100
AcDbEntity
  8
AM_3 隠れ線
100
AcDbLine
 10
-799.9174999999959
 20
-317.0023000000001
 30
0.0
 11
-715.9258999999965
 21
-317.0023000000001
 31
0.0
  0
LINE
  5
7572
330
755D
100
AcDbEntity
  8
AM_3 隠れ線
100
AcDbLine
 10
-799.9174999999959
 20
-318.5021500000003
 30
0.0
 11
-697.9276999999948
 21
-318.5021500000003
 31
0.0
  0
ARC
  5
7573
330
755D
100
AcDbEntity
  8
AM_0 外形線1
100
AcDbCircle
 10
-770.0
 20
163.0
 30
0.0
 40
30.0
100
AcDbArc
 50
90.0
 51
180.0
  0
LINE
  5
7574
330
755D
100
AcDbEntity
  8
AM_3 隠れ線
100
AcDbLine
 10
-83.98909999999522
 20
-317.0023000000001
 30
0.0
 11
-83.98909999999522
 21
-340.0
 31
0.0
  0
LINE
  5
7575
330
755D
100
AcDbEntity
  8
AM_3 隠れ線
100
AcDbLine
 10
-84.85503499999685
 20
-318.5021500000003
 30
0.0
 11
-84.85503499999685
 21
-340.0
 31
0.0
  0
LINE
  5
7576
330
755D
100
AcDbEntity
  8
AM_3 隠れ線
100
AcDbLine
 10
-101.987299999997
 20
-318.5021500000003
 30
0.0
 11
-101.987299999997
 21
-340.0
 31
0.0
  0
LINE
  5
7577
330
755D
100
AcDbEntity
  8
AM_3 隠れ線
100
AcDbLine
 10
-101.987299999997
 20
-318.5021500000003
 30
0.0
 11
-114.3990799999974
 21
-340.0
 31
0.0
  0
LINE
  5
7578
330
755D
100
AcDbEntity
  8
AM_3 隠れ線
100
AcDbLine
 10
-83.98909999999522
 20
-317.0023000000001
 30
0.0
 11
-84.85503499999685
 21
-318.5021500000003
 31
0.0
  0
LINE
  5
7579
330
755D
100
AcDbEntity
  8
AM_0 外形線1
100
AcDbLine
 10
-361.5
 20
225.6882949999999
 30
0.0
 11
-359.5
 21
228.0176049999991
 31
0.0
  0
LINE
  5
757A
102
{ACAD_REACTORS
330
7343
102
}
330
755D
100
AcDbEntity
  8
AM_0 外形線1
100
AcDbLine
 10
-361.5
 20
195.5
 30
0.0
 11
-361.5
 21
225.6882949999999
 31
0.0
  0
LINE
  5
757B
330
755D
100
AcDbEntity
  8
AM_0 外形線1
100
AcDbLine
 10
-480.0
 20
193.0
 30
0.0
 11
-474.0
 21
195.0
 31
0.0
  0
LINE
  5
757C
330
755D
100
AcDbEntity
  8
AM_0 外形線1
100
AcDbLine
 10
-474.0
 20
195.0
 30
0.0
 11
-362.0
 21
195.0
 31
0.0
  0
ARC
  5
757D
330
755D
100
AcDbEntity
  8
AM_0 外形線1
100
AcDbCircle
 10
-267.0
 20
-340.0
 30
0.0
 40
575.4999999999999
100
AcDbArc
 50
80.75074100001911
 51
99.24925899998092
  0
LINE
  5
757E
330
755D
100
AcDbEntity
  8
AM_7 中心線
100
AcDbLine
 10
-267.0
 20
240.5
 30
0.0
 11
-267.0
 21
207.0
 31
0.0
  0
LINE
  5
757F
330
755D
100
AcDbEntity
  8
AM_0 外形線1
100
AcDbLine
 10
-174.5
 20
228.0176049999991
 30
0.0
 11
-172.5
 21
225.6882949999999
 31
0.0
  0
LINE
  5
7580
330
755D
100
AcDbEntity
  8
AM_0 外形線1
100
AcDbLine
 10
-172.5
 20
225.6882949999999
 30
0.0
 11
-172.5
 21
195.5
 31
0.0
  0
LINE
  5
7581
330
755D
100
AcDbEntity
  8
AM_0 外形線1
100
AcDbLine
 10
0.0
 20
189.0
 30
0.0
 11
0.0
 21
-340.0
 31
0.0
  0
LINE
  5
7582
330
755D
100
AcDbEntity
  8
AM_0 外形線1
100
AcDbLine
 10
-6.0
 20
195.0
 30
0.0
 11
0.0
 21
189.0
 31
0.0
  0
ARC
  5
7583
330
755D
100
AcDbEntity
  8
AM_0 外形線1
100
AcDbCircle
 10
-267.0
 20
-340.0
 30
0.0
 40
552.0
100
AcDbArc
 50
80.14265593040764
 51
99.85734406959236
  0
ARC
  5
7584
330
755D
100
AcDbEntity
  8
AM_7 中心線
100
AcDbCircle
 10
-267.0
 20
-340.0
 30
0.0
 40
564.0
100
AcDbArc
 50
79.31675773594617
 51
100.4124515293383
  0
ENDBLK
  5
755F
330
755D
100
AcDbEntity
  8
0
100
AcDbBlockEnd
  0
ENDSEC
  0
SECTION
  2
ENTITIES
  0
LINE
  5
45F2
330
1F
100
AcDbEntity
  8
AM_7 中心線
100
AcDbLine
 10
3196.775190133327
 20
4302.133004634518
 30
0.0
 11
5022.716567935515
 21
4302.133004634518
 31
0.0
  0
LINE
  5
4859
330
1F
100
AcDbEntity
  8
AM_0 外形線1
100
AcDbLine
 10
4114.741950196886
 20
4984.133004634519
 30
0.0
 11
4114.741950196886
 21
4999.133004634519
 31
0.0
  0
LINE
  5
4873
330
1F
100
AcDbEntity
  8
AM_0 外形線1
100
AcDbLine
 10
4044.741950196884
 20
4984.133004634519
 30
0.0
 11
4044.741950196884
 21
4940.133004634519
 31
0.0
  0
LINE
  5
4EF1
330
1F
100
AcDbEntity
  8
AM_0 外形線1
100
AcDbLine
 10
4048.741950196887
 20
4984.133004634519
 30
0.0
 11
4114.741950196886
 21
4984.133004634519
 31
0.0
  0
INSERT
  5
4FFA
102
{ACAD_REACTORS
330
5D1A
102
}
330
1F
100
AcDbEntity
  8
AM_0 外形線1
100
AcDbBlockReference
  2
ケースＢ CCMH1400
 10
4114.741950196886
 20
4302.133004634518
 30
0.0
  0
INSERT
  5
50F5
102
{ACAD_REACTORS
330
5C80
330
5DD4
330
6201
330
6219
102
}
330
1F
100
AcDbEntity
  8
AM_0 外形線1
100
AcDbBlockReference
  2
センタＡ CCMH1400
 10
4139.741950196886
 20
4302.133004634518
 30
0.0
  0
INSERT
  5
5122
102
{ACAD_REACTORS
330
5CC8
330
5D1A
330
5D36
102
}
330
1F
100
AcDbEntity
  8
AM_0 外形線1
100
AcDbBlockReference
  2
ケースＡ CCMH1400
 10
4114.741950196886
 20
4302.133004634518
 30
0.0
  0
INSERT
  5
52EB
330
1F
100
AcDbEntity
  8
AM_0 外形線1
100
AcDbBlockReference
  2
リーマボルト CCMH1400 M42
 10
4184.741950196886
 20
4962.13300463452
 30
0.0
  0
INSERT
  5
542C
102
{ACAD_REACTORS
330
5CB0
102
}
330
1F
100
AcDbEntity
  8
AM_0 外形線1
100
AcDbBlockReference
  2
ＧＣサイドカバ－A CCMH1400
 10
4525.741950196886
 20
4302.133004634518
 30
0.0
  0
INSERT
  5
5554
102
{ACAD_REACTORS
330
5B0B
330
5D8C
102
}
330
1F
100
AcDbEntity
  8
AM_0 外形線1
100
AcDbBlockReference
  2
ＧＣサイドカバ－Ｂ CCMH1400
 10
3703.741950196886
 20
4302.133004634518
 30
0.0
  0
DIMENSION
  5
5A3A
330
1F
100
AcDbEntity
  8
AM_5 寸法線
100
AcDbDimension
  2
*D15
 10
2889.741950196886
 20
3767.133004634521
 30
0.0
 11
2824.741950196886
 21
4302.13300463452
 31
0.0
 70
    32
  1
%%c<>
 71
     5
 42
1070.0
 73
     0
 74
     0
 75
     0
  3
SEISA$0
100
AcDbAlignedDimension
 13
3615.741950196886
 23
4837.13300463452
 33
0.0
 14
3615.741950196886
 24
3767.133004634519
 34
0.0
 50
90.0
100
AcDbRotatedDimension
1001
ACAD_DSTYLE_DIMINSPECT
1070
   396
1000
100%
1070
   395
1000

1070
   394
1070
    33
1070
   393
1070
     0
  0
DIMENSION
  5
5AF0
102
{ACAD_XDICTIONARY
360
5AFF
102
}
102
{ACAD_REACTORS
330
5B0B
102
}
330
1F
100
AcDbEntity
  8
AM_5 寸法線
100
AcDbDimension
  2
*D16
 10
3711.741950196886
 20
4704.192060662136
 30
0.0
 11
3490.241950196887
 21
4769.192060662137
 31
0.0
 70
    32
 71
     5
 42
16.5
 73
     0
 74
     0
 75
     0
  3
SEISA$0
100
AcDbAlignedDimension
 13
3728.241950196886
 23
4837.633004634519
 33
0.0
 14
3711.741950196886
 24
4837.13300463452
 34
0.0
100
AcDbRotatedDimension
1001
ACAD
1000
DSTYLE
1002
{
1070
   279
1070
     0
1002
}
  0
DIMENSION
  5
5C69
102
{ACAD_XDICTIONARY
360
5C76
102
}
102
{ACAD_REACTORS
330
5C80
102
}
330
1F
100
AcDbEntity
  8
AM_5 寸法線
100
AcDbDimension
  2
*D17
 10
5339.741950196887
 20
3767.133004634519
 30
0.0
 11
5274.741950196887
 21
4302.13300463452
 31
0.0
 70
    32
  1
%%c<>
 71
     5
 42
1070.0
 73
     0
 74
     0
 75
     0
  3
SEISA$0
100
AcDbAlignedDimension
 13
4613.741950196886
 23
4837.13300463452
 33
0.0
 14
4613.741950196886
 24
3767.133004634519
 34
0.0
 50
90.0
100
AcDbRotatedDimension
1001
ACAD_DSTYLE_DIMINSPECT
1070
   396
1000
100%
1070
   395
1000

1070
   394
1070
    33
1070
   393
1070
     0
  0
DIMENSION
  5
5C99
102
{ACAD_XDICTIONARY
360
5CA6
102
}
102
{ACAD_REACTORS
330
5CB0
102
}
330
1F
100
AcDbEntity
  8
AM_5 寸法線
100
AcDbDimension
  2
*D18
 10
5499.741950196887
 20
3674.633004634519
 30
0.0
 11
5434.741950196887
 21
4302.13300463452
 31
0.0
 70
    32
  1
%%c<>
 71
     5
 42
1255.0
 73
     0
 74
     0
 75
     0
  3
SEISA$0
100
AcDbAlignedDimension
 13
4563.741950196886
 23
4929.633004634519
 33
0.0
 14
4563.741950196886
 24
3674.633004634519
 34
0.0
 50
90.0
100
AcDbRotatedDimension
1001
ACAD_DSTYLE_DIMINSPECT
1070
   396
1000
100%
1070
   395
1000

1070
   394
1070
    33
1070
   393
1070
     0
  0
DIMENSION
  5
5CB1
102
{ACAD_XDICTIONARY
360
5CBE
102
}
102
{ACAD_REACTORS
330
5CC8
102
}
330
1F
100
AcDbEntity
  8
AM_5 寸法線
100
AcDbDimension
  2
*D19
 10
5659.741950196887
 20
3602.133004634519
 30
0.0
 11
5594.741950196886
 21
4302.13300463452
 31
0.0
 70
    32
  1
%%c<>
 71
     5
 42
1400.0
 73
     0
 74
     0
 75
     0
  3
SEISA$0
100
AcDbAlignedDimension
 13
4181.741950196886
 23
5002.133004634519
 33
0.0
 14
4181.741950196886
 24
3602.133004634519
 34
0.0
 50
90.0
100
AcDbRotatedDimension
1001
ACAD_DSTYLE_DIMINSPECT
1070
   396
1000
100%
1070
   395
1000

1070
   394
1070
    33
1070
   393
1070
     0
  0
DIMENSION
  5
5CFF
102
{ACAD_XDICTIONARY
360
5D0E
102
}
102
{ACAD_REACTORS
330
5D1A
102
}
330
1F
100
AcDbEntity
  8
AM_5 寸法線
100
AcDbDimension
  2
*D20
 10
4044.741950196884
 20
3302.133004634519
 30
0.0
 11
3863.741950196887
 21
3367.133004634519
 31
0.0
 70
    32
 71
     5
 42
69.99999999999909
 73
     0
 74
     0
 75
     0
  3
SEISA$0
100
AcDbAlignedDimension
 13
4114.741950196886
 23
3605.20270463452
 33
0.0
 14
4044.741950196884
 24
3605.20270463452
 34
0.0
100
AcDbRotatedDimension
1001
ACAD_DSTYLE_DIMINSPECT
1070
   396
1000
100%
1070
   395
1000

1070
   394
1070
    33
1070
   393
1070
     0
1001
ACAD
1000
DSTYLE
1002
{
1070
   173
1070
     1
1070
   342
1005
0
1070
   343
1005
2C8C
1070
   344
1005
69
1002
}
  0
DIMENSION
  5
5D1B
102
{ACAD_XDICTIONARY
360
5D2A
102
}
102
{ACAD_REACTORS
330
5D36
102
}
330
1F
100
AcDbEntity
  8
AM_5 寸法線
100
AcDbDimension
  2
*D21
 10
4184.741950196886
 20
3302.133004634519
 30
0.0
 11
4365.741950196886
 21
3367.133004634519
 31
0.0
 70
    32
 71
     5
 42
70.00000000000091
 73
     0
 74
     0
 75
     0
  3
SEISA$0
100
AcDbAlignedDimension
 13
4114.741950196886
 23
3605.20270463452
 33
0.0
 14
4184.741950196886
 24
3605.20270463452
 34
0.0
100
AcDbRotatedDimension
1001
ACAD_DSTYLE_DIMINSPECT
1070
   396
1000
100%
1070
   395
1000

1070
   394
1070
    33
1070
   393
1070
     0
1001
ACAD
1000
DSTYLE
1002
{
1070
   173
1070
     1
1070
   342
1005
0
1070
   343
1005
2C8C
1070
   344
1005
69
1002
}
  0
DIMENSION
  5
5D75
102
{ACAD_XDICTIONARY
360
5D82
102
}
102
{ACAD_REACTORS
330
5D8C
102
}
330
1F
100
AcDbEntity
  8
AM_5 寸法線
100
AcDbDimension
  2
*D22
 10
3665.741950196886
 20
3142.13300463452
 30
0.0
 11
4114.741950196886
 21
3207.13300463452
 31
0.0
 70
    32
 71
     5
 42
898.0
 73
     0
 74
     0
 75
     0
  3
SEISA$0
100
AcDbAlignedDimension
 13
4563.741950196886
 23
3674.633004634519
 33
0.0
 14
3665.741950196886
 24
3674.633004634519
 34
0.0
100
AcDbRotatedDimension
  0
DIMENSION
  5
5DBD
102
{ACAD_XDICTIONARY
360
5DCA
102
}
102
{ACAD_REACTORS
330
5DD4
102
}
330
1F
100
AcDbEntity
  8
AM_5 寸法線
100
AcDbDimension
  2
*D23
 10
3289.741950196886
 20
2982.133004634519
 30
0.0
 11
4114.741950196886
 21
3047.133004634519
 31
0.0
 70
    32
 71
     5
 42
1650.000000000001
 73
     0
 74
     0
 75
     0
  3
SEISA$0
100
AcDbAlignedDimension
 13
4939.741950196887
 23
3799.133004634519
 33
0.0
 14
3289.741950196886
 24
3799.133004634519
 34
0.0
100
AcDbRotatedDimension
  0
DIMENSION
  5
61CE
330
1F
100
AcDbEntity
  8
AM_5 寸法線
100
AcDbDimension
  2
*D24
 10
4089.741950196886
 20
4422.443387634519
 30
0.0
 11
3689.741950196886
 21
4487.443387634519
 31
0.0
 70
    32
 71
     5
 42
800.0
 73
     0
 74
     0
 75
     0
  3
SEISA$0
100
AcDbAlignedDimension
 13
3289.741950196886
 23
4302.133004634518
 33
0.0
 14
4089.741950196886
 24
4302.133004634518
 34
0.0
100
AcDbRotatedDimension
  0
DIMENSION
  5
61E6
102
{ACAD_XDICTIONARY
360
61F5
102
}
102
{ACAD_REACTORS
330
6201
102
}
330
1F
100
AcDbEntity
  8
AM_5 寸法線
100
AcDbDimension
  2
*D25
 10
4139.741950196886
 20
4422.443387634519
 30
0.0
 11
4247.717199507518
 21
4484.238951264821
 31
0.0
 70
   160
 71
     5
 42
50.0
 73
     0
 74
     0
 75
     0
  3
SEISA$0
100
AcDbAlignedDimension
 13
4089.741950196886
 23
4302.133004634518
 33
0.0
 14
4139.741950196886
 24
4302.133004634518
 34
0.0
100
AcDbRotatedDimension
1001
ACAD
1000
DSTYLE
1002
{
1070
   279
1070
     2
1002
}
  0
DIMENSION
  5
6202
102
{ACAD_XDICTIONARY
360
620F
102
}
102
{ACAD_REACTORS
330
6219
102
}
330
1F
100
AcDbEntity
  8
AM_5 寸法線
100
AcDbDimension
  2
*D26
 10
4939.741950196887
 20
4422.443387634519
 30
0.0
 11
4539.741950196886
 21
4487.443387634519
 31
0.0
 70
    32
 71
     5
 42
800.0000000000008
 73
     0
 74
     0
 75
     0
  3
SEISA$0
100
AcDbAlignedDimension
 13
4139.741950196886
 23
4302.133004634518
 33
0.0
 14
4939.741950196887
 24
4302.133004634518
 34
0.0
100
AcDbRotatedDimension
  0
ARC
  5
723F
330
1F
100
AcDbEntity
  8
AM_0 外形線1
100
AcDbCircle
 10
3727.741950196886
 20
4837.633004634519
 30
0.0
 40
0.5
100
AcDbArc
 50
270.0
 51
0.0
  0
ARC
  5
7247
102
{ACAD_REACTORS
330
7343
102
}
330
1F
100
AcDbEntity
  8
AM_0 外形線1
100
AcDbCircle
 10
3917.741950196886
 20
4837.633004634519
 30
0.0
 40
0.5
100
AcDbArc
 50
180.0
 51
270.0
  0
TEXT
  5
726B
330
1F
100
AcDbEntity
  8
AM_6 文字
100
AcDbText
 10
5317.970059262048
 20
2957.912188322433
 30
0.0
 40
37.18719999999999
  1
　
 41
0.9
  7
SEISA
100
AcDbText
  0
TEXT
  5
726C
330
1F
100
AcDbEntity
  8
AM_6 文字
100
AcDbText
 10
5353.98851869062
 20
2924.1096433091
 30
0.0
 40
80.00082336
  1
 
 41
0.1
  7
SEISA
100
AcDbText
  0
TEXT
  5
726F
330
1F
100
AcDbEntity
  8
AM_6 文字
100
AcDbText
 10
6226.674315312333
 20
2957.936188322433
 30
0.0
 40
37.0432
  1
 
 41
0.9
  7
SEISA
100
AcDbText
  0
TEXT
  5
7272
330
1F
100
AcDbEntity
  8
AM_6 文字
100
AcDbText
 10
5346.770059262047
 20
2790.776035522434
 30
0.0
 40
80.0
  1
 
 41
0.2
  7
SEISA
100
AcDbText
  0
TEXT
  5
7274
330
1F
100
AcDbEntity
  8
AM_6 文字
100
AcDbText
 10
5964.827202119192
 20
2790.776035522434
 30
0.0
 40
80.0
  1
　
 41
0.7
  7
SEISA
100
AcDbText
  0
TEXT
  5
7275
330
1F
100
AcDbEntity
  8
AM_6 文字
100
AcDbText
 10
6032.02720211919
 20
2790.776035522434
 30
0.0
 40
80.0
  1
　　
 41
0.9
  7
SEISA
100
AcDbText
  0
TEXT
  5
7276
330
1F
100
AcDbEntity
  8
AM_6 文字
100
AcDbText
 10
6204.82720211919
 20
2790.776035522434
 30
0.0
 40
80.0
  1
 
 41
0.6
  7
SEISA
100
AcDbText
  0
MTEXT
  5
72CD
330
1F
100
AcDbEntity
  8
AM_6 文字
100
AcDbMText
 10
5035.647208540389
 20
3459.710893648689
 30
0.0
 40
70.0
 41
1188.667298545112
 46
177.9322401005574
 71
     1
 72
     5
  1
{\W0.6;TYPE:CCM1400/CCMH1400\PSHAFT DIA:MAX/MIN φ800/φ560}
  7
SEISA
 73
     1
 44
1.0
  0
DIMENSION
  5
7334
102
{ACAD_XDICTIONARY
360
7342
102
}
102
{ACAD_REACTORS
330
7343
102
}
330
1F
100
AcDbEntity
  8
AM_5 寸法線
100
AcDbDimension
  2
*D27
 10
3917.241950196886
 20
4704.192060662141
 30
0.0
 11
3826.914350537514
 21
4762.837380951827
 31
0.0
 70
   160
 71
     5
 42
189.0
 73
     0
 74
     0
 75
     0
  3
SEISA$0
100
AcDbAlignedDimension
 13
3728.241950196886
 23
4837.633004634519
 33
0.0
 14
3917.241950196886
 24
4837.633004634519
 34
0.0
 50
0.0000000000001132
100
AcDbRotatedDimension
1001
ACAD_DSTYLE_DIMINSPECT
1070
   396
1000
100%
1070
   395
1000

1070
   394
1070
    33
1070
   393
1070
     0
1001
ACAD
1000
DSTYLE
1002
{
1070
   279
1070
     2
1002
}
  0
DIMENSION
  5
7362
330
1F
100
AcDbEntity
  8
AM_5 寸法線
100
AcDbDimension
  2
*D28
 10
4089.741950196886
 20
4704.19206066214
 30
0.0
 11
4293.723737460604
 21
4679.616600375412
 31
0.0
 70
   160
 71
     5
 42
172.5
 73
     0
 74
     0
 75
     0
  3
SEISA$0
100
AcDbAlignedDimension
 13
3917.241950196886
 23
4837.633004634519
 33
0.0
 14
4089.741950196886
 24
4642.133004634517
 34
0.0
 50
0.0000000000001132
100
AcDbRotatedDimension
1001
ACAD_DSTYLE_DIMINSPECT
1070
   396
1000
100%
1070
   395
1000

1070
   394
1070
    33
1070
   393
1070
     0
1001
ACAD
1000
DSTYLE
1002
{
1070
   279
1070
     1
1002
}
  0
INSERT
  5
7585
330
1F
100
AcDbEntity
  8
AM_0 外形線1
100
AcDbBlockReference
  2
センタB CCMH1400
 10
4089.741950196886
 20
4642.133004634517
 30
0.0
  0
ENDSEC
  0
SECTION
  2
OBJECTS
  0
DICTIONARY
  5
C
330
0
100
AcDbDictionary
281
     1
  3
ACAD_COLOR
350
C5
  3
ACAD_GROUP
350
D
  3
ACAD_LAYOUT
350
1A
  3
ACAD_MATERIAL
350
C4
  3
ACAD_MLEADERSTYLE
350
2D5
  3
ACAD_MLINESTYLE
350
17
  3
ACAD_PLOTSETTINGS
350
19
  3
ACAD_PLOTSTYLENAME
350
E
  3
ACAD_SCALELIST
350
2B3
  3
ACAD_TABLESTYLE
350
121
  3
ACAD_VISUALSTYLE
350
27F
  3
ACDB_RECOMPOSE_DATA
350
2F7
  3
AcDbVariableDictionary
350
34
  3
AcmDictionary
350
49
  3
AMG
350
2B
  3
AMGSNAPSETTINGS
350
1DE
  0
DICTIONARY
  5
BF
330
2
100
AcDbDictionary
280
     1
281
     1
  3
ACAD_LAYERSTATES
360
2D73
  3
AMLAYER_GROUPCOLORS
360
C0
  0
DICTIONARY
  5
29F7
330
10
100
AcDbDictionary
280
     1
281
     1
  3
ADSK_XREC_LAYER_RECONCILED
360
29F8
  0
DICTIONARY
  5
29F9
330
81
100
AcDbDictionary
280
     1
281
     1
  3
ADSK_XREC_LAYER_RECONCILED
360
29FA
  0
DICTIONARY
  5
82
330
1F
100
AcDbDictionary
280
     1
281
     1
  3
ACAD_SORTENTS
360
A41
  0
DICTIONARY
  5
4DB3
330
4D7E
100
AcDbDictionary
280
     1
281
     1
  3
ACAD_SORTENTS
360
6845
  0
DICTIONARY
  5
4E0D
330
4DDE
100
AcDbDictionary
280
     1
281
     1
  3
ACAD_SORTENTS
360
68DE
  0
DICTIONARY
  5
4F4A
330
4E8E
100
AcDbDictionary
280
     1
281
     1
  3
ACAD_SORTENTS
360
68BE
  0
DICTIONARY
  5
506F
330
4FC3
100
AcDbDictionary
280
     1
281
     1
  3
ACAD_SORTENTS
360
6984
  0
DICTIONARY
  5
5151
330
50C6
100
AcDbDictionary
280
     1
281
     1
  3
ACAD_SORTENTS
360
74C5
  0
DICTIONARY
  5
5351
330
52BB
100
AcDbDictionary
280
     1
281
     1
  3
ACAD_SORTENTS
360
6BA1
  0
DICTIONARY
  5
54A5
330
53F2
100
AcDbDictionary
280
     1
281
     1
  3
ACAD_SORTENTS
360
6ABF
  0
DICTIONARY
  5
55C9
330
551C
100
AcDbDictionary
280
     1
281
     1
  3
ACAD_SORTENTS
360
6B34
  0
DICTIONARY
  5
5AFF
330
5AF0
100
AcDbDictionary
280
     1
281
     1
  3
ACAD_DIMASSOC
360
5B0B
  0
DICTIONARY
  5
5C76
330
5C69
100
AcDbDictionary
280
     1
281
     1
  3
ACAD_DIMASSOC
360
5C80
  0
DICTIONARY
  5
5CA6
330
5C99
100
AcDbDictionary
280
     1
281
     1
  3
ACAD_DIMASSOC
360
5CB0
  0
DICTIONARY
  5
5CBE
330
5CB1
100
AcDbDictionary
280
     1
281
     1
  3
ACAD_DIMASSOC
360
5CC8
  0
DICTIONARY
  5
5D0E
330
5CFF
100
AcDbDictionary
280
     1
281
     1
  3
ACAD_DIMASSOC
360
5D1A
  0
DICTIONARY
  5
5D2A
330
5D1B
100
AcDbDictionary
280
     1
281
     1
  3
ACAD_DIMASSOC
360
5D36
  0
DICTIONARY
  5
5D82
330
5D75
100
AcDbDictionary
280
     1
281
     1
  3
ACAD_DIMASSOC
360
5D8C
  0
DICTIONARY
  5
5DCA
330
5DBD
100
AcDbDictionary
280
     1
281
     1
  3
ACAD_DIMASSOC
360
5DD4
  0
DICTIONARY
  5
61F5
330
61E6
100
AcDbDictionary
280
     1
281
     1
  3
ACAD_DIMASSOC
360
6201
  0
DICTIONARY
  5
620F
330
6202
100
AcDbDictionary
280
     1
281
     1
  3
ACAD_DIMASSOC
360
6219
  0
DICTIONARY
  5
7342
330
7334
100
AcDbDictionary
280
     1
281
     1
  3
ACAD_DIMASSOC
360
7343
  0
DICTIONARY
  5
C5
102
{ACAD_REACTORS
330
C
102
}
330
C
100
AcDbDictionary
281
     1
  0
DICTIONARY
  5
D
102
{ACAD_REACTORS
330
C
102
}
330
C
100
AcDbDictionary
281
     1
  0
DICTIONARY
  5
1A
102
{ACAD_REACTORS
330
C
102
}
330
C
100
AcDbDictionary
281
     1
  3
Model
350
22
  3
レイアウト1
350
1E
  3
レイアウト2
350
26
  0
DICTIONARY
  5
C4
102
{ACAD_REACTORS
330
C
102
}
330
C
100
AcDbDictionary
281
     1
  3
ByBlock
350
27D
  3
ByLayer
350
27C
  3
Global
350
27E
  0
DICTIONARY
  5
2D5
102
{ACAD_REACTORS
330
C
102
}
330
C
100
AcDbDictionary
281
     1
  3
Standard
350
2D6
  0
DICTIONARY
  5
17
102
{ACAD_REACTORS
330
C
102
}
330
C
100
AcDbDictionary
281
     1
  3
Standard
350
18
  0
DICTIONARY
  5
19
102
{ACAD_REACTORS
330
C
102
}
330
C
100
AcDbDictionary
281
     1
  3
SEISA基本
350
1C7E
  0
ACDBDICTIONARYWDFLT
  5
E
102
{ACAD_REACTORS
330
C
102
}
330
C
100
AcDbDictionary
281
     1
  3
Normal
350
F
100
AcDbDictionaryWithDefault
340
F
  0
DICTIONARY
  5
2B3
102
{ACAD_REACTORS
330
C
102
}
330
C
100
AcDbDictionary
281
     1
  3
*A1
350
72C0
  3
*A2
350
72C1
  3
*A3
350
72C2
  3
*A4
350
72C3
  3
*A5
350
72C4
  3
A0
350
2B4
  3
A1
350
2B5
  3
A2
350
2B6
  3
A3
350
2B7
  3
A4
350
2B8
  3
A5
350
2B9
  3
A6
350
2BA
  3
A7
350
2BB
  3
A8
350
2BC
  3
A9
350
2BD
  3
B0
350
2BE
  3
B1
350
2BF
  3
B2
350
2C0
  3
B3
350
2C1
  3
B4
350
2C2
  3
B5
350
2C3
  3
B6
350
2C4
  3
B7
350
2C5
  3
B8
350
2C6
  3
B9
350
2C7
  3
C0
350
2C8
  3
C1
350
2C9
  3
C2
350
2CA
  3
C3
350
2CB
  3
C4
350
2CC
  3
C5
350
2CD
  3
C6
350
2CE
  3
C7
350
2CF
  3
C8
350
2D0
  3
C9
350
2D1
  3
D0
350
2D2
  3
D1
350
2D3
  3
D2
350
2D4
  0
DICTIONARY
  5
121
102
{ACAD_REACTORS
330
C
102
}
330
C
100
AcDbDictionary
281
     1
  3
Standard
350
122
  0
DICTIONARY
  5
27F
102
{ACAD_REACTORS
330
C
102
}
330
C
100
AcDbDictionary
281
     1
  3
2dWireframe
350
285
  3
3D Hidden
350
287
  3
3dWireframe
350
286
  3
Basic
350
284
  3
Brighten
350
28B
  3
ColorChange
350
28F
  3
Conceptual
350
288
  3
Dim
350
28A
  3
Facepattern
350
28E
  3
Flat
350
280
  3
FlatWithEdges
350
281
  3
Gouraud
350
282
  3
GouraudWithEdges
350
283
  3
Linepattern
350
28D
  3
Realistic
350
289
  3
Thicken
350
28C
  0
XRECORD
  5
2F7
102
{ACAD_REACTORS
330
C
102
}
330
C
100
AcDbXrecord
280
     1
 90
        1
330
122
  0
DICTIONARY
  5
34
102
{ACAD_REACTORS
330
C
102
}
330
C
100
AcDbDictionary
281
     1
  3
CANNOSCALE
350
2FA
  3
CMLEADERSTYLE
350
2F8
  3
CTABLESTYLE
350
140
  3
DIMASSOC
350
AC
  3
INDEXCTL
350
35
  3
LAYEREVAL
350
55D1
  3
LAYERNOTIFY
350
55D2
  3
LIGHTINGUNITS
350
2FB
  3
MSLTSCALE
350
2F9
  0
DICTIONARY
  5
49
102
{ACAD_REACTORS
330
C
102
}
330
C
100
AcDbDictionary
281
     1
  3
AcmBOM
350
161B
  3
AcmStdDictionary
350
4A
  3
AMDTSECTSYM_ARROWCOLOR
350
12B
  0
DICTIONARY
  5
2B
102
{ACAD_REACTORS
330
C
102
}
330
C
100
AcDbDictionary
281
     1
  0
DICTIONARY
  5
1DE
102
{ACAD_REACTORS
330
C
102
}
330
C
100
AcDbDictionary
281
     1
  0
DICTIONARY
  5
2D73
102
{ACAD_REACTORS
330
BF
102
}
330
BF
100
AcDbDictionary
281
     1
  0
DICTIONARY
  5
C0
102
{ACAD_REACTORS
330
BF
102
}
330
BF
100
AcDbDictionary
280
     1
281
     1
  0
XRECORD
  5
29F8
102
{ACAD_REACTORS
330
29F7
102
}
330
29F7
100
AcDbXrecord
280
     1
290
     1
  0
XRECORD
  5
29FA
102
{ACAD_REACTORS
330
29F9
102
}
330
29F9
100
AcDbXrecord
280
     1
290
     1
  0
SORTENTSTABLE
  5
A41
102
{ACAD_REACTORS
330
82
102
}
330
82
100
AcDbSortentsTable
330
1F
331
52EB
  5
5D8D
331
7274
  5
726C
331
4FFA
  5
5554
331
5CB1
  5
646C
331
723F
  5
5AF0
331
6202
  5
7244
331
4859
  5
48B2
331
5C99
  5
6467
331
72CD
  5
72D0
331
5AF0
  5
641A
331
726C
  5
724A
331
5D1B
  5
646E
331
5C69
  5
645C
331
7275
  5
726D
331
5CFF
  5
646D
331
5554
  5
6418
331
7334
  5
7362
331
45F2
  5
45F2
331
5DBD
  5
6663
331
4873
  5
48B3
331
61E6
  5
716B
331
7276
  5
72CD
331
7272
  5
726B
331
5D75
  5
6472
331
61CE
  5
6CBB
331
5122
  5
5625
331
5A3A
  5
6419
331
542C
  5
5DA5
331
726F
  5
7269
331
50F5
  5
5624
331
7362
  5
73DC
331
4EF1
  5
542C
331
726B
  5
7245
331
7247
  5
5D1B
  0
SORTENTSTABLE
  5
6845
102
{ACAD_REACTORS
330
4DB3
102
}
330
4DB3
100
AcDbSortentsTable
330
4D7E
331
4D88
  5
4D89
331
4D86
  5
4D87
331
4D84
  5
4D85
331
4D8B
  5
4D8C
331
4DB1
  5
4D83
331
4D89
  5
4D8A
331
4D87
  5
4D88
331
4D85
  5
4D86
331
4D83
  5
4D84
331
4D8C
  5
4DB1
331
4D8A
  5
4D8B
  0
SORTENTSTABLE
  5
68DE
102
{ACAD_REACTORS
330
4E0D
102
}
330
4E0D
100
AcDbSortentsTable
330
4DDE
331
4DE9
  5
4DEA
331
4DE7
  5
4DE8
331
4DE5
  5
4DE6
331
4DEC
  5
4E0B
331
4DEA
  5
4DEB
331
4DE8
  5
4DE9
331
4DE6
  5
4DE7
331
4DE4
  5
4DE5
331
4E0B
  5
4DE4
331
4DEB
  5
4DEC
  0
SORTENTSTABLE
  5
68BE
102
{ACAD_REACTORS
330
4F4A
102
}
330
4F4A
100
AcDbSortentsTable
330
4E8E
331
4EC7
  5
4EC9
331
4EC0
  5
4EC2
331
4EB9
  5
4EBB
331
4F49
  5
4EB0
331
4EB6
  5
4EB8
331
4EC9
  5
4ECB
331
4EC4
  5
4EC6
331
4EBD
  5
4EBF
331
4EBA
  5
4EBC
331
4EB3
  5
4EB5
331
4EC1
  5
4EC3
331
4ECA
  5
4F48
331
4EC5
  5
4EC7
331
4EBE
  5
4EC0
331
4EB7
  5
4EB9
331
4EB0
  5
4EB1
331
4EC2
  5
4EC4
331
4EBB
  5
4EBD
331
4F48
  5
4EB6
331
4EB8
  5
4EBA
331
4EB1
  5
4EB3
331
4ECB
  5
4F49
331
4EC6
  5
4EC8
331
4EBF
  5
4EC1
331
4EC8
  5
4ECA
331
4EBC
  5
4EBE
331
4EB5
  5
4EB7
331
4EC3
  5
4EC5
  0
SORTENTSTABLE
  5
6984
102
{ACAD_REACTORS
330
506F
102
}
330
506F
100
AcDbSortentsTable
330
4FC3
331
4FD7
  5
4FD8
331
4FF6
  5
4FF7
331
4FE4
  5
4FE5
331
506D
  5
506E
331
4FF0
  5
4FF2
331
4FDE
  5
4FDF
331
4FEA
  5
4FEB
331
4FD8
  5
4FD9
331
4FF7
  5
4FF8
331
506E
  5
4FD7
331
4FE5
  5
4FE6
331
4FEB
  5
4FEC
331
4FDF
  5
4FE1
331
4FD9
  5
4FDA
331
4FE6
  5
4FE7
331
4FF2
  5
4FF3
331
4FEC
  5
4FED
331
4FDA
  5
4FDB
331
4FE7
  5
4FE8
331
4FF3
  5
4FF4
331
4FED
  5
4FEE
331
4FE1
  5
4FE2
331
4FDB
  5
4FDC
331
4FF4
  5
4FF5
331
4FE2
  5
4FE3
331
506B
  5
506C
331
4FEE
  5
4FEF
331
4FDC
  5
4FDD
331
4FE8
  5
4FE9
331
4FF8
  5
4FF9
331
4FF5
  5
4FF6
331
4FEF
  5
4FF0
331
506C
  5
506D
331
4FE3
  5
4FE4
331
4FE9
  5
4FEA
331
4FF9
  5
506B
331
4FDD
  5
4FDE
  0
SORTENTSTABLE
  5
74C5
102
{ACAD_REACTORS
330
5151
102
}
330
5151
100
AcDbSortentsTable
330
50C6
331
50D9
  5
50DB
331
50E3
  5
50E5
331
50DE
  5
50E0
331
50F3
  5
749D
331
50ED
  5
50EF
331
50D4
  5
50D6
331
50CF
  5
50D1
331
50E8
  5
50EA
331
50DF
  5
50E1
331
50DA
  5
50DE
331
50E9
  5
50EB
331
50EE
  5
50F0
331
50D0
  5
50D2
331
50CB
  5
50CD
331
50E4
  5
50E6
331
50D5
  5
50D7
331
50DB
  5
50DF
331
50E5
  5
50E7
331
50EA
  5
50EC
331
50CC
  5
50CE
331
50EF
  5
50F1
331
50F0
  5
50F3
331
50E0
  5
50E2
331
50D6
  5
50D8
331
50D1
  5
50D3
331
50E1
  5
50E3
331
50F1
  5
730B
331
50EB
  5
50ED
331
50D2
  5
50D4
331
50CD
  5
50CF
331
50E6
  5
50E8
331
50D7
  5
50D9
331
730B
  5
50CC
331
50D8
  5
50DA
331
749D
  5
50CB
331
50EC
  5
50EE
331
50CE
  5
50D0
331
50E7
  5
50E9
331
50E2
  5
50E4
331
50D3
  5
50D5
  0
SORTENTSTABLE
  5
6BA1
102
{ACAD_REACTORS
330
5351
102
}
330
5351
100
AcDbSortentsTable
330
52BB
331
52E0
  5
52E2
331
52C1
  5
52C3
331
52D8
  5
52DA
331
52CE
  5
52D0
331
52C4
  5
52C6
331
52DB
  5
52DD
331
52E3
  5
52E6
331
52D1
  5
52D3
331
52E6
  5
52E8
331
52DE
  5
52E0
331
52C7
  5
52C9
331
52D4
  5
52D6
331
52E9
  5
5320
331
52CA
  5
52CC
331
52BE
  5
52C0
331
5321
  5
52BF
331
52C0
  5
52C2
331
52D7
  5
52D9
331
52CD
  5
52CF
331
52E2
  5
52E4
331
52C3
  5
52C5
331
52DA
  5
52DC
331
52D0
  5
52D2
331
52C6
  5
52C8
331
52DD
  5
52DF
331
52D3
  5
52D5
331
52E8
  5
52EA
331
5320
  5
52BE
331
52C9
  5
52CB
331
52D6
  5
52D8
331
52CC
  5
52CE
331
52C2
  5
52C4
331
52D9
  5
52DB
331
52E1
  5
52E3
331
52CF
  5
52D1
331
52E4
  5
52E7
331
52DC
  5
52DE
331
52C5
  5
52C7
331
52D2
  5
52D4
331
52C8
  5
52CA
331
52DF
  5
52E1
331
52E7
  5
52E9
331
52D5
  5
52D7
331
52EA
  5
5321
331
52CB
  5
52CD
331
52BF
  5
52C1
  0
SORTENTSTABLE
  5
6ABF
102
{ACAD_REACTORS
330
54A5
102
}
330
54A5
100
AcDbSortentsTable
330
53F2
  0
SORTENTSTABLE
  5
6B34
102
{ACAD_REACTORS
330
55C9
102
}
330
55C9
100
AcDbSortentsTable
330
551C
  0
DIMASSOC
  5
5B0B
102
{ACAD_REACTORS
330
5AFF
102
}
330
5AFF
100
AcDbDimAssoc
330
5AF0
 90
        2
 70
     0
 71
     0
  1
AcDbOsnapPointRef
 72
     1
331
5554
331
553D
 73
     2
 91
        0
 40
1.0
 10
0.0
 20
0.0
 30
2.000000000000000E+50
 75
     0
  0
DIMASSOC
  5
5C80
102
{ACAD_REACTORS
330
5C76
102
}
330
5C76
100
AcDbDimAssoc
330
5C69
 90
        3
 70
     0
 71
     0
  1
AcDbOsnapPointRef
 72
     1
331
50F5
331
50D2
 73
     2
 91
        0
 40
0.9999999999999998
 10
0.0
 20
0.0
 30
2.000000000000000E+50
 75
     0
  1
AcDbOsnapPointRef
 72
    13
331
50F5
331
50CB
 73
     2
 91
        0
 40
0.0
 10
0.0
 20
0.0
 30
2.000000000000000E+50
 75
     0
  0
DIMASSOC
  5
5CB0
102
{ACAD_REACTORS
330
5CA6
102
}
330
5CA6
100
AcDbDimAssoc
330
5C99
 90
        3
 70
     0
 71
     0
  1
AcDbOsnapPointRef
 72
    13
331
542C
331
5418
 73
     2
 91
        0
 40
0.0
 10
0.0
 20
0.0
 30
2.000000000000000E+50
 75
     0
  1
AcDbOsnapPointRef
 72
     1
331
542C
331
53FE
 73
     2
 91
        0
 40
1.0
 10
0.0
 20
0.0
 30
2.000000000000000E+50
 75
     0
  0
DIMASSOC
  5
5CC8
102
{ACAD_REACTORS
330
5CBE
102
}
330
5CBE
100
AcDbDimAssoc
330
5CB1
 90
        3
 70
     0
 71
     0
  1
AcDbOsnapPointRef
 72
     1
331
5122
331
4EB3
 73
     2
 91
        0
 40
1.0
 10
0.0
 20
0.0
 30
2.000000000000000E+50
 75
     0
  1
AcDbOsnapPointRef
 72
     1
331
5122
331
4E9B
 73
     2
 91
        0
 40
1.0
 10
0.0
 20
0.0
 30
2.000000000000000E+50
 75
     0
  0
DIMASSOC
  5
5D1A
102
{ACAD_REACTORS
330
5D0E
102
}
330
5D0E
100
AcDbDimAssoc
330
5CFF
 90
        3
 70
     0
 71
     0
  1
AcDbOsnapPointRef
 72
     1
331
5122
331
4E91
 73
     2
 91
        0
 40
1.0
 10
0.0
 20
0.0
 30
2.000000000000000E+50
 75
     0
  1
AcDbOsnapPointRef
 72
     8
331
4FFA
331
4FDF
 73
     2
 91
        0
 40
0.0001
 10
0.0
 20
0.0
 30
0.0
 75
     1
  1
AcDbOsnapPointRef
 72
     1
331
5122
331
4E91
 73
     2
 91
        0
 40
1.0
 10
0.0
 20
0.0
 30
2.000000000000000E+50
 75
     0
  0
DIMASSOC
  5
5D36
102
{ACAD_REACTORS
330
5D2A
102
}
330
5D2A
100
AcDbDimAssoc
330
5D1B
 90
        3
 70
     0
 71
     0
  1
AcDbOsnapPointRef
 72
     1
331
5122
331
4E91
 73
     2
 91
        0
 40
1.0
 10
0.0
 20
0.0
 30
2.000000000000000E+50
 75
     0
  1
AcDbOsnapPointRef
 72
     8
331
5122
331
4E99
 73
     2
 91
        0
 40
0.0001
 10
0.0
 20
0.0
 30
0.0
 75
     1
  1
AcDbOsnapPointRef
 72
     1
331
5122
331
4E91
 73
     2
 91
        0
 40
1.0
 10
0.0
 20
0.0
 30
2.000000000000000E+50
 75
     0
  0
DIMASSOC
  5
5D8C
102
{ACAD_REACTORS
330
5D82
102
}
330
5D82
100
AcDbDimAssoc
330
5D75
 90
        2
 70
     0
 71
     0
  1
AcDbOsnapPointRef
 72
    13
331
5554
331
5529
 73
     2
 91
        0
 40
0.0
 10
0.0
 20
0.0
 30
2.000000000000000E+50
 75
     0
  0
DIMASSOC
  5
5DD4
102
{ACAD_REACTORS
330
5DCA
102
}
330
5DCA
100
AcDbDimAssoc
330
5DBD
 90
        1
 70
     0
 71
     0
  1
AcDbOsnapPointRef
 72
    13
331
50F5
331
50CD
 73
     2
 91
        0
 40
0.0
 10
0.0
 20
0.0
 30
2.000000000000000E+50
 75
     0
  0
DIMASSOC
  5
6201
102
{ACAD_REACTORS
330
61F5
102
}
330
61F5
100
AcDbDimAssoc
330
61E6
 90
        2
 70
     0
 71
     0
  1
AcDbOsnapPointRef
 72
     1
331
50F5
331
50D3
 73
     2
 91
        0
 40
1.0
 10
0.0
 20
0.0
 30
2.000000000000000E+50
 75
     0
  0
DIMASSOC
  5
6219
102
{ACAD_REACTORS
330
620F
102
}
330
620F
100
AcDbDimAssoc
330
6202
 90
        3
 70
     0
 71
     0
  1
AcDbOsnapPointRef
 72
     1
331
50F5
331
50D3
 73
     2
 91
        0
 40
1.0
 10
0.0
 20
0.0
 30
2.000000000000000E+50
 75
     0
  1
AcDbOsnapPointRef
 72
     2
331
50F5
331
50CD
 73
     2
 91
        0
 40
0.5000000000000002
 10
0.0
 20
0.0
 30
0.0
 75
     0
  0
DIMASSOC
  5
7343
102
{ACAD_REACTORS
330
7342
102
}
330
7342
100
AcDbDimAssoc
330
7334
 90
        2
 70
     0
 71
     0
  1
AcDbOsnapPointRef
 72
    13
331
7247
 73
     0
 91
        0
 40
0.0
 10
0.0
 20
0.0
 30
2.000000000000000E+50
 75
     0
  0
LAYOUT
  5
22
102
{ACAD_REACTORS
330
1A
102
}
330
1A
100
AcDbPlotSettings
  1

  2
KONICA MINOLTA 501 PCL
  4
A4
  6

 40
5.027082920074462
 41
5.027085781097412
 42
5.027069091796875
 43
5.027069091796875
 44
209.9733276367186
 45
296.9259948730469
 46
11.05012846486819
 47
0.0
 48
0.0
 49
0.0
140
0.0
141
0.0
142
1.0
143
11.43803446876921
 70
 11956
 72
     1
 73
     1
 74
     1
  7
SEISA.ctb
 75
     0
147
0.0874276085397744
 76
     0
 77
     2
 78
   300
148
-2789.447048118171
149
-2968.640466568264
100
AcDbLayout
  1
Model
 70
     1
 71
     0
 10
0.0
 20
0.0
 11
12.0
 21
9.0
 12
0.0
 22
0.0
 32
0.0
 14
0.0
 24
0.0
 34
0.0
 15
0.0
 25
0.0
 35
0.0
146
0.0
 13
0.0
 23
0.0
 33
0.0
 16
1.0
 26
0.0
 36
0.0
 17
0.0
 27
1.0
 37
0.0
 76
     0
330
1F
331
27A
1001
ACAD_PSEXT
1000
KONICA MINOLTA 501 PCL
1000
KONICA MINOLTA 501/421/361PCL
1000
IP_192.168.20.231_(1)
1000

1070
     0
  0
LAYOUT
  5
1E
102
{ACAD_REACTORS
330
1A
102
}
330
1A
100
AcDbPlotSettings
  1

  2
none_device
  4
Letter_(8.50_x_11.00_Inches)
  6

 40
6.349999904632567
 41
6.349999904632567
 42
6.350006103515625
 43
6.350006103515625
 44
215.8999938964844
 45
279.3999938964844
 46
0.0
 47
0.0
 48
0.0
 49
0.0
140
0.0
141
0.0
142
1.0
143
1.0
 70
 15024
 72
     1
 73
     1
 74
     5
  7
SEISA.ctb
 75
    16
147
1.0
 76
     0
 77
     2
 78
   300
148
0.0
149
0.0
100
AcDbLayout
  1
レイアウト1
 70
     1
 71
     1
 10
0.0
 20
0.0
 11
420.0
 21
297.0
 12
0.0
 22
0.0
 32
0.0
 14
1.000000000000000E+20
 24
1.000000000000000E+20
 34
1.000000000000000E+20
 15
-1.000000000000000E+20
 25
-1.000000000000000E+20
 35
-1.000000000000000E+20
146
0.0
 13
0.0
 23
0.0
 33
0.0
 16
1.0
 26
0.0
 36
0.0
 17
0.0
 27
1.0
 37
0.0
 76
     0
330
1B
  0
LAYOUT
  5
26
102
{ACAD_REACTORS
330
1A
102
}
330
1A
100
AcDbPlotSettings
  1

  2
none_device
  4
Letter_(8.50_x_11.00_Inches)
  6

 40
6.349999904632567
 41
6.349999904632567
 42
6.350006103515625
 43
6.350006103515625
 44
215.8999938964844
 45
279.3999938964844
 46
0.0
 47
0.0
 48
0.0
 49
0.0
140
0.0
141
0.0
142
1.0
143
1.0
 70
 15024
 72
     1
 73
     1
 74
     5
  7
SEISA.ctb
 75
    16
147
1.0
 76
     0
 77
     2
 78
   300
148
0.0
149
0.0
100
AcDbLayout
  1
レイアウト2
 70
     1
 71
     2
 10
0.0
 20
0.0
 11
12.0
 21
9.0
 12
0.0
 22
0.0
 32
0.0
 14
0.0
 24
0.0
 34
0.0
 15
0.0
 25
0.0
 35
0.0
146
0.0
 13
0.0
 23
0.0
 33
0.0
 16
1.0
 26
0.0
 36
0.0
 17
0.0
 27
1.0
 37
0.0
 76
     0
330
23
  0
MATERIAL
  5
27D
102
{ACAD_REACTORS
330
C4
102
}
330
C4
100
AcDbMaterial
  1
ByBlock
 73
     1
 78
     1
172
     1
176
     1
270
     1
274
     1
 94
       63
  0
MATERIAL
  5
27C
102
{ACAD_REACTORS
330
C4
102
}
330
C4
100
AcDbMaterial
  1
ByLayer
 73
     1
 78
     1
172
     1
176
     1
270
     1
274
     1
 94
       63
  0
MATERIAL
  5
27E
102
{ACAD_REACTORS
330
C4
102
}
330
C4
100
AcDbMaterial
  1
Global
 73
     1
 78
     1
172
     1
176
     1
270
     1
274
     1
 94
       63
  0
MLEADERSTYLE
  5
2D6
102
{ACAD_REACTORS
330
2D5
102
}
330
2D5
100
AcDbMLeaderStyle
170
     2
171
     1
172
     0
 90
        2
 40
0.0
 41
0.0
173
     1
 91
-1056964608
340
14
 92
       -2
290
     1
 42
2.0
291
     1
 43
0.36
  3
Standard
 44
4.0
300

342
11
174
     1
178
     6
175
     1
176
     0
 93
-1056964608
 45
4.0
292
     0
297
     0
 46
4.0
 94
-1056964608
 47
1.0
 49
1.0
140
1.0
293
     1
141
0.0
294
     1
177
     0
142
1.0
295
     0
296
     0
143
0.125
1001
ACAD_MLEADERVER
1070
     2
  0
MLINESTYLE
  5
18
102
{ACAD_REACTORS
330
17
102
}
330
17
100
AcDbMlineStyle
  2
STANDARD
 70
     0
  3

 62
   256
 51
90.0
 52
90.0
 71
     2
 49
0.5
 62
   256
  6
BYLAYER
 49
-0.5
 62
   256
  6
BYLAYER
  0
PLOTSETTINGS
  5
1C7E
102
{ACAD_REACTORS
330
19
102
}
330
19
100
AcDbPlotSettings
  1
SEISA基本
  2
none_device
  4
Letter_(8.50_x_11.00_Inches)
  6

 40
6.349999904632567
 41
6.349999904632567
 42
6.350006103515625
 43
6.350006103515625
 44
215.8999938964844
 45
279.3999938964844
 46
7.302498226506357
 47
0.0
 48
0.0
 49
0.0
140
0.0
141
0.0
142
1.0
143
1.574803221122935
 70
 11956
 72
     1
 73
     1
 74
     2
  7
SEISA.ctb
 75
     0
147
0.6349999711627054
 76
     0
 77
     2
 78
   300
148
0.0
149
0.0
1001
ACAD_PSEXT
1000
なし
1000
なし
1000
適切ではありません
1000
新しいプロッタ環境設定名を選択しない限り、レイアウトは印刷されません。
1070
     0
  0
ACDBPLACEHOLDER
  5
F
102
{ACAD_REACTORS
330
E
102
}
330
E
  0
SCALE
  5
72C0
102
{ACAD_REACTORS
330
2B3
102
}
330
2B3
100
AcDbScale
 70
     0
300
1:15
140
1.0
141
15.0
290
     0
  0
SCALE
  5
72C1
102
{ACAD_REACTORS
330
2B3
102
}
330
2B3
100
AcDbScale
 70
     0
300
1:6
140
1.0
141
6.0
290
     0
  0
SCALE
  5
72C2
102
{ACAD_REACTORS
330
2B3
102
}
330
2B3
100
AcDbScale
 70
     0
300
1:3
140
1.0
141
3.0
290
     0
  0
SCALE
  5
72C3
102
{ACAD_REACTORS
330
2B3
102
}
330
2B3
100
AcDbScale
 70
     0
300
1:2.5
140
1.0
141
2.5
290
     0
  0
SCALE
  5
72C4
102
{ACAD_REACTORS
330
2B3
102
}
330
2B3
100
AcDbScale
 70
     0
300
1:1.5
140
1.0
141
1.5
290
     0
  0
SCALE
  5
2B4
102
{ACAD_REACTORS
330
2B3
102
}
330
2B3
100
AcDbScale
 70
     0
300
1:1
140
1.0
141
1.0
290
     1
  0
SCALE
  5
2B5
102
{ACAD_REACTORS
330
2B3
102
}
330
2B3
100
AcDbScale
 70
     0
300
1:2
140
1.0
141
2.0
290
     0
  0
SCALE
  5
2B6
102
{ACAD_REACTORS
330
2B3
102
}
330
2B3
100
AcDbScale
 70
     0
300
1:4
140
1.0
141
4.0
290
     0
  0
SCALE
  5
2B7
102
{ACAD_REACTORS
330
2B3
102
}
330
2B3
100
AcDbScale
 70
     0
300
1:5
140
1.0
141
5.0
290
     0
  0
SCALE
  5
2B8
102
{ACAD_REACTORS
330
2B3
102
}
330
2B3
100
AcDbScale
 70
     0
300
1:8
140
1.0
141
8.0
290
     0
  0
SCALE
  5
2B9
102
{ACAD_REACTORS
330
2B3
102
}
330
2B3
100
AcDbScale
 70
     0
300
1:10
140
1.0
141
10.0
290
     0
  0
SCALE
  5
2BA
102
{ACAD_REACTORS
330
2B3
102
}
330
2B3
100
AcDbScale
 70
     0
300
1:16
140
1.0
141
16.0
290
     0
  0
SCALE
  5
2BB
102
{ACAD_REACTORS
330
2B3
102
}
330
2B3
100
AcDbScale
 70
     0
300
1:20
140
1.0
141
20.0
290
     0
  0
SCALE
  5
2BC
102
{ACAD_REACTORS
330
2B3
102
}
330
2B3
100
AcDbScale
 70
     0
300
1:30
140
1.0
141
30.0
290
     0
  0
SCALE
  5
2BD
102
{ACAD_REACTORS
330
2B3
102
}
330
2B3
100
AcDbScale
 70
     0
300
1:40
140
1.0
141
40.0
290
     0
  0
SCALE
  5
2BE
102
{ACAD_REACTORS
330
2B3
102
}
330
2B3
100
AcDbScale
 70
     0
300
1:50
140
1.0
141
50.0
290
     0
  0
SCALE
  5
2BF
102
{ACAD_REACTORS
330
2B3
102
}
330
2B3
100
AcDbScale
 70
     0
300
1:100
140
1.0
141
100.0
290
     0
  0
SCALE
  5
2C0
102
{ACAD_REACTORS
330
2B3
102
}
330
2B3
100
AcDbScale
 70
     0
300
2:1
140
2.0
141
1.0
290
     0
  0
SCALE
  5
2C1
102
{ACAD_REACTORS
330
2B3
102
}
330
2B3
100
AcDbScale
 70
     0
300
4:1
140
4.0
141
1.0
290
     0
  0
SCALE
  5
2C2
102
{ACAD_REACTORS
330
2B3
102
}
330
2B3
100
AcDbScale
 70
     0
300
8:1
140
8.0
141
1.0
290
     0
  0
SCALE
  5
2C3
102
{ACAD_REACTORS
330
2B3
102
}
330
2B3
100
AcDbScale
 70
     0
300
10:1
140
10.0
141
1.0
290
     0
  0
SCALE
  5
2C4
102
{ACAD_REACTORS
330
2B3
102
}
330
2B3
100
AcDbScale
 70
     0
300
100:1
140
100.0
141
1.0
290
     0
  0
SCALE
  5
2C5
102
{ACAD_REACTORS
330
2B3
102
}
330
2B3
100
AcDbScale
 70
     0
300
1/128" = 1'-0"
140
0.0078125
141
12.0
290
     0
  0
SCALE
  5
2C6
102
{ACAD_REACTORS
330
2B3
102
}
330
2B3
100
AcDbScale
 70
     0
300
1/64" = 1'-0"
140
0.015625
141
12.0
290
     0
  0
SCALE
  5
2C7
102
{ACAD_REACTORS
330
2B3
102
}
330
2B3
100
AcDbScale
 70
     0
300
1/32" = 1'-0"
140
0.03125
141
12.0
290
     0
  0
SCALE
  5
2C8
102
{ACAD_REACTORS
330
2B3
102
}
330
2B3
100
AcDbScale
 70
     0
300
1/16" = 1'-0"
140
0.0625
141
12.0
290
     0
  0
SCALE
  5
2C9
102
{ACAD_REACTORS
330
2B3
102
}
330
2B3
100
AcDbScale
 70
     0
300
3/32" = 1'-0"
140
0.09375
141
12.0
290
     0
  0
SCALE
  5
2CA
102
{ACAD_REACTORS
330
2B3
102
}
330
2B3
100
AcDbScale
 70
     0
300
1/8" = 1'-0"
140
0.125
141
12.0
290
     0
  0
SCALE
  5
2CB
102
{ACAD_REACTORS
330
2B3
102
}
330
2B3
100
AcDbScale
 70
     0
300
3/16" = 1'-0"
140
0.1875
141
12.0
290
     0
  0
SCALE
  5
2CC
102
{ACAD_REACTORS
330
2B3
102
}
330
2B3
100
AcDbScale
 70
     0
300
1/4" = 1'-0"
140
0.25
141
12.0
290
     0
  0
SCALE
  5
2CD
102
{ACAD_REACTORS
330
2B3
102
}
330
2B3
100
AcDbScale
 70
     0
300
3/8" = 1'-0"
140
0.375
141
12.0
290
     0
  0
SCALE
  5
2CE
102
{ACAD_REACTORS
330
2B3
102
}
330
2B3
100
AcDbScale
 70
     0
300
1/2" = 1'-0"
140
0.5
141
12.0
290
     0
  0
SCALE
  5
2CF
102
{ACAD_REACTORS
330
2B3
102
}
330
2B3
100
AcDbScale
 70
     0
300
3/4" = 1'-0"
140
0.75
141
12.0
290
     0
  0
SCALE
  5
2D0
102
{ACAD_REACTORS
330
2B3
102
}
330
2B3
100
AcDbScale
 70
     0
300
1" = 1'-0"
140
1.0
141
12.0
290
     0
  0
SCALE
  5
2D1
102
{ACAD_REACTORS
330
2B3
102
}
330
2B3
100
AcDbScale
 70
     0
300
1-1/2" = 1'-0"
140
1.5
141
12.0
290
     0
  0
SCALE
  5
2D2
102
{ACAD_REACTORS
330
2B3
102
}
330
2B3
100
AcDbScale
 70
     0
300
3" = 1'-0"
140
3.0
141
12.0
290
     0
  0
SCALE
  5
2D3
102
{ACAD_REACTORS
330
2B3
102
}
330
2B3
100
AcDbScale
 70
     0
300
6" = 1'-0"
140
6.0
141
12.0
290
     0
  0
SCALE
  5
2D4
102
{ACAD_REACTORS
330
2B3
102
}
330
2B3
100
AcDbScale
 70
     0
300
1'-0" = 1'-0"
140
12.0
141
12.0
290
     0
  0
TABLESTYLE
  5
122
102
{ACAD_XDICTIONARY
360
2F5
102
}
102
{ACAD_REACTORS
330
121
102
}
330
121
100
AcDbTableStyle
  3
Standard
 70
     0
 71
     0
 40
1.5
 41
1.5
280
     0
281
     0
  7
STANDARD
140
4.5
170
     2
 62
     0
 63
     7
283
     0
 90
      512
 91
        0
  1

274
    -2
284
     1
 64
     0
275
    -2
285
     1
 65
     0
276
    -2
286
     1
 66
     0
277
    -2
287
     1
 67
     0
278
    -2
288
     1
 68
     0
279
    -2
289
     1
 69
     0
  7
STANDARD
140
6.0
170
     5
 62
     0
 63
     7
283
     0
 90
      512
 91
        0
  1

274
    -2
284
     1
 64
     0
275
    -2
285
     1
 65
     0
276
    -2
286
     1
 66
     0
277
    -2
287
     1
 67
     0
278
    -2
288
     1
 68
     0
279
    -2
289
     1
 69
     0
  7
STANDARD
140
4.5
170
     5
 62
     0
 63
     7
283
     0
 90
      512
 91
        0
  1

274
    -2
284
     1
 64
     0
275
    -2
285
     1
 65
     0
276
    -2
286
     1
 66
     0
277
    -2
287
     1
 67
     0
278
    -2
288
     1
 68
     0
279
    -2
289
     1
 69
     0
  0
VISUALSTYLE
  5
285
102
{ACAD_REACTORS
330
27F
102
}
330
27F
100
AcDbVisualStyle
  2
2dWireframe
 70
     4
 71
     0
 72
     2
 73
     0
 90
        0
 40
-0.6
 41
-30.0
 62
     5
 63
     7
421
 16777215
 74
     1
 91
        4
 64
     7
 65
   257
 75
     1
175
     1
 42
1.0
 92
        0
 66
   257
 43
1.0
 76
     1
 77
     6
 78
     2
 67
     7
 79
     5
170
     0
171
     0
290
     0
174
     0
 93
        1
 44
0.0
173
     0
291
     0
 45
0.0
  0
VISUALSTYLE
  5
287
102
{ACAD_REACTORS
330
27F
102
}
330
27F
100
AcDbVisualStyle
  2
3D Hidden
 70
     6
 71
     1
 72
     2
 73
     2
 90
        0
 40
-0.6
 41
-30.0
 62
     5
 63
     7
421
 16777215
 74
     2
 91
        2
 64
     7
 65
   257
 75
     2
175
     1
 42
40.0
 92
        0
 66
   257
 43
1.0
 76
     1
 77
     6
 78
     2
 67
     7
 79
     3
170
     0
171
     0
290
     0
174
     0
 93
        1
 44
0.0
173
     0
291
     0
 45
0.0
  0
VISUALSTYLE
  5
286
102
{ACAD_REACTORS
330
27F
102
}
330
27F
100
AcDbVisualStyle
  2
3dWireframe
 70
     5
 71
     0
 72
     2
 73
     0
 90
        0
 40
-0.6
 41
-30.0
 62
     5
 63
     7
421
 16777215
 74
     1
 91
        4
 64
     7
 65
   257
 75
     1
175
     1
 42
1.0
 92
        0
 66
   257
 43
1.0
 76
     1
 77
     6
 78
     2
 67
     7
 79
     5
170
     0
171
     0
290
     0
174
     0
 93
        1
 44
0.0
173
     0
291
     0
 45
0.0
  0
VISUALSTYLE
  5
284
102
{ACAD_REACTORS
330
27F
102
}
330
27F
100
AcDbVisualStyle
  2
Basic
 70
     7
 71
     1
 72
     0
 73
     1
 90
        0
 40
-0.6
 41
-30.0
 62
     5
 63
     7
421
 16777215
 74
     0
 91
        4
 64
     7
 65
   257
 75
     1
175
     1
 42
1.0
 92
        8
 66
     7
 43
1.0
 76
     1
 77
     6
 78
     2
 67
     7
 79
     5
170
     0
171
     0
290
     0
174
     0
 93
        1
 44
0.0
173
     0
291
     1
 45
0.0
  0
VISUALSTYLE
  5
28B
102
{ACAD_REACTORS
330
27F
102
}
330
27F
100
AcDbVisualStyle
  2
Brighten
 70
    12
 71
     2
 72
     2
 73
     0
 90
        0
 40
-0.6
 41
-30.0
 62
     5
 63
     7
421
 16777215
 74
     1
 91
        4
 64
     7
 65
   257
 75
     1
175
     1
 42
1.0
 92
        8
 66
     7
 43
1.0
 76
     1
 77
     6
 78
     2
 67
     7
 79
     5
170
     0
171
     0
290
     0
174
     0
 93
        1
 44
50.0
173
     0
291
     1
 45
0.0
  0
VISUALSTYLE
  5
28F
102
{ACAD_REACTORS
330
27F
102
}
330
27F
100
AcDbVisualStyle
  2
ColorChange
 70
    16
 71
     2
 72
     2
 73
     3
 90
        0
 40
-0.6
 41
-30.0
 62
     5
 63
     8
421
  8421504
 74
     1
 91
        4
 64
     7
 65
   257
 75
     1
175
     1
 42
1.0
 92
        8
 66
     8
424
  8421504
 43
1.0
 76
     1
 77
     6
 78
     2
 67
     7
 79
     5
170
     0
171
     0
290
     0
174
     0
 93
        1
 44
0.0
173
     0
291
     1
 45
0.0
  0
VISUALSTYLE
  5
288
102
{ACAD_REACTORS
330
27F
102
}
330
27F
100
AcDbVisualStyle
  2
Conceptual
 70
     9
 71
     3
 72
     2
 73
     0
 90
        0
 40
-0.6
 41
-30.0
 62
     5
 63
     7
421
 16777215
 74
     2
 91
        2
 64
     7
 65
   257
 75
     1
175
     1
 42
40.0
 92
        8
 66
     7
 43
1.0
 76
     1
 77
     6
 78
     2
 67
     7
 79
     3
170
     0
171
     0
290
     0
174
     0
 93
        1
 44
0.0
173
     0
291
     0
 45
0.0
  0
VISUALSTYLE
  5
28A
102
{ACAD_REACTORS
330
27F
102
}
330
27F
100
AcDbVisualStyle
  2
Dim
 70
    11
 71
     2
 72
     2
 73
     0
 90
        0
 40
-0.6
 41
-30.0
 62
     5
 63
     7
421
 16777215
 74
     1
 91
        4
 64
     7
 65
   257
 75
     1
175
     1
 42
1.0
 92
        8
 66
     7
 43
1.0
 76
     1
 77
     6
 78
     2
 67
     7
 79
     5
170
     0
171
     0
290
     0
174
     0
 93
        1
 44
-50.0
173
     0
291
     1
 45
0.0
  0
VISUALSTYLE
  5
28E
102
{ACAD_REACTORS
330
27F
102
}
330
27F
100
AcDbVisualStyle
  2
Facepattern
 70
    15
 71
     2
 72
     2
 73
     0
 90
        0
 40
-0.6
 41
-30.0
 62
     5
 63
     7
421
 16777215
 74
     1
 91
        4
 64
     7
 65
   257
 75
     1
175
     1
 42
1.0
 92
        8
 66
     7
 43
1.0
 76
     1
 77
     6
 78
     2
 67
     7
 79
     5
170
     0
171
     0
290
     0
174
     0
 93
        1
 44
0.0
173
     0
291
     1
 45
0.0
  0
VISUALSTYLE
  5
280
102
{ACAD_REACTORS
330
27F
102
}
330
27F
100
AcDbVisualStyle
  2
Flat
 70
     0
 71
     2
 72
     1
 73
     1
 90
        2
 40
-0.6
 41
30.0
 62
     5
 63
     7
421
 16777215
 74
     0
 91
        4
 64
     7
 65
   257
 75
     1
175
     1
 42
1.0
 92
        8
 66
     7
 43
1.0
 76
     1
 77
     6
 78
     2
 67
     7
 79
     5
170
     0
171
     0
290
     0
174
     0
 93
       13
 44
0.0
173
     0
291
     1
 45
0.0
  0
VISUALSTYLE
  5
281
102
{ACAD_REACTORS
330
27F
102
}
330
27F
100
AcDbVisualStyle
  2
FlatWithEdges
 70
     1
 71
     2
 72
     1
 73
     1
 90
        2
 40
-0.6
 41
30.0
 62
     5
 63
     7
421
 16777215
 74
     1
 91
        4
 64
     7
 65
   257
 75
     1
175
     1
 42
1.0
 92
        0
 66
   257
 43
1.0
 76
     1
 77
     6
 78
     2
 67
     7
 79
     5
170
     0
171
     0
290
     0
174
     0
 93
       13
 44
0.0
173
     0
291
     1
 45
0.0
  0
VISUALSTYLE
  5
282
102
{ACAD_REACTORS
330
27F
102
}
330
27F
100
AcDbVisualStyle
  2
Gouraud
 70
     2
 71
     2
 72
     2
 73
     1
 90
        2
 40
-0.6
 41
30.0
 62
     5
 63
     7
421
 16777215
 74
     0
 91
        4
 64
     7
 65
   257
 75
     1
175
     1
 42
1.0
 92
        0
 66
     7
 43
1.0
 76
     1
 77
     6
 78
     2
 67
     7
 79
     5
170
     0
171
     0
290
     0
174
     0
 93
       13
 44
0.0
173
     0
291
     1
 45
0.0
  0
VISUALSTYLE
  5
283
102
{ACAD_REACTORS
330
27F
102
}
330
27F
100
AcDbVisualStyle
  2
GouraudWithEdges
 70
     3
 71
     2
 72
     2
 73
     1
 90
        2
 40
-0.6
 41
30.0
 62
     5
 63
     7
421
 16777215
 74
     1
 91
        4
 64
     7
 65
   257
 75
     1
175
     1
 42
1.0
 92
        0
 66
   257
 43
1.0
 76
     1
 77
     6
 78
     2
 67
     7
 79
     5
170
     0
171
     0
290
     0
174
     0
 93
       13
 44
0.0
173
     0
291
     1
 45
0.0
  0
VISUALSTYLE
  5
28D
102
{ACAD_REACTORS
330
27F
102
}
330
27F
100
AcDbVisualStyle
  2
Linepattern
 70
    14
 71
     2
 72
     2
 73
     0
 90
        0
 40
-0.6
 41
-30.0
 62
     5
 63
     7
421
 16777215
 74
     1
 91
        4
 64
     7
 65
   257
 75
     7
175
     7
 42
1.0
 92
        8
 66
     7
 43
1.0
 76
     1
 77
     6
 78
     2
 67
     7
 79
     5
170
     0
171
     0
290
     0
174
     0
 93
        1
 44
0.0
173
     0
291
     1
 45
0.0
  0
VISUALSTYLE
  5
289
102
{ACAD_REACTORS
330
27F
102
}
330
27F
100
AcDbVisualStyle
  2
Realistic
 70
     8
 71
     2
 72
     2
 73
     0
 90
        0
 40
-0.6
 41
-30.0
 62
     5
 63
     7
421
 16777215
 74
     1
 91
        0
 64
     7
 65
   257
 75
     1
175
     1
 42
1.0
 92
        8
 66
     8
424
  7895160
 43
1.0
 76
     1
 77
     6
 78
     2
 67
     7
 79
     5
170
     0
171
     0
290
     0
174
     0
 93
       13
 44
0.0
173
     0
291
     0
 45
0.0
  0
VISUALSTYLE
  5
28C
102
{ACAD_REACTORS
330
27F
102
}
330
27F
100
AcDbVisualStyle
  2
Thicken
 70
    13
 71
     2
 72
     2
 73
     0
 90
        0
 40
-0.6
 41
-30.0
 62
     5
 63
     7
421
 16777215
 74
     1
 91
        4
 64
     7
 65
   257
 75
     1
175
     1
 42
1.0
 92
       12
 66
     7
 43
1.0
 76
     1
 77
     6
 78
     2
 67
     7
 79
     5
170
     0
171
     0
290
     0
174
     0
 93
        1
 44
0.0
173
     0
291
     1
 45
0.0
  0
DICTIONARYVAR
  5
2FA
102
{ACAD_REACTORS
330
34
102
}
330
34
100
DictionaryVariables
280
     0
  1
1:20
  0
DICTIONARYVAR
  5
2F8
102
{ACAD_REACTORS
330
34
102
}
330
34
100
DictionaryVariables
280
     0
  1
STANDARD
  0
DICTIONARYVAR
  5
140
102
{ACAD_REACTORS
330
34
102
}
330
34
100
DictionaryVariables
280
     0
  1
STANDARD
  0
DICTIONARYVAR
  5
AC
102
{ACAD_REACTORS
330
34
102
}
330
34
100
DictionaryVariables
280
     0
  1
1
  0
DICTIONARYVAR
  5
35
102
{ACAD_REACTORS
330
34
102
}
330
34
100
DictionaryVariables
280
     0
  1
1
  0
DICTIONARYVAR
  5
55D1
102
{ACAD_REACTORS
330
34
102
}
330
34
100
DictionaryVariables
280
     0
  1
1
  0
DICTIONARYVAR
  5
55D2
102
{ACAD_REACTORS
330
34
102
}
330
34
100
DictionaryVariables
280
     0
  1
15
  0
DICTIONARYVAR
  5
2FB
102
{ACAD_REACTORS
330
34
102
}
330
34
100
DictionaryVariables
280
     0
  1
0
  0
DICTIONARYVAR
  5
2F9
102
{ACAD_REACTORS
330
34
102
}
330
34
100
DictionaryVariables
280
     0
  1
0
  0
DICTIONARY
  5
161B
102
{ACAD_REACTORS
330
49
102
}
330
49
100
AcDbDictionary
281
     1
  0
DICTIONARY
  5
4A
102
{ACAD_REACTORS
330
49
102
}
330
49
100
AcDbDictionary
281
     1
  0
XRECORD
  5
12B
102
{ACAD_REACTORS
330
49
102
}
330
49
100
AcDbXrecord
280
     1
 90
-1023410169
  0
DICTIONARY
  5
2F5
330
122
100
AcDbDictionary
280
     1
281
     1
  3
ACAD_ROUNDTRIP_2008_TABLESTYLE_CELLSTYLEMAP
360
7633
  0
CELLSTYLEMAP
  5
7633
102
{ACAD_REACTORS
330
2F5
102
}
330
2F5
100
AcDbCellStyleMap
 90
        3
300
CELLSTYLE
  1
TABLEFORMAT_BEGIN
 90
        5
170
     1
 91
        0
 92
    32768
 62
   257
 93
        1
300
CONTENTFORMAT
  1
CONTENTFORMAT_BEGIN
 90
        0
 91
        0
 92
      512
 93
        0
300

 40
0.0
140
1.0
 94
        5
 62
     0
340
11
144
6.0
309
CONTENTFORMAT_END
171
     1
301
MARGIN
  1
CELLMARGIN_BEGIN
 40
1.5
 40
1.5
 40
1.5
 40
1.5
 40
0.18
 40
0.18
309
CELLMARGIN_END
 94
        6
 95
        1
302
GRIDFORMAT
  1
GRIDFORMAT_BEGIN
 90
        0
 91
        1
 62
     0
 92
       -2
340
0
 93
        0
 40
0.045
309
GRIDFORMAT_END
 95
        2
302
GRIDFORMAT
  1
GRIDFORMAT_BEGIN
 90
        0
 91
        1
 62
     0
 92
       -2
340
0
 93
        0
 40
0.045
309
GRIDFORMAT_END
 95
        4
302
GRIDFORMAT
  1
GRIDFORMAT_BEGIN
 90
        0
 91
        1
 62
     0
 92
       -2
340
0
 93
        0
 40
0.045
309
GRIDFORMAT_END
 95
        8
302
GRIDFORMAT
  1
GRIDFORMAT_BEGIN
 90
        0
 91
        1
 62
     0
 92
       -2
340
0
 93
        0
 40
0.045
309
GRIDFORMAT_END
 95
       16
302
GRIDFORMAT
  1
GRIDFORMAT_BEGIN
 90
        0
 91
        1
 62
     0
 92
       -2
340
0
 93
        0
 40
0.045
309
GRIDFORMAT_END
 95
       32
302
GRIDFORMAT
  1
GRIDFORMAT_BEGIN
 90
        0
 91
        1
 62
     0
 92
       -2
340
0
 93
        0
 40
0.045
309
GRIDFORMAT_END
309
TABLEFORMAT_END
  1
CELLSTYLE_BEGIN
 90
        1
 91
        1
300
_TITLE
309
CELLSTYLE_END
300
CELLSTYLE
  1
TABLEFORMAT_BEGIN
 90
        5
170
     1
 91
        0
 92
        0
 62
   257
 93
        1
300
CONTENTFORMAT
  1
CONTENTFORMAT_BEGIN
 90
        0
 91
        0
 92
      512
 93
        0
300

 40
0.0
140
1.0
 94
        5
 62
     0
340
11
144
4.5
309
CONTENTFORMAT_END
171
     1
301
MARGIN
  1
CELLMARGIN_BEGIN
 40
1.5
 40
1.5
 40
1.5
 40
1.5
 40
0.18
 40
0.18
309
CELLMARGIN_END
 94
        6
 95
        1
302
GRIDFORMAT
  1
GRIDFORMAT_BEGIN
 90
        0
 91
        1
 62
     0
 92
       -2
340
0
 93
        0
 40
0.045
309
GRIDFORMAT_END
 95
        2
302
GRIDFORMAT
  1
GRIDFORMAT_BEGIN
 90
        0
 91
        1
 62
     0
 92
       -2
340
0
 93
        0
 40
0.045
309
GRIDFORMAT_END
 95
        4
302
GRIDFORMAT
  1
GRIDFORMAT_BEGIN
 90
        0
 91
        1
 62
     0
 92
       -2
340
0
 93
        0
 40
0.045
309
GRIDFORMAT_END
 95
        8
302
GRIDFORMAT
  1
GRIDFORMAT_BEGIN
 90
        0
 91
        1
 62
     0
 92
       -2
340
0
 93
        0
 40
0.045
309
GRIDFORMAT_END
 95
       16
302
GRIDFORMAT
  1
GRIDFORMAT_BEGIN
 90
        0
 91
        1
 62
     0
 92
       -2
340
0
 93
        0
 40
0.045
309
GRIDFORMAT_END
 95
       32
302
GRIDFORMAT
  1
GRIDFORMAT_BEGIN
 90
        0
 91
        1
 62
     0
 92
       -2
340
0
 93
        0
 40
0.045
309
GRIDFORMAT_END
309
TABLEFORMAT_END
  1
CELLSTYLE_BEGIN
 90
        2
 91
        1
300
_HEADER
309
CELLSTYLE_END
300
CELLSTYLE
  1
TABLEFORMAT_BEGIN
 90
        5
170
     1
 91
        0
 92
        0
 62
   257
 93
        1
300
CONTENTFORMAT
  1
CONTENTFORMAT_BEGIN
 90
        0
 91
        0
 92
      512
 93
        0
300

 40
0.0
140
1.0
 94
        2
 62
     0
340
11
144
4.5
309
CONTENTFORMAT_END
171
     1
301
MARGIN
  1
CELLMARGIN_BEGIN
 40
1.5
 40
1.5
 40
1.5
 40
1.5
 40
0.18
 40
0.18
309
CELLMARGIN_END
 94
        6
 95
        1
302
GRIDFORMAT
  1
GRIDFORMAT_BEGIN
 90
        0
 91
        1
 62
     0
 92
       -2
340
0
 93
        0
 40
0.045
309
GRIDFORMAT_END
 95
        2
302
GRIDFORMAT
  1
GRIDFORMAT_BEGIN
 90
        0
 91
        1
 62
     0
 92
       -2
340
0
 93
        0
 40
0.045
309
GRIDFORMAT_END
 95
        4
302
GRIDFORMAT
  1
GRIDFORMAT_BEGIN
 90
        0
 91
        1
 62
     0
 92
       -2
340
0
 93
        0
 40
0.045
309
GRIDFORMAT_END
 95
        8
302
GRIDFORMAT
  1
GRIDFORMAT_BEGIN
 90
        0
 91
        1
 62
     0
 92
       -2
340
0
 93
        0
 40
0.045
309
GRIDFORMAT_END
 95
       16
302
GRIDFORMAT
  1
GRIDFORMAT_BEGIN
 90
        0
 91
        1
 62
     0
 92
       -2
340
0
 93
        0
 40
0.045
309
GRIDFORMAT_END
 95
       32
302
GRIDFORMAT
  1
GRIDFORMAT_BEGIN
 90
        0
 91
        1
 62
     0
 92
       -2
340
0
 93
        0
 40
0.045
309
GRIDFORMAT_END
309
TABLEFORMAT_END
  1
CELLSTYLE_BEGIN
 90
        3
 91
        2
300
_DATA
309
CELLSTYLE_END
  0
ENDSEC
  0
EOF
