  0
SECTION
  2
HEADER
  9
$ACADVER
  1
AC1021
  9
$ACADMAINTVER
 70
    26
  9
$DWGCODEPAGE
  3
ANSI_932
  9
$LASTSAVEDBY
  1
Htm_Terada
  9
$CUSTOMPROPERTYTAG
  1
AmdtFileType
  9
$CUSTOMPROPERTY
  1
84
  9
$INSBASE
 10
0.0
 20
0.0
 30
0.0
  9
$EXTMIN
 10
1869.062824891496
 20
2103.100451711278
 30
-0.0015258207003583
  9
$EXTMAX
 10
4558.309952035684
 20
3828.379684373307
 30
0.0000000349246037
  9
$LIMMIN
 10
0.0000028715078315
 20
0.0000055407309674
  9
$LIMMAX
 10
6300.000002871508
 20
4455.000005540731
  9
$ORTHOMODE
 70
     0
  9
$REGENMODE
 70
     1
  9
$FILLMODE
 70
     1
  9
$QTEXTMODE
 70
     0
  9
$MIRRTEXT
 70
     1
  9
$LTSCALE
 40
15.0
  9
$ATTMODE
 70
     1
  9
$TEXTSIZE
 40
25.0
  9
$TRACEWID
 40
1.0
  9
$TEXTSTYLE
  7
SEISA
  9
$CLAYER
  8
AM_0 外形線1
  9
$CELTYPE
  6
ByLayer
  9
$CECOLOR
 62
   256
  9
$CELTSCALE
 40
1.0
  9
$DISPSILH
 70
     0
  9
$DIMSCALE
 40
15.0
  9
$DIMASZ
 40
2.5
  9
$DIMEXO
 40
0.625
  9
$DIMDLI
 40
10.0
  9
$DIMRND
 40
0.0
  9
$DIMDLE
 40
0.0
  9
$DIMEXE
 40
0.625
  9
$DIMTP
 40
0.1
  9
$DIMTM
 40
0.1
  9
$DIMTXT
 40
3.5
  9
$DIMCEN
 40
0.0
  9
$DIMTSZ
 40
0.0
  9
$DIMTOL
 70
     0
  9
$DIMLIM
 70
     0
  9
$DIMTIH
 70
     0
  9
$DIMTOH
 70
     0
  9
$DIMSE1
 70
     0
  9
$DIMSE2
 70
     0
  9
$DIMTAD
 70
     3
  9
$DIMZIN
 70
     8
  9
$DIMBLK
  1
Open30
  9
$DIMASO
 70
     1
  9
$DIMSHO
 70
     1
  9
$DIMPOST
  1

  9
$DIMAPOST
  1
"
  9
$DIMALT
 70
     0
  9
$DIMALTD
 70
     2
  9
$DIMALTF
 40
0.0393701
  9
$DIMLFAC
 40
1.0
  9
$DIMTOFL
 70
     1
  9
$DIMTVP
 40
0.0
  9
$DIMTIX
 70
     0
  9
$DIMSOXD
 70
     0
  9
$DIMSAH
 70
     0
  9
$DIMBLK1
  1

  9
$DIMBLK2
  1

  9
$DIMSTYLE
  2
SEISA
  9
$DIMCLRD
 70
     3
  9
$DIMCLRE
 70
     3
  9
$DIMCLRT
 70
     3
  9
$DIMTFAC
 40
0.71
  9
$DIMGAP
 40
1.5
  9
$DIMJUST
 70
     0
  9
$DIMSD1
 70
     0
  9
$DIMSD2
 70
     0
  9
$DIMTOLJ
 70
     0
  9
$DIMTZIN
 70
     0
  9
$DIMALTZ
 70
     0
  9
$DIMALTTZ
 70
     8
  9
$DIMUPT
 70
     0
  9
$DIMDEC
 70
     2
  9
$DIMTDEC
 70
     2
  9
$DIMALTU
 70
     2
  9
$DIMALTTD
 70
     2
  9
$DIMTXSTY
  7
SEISA
  9
$DIMAUNIT
 70
     0
  9
$DIMADEC
 70
     0
  9
$DIMALTRND
 40
0.0
  9
$DIMAZIN
 70
     2
  9
$DIMDSEP
 70
    46
  9
$DIMATFIT
 70
     3
  9
$DIMFRAC
 70
     0
  9
$DIMLDRBLK
  1
Open30
  9
$DIMLUNIT
 70
     2
  9
$DIMLWD
 70
    -1
  9
$DIMLWE
 70
    -1
  9
$DIMTMOVE
 70
     0
  9
$DIMFXL
 40
1.0
  9
$DIMFXLON
 70
     0
  9
$DIMJOGANG
 40
0.7853981633974483
  9
$DIMTFILL
 70
     0
  9
$DIMTFILLCLR
 70
     0
  9
$DIMARCSYM
 70
     1
  9
$DIMLTYPE
  6

  9
$DIMLTEX1
  6

  9
$DIMLTEX2
  6

  9
$LUNITS
 70
     2
  9
$LUPREC
 70
     2
  9
$SKETCHINC
 40
1.0
  9
$FILLETRAD
 40
3.0
  9
$AUNITS
 70
     0
  9
$AUPREC
 70
     0
  9
$MENU
  1
.
  9
$ELEVATION
 40
0.0
  9
$PELEVATION
 40
0.0
  9
$THICKNESS
 40
0.0
  9
$LIMCHECK
 70
     0
  9
$CHAMFERA
 40
14.99999999999909
  9
$CHAMFERB
 40
15.0
  9
$CHAMFERC
 40
14.99999999999909
  9
$CHAMFERD
 40
0.7853981633974029
  9
$SKPOLY
 70
     0
  9
$TDCREATE
 40
2454940.543073542
  9
$TDUCREATE
 40
2454940.168073542
  9
$TDUPDATE
 40
2456479.695621018
  9
$TDUUPDATE
 40
2456479.320621018
  9
$TDINDWG
 40
0.2638071644
  9
$TDUSRTIMER
 40
0.2638064352
  9
$USRTIMER
 70
     1
  9
$ANGBASE
 50
0.0
  9
$ANGDIR
 70
     0
  9
$PDMODE
 70
     0
  9
$PDSIZE
 40
0.0
  9
$PLINEWID
 40
0.0
  9
$SPLFRAME
 70
     0
  9
$SPLINETYPE
 70
     6
  9
$SPLINESEGS
 70
     8
  9
$HANDSEED
  5
7932
  9
$SURFTAB1
 70
     6
  9
$SURFTAB2
 70
     6
  9
$SURFTYPE
 70
     6
  9
$SURFU
 70
     6
  9
$SURFV
 70
     6
  9
$UCSBASE
  2

  9
$UCSNAME
  2

  9
$UCSORG
 10
0.0
 20
0.0
 30
0.0
  9
$UCSXDIR
 10
1.0
 20
0.0
 30
0.0
  9
$UCSYDIR
 10
0.0
 20
1.0
 30
0.0
  9
$UCSORTHOREF
  2

  9
$UCSORTHOVIEW
 70
     0
  9
$UCSORGTOP
 10
0.0
 20
0.0
 30
0.0
  9
$UCSORGBOTTOM
 10
0.0
 20
0.0
 30
0.0
  9
$UCSORGLEFT
 10
0.0
 20
0.0
 30
0.0
  9
$UCSORGRIGHT
 10
0.0
 20
0.0
 30
0.0
  9
$UCSORGFRONT
 10
0.0
 20
0.0
 30
0.0
  9
$UCSORGBACK
 10
0.0
 20
0.0
 30
0.0
  9
$PUCSBASE
  2

  9
$PUCSNAME
  2

  9
$PUCSORG
 10
0.0
 20
0.0
 30
0.0
  9
$PUCSXDIR
 10
1.0
 20
0.0
 30
0.0
  9
$PUCSYDIR
 10
0.0
 20
1.0
 30
0.0
  9
$PUCSORTHOREF
  2

  9
$PUCSORTHOVIEW
 70
     0
  9
$PUCSORGTOP
 10
0.0
 20
0.0
 30
0.0
  9
$PUCSORGBOTTOM
 10
0.0
 20
0.0
 30
0.0
  9
$PUCSORGLEFT
 10
0.0
 20
0.0
 30
0.0
  9
$PUCSORGRIGHT
 10
0.0
 20
0.0
 30
0.0
  9
$PUCSORGFRONT
 10
0.0
 20
0.0
 30
0.0
  9
$PUCSORGBACK
 10
0.0
 20
0.0
 30
0.0
  9
$USERI1
 70
     0
  9
$USERI2
 70
     0
  9
$USERI3
 70
     0
  9
$USERI4
 70
     0
  9
$USERI5
 70
     0
  9
$USERR1
 40
0.0
  9
$USERR2
 40
0.0
  9
$USERR3
 40
0.0
  9
$USERR4
 40
0.0
  9
$USERR5
 40
0.0
  9
$WORLDVIEW
 70
     1
  9
$SHADEDGE
 70
     3
  9
$SHADEDIF
 70
    70
  9
$TILEMODE
 70
     1
  9
$MAXACTVP
 70
    64
  9
$PINSBASE
 10
0.0
 20
0.0
 30
0.0
  9
$PLIMCHECK
 70
     0
  9
$PEXTMIN
 10
1.000000000000000E+20
 20
1.000000000000000E+20
 30
1.000000000000000E+20
  9
$PEXTMAX
 10
-1.000000000000000E+20
 20
-1.000000000000000E+20
 30
-1.000000000000000E+20
  9
$PLIMMIN
 10
0.0
 20
0.0
  9
$PLIMMAX
 10
420.0
 20
297.0
  9
$UNITMODE
 70
     0
  9
$VISRETAIN
 70
     1
  9
$PLINEGEN
 70
     0
  9
$PSLTSCALE
 70
     1
  9
$TREEDEPTH
 70
  3020
  9
$CMLSTYLE
  2
Standard
  9
$CMLJUST
 70
     0
  9
$CMLSCALE
 40
20.0
  9
$PROXYGRAPHICS
 70
     1
  9
$MEASUREMENT
 70
     1
  9
$CELWEIGHT
370
    -1
  9
$ENDCAPS
280
     0
  9
$JOINSTYLE
280
     0
  9
$LWDISPLAY
290
     0
  9
$INSUNITS
 70
     4
  9
$HYPERLINKBASE
  1

  9
$STYLESHEET
  1
SEISA.CTB
  9
$XEDIT
290
     1
  9
$CEPSNTYPE
380
     0
  9
$PSTYLEMODE
290
     1
  9
$FINGERPRINTGUID
  2
{C2B9D409-FEB2-46BE-A6D9-1422763DF95E}
  9
$VERSIONGUID
  2
{2090D207-D45A-41DB-8AA3-80A8010CF0D8}
  9
$EXTNAMES
290
     1
  9
$PSVPSCALE
 40
0.0
  9
$OLESTARTUP
290
     0
  9
$SORTENTS
280
   127
  9
$INDEXCTL
280
     0
  9
$HIDETEXT
280
     0
  9
$XCLIPFRAME
290
     0
  9
$HALOGAP
280
     0
  9
$OBSCOLOR
 70
   257
  9
$OBSLTYPE
280
     0
  9
$INTERSECTIONDISPLAY
280
     0
  9
$INTERSECTIONCOLOR
 70
   257
  9
$DIMASSOC
280
     2
  9
$PROJECTNAME
  1

  9
$CAMERADISPLAY
290
     0
  9
$LENSLENGTH
 40
50.0
  9
$CAMERAHEIGHT
 40
0.0
  9
$STEPSPERSEC
 40
2.0
  9
$STEPSIZE
 40
6.0
  9
$3DDWFPREC
 40
2.0
  9
$PSOLWIDTH
 40
0.25
  9
$PSOLHEIGHT
 40
4.0
  9
$LOFTANG1
 40
1.570796326794896
  9
$LOFTANG2
 40
1.570796326794896
  9
$LOFTMAG1
 40
0.0
  9
$LOFTMAG2
 40
0.0
  9
$LOFTPARAM
 70
     7
  9
$LOFTNORMALS
280
     1
  9
$LATITUDE
 40
37.795
  9
$LONGITUDE
 40
-122.394
  9
$NORTHDIRECTION
 40
0.0
  9
$TIMEZONE
 70
 -8000
  9
$LIGHTGLYPHDISPLAY
280
     1
  9
$TILEMODELIGHTSYNCH
280
     1
  9
$CMATERIAL
347
27C
  9
$SOLIDHIST
280
     1
  9
$SHOWHIST
280
     1
  9
$DWFFRAME
280
     2
  9
$DGNFRAME
280
     0
  9
$REALWORLDSCALE
290
     1
  9
$INTERFERECOLOR
 62
     1
  9
$INTERFEREOBJVS
345
289
  9
$INTERFEREVPVS
346
286
  9
$CSHADOW
280
     0
  9
$SHADOWPLANELOCATION
 40
0.0
  0
ENDSEC
  0
SECTION
  2
CLASSES
  0
CLASS
  1
ACDBDICTIONARYWDFLT
  2
AcDbDictionaryWithDefault
  3
ObjectDBX Classes
 90
        0
 91
        1
280
     0
281
     0
  0
CLASS
  1
AMGSETTINGSOBJ
  2
AmgSettingsObj
  3
"AcadM|Product Description: AutoCAD Mechanical|Company: Autodesk, Inc."
 90
     1024
 91
        2
280
     0
281
     0
  0
CLASS
  1
ACME_DOCUMENT
  2
AcMeDbDoc
  3
AcMeServices
 90
     1024
 91
        1
280
     0
281
     0
  0
CLASS
  1
ACMESCOPE
  2
AcMeScope
  3
AcMeServices
 90
     1024
 91
        1
280
     0
281
     0
  0
CLASS
  1
ACMECOMMANDHISTORY
  2
AcMeCommandHistory
  3
AcMeServices
 90
     1024
 91
        1
280
     0
281
     0
  0
CLASS
  1
DICTIONARYVAR
  2
AcDbDictionaryVar
  3
ObjectDBX Classes
 90
        0
 91
        9
280
     0
281
     0
  0
CLASS
  1
ACIMSYSVARMAN
  2
AcImSysVarManager
  3
AcMeServices
 90
     1024
 91
        5
280
     0
281
     0
  0
CLASS
  1
ACIMREALSYSVAR
  2
AcImRealSysVar
  3
AcMeServices
 90
     1024
 91
        1
280
     0
281
     0
  0
CLASS
  1
ACIMINTSYSVAR
  2
AcImIntSysVar
  3
AcMeServices
 90
     1024
 91
       27
280
     0
281
     0
  0
CLASS
  1
ACMEDRAWINGMAN
  2
AcMeDrawingMan
  3
AcMeServices
 90
     1024
 91
        1
280
     0
281
     0
  0
CLASS
  1
ACMEVIEW
  2
AcMeView
  3
AcMeServices
 90
     1024
 91
        1
280
     0
281
     0
  0
CLASS
  1
ACDBENTITYCACHE
  2
AcMeEntityCache
  3
AcMeServices
 90
     1024
 91
        1
280
     0
281
     0
  0
CLASS
  1
GSMANAGER
  2
AcMeGSManager
  3
AcMeServices
 90
     1024
 91
        1
280
     0
281
     0
  0
CLASS
  1
AMDTINTERNALREACTOR
  2
AmdtInternalReactor
  3
AcMeServices
 90
     1024
 91
        2
280
     0
281
     0
  0
CLASS
  1
ACMESTATEMGR
  2
AcMeStateMgr
  3
AcMeServices
 90
     1024
 91
        1
280
     0
281
     0
  0
CLASS
  1
ACGREFMASTER
  2
AcGrefMaster
  3
AcAttribServices
 90
     1024
 91
        1
280
     0
281
     0
  0
CLASS
  1
ACME_DATABASE
  2
AcMeDbDatabase
  3
AcMeServices
 90
     1024
 91
        1
280
     0
281
     0
  0
CLASS
  1
ACRFINSADJUSTERMGR
  2
AcRfInsAdjusterMgr
  3
AcMeServices
 90
     1024
 91
        1
280
     0
281
     0
  0
CLASS
  1
ACGREFACADMASTER
  2
AcGrefacadMaster
  3
AcGrefServices
 90
     1024
 91
        1
280
     0
281
     0
  0
CLASS
  1
AMIMASTER
  2
AmiMaster
  3
AmiServices
 90
     1024
 91
        1
280
     0
281
     0
  0
CLASS
  1
ACIMSTRSYSVAR
  2
AcImStrSysVar
  3
AcMeServices
 90
     1024
 91
        5
280
     0
281
     0
  0
CLASS
  1
ACMSTANDARDJIS
  2
AcmStandardJIS
  3
"Amdt_StdImp|Product Description: AutoCAD Mechanical|Company: Autodesk, Inc."
 90
     1024
 91
        0
280
     0
281
     0
  0
CLASS
  1
AMGOBJPROPCFG
  2
AmgObjPropCfg
  3
"AmgLay|Product Description: AutoCAD Mechanical|Company: Autodesk, Inc."
 90
     1025
 91
        1
280
     0
281
     0
  0
CLASS
  1
ACMSURFSTANDARDJIS
  2
AcmSurfTextStdJIS
  3
"Amdt_StdImp|Product Description: AutoCAD Mechanical|Company: Autodesk, Inc."
 90
     1024
 91
        0
280
     0
281
     0
  0
CLASS
  1
ACMFCFSTANDARDJIS
  2
AcmFCFStdJIS
  3
"Amdt_StdImp|Product Description: AutoCAD Mechanical|Company: Autodesk, Inc."
 90
     1024
 91
        0
280
     0
281
     0
  0
CLASS
  1
ACMWELDSTANDARDJIS
  2
AcmWeldingStdJIS
  3
"Amdt_StdImp|Product Description: AutoCAD Mechanical|Company: Autodesk, Inc."
 90
     1024
 91
        0
280
     0
281
     0
  0
CLASS
  1
ACMIDSTANDARDJIS
  2
AcmIdStdJIS
  3
"Amdt_StdImp|Product Description: AutoCAD Mechanical|Company: Autodesk, Inc."
 90
     1024
 91
        0
280
     0
281
     0
  0
CLASS
  1
ACMDATUMSTANDARDJIS
  2
AcmDatumStdJIS
  3
"Amdt_StdImp|Product Description: AutoCAD Mechanical|Company: Autodesk, Inc."
 90
     1024
 91
        0
280
     0
281
     0
  0
CLASS
  1
ACMBOMSTANDARDJIS
  2
AcmBOMStdJIS
  3
"Amdt_StdImp|Product Description: AutoCAD Mechanical|Company: Autodesk, Inc."
 90
     1024
 91
        0
280
     0
281
     0
  0
CLASS
  1
ACMDETAILSTANDARDJIS
  2
AmdtDetailSymStdJIS
  3
"Amdt_StdImp|Product Description: AutoCAD Mechanical|Company: Autodesk, Inc."
 90
     1024
 91
        0
280
     0
281
     0
  0
CLASS
  1
ACMSECTIONSTANDARDJIS
  2
AmdtSectionSymStdJIS
  3
"Amdt_StdImp|Product Description: AutoCAD Mechanical|Company: Autodesk, Inc."
 90
     1024
 91
        0
280
     0
281
     0
  0
CLASS
  1
ACMCENTERLINESTANDARDJIS
  2
AmdtCenterLineStdJIS
  3
"Amdt_StdImp|Product Description: AutoCAD Mechanical|Company: Autodesk, Inc."
 90
     1024
 91
        0
280
     0
281
     0
  0
CLASS
  1
ACMTHREADLINESTANDARDJIS
  2
AmdtThreadLineStdJIS
  3
"Amdt_StdImp|Product Description: AutoCAD Mechanical|Company: Autodesk, Inc."
 90
     1024
 91
        0
280
     0
281
     0
  0
CLASS
  1
ACAMGLAYSTD
  2
AcAmgLayStd
  3
"AmgLay|Product Description: AutoCAD Mechanical|Company: Autodesk, Inc."
 90
     1024
 91
        1
280
     0
281
     0
  0
CLASS
  1
ACAMGDIMSTD
  2
AcAmgDimStd
  3
"AmgDim|Product Description: AutoCAD Mechanical|Company: Autodesk, Inc."
 90
     1024
 91
        1
280
     0
281
     0
  0
CLASS
  1
ACAMGTITLESTD
  2
AcAmgTitleStd
  3
"AmgTitle|Product Description: AutoCAD Mechanical|Company: Autodesk, Inc."
 90
     4095
 91
        1
280
     0
281
     0
  0
CLASS
  1
ACMDATADICTIONARY
  2
AcmDataDictionary
  3
"AcmSymBB|Product Description: AutoCAD Mechanical|Company: Autodesk, Inc."
 90
     1024
 91
        1
280
     0
281
     0
  0
CLASS
  1
ACMDATAENTRYBLOCK
  2
AcmDataEntryBlock
  3
AcmSymBB|Product Description: AutoCAD Mechanical|Company: Autodesk, Inc.
 90
     1024
 91
        0
280
     0
281
     0
  0
CLASS
  1
LAYER_INDEX
  2
AcDbLayerIndex
  3
ObjectDBX Classes
 90
        0
 91
        0
280
     0
281
     0
  0
CLASS
  1
IDBUFFER
  2
AcDbIdBuffer
  3
ObjectDBX Classes
 90
        0
 91
        0
280
     0
281
     0
  0
CLASS
  1
ACMNOTESTANDARDJIS
  2
AmdtNoteStdJIS
  3
"Amdt_StdImp|Product Description: AutoCAD Mechanical|Company: Autodesk, Inc."
 90
     1024
 91
        0
280
     0
281
     0
  0
CLASS
  1
ACAMGHOLECHARTSTDJIS
  2
AcAmgHoleChartStdJIS
  3
AmgDim|Product Description: AutoCAD Mechanical|Company: Autodesk, Inc.
 90
     1024
 91
        0
280
     0
281
     0
  0
CLASS
  1
AM_DRAWING_MGR
  2
AcDmDwgMgr
  3
AcMechDwgViewMgmt
 90
     1024
 91
        1
280
     0
281
     0
  0
CLASS
  1
AM_DWG_DOCUMENT
  2
AcDmDwgDocument
  3
AcMechDwgViewMgmt
 90
     1024
 91
        1
280
     0
281
     0
  0
CLASS
  1
AM_DWG_SHEET
  2
AcDmSheet
  3
AcMechDwgViewMgmt
 90
     1024
 91
        2
280
     0
281
     0
  0
CLASS
  1
AM_VIEWDIMPARMAP
  2
AcDmViewDimParMap
  3
AcMechDwgViewMgmt
 90
     1024
 91
        2
280
     0
281
     0
  0
CLASS
  1
AM_DWGMGR_NAME
  2
AcDmDwgMgrName
  3
AcMechDwgViewMgmt
 90
     1024
 91
        1
280
     0
281
     0
  0
CLASS
  1
AMDTMENUSTATEMGR
  2
AmdtMenuStateMgr
  3
McadcomServices
 90
     1024
 91
        1
280
     0
281
     0
  0
CLASS
  1
AMDTMCOMMENUSTATE
  2
AmdtMcomMenuState
  3
McadcomServices
 90
     1024
 91
        1
280
     0
281
     0
  0
CLASS
  1
MAPIAMMOUDLE
  2
MApiAmModule
  3
MApiAmServices
 90
     1024
 91
        1
280
     0
281
     0
  0
CLASS
  1
AMDTADMENUSTATE
  2
AmdtAdMenuState
  3
DesignerServices
 90
     1024
 91
        1
280
     0
281
     0
  0
CLASS
  1
ADAPPL
  2
AcAdAppl
  3
DesignerServices
 90
     1024
 91
        1
280
     0
281
     0
  0
CLASS
  1
DEPMGR
  2
AcAdDepMgr
  3
DesignerServices
 90
     1024
 91
        1
280
     0
281
     0
  0
CLASS
  1
PARAMMGR
  2
AcAdParamMgr
  3
DesignerServices
 90
     1024
 91
        1
280
     0
281
     0
  0
CLASS
  1
PARAMSCOPE
  2
AcAdParamScope
  3
DesignerServices
 90
     1024
 91
        1
280
     0
281
     0
  0
CLASS
  1
NAMEDAPPL
  2
AcAdNamedAppl
  3
DesignerServices
 90
     1024
 91
        1
280
     0
281
     0
  0
CLASS
  1
AMDTDMMENUSTATE
  2
AmdtDmMenuState
  3
AcMechDwgViewMgmt
 90
     1024
 91
        1
280
     0
281
     0
  0
CLASS
  1
AMDTAMMENUSTATE
  2
AmdtAmMenuState
  3
DesignerAssemblies
 90
     1024
 91
        1
280
     0
281
     0
  0
CLASS
  1
ACAMPROJECT
  2
AcAmProject
  3
DesignerAssemblies
 90
     1024
 91
        1
280
     0
281
     0
  0
CLASS
  1
ACAMGRCOMPDEF
  2
AcAmGrCompDef
  3
DesignerAssemblies
 90
     1024
 91
        1
280
     0
281
     0
  0
CLASS
  1
ACCMCONTEXT
  2
AcCmContext
  3
DesignerAssemblies
 90
     1024
 91
        1
280
     0
281
     0
  0
CLASS
  1
ACAMCOMPDEF
  2
AcAmCompDef
  3
DesignerAssemblies
 90
     1024
 91
        1
280
     0
281
     0
  0
CLASS
  1
ACAMCOMPDEFMGR
  2
AcAmCompDefMgr
  3
DesignerAssemblies
 90
     1024
 91
        1
280
     0
281
     0
  0
CLASS
  1
AMCONTEXTMGR
  2
AcAmContextMgr
  3
DesignerAssemblies
 90
     1024
 91
        1
280
     0
281
     0
  0
CLASS
  1
ACAMCONTEXTMODELER
  2
AcAmContextModeler
  3
DesignerAssemblies
 90
     1024
 91
        1
280
     0
281
     0
  0
CLASS
  1
CATALOGSTATE
  2
AcAmCatalogState
  3
DesignerAssemblies
 90
     1024
 91
        1
280
     0
281
     0
  0
CLASS
  1
ACAMGRCOMPDEFSET
  2
AcAmGrCompDefSet
  3
DesignerAssemblies
 90
     1024
 91
        1
280
     0
281
     0
  0
CLASS
  1
AMDTBROWSERDBTAB
  2
AmdtBrowserDbTab
  3
McadcomServices
 90
     1024
 91
        1
280
     0
281
     0
  0
CLASS
  1
CBROWSERAPPOBJECT
  2
CBrowserAppObject
  3
McadcomServices
 90
     1024
 91
        3
280
     0
281
     0
  0
CLASS
  1
DM_PLACEHOLDER
  2
AcDmSelsetPlaceholder
  3
AcMechDwgViewMgmt
 90
     1024
 91
        1
280
     0
281
     0
  0
CLASS
  1
TABLESTYLE
  2
AcDbTableStyle
  3
ObjectDBX Classes
 90
     4095
 91
        1
280
     0
281
     0
  0
CLASS
  1
VAACXREFPANELOBJECT
  2
VaAcXREFPanelObject
  3
VAAC_ADDIN
 90
        0
 91
        0
280
     0
281
     0
  0
CLASS
  1
VAACIMAGEINVENTORY
  2
VaAcImageInventory
  3
VAAC_ADDIN
 90
        0
 91
        0
280
     0
281
     0
  0
CLASS
  1
AMDTNOTETEMPLATEDB
  2
AmdtNoteTemplateDB
  3
AcmSymBB|Product Description: AutoCAD Mechanical|Company: Autodesk, Inc.
 90
     1024
 91
        6
280
     0
281
     0
  0
CLASS
  1
ACAMGFILTERDAT
  2
AcAmgFilterDat
  3
"AcadM|Product Description: AutoCAD Mechanical|Company: Autodesk, Inc."
 90
     1024
 91
        0
280
     0
281
     0
  0
CLASS
  1
MATERIAL
  2
AcDbMaterial
  3
ObjectDBX Classes
 90
     1153
 91
        3
280
     0
281
     0
  0
CLASS
  1
VISUALSTYLE
  2
AcDbVisualStyle
  3
ObjectDBX Classes
 90
     4095
 91
       16
280
     0
281
     0
  0
CLASS
  1
ACRFATTGENMGR
  2
AcRfAttGeneralMgr
  3
AcAttribServices
 90
     1024
 91
        0
280
     0
281
     0
  0
CLASS
  1
ACRFOBJATTMGR
  2
AcRfObjAttGroupMgr
  3
AcAttribServices
 90
     1024
 91
        0
280
     0
281
     0
  0
CLASS
  1
ACRFMCADAPIATTHOLDER
  2
AcRfMCADAPIAttHolder
  3
AcAttribServices
 90
     1024
 91
        0
280
     0
281
     0
  0
CLASS
  1
AMDTSYSATTR
  2
AmdtSystemAttribute
  3
AcAttribServices
 90
     1024
 91
        0
280
     0
281
     0
  0
CLASS
  1
ACMTAPERSTANDARDJIS
  2
AcmTaperStdJIS
  3
"Amdt_StdImp|Product Description: AutoCAD Mechanical|Company: Autodesk, Inc."
 90
     1024
 91
        0
280
     0
281
     0
  0
CLASS
  1
CAMSSTRUCTBTNSTATE
  2
StructBtnState
  3
DesignerAssemblies
 90
     1024
 91
        0
280
     0
281
     0
  0
CLASS
  1
SCALE
  2
AcDbScale
  3
ObjectDBX Classes
 90
     1153
 91
       38
280
     0
281
     0
  0
CLASS
  1
MLEADERSTYLE
  2
AcDbMLeaderStyle
  3
ACDB_MLEADERSTYLE_CLASS
 90
     4095
 91
        1
280
     0
281
     0
  0
CLASS
  1
ACMANOOTATIONVIEWSTANDARDJIS
  2
AmdtAnViewStdJIS
  3
"Amdt_StdImp|Product Description: AutoCAD Mechanical|Company: Autodesk, Inc."
 90
     1024
 91
        0
280
     0
281
     0
  0
CLASS
  1
ACMSURFSTANDARDJIS2003
  2
AcmSurfTextStdJIS2003
  3
"Amdt_StdImp|Product Description: AutoCAD Mechanical|Company: Autodesk, Inc."
 90
     1024
 91
        0
280
     0
281
     0
  0
CLASS
  1
CELLSTYLEMAP
  2
AcDbCellStyleMap
  3
ObjectDBX Classes
 90
     1152
 91
        2
280
     0
281
     0
  0
CLASS
  1
ACMFCFSTANDARDJIS98
  2
AcmFCFStdJIS98
  3
"Amdt_StdImp|Product Description: AutoCAD Mechanical|Company: Autodesk, Inc."
 90
     1024
 91
        0
280
     0
281
     0
  0
CLASS
  1
SORTENTSTABLE
  2
AcDbSortentsTable
  3
ObjectDBX Classes
 90
        0
 91
       12
280
     0
281
     0
  0
CLASS
  1
DIMASSOC
  2
AcDbDimAssoc
  3
"AcDbDimAssoc|Product Desc:     AcDim ARX App For Dimension|Company:          Autodesk, Inc.|WEB Address:      www.autodesk.com"
 90
        0
 91
       10
280
     0
281
     0
  0
CLASS
  1
STDPART2D
  2
AmgStdPart
  3
AmgStdPart|Product Description: AutoCAD Mechanical|Company: Autodesk, Inc.
 90
     4095
 91
        0
280
     0
281
     1
  0
CLASS
  1
ACMDATAENTRYPART
  2
AcmDataEntryPart
  3
AcmSymBB|Product Description: AutoCAD Mechanical|Company: Autodesk, Inc.
 90
     1024
 91
        0
280
     0
281
     0
  0
CLASS
  1
ACMPARTREF
  2
AcmPartRef
  3
"AcmSymBB|Product Description: AutoCAD Mechanical|Company: Autodesk, Inc."
 90
     4095
 91
        0
280
     0
281
     1
  0
CLASS
  1
ACDBSTDPARTRES_LINE
  2
AcDbStdPartRes_Line
  3
AmgStdPart|Product Description: AutoCAD Mechanical|Company: Autodesk, Inc.
 90
     1024
 91
        0
280
     0
281
     0
  0
CLASS
  1
ACMBOM
  2
AcmBom
  3
"AcmSymBB|Product Description: AutoCAD Mechanical|Company: Autodesk, Inc."
 90
     1024
 91
        0
280
     0
281
     0
  0
CLASS
  1
AMDTFORMULAUPDATEDISPATCHER
  2
AmdtFormulaUpdateDispatcher
  3
AcMeServices
 90
     1024
 91
        0
280
     0
281
     0
  0
CLASS
  1
ACMBOMROW
  2
AcmBomRow
  3
"AcmSymBB|Product Description: AutoCAD Mechanical|Company: Autodesk, Inc."
 90
     1024
 91
        0
280
     0
281
     0
  0
CLASS
  1
ACMPARTLIST
  2
AcmPartList
  3
"AcmSymBB|Product Description: AutoCAD Mechanical|Company: Autodesk, Inc."
 90
     4095
 91
        0
280
     0
281
     1
  0
CLASS
  1
ACDBLINERES
  2
AcDbLineRes
  3
AcGrefServices
 90
     1024
 91
        0
280
     0
281
     0
  0
CLASS
  1
ACRFINSADJ
  2
AcRfInsAdjuster
  3
AcMeServices
 90
     1024
 91
        0
280
     0
281
     0
  0
CLASS
  1
ACMSTANDARDISO
  2
AcmStandardISO
  3
"Amdt_StdImp|Product Description: AutoCAD Mechanical|Company: Autodesk, Inc."
 90
     1024
 91
        1
280
     0
281
     0
  0
CLASS
  1
AMDTEDGESTANDARDISO13715
  2
AmdtEdgeStdISO13715
  3
"Amdt_StdImp|Product Description: AutoCAD Mechanical|Company: Autodesk, Inc."
 90
     1024
 91
        1
280
     0
281
     0
  0
CLASS
  1
ACMSURFSTANDARDISO2002
  2
AcmSurfTextStdISO2002
  3
"Amdt_StdImp|Product Description: AutoCAD Mechanical|Company: Autodesk, Inc."
 90
     1024
 91
        1
280
     0
281
     0
  0
CLASS
  1
ACMFCFSTANDARDISO
  2
AcmFCFStdISO
  3
"Amdt_StdImp|Product Description: AutoCAD Mechanical|Company: Autodesk, Inc."
 90
     1024
 91
        1
280
     0
281
     0
  0
CLASS
  1
ACMWELDSTANDARDISO
  2
AcmWeldingStdISO
  3
"Amdt_StdImp|Product Description: AutoCAD Mechanical|Company: Autodesk, Inc."
 90
     1024
 91
        1
280
     0
281
     0
  0
CLASS
  1
ACMIDSTANDARDISO
  2
AcmIdStdISO
  3
"Amdt_StdImp|Product Description: AutoCAD Mechanical|Company: Autodesk, Inc."
 90
     1024
 91
        1
280
     0
281
     0
  0
CLASS
  1
ACMDATUMSTANDARDISO
  2
AcmDatumStdISO
  3
"Amdt_StdImp|Product Description: AutoCAD Mechanical|Company: Autodesk, Inc."
 90
     1024
 91
        1
280
     0
281
     0
  0
CLASS
  1
ACMBOMSTANDARDISO
  2
AcmBOMStdISO
  3
"Amdt_StdImp|Product Description: AutoCAD Mechanical|Company: Autodesk, Inc."
 90
     1024
 91
        1
280
     0
281
     0
  0
CLASS
  1
ACMDETAILSTANDARDISO
  2
AmdtDetailSymStdISO
  3
"Amdt_StdImp|Product Description: AutoCAD Mechanical|Company: Autodesk, Inc."
 90
     1024
 91
        1
280
     0
281
     0
  0
CLASS
  1
ACMSECTIONSTANDARDISO2001
  2
AmdtSectionSymStdISO2001
  3
"Amdt_StdImp|Product Description: AutoCAD Mechanical|Company: Autodesk, Inc."
 90
     1024
 91
        1
280
     0
281
     0
  0
CLASS
  1
ACMCENTERLINESTANDARDISO
  2
AmdtCenterLineStdISO
  3
"Amdt_StdImp|Product Description: AutoCAD Mechanical|Company: Autodesk, Inc."
 90
     1024
 91
        1
280
     0
281
     0
  0
CLASS
  1
ACMTHREADLINESTANDARDISO
  2
AmdtThreadLineStdISO
  3
"Amdt_StdImp|Product Description: AutoCAD Mechanical|Company: Autodesk, Inc."
 90
     1024
 91
        1
280
     0
281
     0
  0
CLASS
  1
ACMNOTESTANDARDISO
  2
AmdtNoteStdISO
  3
"Amdt_StdImp|Product Description: AutoCAD Mechanical|Company: Autodesk, Inc."
 90
     1024
 91
        1
280
     0
281
     0
  0
CLASS
  1
ACMTAPERSTANDARDISO
  2
AcmTaperStdISO
  3
"Amdt_StdImp|Product Description: AutoCAD Mechanical|Company: Autodesk, Inc."
 90
     1024
 91
        1
280
     0
281
     0
  0
CLASS
  1
ACMANOOTATIONVIEWSTANDARDISO
  2
AmdtAnViewStdISO
  3
"Amdt_StdImp|Product Description: AutoCAD Mechanical|Company: Autodesk, Inc."
 90
     1024
 91
        1
280
     0
281
     0
  0
CLASS
  1
ACAMGHOLECHARTSTDISO
  2
AcAmgHoleChartStdISO
  3
AmgDim|Product Description: AutoCAD Mechanical|Company: Autodesk, Inc.
 90
     1024
 91
        1
280
     0
281
     0
  0
CLASS
  1
EXACXREFPANELOBJECT
  2
ExAcXREFPanelObject
  3
EXAC_ESW
 90
     1025
 91
        0
280
     0
281
     0
  0
CLASS
  1
NPOCOLLECTION
  2
AcDbImpNonPersistentObjectsCollection
  3
ObjectDBX Classes
 90
     1153
 91
        0
280
     0
281
     0
  0
CLASS
  1
ACDBSTDPARTRES_ARC
  2
AcDbStdPartRes_Arc
  3
AmgStdPart|Product Description: AutoCAD Mechanical|Company: Autodesk, Inc.
 90
     1024
 91
        0
280
     0
281
     0
  0
CLASS
  1
AMDTNOTE
  2
AmdtNote
  3
"AcmSymBB|Product Description: AutoCAD Mechanical|Company: Autodesk, Inc."
 90
     4095
 91
        0
280
     0
281
     1
  0
CLASS
  1
PLOTSETTINGS
  2
AcDbPlotSettings
  3
ObjectDBX Classes
 90
        0
 91
        1
280
     0
281
     0
  0
CLASS
  1
ACMSTANDARDANSI
  2
AcmStandardANSI
  3
"Amdt_StdImp|Product Description: AutoCAD Mechanical|Company: Autodesk, Inc."
 90
     1024
 91
        0
280
     0
281
     0
  0
CLASS
  1
ACMSURFSTANDARDANSI
  2
AcmSurfTextStdANSI
  3
"Amdt_StdImp|Product Description: AutoCAD Mechanical|Company: Autodesk, Inc."
 90
     1024
 91
        0
280
     0
281
     0
  0
CLASS
  1
ACMFCFSTANDARDANSI
  2
AcmFCFStdANSI
  3
"Amdt_StdImp|Product Description: AutoCAD Mechanical|Company: Autodesk, Inc."
 90
     1024
 91
        0
280
     0
281
     0
  0
CLASS
  1
ACMWELDSTANDARDANSI
  2
AcmWeldingStdANSI
  3
"Amdt_StdImp|Product Description: AutoCAD Mechanical|Company: Autodesk, Inc."
 90
     1024
 91
        0
280
     0
281
     0
  0
CLASS
  1
ACMIDSTANDARDANSI
  2
AcmIdStdANSI
  3
"Amdt_StdImp|Product Description: AutoCAD Mechanical|Company: Autodesk, Inc."
 90
     1024
 91
        0
280
     0
281
     0
  0
CLASS
  1
ACMDATUMSTANDARDANSI
  2
AcmDatumStdANSI
  3
"Amdt_StdImp|Product Description: AutoCAD Mechanical|Company: Autodesk, Inc."
 90
     1024
 91
        0
280
     0
281
     0
  0
CLASS
  1
ACMBOMSTANDARDANSI
  2
AcmBOMStdANSI
  3
"Amdt_StdImp|Product Description: AutoCAD Mechanical|Company: Autodesk, Inc."
 90
     1024
 91
        0
280
     0
281
     0
  0
CLASS
  1
ACMDETAILSTANDARDANSI
  2
AmdtDetailSymStdANSI
  3
"Amdt_StdImp|Product Description: AutoCAD Mechanical|Company: Autodesk, Inc."
 90
     1024
 91
        0
280
     0
281
     0
  0
CLASS
  1
ACMSECTIONSTANDARDANSI
  2
AmdtSectionSymStdANSI
  3
"Amdt_StdImp|Product Description: AutoCAD Mechanical|Company: Autodesk, Inc."
 90
     1024
 91
        0
280
     0
281
     0
  0
CLASS
  1
ACMCENTERLINESTANDARDANSI
  2
AmdtCenterLineStdANSI
  3
"Amdt_StdImp|Product Description: AutoCAD Mechanical|Company: Autodesk, Inc."
 90
     1024
 91
        0
280
     0
281
     0
  0
CLASS
  1
ACMTHREADLINESTANDARDANSI
  2
AmdtThreadLineStdANSI
  3
"Amdt_StdImp|Product Description: AutoCAD Mechanical|Company: Autodesk, Inc."
 90
     1024
 91
        0
280
     0
281
     0
  0
CLASS
  1
ACMNOTESTANDARDANSI
  2
AmdtNoteStdANSI
  3
"Amdt_StdImp|Product Description: AutoCAD Mechanical|Company: Autodesk, Inc."
 90
     1024
 91
        0
280
     0
281
     0
  0
CLASS
  1
ACMTAPERSTANDARDANSI
  2
AcmTaperStdANSI
  3
"Amdt_StdImp|Product Description: AutoCAD Mechanical|Company: Autodesk, Inc."
 90
     1024
 91
        0
280
     0
281
     0
  0
CLASS
  1
ACMANOOTATIONVIEWSTANDARDANSI
  2
AmdtAnViewStdANSI
  3
"Amdt_StdImp|Product Description: AutoCAD Mechanical|Company: Autodesk, Inc."
 90
     1024
 91
        0
280
     0
281
     0
  0
CLASS
  1
ACAMGHOLECHARTSTDANSI
  2
AcAmgHoleChartStdANSI
  3
AmgDim|Product Description: AutoCAD Mechanical|Company: Autodesk, Inc.
 90
     1024
 91
        0
280
     0
281
     0
  0
CLASS
  1
ACMSTANDARDBSI
  2
AcmStandardBSI
  3
"Amdt_StdImp|Product Description: AutoCAD Mechanical|Company: Autodesk, Inc."
 90
     1024
 91
        0
280
     0
281
     0
  0
CLASS
  1
ACMSURFSTANDARDBSI2002
  2
AcmSurfTextStdBSI2002
  3
"Amdt_StdImp|Product Description: AutoCAD Mechanical|Company: Autodesk, Inc."
 90
     1024
 91
        0
280
     0
281
     0
  0
CLASS
  1
ACMFCFSTANDARDBSI
  2
AcmFCFStdBSI
  3
"Amdt_StdImp|Product Description: AutoCAD Mechanical|Company: Autodesk, Inc."
 90
     1024
 91
        0
280
     0
281
     0
  0
CLASS
  1
ACMWELDSTANDARDBSI
  2
AcmWeldingStdBSI
  3
"Amdt_StdImp|Product Description: AutoCAD Mechanical|Company: Autodesk, Inc."
 90
     1024
 91
        0
280
     0
281
     0
  0
CLASS
  1
ACMIDSTANDARDBSI
  2
AcmIdStdBSI
  3
"Amdt_StdImp|Product Description: AutoCAD Mechanical|Company: Autodesk, Inc."
 90
     1024
 91
        0
280
     0
281
     0
  0
CLASS
  1
ACMDATUMSTANDARDBSI
  2
AcmDatumStdBSI
  3
"Amdt_StdImp|Product Description: AutoCAD Mechanical|Company: Autodesk, Inc."
 90
     1024
 91
        0
280
     0
281
     0
  0
CLASS
  1
ACMBOMSTANDARDBSI
  2
AcmBOMStdBSI
  3
"Amdt_StdImp|Product Description: AutoCAD Mechanical|Company: Autodesk, Inc."
 90
     1024
 91
        0
280
     0
281
     0
  0
CLASS
  1
ACMDETAILSTANDARDBSI
  2
AmdtDetailSymStdBSI
  3
"Amdt_StdImp|Product Description: AutoCAD Mechanical|Company: Autodesk, Inc."
 90
     1024
 91
        0
280
     0
281
     0
  0
CLASS
  1
ACMSECTIONSTANDARDBSI2001
  2
AmdtSectionSymStdBSI2001
  3
"Amdt_StdImp|Product Description: AutoCAD Mechanical|Company: Autodesk, Inc."
 90
     1024
 91
        0
280
     0
281
     0
  0
CLASS
  1
ACMCENTERLINESTANDARDBSI
  2
AmdtCenterLineStdBSI
  3
"Amdt_StdImp|Product Description: AutoCAD Mechanical|Company: Autodesk, Inc."
 90
     1024
 91
        0
280
     0
281
     0
  0
CLASS
  1
ACMTHREADLINESTANDARDBSI
  2
AmdtThreadLineStdBSI
  3
"Amdt_StdImp|Product Description: AutoCAD Mechanical|Company: Autodesk, Inc."
 90
     1024
 91
        0
280
     0
281
     0
  0
CLASS
  1
ACMNOTESTANDARDBSI
  2
AmdtNoteStdBSI
  3
"Amdt_StdImp|Product Description: AutoCAD Mechanical|Company: Autodesk, Inc."
 90
     1024
 91
        0
280
     0
281
     0
  0
CLASS
  1
ACMTAPERSTANDARDBSI
  2
AcmTaperStdBSI
  3
"Amdt_StdImp|Product Description: AutoCAD Mechanical|Company: Autodesk, Inc."
 90
     1024
 91
        0
280
     0
281
     0
  0
CLASS
  1
ACMANOOTATIONVIEWSTANDARDBSI
  2
AmdtAnViewStdBSI
  3
"Amdt_StdImp|Product Description: AutoCAD Mechanical|Company: Autodesk, Inc."
 90
     1024
 91
        0
280
     0
281
     0
  0
CLASS
  1
ACAMGHOLECHARTSTDBSI
  2
AcAmgHoleChartStdBSI
  3
AmgDim|Product Description: AutoCAD Mechanical|Company: Autodesk, Inc.
 90
     1024
 91
        0
280
     0
281
     0
  0
CLASS
  1
AMDTEDGESTANDARDJIS
  2
AmdtEdgeStdJIS
  3
"Amdt_StdImp|Product Description: AutoCAD Mechanical|Company: Autodesk, Inc."
 90
     1024
 91
        0
280
     0
281
     0
  0
CLASS
  1
ACDB_BLKREFOBJECTCONTEXTDATA_CLASS
  2
AcDbBlkRefObjectContextData
  3
ObjectDBX Classes
 90
     1153
 91
        0
280
     0
281
     0
  0
CLASS
  1
ACMSURFSYM
  2
AcmSurfaceTexture
  3
"AcmSymBB|Product Description: AutoCAD Mechanical|Company: Autodesk, Inc."
 90
     4095
 91
        0
280
     0
281
     1
  0
CLASS
  1
ACDBDIMENSIONRES
  2
AcDbDimensionRes
  3
AcmSymBB|Product Description: AutoCAD Mechanical|Company: Autodesk, Inc.
 90
     1024
 91
        0
280
     0
281
     0
  0
CLASS
  1
ACDBCIRCARCRES
  2
AcDbCircArcRes
  3
AcGrefServices
 90
     1024
 91
        0
280
     0
281
     0
  0
CLASS
  1
AMDTACMWBLOCKBOMENTITY
  2
AmdtAcmWblockBomEntity
  3
"AcmSymBB|Product Description: AutoCAD Mechanical|Company: Autodesk, Inc."
 90
     4095
 91
        0
280
     0
281
     1
  0
CLASS
  1
ACDBOPPOLYLINERES
  2
AcDbOpPolylineRes
  3
AcGrefServices
 90
     1024
 91
        0
280
     0
281
     0
  0
CLASS
  1
ACMPICKOBJ
  2
AcmPickEnt
  3
"AcmSymBB|Product Description: AutoCAD Mechanical|Company: Autodesk, Inc."
 90
     1024
 91
        0
280
     0
281
     1
  0
CLASS
  1
ACMBALLOON
  2
AcmBalloon
  3
"AcmSymBB|Product Description: AutoCAD Mechanical|Company: Autodesk, Inc."
 90
     4095
 91
        0
280
     0
281
     1
  0
ENDSEC
  0
SECTION
  2
TABLES
  0
TABLE
  2
VPORT
  5
8
330
0
100
AcDbSymbolTable
 70
     1
  0
VPORT
  5
27A
330
8
100
AcDbSymbolTableRecord
100
AcDbViewportTableRecord
  2
*Active
 70
     0
 10
0.0
 20
0.0
 11
1.0
 21
1.0
 12
3213.686388463591
 22
2965.740068042292
 13
0.0
 23
0.0
 14
37.5
 24
37.5
 15
150.0
 25
150.0
 16
0.0
 26
0.0
 36
1.0
 17
0.0
 27
0.0
 37
0.0
 40
1738.46608030021
 41
1.571428571428571
 42
50.0
 43
0.0
 44
0.0
 50
0.0
 51
0.0
 71
    16
 72
 20000
 73
     1
 74
     3
 75
     0
 76
     0
 77
     0
 78
     0
281
     0
 65
     0
110
0.0
120
0.0
130
0.0
111
1.0
121
0.0
131
0.0
112
0.0
122
1.0
132
0.0
 79
     0
146
0.0
348
285
 60
     3
 61
     5
292
     1
282
     0
141
0.0
142
0.0
 63
   250
421
  3355443
  0
ENDTAB
  0
TABLE
  2
LTYPE
  5
5
330
0
100
AcDbSymbolTable
 70
    22
  0
LTYPE
  5
14
330
5
100
AcDbSymbolTableRecord
100
AcDbLinetypeTableRecord
  2
ByBlock
 70
     0
  3

 72
    65
 73
     0
 40
0.0
  0
LTYPE
  5
15
330
5
100
AcDbSymbolTableRecord
100
AcDbLinetypeTableRecord
  2
ByLayer
 70
     0
  3

 72
    65
 73
     0
 40
0.0
  0
LTYPE
  5
16
330
5
100
AcDbSymbolTableRecord
100
AcDbLinetypeTableRecord
  2
Continuous
 70
     0
  3
Solid line
 72
    65
 73
     0
 40
0.0
  0
LTYPE
  5
4D
330
5
100
AcDbSymbolTableRecord
100
AcDbLinetypeTableRecord
  2
AM_ISO02W050
 70
     0
  3
__ __ __ __ __ __ __ __ __ __ __ __ __ __ __
 72
    65
 73
     2
 40
7.5
 49
6.0
 74
     0
 49
-1.5
 74
     0
  0
LTYPE
  5
4E
330
5
100
AcDbSymbolTableRecord
100
AcDbLinetypeTableRecord
  2
AM_ISO08W050
 70
     0
  3
____ . ____ . ____ . ____ . ____ . ____ . ____
 72
    65
 73
     4
 40
18.0
 49
12.0
 74
     0
 49
-1.5
 74
     0
 49
3.0
 74
     0
 49
-1.5
 74
     0
  0
LTYPE
  5
4F
330
5
100
AcDbSymbolTableRecord
100
AcDbLinetypeTableRecord
  2
AM_ISO09W050
 70
     0
  3
_____ . . _____ . . _____ . . ____ .. ____
 72
    65
 73
     6
 40
22.5
 49
12.0
 74
     0
 49
-1.5
 74
     0
 49
3.0
 74
     0
 49
-1.5
 74
     0
 49
3.0
 74
     0
 49
-1.5
 74
     0
  0
LTYPE
  5
50
330
5
100
AcDbSymbolTableRecord
100
AcDbLinetypeTableRecord
  2
Amconstr
 70
     0
  3
_______________________
 72
    65
 73
     2
 40
9999.0
 49
9999.0
 74
     0
 49
0.0
 74
     0
  0
LTYPE
  5
51
330
5
100
AcDbSymbolTableRecord
100
AcDbLinetypeTableRecord
  2
AM_ISO08W050x2
 70
     0
  3
__ . __ . __ . __ . __ . __
 72
    65
 73
     4
 40
9.0
 49
6.0
 74
     0
 49
-0.75
 74
     0
 49
1.5
 74
     0
 49
-0.75
 74
     0
  0
LTYPE
  5
52
330
5
100
AcDbSymbolTableRecord
100
AcDbLinetypeTableRecord
  2
AM_ISO02W050x2
 70
     0
  3
 _ _ _ _ _ _ _ _ _ _ _ _
 72
    65
 73
     2
 40
3.75
 49
3.0
 74
     0
 49
-0.75
 74
     0
  0
LTYPE
  5
55
330
5
100
AcDbSymbolTableRecord
100
AcDbLinetypeTableRecord
  2
Amzigzag
 70
     0
  3
/\/-/\/-/\/-/\/-/\/-/\/
 72
    65
 73
     2
 40
11.0001
 49
0.0001
 74
     4
 75
   136
340
23D
 46
0.04
 50
0.0
 44
0.0
 45
0.0
 49
-11.0
 74
     0
  0
LTYPE
  5
65
330
5
100
AcDbSymbolTableRecord
100
AcDbLinetypeTableRecord
  2
CENTER
 70
     0
  3
__ . __
 72
    65
 73
     4
 40
7.0
 49
4.0
 74
     0
 49
-1.0
 74
     0
 49
1.0
 74
     0
 49
-1.0
 74
     0
  0
LTYPE
  5
E0
330
5
100
AcDbSymbolTableRecord
100
AcDbLinetypeTableRecord
  2
HIDDEN
 70
     0
  3
Hidden __ __ __ __ __ __ __ __ __ __ __ __ __ _
 72
    65
 73
     2
 40
9.524999999999996
 49
6.349999999999998
 74
     0
 49
-3.174999999999998
 74
     0
  0
LTYPE
  5
E1
330
5
100
AcDbSymbolTableRecord
100
AcDbLinetypeTableRecord
  2
PHANTOM2
 70
     0
  3
Phantom (.5x) ___ _ _ ___ _ _ ___ _ _ ___ _ _
 72
    65
 73
     6
 40
31.75
 49
15.875
 74
     0
 49
-3.174999999999998
 74
     0
 49
3.174999999999998
 74
     0
 49
-3.174999999999998
 74
     0
 49
3.174999999999998
 74
     0
 49
-3.174999999999998
 74
     0
  0
LTYPE
  5
5A2
330
5
100
AcDbSymbolTableRecord
100
AcDbLinetypeTableRecord
  2
ACJISWELD
 70
     0
  3
_ _ _ _ _
 72
    65
 73
     2
 40
2.0
 49
2.0
 74
     0
 49
-1.0
 74
     0
  0
LTYPE
  5
791D
330
5
100
AcDbSymbolTableRecord
100
AcDbLinetypeTableRecord
  2
ACISOWELD
 70
     0
  3
_ _ _ _ _
 72
    65
 73
     2
 40
2.0
 49
2.0
 74
     0
 49
-1.0
 74
     0
  0
LTYPE
  5
791E
330
5
100
AcDbSymbolTableRecord
100
AcDbLinetypeTableRecord
  2
ACISOTGB
 70
     0
  3
__ . . __ . .
 72
    65
 73
     6
 40
9.0
 49
4.0
 74
     0
 49
-1.0
 74
     0
 49
1.0
 74
     0
 49
-1.0
 74
     0
 49
1.0
 74
     0
 49
-1.0
 74
     0
  0
LTYPE
  5
791F
330
5
100
AcDbSymbolTableRecord
100
AcDbLinetypeTableRecord
  2
ACISOTGL
 70
     0
  3
_ _ _ _ _
 72
    65
 73
     2
 40
3.0
 49
2.0
 74
     0
 49
-1.0
 74
     0
  0
ENDTAB
  0
TABLE
  2
LAYER
  5
2
102
{ACAD_XDICTIONARY
360
BF
102
}
330
0
100
AcDbSymbolTable
 70
     9
  0
LAYER
  5
10
102
{ACAD_XDICTIONARY
360
29F7
102
}
330
2
100
AcDbSymbolTableRecord
100
AcDbLayerTableRecord
  2
0
 70
     0
 62
     7
  6
Continuous
370
    -3
390
F
347
27E
  0
LAYER
  5
81
102
{ACAD_XDICTIONARY
360
29F9
102
}
330
2
100
AcDbSymbolTableRecord
100
AcDbLayerTableRecord
  2
AM_0 外形線1
 70
     0
 62
     7
  6
Continuous
370
    25
390
F
347
27E
  0
LAYER
  5
427
330
2
100
AcDbSymbolTableRecord
100
AcDbLayerTableRecord
  2
Defpoints
 70
     0
 62
     7
  6
Continuous
290
     0
370
    -3
390
F
347
27E
  0
LAYER
  5
3C68
330
2
100
AcDbSymbolTableRecord
100
AcDbLayerTableRecord
  2
AM_5 寸法線
 70
     0
 62
     3
  6
Continuous
370
    13
390
F
347
27E
1001
AcAecLayerStandard
1000

1000

  0
LAYER
  5
3C69
330
2
100
AcDbSymbolTableRecord
100
AcDbLayerTableRecord
  2
AM_4 細線
 70
     0
 62
     4
  6
Continuous
370
    13
390
F
347
27E
1001
AcAecLayerStandard
1000

1000

  0
LAYER
  5
3C6A
330
2
100
AcDbSymbolTableRecord
100
AcDbLayerTableRecord
  2
AM_7 中心線
 70
     0
 62
     1
  6
AM_ISO08W050
370
    13
390
F
347
27E
1001
AcAecLayerStandard
1000

1000

  0
LAYER
  5
3C6B
330
2
100
AcDbSymbolTableRecord
100
AcDbLayerTableRecord
  2
AM_3 隠れ線
 70
     0
 62
     8
  6
ACJISWELD
370
    13
390
F
347
27E
1001
AcAecLayerStandard
1000

1000

  0
LAYER
  5
3C6E
330
2
100
AcDbSymbolTableRecord
100
AcDbLayerTableRecord
  2
AM_6 文字
 70
     0
 62
     2
  6
Continuous
370
    13
390
F
347
27E
1001
AcAecLayerStandard
1000

1000

  0
ENDTAB
  0
TABLE
  2
STYLE
  5
3
330
0
100
AcDbSymbolTable
 70
    11
  0
STYLE
  5
11
330
3
100
AcDbSymbolTableRecord
100
AcDbTextStyleTableRecord
  2
STANDARD
 70
     0
 40
0.0
 41
1.0
 50
0.0
 71
     0
 42
25.0
  3
ISOCP.SHX
  4
EXTFONT.SHX
  0
STYLE
  5
23D
330
3
100
AcDbSymbolTableRecord
100
AcDbTextStyleTableRecord
  2

 70
     1
 40
0.0
 41
1.0
 50
0.0
 71
     0
 42
2.5
  3
genltshp.shx
  4

  0
STYLE
  5
5D5
330
3
100
AcDbSymbolTableRecord
100
AcDbTextStyleTableRecord
  2
SEISA
 70
     0
 40
0.0
 41
0.9
 50
0.0
 71
     0
 42
25.0
  3
romans.shx
  4
extfont2.shx
  0
STYLE
  5
790D
330
3
100
AcDbSymbolTableRecord
100
AcDbTextStyleTableRecord
  2
ACISOTS
 70
     0
 40
1.0
 41
1.0
 50
0.0
 71
     0
 42
25.0
  3
isocp.shx
  4
extfont.shx
  0
STYLE
  5
791C
330
3
100
AcDbSymbolTableRecord
100
AcDbTextStyleTableRecord
  2
ACISOGDT
 70
     0
 40
0.0
 41
1.0
 50
0.0
 71
     0
 42
25.0
  3
amgdt.shx
  4

  0
ENDTAB
  0
TABLE
  2
VIEW
  5
6
330
0
100
AcDbSymbolTable
 70
     6
  0
VIEW
  5
91B
330
6
100
AcDbSymbolTableRecord
100
AcDbViewTableRecord
  2
AM_VIEW1
 70
     0
 40
2227.5
 10
2153.432884644907
 20
3341.250005540732
 41
4306.865763546799
 11
0.0
 21
0.0
 31
1.0
 12
0.0
 22
0.0
 32
0.0
 42
50.0
 43
0.0
 44
0.0
 50
0.0
 71
    16
281
     0
 72
     0
 73
     0
  0
VIEW
  5
91C
330
6
100
AcDbSymbolTableRecord
100
AcDbViewTableRecord
  2
AM_VIEW2
 70
     0
 40
2227.5
 10
4146.567121098108
 20
3341.250005540732
 41
4306.865763546799
 11
0.0
 21
0.0
 31
1.0
 12
0.0
 22
0.0
 32
0.0
 42
50.0
 43
0.0
 44
0.0
 50
0.0
 71
    16
281
     0
 72
     0
 73
     0
  0
VIEW
  5
91D
330
6
100
AcDbSymbolTableRecord
100
AcDbViewTableRecord
  2
AM_VIEW3
 70
     0
 40
2227.5
 10
2153.432884644907
 20
1113.750005540731
 41
4306.865763546799
 11
0.0
 21
0.0
 31
1.0
 12
0.0
 22
0.0
 32
0.0
 42
50.0
 43
0.0
 44
0.0
 50
0.0
 71
    16
281
     0
 72
     0
 73
     0
  0
VIEW
  5
91E
330
6
100
AcDbSymbolTableRecord
100
AcDbViewTableRecord
  2
AM_VIEW4
 70
     0
 40
2227.5
 10
4146.567121098108
 20
1113.750005540731
 41
4306.865763546799
 11
0.0
 21
0.0
 31
1.0
 12
0.0
 22
0.0
 32
0.0
 42
50.0
 43
0.0
 44
0.0
 50
0.0
 71
    16
281
     0
 72
     0
 73
     0
  0
VIEW
  5
91F
330
6
100
AcDbSymbolTableRecord
100
AcDbViewTableRecord
  2
AM_VIEW5
 70
     0
 40
2227.500000000001
 10
3150.000002871508
 20
2227.500005540731
 41
4306.865763546799
 11
0.0
 21
0.0
 31
1.0
 12
0.0
 22
0.0
 32
0.0
 42
50.0
 43
0.0
 44
0.0
 50
0.0
 71
    16
281
     0
 72
     0
 73
     0
  0
VIEW
  5
920
330
6
100
AcDbSymbolTableRecord
100
AcDbViewTableRecord
  2
AM_VIEW6
 70
     0
 40
4454.955450000001
 10
3150.000002871508
 20
2227.500005540731
 41
8613.645389778326
 11
0.0
 21
0.0
 31
1.0
 12
0.0
 22
0.0
 32
0.0
 42
50.0
 43
0.0
 44
0.0
 50
0.0
 71
    16
281
     0
 72
     0
 73
     0
  0
ENDTAB
  0
TABLE
  2
UCS
  5
7
330
0
100
AcDbSymbolTable
 70
     0
  0
ENDTAB
  0
TABLE
  2
APPID
  5
9
330
0
100
AcDbSymbolTable
 70
   396
  0
APPID
  5
12
330
9
100
AcDbSymbolTableRecord
100
AcDbRegAppTableRecord
  2
ACAD
 70
     0
  0
APPID
  5
30
330
9
100
AcDbSymbolTableRecord
100
AcDbRegAppTableRecord
  2
MCAD_NO_VIS
 70
     0
  0
APPID
  5
31
330
9
100
AcDbSymbolTableRecord
100
AcDbRegAppTableRecord
  2
ACAD_TEMP_GRAPHIC
 70
     0
  0
APPID
  5
44
330
9
100
AcDbSymbolTableRecord
100
AcDbRegAppTableRecord
  2
ACATTRIBSERVICES
 70
     0
  0
APPID
  5
F6
330
9
100
AcDbSymbolTableRecord
100
AcDbRegAppTableRecord
  2
AD_DRAW
 70
     0
  0
APPID
  5
114
330
9
100
AcDbSymbolTableRecord
100
AcDbRegAppTableRecord
  2
DESIGNERASSEMBLIES
 70
     0
  0
APPID
  5
118
330
9
100
AcDbSymbolTableRecord
100
AcDbRegAppTableRecord
  2
ACADM_DIM_EDIT
 70
     0
  0
APPID
  5
119
330
9
100
AcDbSymbolTableRecord
100
AcDbRegAppTableRecord
  2
AMDT_DM_ADJ
 70
     0
  0
APPID
  5
1AF
330
9
100
AcDbSymbolTableRecord
100
AcDbRegAppTableRecord
  2
ACAD_DSTYLE_DIMARC_LENGTH_SYMBOL
 70
     0
  0
APPID
  5
1B0
330
9
100
AcDbSymbolTableRecord
100
AcDbRegAppTableRecord
  2
ACAD_DSTYLE_DIMJOGGED_JOGANGLE_SYMBOL
 70
     0
  0
APPID
  5
2D7
330
9
100
AcDbSymbolTableRecord
100
AcDbRegAppTableRecord
  2
ACAD_MLEADERVER
 70
     0
  0
APPID
  5
355
330
9
100
AcDbSymbolTableRecord
100
AcDbRegAppTableRecord
  2
AcadAnnoPO
 70
     0
  0
APPID
  5
428
330
9
100
AcDbSymbolTableRecord
100
AcDbRegAppTableRecord
  2
ACAD_DSTYLE_DIMTEXT_FILL
 70
     0
  0
APPID
  5
429
330
9
100
AcDbSymbolTableRecord
100
AcDbRegAppTableRecord
  2
GENIUS_GENSCREG_15
 70
     0
  0
APPID
  5
42A
330
9
100
AcDbSymbolTableRecord
100
AcDbRegAppTableRecord
  2
GENIUS_GENOBJ-N-SDF_13
 70
     0
  0
APPID
  5
42B
330
9
100
AcDbSymbolTableRecord
100
AcDbRegAppTableRecord
  2
GENIUS_GENODEF_13
 70
     0
  0
APPID
  5
42C
330
9
100
AcDbSymbolTableRecord
100
AcDbRegAppTableRecord
  2
ACAD_EXEMPT_FROM_CAD_STANDARDS
 70
     0
  0
APPID
  5
42D
330
9
100
AcDbSymbolTableRecord
100
AcDbRegAppTableRecord
  2
AcAecLayerStandard
 70
     0
  0
APPID
  5
42E
330
9
100
AcDbSymbolTableRecord
100
AcDbRegAppTableRecord
  2
GENIUS_GENOBJ-N-CEN_13
 70
     0
  0
APPID
  5
42F
330
9
100
AcDbSymbolTableRecord
100
AcDbRegAppTableRecord
  2
GENIUS_GENCEN_19
 70
     0
  0
APPID
  5
430
330
9
100
AcDbSymbolTableRecord
100
AcDbRegAppTableRecord
  2
ACAD_DSTYLE_DIMINSPECT
 70
     0
  0
APPID
  5
431
330
9
100
AcDbSymbolTableRecord
100
AcDbRegAppTableRecord
  2
GENIUS_AMGTXT_16
 70
     0
  0
APPID
  5
432
330
9
100
AcDbSymbolTableRecord
100
AcDbRegAppTableRecord
  2
GENIUS_GENFIL_13
 70
     0
  0
APPID
  5
433
330
9
100
AcDbSymbolTableRecord
100
AcDbRegAppTableRecord
  2
GENIUS_GENOLIS_13
 70
     0
  0
APPID
  5
434
330
9
100
AcDbSymbolTableRecord
100
AcDbRegAppTableRecord
  2
GENIUS_GENOBJ-N-CHA_13
 70
     0
  0
APPID
  5
435
330
9
100
AcDbSymbolTableRecord
100
AcDbRegAppTableRecord
  2
GENIUS_GENOENT_13
 70
     0
  0
APPID
  5
436
330
9
100
AcDbSymbolTableRecord
100
AcDbRegAppTableRecord
  2
GENIUS_GENOREF_13
 70
     0
  0
APPID
  5
437
330
9
100
AcDbSymbolTableRecord
100
AcDbRegAppTableRecord
  2
GENIUS_GENOBJ-N-FIL_13
 70
     0
  0
APPID
  5
438
330
9
100
AcDbSymbolTableRecord
100
AcDbRegAppTableRecord
  2
GEVID1208829536
 70
     0
  0
APPID
  5
439
330
9
100
AcDbSymbolTableRecord
100
AcDbRegAppTableRecord
  2
GEVDC
 70
     0
  0
APPID
  5
43A
330
9
100
AcDbSymbolTableRecord
100
AcDbRegAppTableRecord
  2
GEVRADREF
 70
     0
  0
APPID
  5
43B
330
9
100
AcDbSymbolTableRecord
100
AcDbRegAppTableRecord
  2
GENIUS_GENBH_13
 70
     0
  0
APPID
  5
43C
330
9
100
AcDbSymbolTableRecord
100
AcDbRegAppTableRecord
  2
GENIUS_GENOBJ-NBEHI-BHF_13
 70
     0
  0
APPID
  5
43D
330
9
100
AcDbSymbolTableRecord
100
AcDbRegAppTableRecord
  2
GENIUS_GENOBJ-NBEHI-BHB_13
 70
     0
  0
APPID
  5
43E
330
9
100
AcDbSymbolTableRecord
100
AcDbRegAppTableRecord
  2
GEVID1208829537
 70
     0
  0
APPID
  5
43F
330
9
100
AcDbSymbolTableRecord
100
AcDbRegAppTableRecord
  2
ACAD_DSTYLE_DIMJAG
 70
     0
  0
APPID
  5
440
330
9
100
AcDbSymbolTableRecord
100
AcDbRegAppTableRecord
  2
ACAD_DSTYLE_DIMTALN
 70
     0
  0
APPID
  5
441
330
9
100
AcDbSymbolTableRecord
100
AcDbRegAppTableRecord
  2
AMG_2DHIDE
 70
     0
  0
APPID
  5
442
330
9
100
AcDbSymbolTableRecord
100
AcDbRegAppTableRecord
  2
AMG_2DSTRUCT_BTR
 70
     0
  0
APPID
  5
443
330
9
100
AcDbSymbolTableRecord
100
AcDbRegAppTableRecord
  2
GEVID1208845772
 70
     0
  0
APPID
  5
444
330
9
100
AcDbSymbolTableRecord
100
AcDbRegAppTableRecord
  2
GEVID1208845773
 70
     0
  0
APPID
  5
445
330
9
100
AcDbSymbolTableRecord
100
AcDbRegAppTableRecord
  2
ACADM_2DVIEW_IGN_NOTIFY
 70
     0
  0
APPID
  5
446
330
9
100
AcDbSymbolTableRecord
100
AcDbRegAppTableRecord
  2
GEVID1208845774
 70
     0
  0
APPID
  5
447
330
9
100
AcDbSymbolTableRecord
100
AcDbRegAppTableRecord
  2
GEVID1208845775
 70
     0
  0
APPID
  5
448
330
9
100
AcDbSymbolTableRecord
100
AcDbRegAppTableRecord
  2
GEVID1208845776
 70
     0
  0
APPID
  5
449
330
9
100
AcDbSymbolTableRecord
100
AcDbRegAppTableRecord
  2
GEVID1208845777
 70
     0
  0
APPID
  5
44A
330
9
100
AcDbSymbolTableRecord
100
AcDbRegAppTableRecord
  2
GEVCON
 70
     0
  0
APPID
  5
44B
330
9
100
AcDbSymbolTableRecord
100
AcDbRegAppTableRecord
  2
GENIUS_GENOBJ-F-SCPASSM_13
 70
     0
  0
APPID
  5
44C
330
9
100
AcDbSymbolTableRecord
100
AcDbRegAppTableRecord
  2
GEVID1208845778
 70
     0
  0
APPID
  5
44D
330
9
100
AcDbSymbolTableRecord
100
AcDbRegAppTableRecord
  2
GEVID1208845779
 70
     0
  0
APPID
  5
44E
330
9
100
AcDbSymbolTableRecord
100
AcDbRegAppTableRecord
  2
GEVID1208845780
 70
     0
  0
APPID
  5
44F
330
9
100
AcDbSymbolTableRecord
100
AcDbRegAppTableRecord
  2
GEVID1208845781
 70
     0
  0
APPID
  5
450
330
9
100
AcDbSymbolTableRecord
100
AcDbRegAppTableRecord
  2
GEVID1208845782
 70
     0
  0
APPID
  5
451
330
9
100
AcDbSymbolTableRecord
100
AcDbRegAppTableRecord
  2
GEVID1208845783
 70
     0
  0
APPID
  5
452
330
9
100
AcDbSymbolTableRecord
100
AcDbRegAppTableRecord
  2
GEVID1208845784
 70
     0
  0
APPID
  5
453
330
9
100
AcDbSymbolTableRecord
100
AcDbRegAppTableRecord
  2
GEVID1208845785
 70
     0
  0
APPID
  5
454
330
9
100
AcDbSymbolTableRecord
100
AcDbRegAppTableRecord
  2
GEVID1208845787
 70
     0
  0
APPID
  5
455
330
9
100
AcDbSymbolTableRecord
100
AcDbRegAppTableRecord
  2
GEVID1208845788
 70
     0
  0
APPID
  5
456
330
9
100
AcDbSymbolTableRecord
100
AcDbRegAppTableRecord
  2
GEVID1208845789
 70
     0
  0
APPID
  5
457
330
9
100
AcDbSymbolTableRecord
100
AcDbRegAppTableRecord
  2
GEVID1208845790
 70
     0
  0
APPID
  5
458
330
9
100
AcDbSymbolTableRecord
100
AcDbRegAppTableRecord
  2
GEVID1208845791
 70
     0
  0
APPID
  5
459
330
9
100
AcDbSymbolTableRecord
100
AcDbRegAppTableRecord
  2
GEVID1208845792
 70
     0
  0
APPID
  5
45A
330
9
100
AcDbSymbolTableRecord
100
AcDbRegAppTableRecord
  2
GEVID1208845793
 70
     0
  0
APPID
  5
45B
330
9
100
AcDbSymbolTableRecord
100
AcDbRegAppTableRecord
  2
GEVID1208845794
 70
     0
  0
APPID
  5
45C
330
9
100
AcDbSymbolTableRecord
100
AcDbRegAppTableRecord
  2
GEVID1208845795
 70
     0
  0
APPID
  5
45D
330
9
100
AcDbSymbolTableRecord
100
AcDbRegAppTableRecord
  2
GEVID1208845796
 70
     0
  0
APPID
  5
45E
330
9
100
AcDbSymbolTableRecord
100
AcDbRegAppTableRecord
  2
GEVID1208845797
 70
     0
  0
APPID
  5
45F
330
9
100
AcDbSymbolTableRecord
100
AcDbRegAppTableRecord
  2
GEVID1208845798
 70
     0
  0
APPID
  5
460
330
9
100
AcDbSymbolTableRecord
100
AcDbRegAppTableRecord
  2
GEVID1208845799
 70
     0
  0
APPID
  5
461
330
9
100
AcDbSymbolTableRecord
100
AcDbRegAppTableRecord
  2
GEVID1208845800
 70
     0
  0
APPID
  5
462
330
9
100
AcDbSymbolTableRecord
100
AcDbRegAppTableRecord
  2
GEVID1208845801
 70
     0
  0
APPID
  5
463
330
9
100
AcDbSymbolTableRecord
100
AcDbRegAppTableRecord
  2
GEVID1208845802
 70
     0
  0
APPID
  5
464
330
9
100
AcDbSymbolTableRecord
100
AcDbRegAppTableRecord
  2
GENIUS_GENOBJ-N-DIM_13
 70
     0
  0
APPID
  5
465
330
9
100
AcDbSymbolTableRecord
100
AcDbRegAppTableRecord
  2
GENIUS_GENDIM_13
 70
     0
  0
APPID
  5
466
330
9
100
AcDbSymbolTableRecord
100
AcDbRegAppTableRecord
  2
GENIUS_GENDIMSH_14
 70
     0
  0
APPID
  5
467
330
9
100
AcDbSymbolTableRecord
100
AcDbRegAppTableRecord
  2
GEVID1208845803
 70
     0
  0
APPID
  5
468
330
9
100
AcDbSymbolTableRecord
100
AcDbRegAppTableRecord
  2
GEVID1208845804
 70
     0
  0
APPID
  5
469
330
9
100
AcDbSymbolTableRecord
100
AcDbRegAppTableRecord
  2
GEVID1208845805
 70
     0
  0
APPID
  5
46A
330
9
100
AcDbSymbolTableRecord
100
AcDbRegAppTableRecord
  2
GEVID1208845806
 70
     0
  0
APPID
  5
46B
330
9
100
AcDbSymbolTableRecord
100
AcDbRegAppTableRecord
  2
GEVID1208845807
 70
     0
  0
APPID
  5
46C
330
9
100
AcDbSymbolTableRecord
100
AcDbRegAppTableRecord
  2
GEVID1208845808
 70
     0
  0
APPID
  5
46D
330
9
100
AcDbSymbolTableRecord
100
AcDbRegAppTableRecord
  2
GEVID1208845809
 70
     0
  0
APPID
  5
46E
330
9
100
AcDbSymbolTableRecord
100
AcDbRegAppTableRecord
  2
GEVID1208845810
 70
     0
  0
APPID
  5
46F
330
9
100
AcDbSymbolTableRecord
100
AcDbRegAppTableRecord
  2
GEVID1208845811
 70
     0
  0
APPID
  5
470
330
9
100
AcDbSymbolTableRecord
100
AcDbRegAppTableRecord
  2
GEVID1208845813
 70
     0
  0
APPID
  5
471
330
9
100
AcDbSymbolTableRecord
100
AcDbRegAppTableRecord
  2
GEVID1208845814
 70
     0
  0
APPID
  5
472
330
9
100
AcDbSymbolTableRecord
100
AcDbRegAppTableRecord
  2
GEVID1208845815
 70
     0
  0
APPID
  5
473
330
9
100
AcDbSymbolTableRecord
100
AcDbRegAppTableRecord
  2
GEVID1208845816
 70
     0
  0
APPID
  5
474
330
9
100
AcDbSymbolTableRecord
100
AcDbRegAppTableRecord
  2
GEVID1208845817
 70
     0
  0
APPID
  5
475
330
9
100
AcDbSymbolTableRecord
100
AcDbRegAppTableRecord
  2
GEVID1208845818
 70
     0
  0
APPID
  5
476
330
9
100
AcDbSymbolTableRecord
100
AcDbRegAppTableRecord
  2
GEVID1208845819
 70
     0
  0
APPID
  5
477
330
9
100
AcDbSymbolTableRecord
100
AcDbRegAppTableRecord
  2
GEVID1208845820
 70
     0
  0
APPID
  5
478
330
9
100
AcDbSymbolTableRecord
100
AcDbRegAppTableRecord
  2
GENIUS_GENOBJ-F-SHCL_13
 70
     0
  0
APPID
  5
479
330
9
100
AcDbSymbolTableRecord
100
AcDbRegAppTableRecord
  2
GENIUS_GEFMSH_13
 70
     0
  0
APPID
  5
47A
330
9
100
AcDbSymbolTableRecord
100
AcDbRegAppTableRecord
  2
GENIUS_GENOBJ-F-SHCA_13
 70
     0
  0
APPID
  5
47B
330
9
100
AcDbSymbolTableRecord
100
AcDbRegAppTableRecord
  2
GENIUS_GEFSH_13
 70
     0
  0
APPID
  5
47C
330
9
100
AcDbSymbolTableRecord
100
AcDbRegAppTableRecord
  2
GENIUS_GEFSHP_13
 70
     0
  0
APPID
  5
47D
330
9
100
AcDbSymbolTableRecord
100
AcDbRegAppTableRecord
  2
GENIUS_GEFSHP0_13
 70
     0
  0
APPID
  5
47E
330
9
100
AcDbSymbolTableRecord
100
AcDbRegAppTableRecord
  2
GENIUS_GEFSH0_13
 70
     0
  0
APPID
  5
47F
330
9
100
AcDbSymbolTableRecord
100
AcDbRegAppTableRecord
  2
GENIUS_GEFSHP1_13
 70
     0
  0
APPID
  5
480
330
9
100
AcDbSymbolTableRecord
100
AcDbRegAppTableRecord
  2
GENIUS_GEFSH1_13
 70
     0
  0
APPID
  5
481
330
9
100
AcDbSymbolTableRecord
100
AcDbRegAppTableRecord
  2
GEVID1208866337
 70
     0
  0
APPID
  5
482
330
9
100
AcDbSymbolTableRecord
100
AcDbRegAppTableRecord
  2
GEVID1208866338
 70
     0
  0
APPID
  5
483
330
9
100
AcDbSymbolTableRecord
100
AcDbRegAppTableRecord
  2
GEVID1208866339
 70
     0
  0
APPID
  5
484
330
9
100
AcDbSymbolTableRecord
100
AcDbRegAppTableRecord
  2
GEVID1208866340
 70
     0
  0
APPID
  5
485
330
9
100
AcDbSymbolTableRecord
100
AcDbRegAppTableRecord
  2
GEVID1208866341
 70
     0
  0
APPID
  5
486
330
9
100
AcDbSymbolTableRecord
100
AcDbRegAppTableRecord
  2
ACAD_PSEXT
 70
     0
  0
APPID
  5
487
330
9
100
AcDbSymbolTableRecord
100
AcDbRegAppTableRecord
  2
GEVID1208866342
 70
     0
  0
APPID
  5
488
330
9
100
AcDbSymbolTableRecord
100
AcDbRegAppTableRecord
  2
GEVID1208913836
 70
     0
  0
APPID
  5
489
330
9
100
AcDbSymbolTableRecord
100
AcDbRegAppTableRecord
  2
GEVID1208913837
 70
     0
  0
APPID
  5
48A
330
9
100
AcDbSymbolTableRecord
100
AcDbRegAppTableRecord
  2
GEVID1208913838
 70
     0
  0
APPID
  5
48B
330
9
100
AcDbSymbolTableRecord
100
AcDbRegAppTableRecord
  2
GEVID1208913839
 70
     0
  0
APPID
  5
48C
330
9
100
AcDbSymbolTableRecord
100
AcDbRegAppTableRecord
  2
GENIUS_GENDTOL_13
 70
     0
  0
APPID
  5
48D
330
9
100
AcDbSymbolTableRecord
100
AcDbRegAppTableRecord
  2
GEVID1208928889
 70
     0
  0
APPID
  5
48E
330
9
100
AcDbSymbolTableRecord
100
AcDbRegAppTableRecord
  2
GEVID1208928890
 70
     0
  0
APPID
  5
48F
330
9
100
AcDbSymbolTableRecord
100
AcDbRegAppTableRecord
  2
GEVID1208928891
 70
     0
  0
APPID
  5
490
330
9
100
AcDbSymbolTableRecord
100
AcDbRegAppTableRecord
  2
GEVID1208928892
 70
     0
  0
APPID
  5
491
330
9
100
AcDbSymbolTableRecord
100
AcDbRegAppTableRecord
  2
GEVID1208933827
 70
     0
  0
APPID
  5
492
330
9
100
AcDbSymbolTableRecord
100
AcDbRegAppTableRecord
  2
GEVID1208933829
 70
     0
  0
APPID
  5
493
330
9
100
AcDbSymbolTableRecord
100
AcDbRegAppTableRecord
  2
GEVID1208933830
 70
     0
  0
APPID
  5
494
330
9
100
AcDbSymbolTableRecord
100
AcDbRegAppTableRecord
  2
GEVID1208933831
 70
     0
  0
APPID
  5
495
330
9
100
AcDbSymbolTableRecord
100
AcDbRegAppTableRecord
  2
GEVID1208933832
 70
     0
  0
APPID
  5
496
330
9
100
AcDbSymbolTableRecord
100
AcDbRegAppTableRecord
  2
GEVID1208933833
 70
     0
  0
APPID
  5
497
330
9
100
AcDbSymbolTableRecord
100
AcDbRegAppTableRecord
  2
GEVID1208933834
 70
     0
  0
APPID
  5
498
330
9
100
AcDbSymbolTableRecord
100
AcDbRegAppTableRecord
  2
GEVID1208933835
 70
     0
  0
APPID
  5
499
330
9
100
AcDbSymbolTableRecord
100
AcDbRegAppTableRecord
  2
GEVID1208933836
 70
     0
  0
APPID
  5
49A
330
9
100
AcDbSymbolTableRecord
100
AcDbRegAppTableRecord
  2
GEVID1208933837
 70
     0
  0
APPID
  5
49B
330
9
100
AcDbSymbolTableRecord
100
AcDbRegAppTableRecord
  2
GEVID1208933838
 70
     0
  0
APPID
  5
49C
330
9
100
AcDbSymbolTableRecord
100
AcDbRegAppTableRecord
  2
GEVID1208933840
 70
     0
  0
APPID
  5
49D
330
9
100
AcDbSymbolTableRecord
100
AcDbRegAppTableRecord
  2
GEVID1208933842
 70
     0
  0
APPID
  5
49E
330
9
100
AcDbSymbolTableRecord
100
AcDbRegAppTableRecord
  2
GEVID1208933843
 70
     0
  0
APPID
  5
49F
330
9
100
AcDbSymbolTableRecord
100
AcDbRegAppTableRecord
  2
GEVID1208933844
 70
     0
  0
APPID
  5
4A0
330
9
100
AcDbSymbolTableRecord
100
AcDbRegAppTableRecord
  2
GEVID1208933845
 70
     0
  0
APPID
  5
4A1
330
9
100
AcDbSymbolTableRecord
100
AcDbRegAppTableRecord
  2
GEVID1208933846
 70
     0
  0
APPID
  5
4A2
330
9
100
AcDbSymbolTableRecord
100
AcDbRegAppTableRecord
  2
GEVID1208933847
 70
     0
  0
APPID
  5
4A3
330
9
100
AcDbSymbolTableRecord
100
AcDbRegAppTableRecord
  2
GEVID1208933848
 70
     0
  0
APPID
  5
4A4
330
9
100
AcDbSymbolTableRecord
100
AcDbRegAppTableRecord
  2
GEVID1208933849
 70
     0
  0
APPID
  5
4A5
330
9
100
AcDbSymbolTableRecord
100
AcDbRegAppTableRecord
  2
GEVID1208933850
 70
     0
  0
APPID
  5
4A6
330
9
100
AcDbSymbolTableRecord
100
AcDbRegAppTableRecord
  2
GEVID1208933851
 70
     0
  0
APPID
  5
4A7
330
9
100
AcDbSymbolTableRecord
100
AcDbRegAppTableRecord
  2
GEVID1208933852
 70
     0
  0
APPID
  5
4A8
330
9
100
AcDbSymbolTableRecord
100
AcDbRegAppTableRecord
  2
GEVID1208933853
 70
     0
  0
APPID
  5
4A9
330
9
100
AcDbSymbolTableRecord
100
AcDbRegAppTableRecord
  2
GEVID1208933854
 70
     0
  0
APPID
  5
4AA
330
9
100
AcDbSymbolTableRecord
100
AcDbRegAppTableRecord
  2
GEVID1208933855
 70
     0
  0
APPID
  5
4AB
330
9
100
AcDbSymbolTableRecord
100
AcDbRegAppTableRecord
  2
GEVID1208933856
 70
     0
  0
APPID
  5
4AC
330
9
100
AcDbSymbolTableRecord
100
AcDbRegAppTableRecord
  2
GEVID1208933857
 70
     0
  0
APPID
  5
4AD
330
9
100
AcDbSymbolTableRecord
100
AcDbRegAppTableRecord
  2
GEVID1208933858
 70
     0
  0
APPID
  5
4AE
330
9
100
AcDbSymbolTableRecord
100
AcDbRegAppTableRecord
  2
GEVID1208933859
 70
     0
  0
APPID
  5
4AF
330
9
100
AcDbSymbolTableRecord
100
AcDbRegAppTableRecord
  2
GEVID1208933860
 70
     0
  0
APPID
  5
4B0
330
9
100
AcDbSymbolTableRecord
100
AcDbRegAppTableRecord
  2
GEVID1208933861
 70
     0
  0
APPID
  5
4B1
330
9
100
AcDbSymbolTableRecord
100
AcDbRegAppTableRecord
  2
GEVID1208933862
 70
     0
  0
APPID
  5
4B2
330
9
100
AcDbSymbolTableRecord
100
AcDbRegAppTableRecord
  2
GEVID1208933863
 70
     0
  0
APPID
  5
4B3
330
9
100
AcDbSymbolTableRecord
100
AcDbRegAppTableRecord
  2
GEVID1208933864
 70
     0
  0
APPID
  5
4B4
330
9
100
AcDbSymbolTableRecord
100
AcDbRegAppTableRecord
  2
GEVID1208933865
 70
     0
  0
APPID
  5
4B5
330
9
100
AcDbSymbolTableRecord
100
AcDbRegAppTableRecord
  2
GEVID1208933866
 70
     0
  0
APPID
  5
4B6
330
9
100
AcDbSymbolTableRecord
100
AcDbRegAppTableRecord
  2
GEVID1208933867
 70
     0
  0
APPID
  5
4B7
330
9
100
AcDbSymbolTableRecord
100
AcDbRegAppTableRecord
  2
GEVID1208933868
 70
     0
  0
APPID
  5
4B8
330
9
100
AcDbSymbolTableRecord
100
AcDbRegAppTableRecord
  2
GEVID1208933869
 70
     0
  0
APPID
  5
4B9
330
9
100
AcDbSymbolTableRecord
100
AcDbRegAppTableRecord
  2
GEVID1208933870
 70
     0
  0
APPID
  5
4BA
330
9
100
AcDbSymbolTableRecord
100
AcDbRegAppTableRecord
  2
GEVID1208933871
 70
     0
  0
APPID
  5
4BB
330
9
100
AcDbSymbolTableRecord
100
AcDbRegAppTableRecord
  2
GEVID1208933872
 70
     0
  0
APPID
  5
4BC
330
9
100
AcDbSymbolTableRecord
100
AcDbRegAppTableRecord
  2
GEVID1208933873
 70
     0
  0
APPID
  5
4BD
330
9
100
AcDbSymbolTableRecord
100
AcDbRegAppTableRecord
  2
GEVID1208933874
 70
     0
  0
APPID
  5
4BE
330
9
100
AcDbSymbolTableRecord
100
AcDbRegAppTableRecord
  2
GEVID1208933875
 70
     0
  0
APPID
  5
4BF
330
9
100
AcDbSymbolTableRecord
100
AcDbRegAppTableRecord
  2
GEVID1208933876
 70
     0
  0
APPID
  5
4C0
330
9
100
AcDbSymbolTableRecord
100
AcDbRegAppTableRecord
  2
ACAD_DSTYLE_DIMRADIAL_EXTENSION
 70
     0
  0
APPID
  5
4C1
330
9
100
AcDbSymbolTableRecord
100
AcDbRegAppTableRecord
  2
GEVID1208999100
 70
     0
  0
APPID
  5
4C2
330
9
100
AcDbSymbolTableRecord
100
AcDbRegAppTableRecord
  2
GEVID1208999101
 70
     0
  0
APPID
  5
4C3
330
9
100
AcDbSymbolTableRecord
100
AcDbRegAppTableRecord
  2
GEVID1208999102
 70
     0
  0
APPID
  5
4C4
330
9
100
AcDbSymbolTableRecord
100
AcDbRegAppTableRecord
  2
GEVID1208999103
 70
     0
  0
APPID
  5
4C5
330
9
100
AcDbSymbolTableRecord
100
AcDbRegAppTableRecord
  2
GEVID1208999105
 70
     0
  0
APPID
  5
4C6
330
9
100
AcDbSymbolTableRecord
100
AcDbRegAppTableRecord
  2
GEVID1208999106
 70
     0
  0
APPID
  5
4C7
330
9
100
AcDbSymbolTableRecord
100
AcDbRegAppTableRecord
  2
GEVID1208999108
 70
     0
  0
APPID
  5
4C8
330
9
100
AcDbSymbolTableRecord
100
AcDbRegAppTableRecord
  2
GEVID1208999109
 70
     0
  0
APPID
  5
4C9
330
9
100
AcDbSymbolTableRecord
100
AcDbRegAppTableRecord
  2
GEVID1208999110
 70
     0
  0
APPID
  5
4CA
330
9
100
AcDbSymbolTableRecord
100
AcDbRegAppTableRecord
  2
GEVID1208999111
 70
     0
  0
APPID
  5
4CB
330
9
100
AcDbSymbolTableRecord
100
AcDbRegAppTableRecord
  2
GEVID1208999112
 70
     0
  0
APPID
  5
4CC
330
9
100
AcDbSymbolTableRecord
100
AcDbRegAppTableRecord
  2
GEVID1208999113
 70
     0
  0
APPID
  5
4CD
330
9
100
AcDbSymbolTableRecord
100
AcDbRegAppTableRecord
  2
GEVID1208999114
 70
     0
  0
APPID
  5
4CE
330
9
100
AcDbSymbolTableRecord
100
AcDbRegAppTableRecord
  2
GEVID1210218799
 70
     0
  0
APPID
  5
4CF
330
9
100
AcDbSymbolTableRecord
100
AcDbRegAppTableRecord
  2
GEVID1210218800
 70
     0
  0
APPID
  5
4D0
330
9
100
AcDbSymbolTableRecord
100
AcDbRegAppTableRecord
  2
GENIUS_GEFWELD_13
 70
     0
  0
APPID
  5
4D1
330
9
100
AcDbSymbolTableRecord
100
AcDbRegAppTableRecord
  2
GENIUS_GENOBJ-F-WELS_13
 70
     0
  0
APPID
  5
4D2
330
9
100
AcDbSymbolTableRecord
100
AcDbRegAppTableRecord
  2
AcadAnnotative
 70
     0
  0
APPID
  5
4D3
330
9
100
AcDbSymbolTableRecord
100
AcDbRegAppTableRecord
  2
GEVID1210145339
 70
     0
  0
APPID
  5
4D4
330
9
100
AcDbSymbolTableRecord
100
AcDbRegAppTableRecord
  2
ACAD_DSTYLE_DIMBREAK
 70
     0
  0
APPID
  5
4D5
330
9
100
AcDbSymbolTableRecord
100
AcDbRegAppTableRecord
  2
GEVID1210145340
 70
     0
  0
APPID
  5
4D6
330
9
100
AcDbSymbolTableRecord
100
AcDbRegAppTableRecord
  2
GEVID1210145341
 70
     0
  0
APPID
  5
4D7
330
9
100
AcDbSymbolTableRecord
100
AcDbRegAppTableRecord
  2
GEVID1210145342
 70
     0
  0
APPID
  5
4D8
330
9
100
AcDbSymbolTableRecord
100
AcDbRegAppTableRecord
  2
GEVID1210145343
 70
     0
  0
APPID
  5
4D9
330
9
100
AcDbSymbolTableRecord
100
AcDbRegAppTableRecord
  2
GEVID1210145344
 70
     0
  0
APPID
  5
4DA
330
9
100
AcDbSymbolTableRecord
100
AcDbRegAppTableRecord
  2
GEVID1210145345
 70
     0
  0
APPID
  5
4DB
330
9
100
AcDbSymbolTableRecord
100
AcDbRegAppTableRecord
  2
GEVID1210152816
 70
     0
  0
APPID
  5
4DC
330
9
100
AcDbSymbolTableRecord
100
AcDbRegAppTableRecord
  2
GEVID1210153850
 70
     0
  0
APPID
  5
4DD
330
9
100
AcDbSymbolTableRecord
100
AcDbRegAppTableRecord
  2
GEVID1210153851
 70
     0
  0
APPID
  5
4DE
330
9
100
AcDbSymbolTableRecord
100
AcDbRegAppTableRecord
  2
GEVID1210153852
 70
     0
  0
APPID
  5
4DF
330
9
100
AcDbSymbolTableRecord
100
AcDbRegAppTableRecord
  2
GEVID1210549898
 70
     0
  0
APPID
  5
4E0
330
9
100
AcDbSymbolTableRecord
100
AcDbRegAppTableRecord
  2
GEVID1210549899
 70
     0
  0
APPID
  5
4E1
330
9
100
AcDbSymbolTableRecord
100
AcDbRegAppTableRecord
  2
GEVID1210549900
 70
     0
  0
APPID
  5
4E2
330
9
100
AcDbSymbolTableRecord
100
AcDbRegAppTableRecord
  2
GEVID1210549901
 70
     0
  0
APPID
  5
4E3
330
9
100
AcDbSymbolTableRecord
100
AcDbRegAppTableRecord
  2
GEVID1210549902
 70
     0
  0
APPID
  5
4E4
330
9
100
AcDbSymbolTableRecord
100
AcDbRegAppTableRecord
  2
GEVID1210549903
 70
     0
  0
APPID
  5
4E5
330
9
100
AcDbSymbolTableRecord
100
AcDbRegAppTableRecord
  2
GEVID1210549904
 70
     0
  0
APPID
  5
4E6
330
9
100
AcDbSymbolTableRecord
100
AcDbRegAppTableRecord
  2
GEVID1210549905
 70
     0
  0
APPID
  5
4E7
330
9
100
AcDbSymbolTableRecord
100
AcDbRegAppTableRecord
  2
GEVID1210549906
 70
     0
  0
APPID
  5
4E8
330
9
100
AcDbSymbolTableRecord
100
AcDbRegAppTableRecord
  2
GEVID1210549907
 70
     0
  0
APPID
  5
4E9
330
9
100
AcDbSymbolTableRecord
100
AcDbRegAppTableRecord
  2
GEVID1210549908
 70
     0
  0
APPID
  5
4EA
330
9
100
AcDbSymbolTableRecord
100
AcDbRegAppTableRecord
  2
GEVID1210549909
 70
     0
  0
APPID
  5
4EB
330
9
100
AcDbSymbolTableRecord
100
AcDbRegAppTableRecord
  2
GEVID1210549910
 70
     0
  0
APPID
  5
4EC
330
9
100
AcDbSymbolTableRecord
100
AcDbRegAppTableRecord
  2
GEVID1210549911
 70
     0
  0
APPID
  5
4ED
330
9
100
AcDbSymbolTableRecord
100
AcDbRegAppTableRecord
  2
GEVID1210549912
 70
     0
  0
APPID
  5
4EE
330
9
100
AcDbSymbolTableRecord
100
AcDbRegAppTableRecord
  2
GEVID1210549913
 70
     0
  0
APPID
  5
4EF
330
9
100
AcDbSymbolTableRecord
100
AcDbRegAppTableRecord
  2
GEVID1210549914
 70
     0
  0
APPID
  5
4F0
330
9
100
AcDbSymbolTableRecord
100
AcDbRegAppTableRecord
  2
GEVID1210549915
 70
     0
  0
APPID
  5
4F1
330
9
100
AcDbSymbolTableRecord
100
AcDbRegAppTableRecord
  2
GEVID1210549916
 70
     0
  0
APPID
  5
4F2
330
9
100
AcDbSymbolTableRecord
100
AcDbRegAppTableRecord
  2
GEVID1210549917
 70
     0
  0
APPID
  5
4F3
330
9
100
AcDbSymbolTableRecord
100
AcDbRegAppTableRecord
  2
GENIUS_GENOBJ-N-CRS_13
 70
     0
  0
APPID
  5
4F4
330
9
100
AcDbSymbolTableRecord
100
AcDbRegAppTableRecord
  2
GEVID1210549918
 70
     0
  0
APPID
  5
4F5
330
9
100
AcDbSymbolTableRecord
100
AcDbRegAppTableRecord
  2
GENIUS_GENOBJ-N-CRC_13
 70
     0
  0
APPID
  5
4F6
330
9
100
AcDbSymbolTableRecord
100
AcDbRegAppTableRecord
  2
GENIUS_GENCRC_14
 70
     0
  0
APPID
  5
4F7
330
9
100
AcDbSymbolTableRecord
100
AcDbRegAppTableRecord
  2
GEVID1210549919
 70
     0
  0
APPID
  5
4F8
330
9
100
AcDbSymbolTableRecord
100
AcDbRegAppTableRecord
  2
GEVID1210549921
 70
     0
  0
APPID
  5
4F9
330
9
100
AcDbSymbolTableRecord
100
AcDbRegAppTableRecord
  2
GEVID1210549922
 70
     0
  0
APPID
  5
4FA
330
9
100
AcDbSymbolTableRecord
100
AcDbRegAppTableRecord
  2
GEVID1210635173
 70
     0
  0
APPID
  5
4FB
330
9
100
AcDbSymbolTableRecord
100
AcDbRegAppTableRecord
  2
GEVID1210635174
 70
     0
  0
APPID
  5
4FC
330
9
100
AcDbSymbolTableRecord
100
AcDbRegAppTableRecord
  2
GEVID1210635175
 70
     0
  0
APPID
  5
4FD
330
9
100
AcDbSymbolTableRecord
100
AcDbRegAppTableRecord
  2
GEVID1210635176
 70
     0
  0
APPID
  5
4FE
330
9
100
AcDbSymbolTableRecord
100
AcDbRegAppTableRecord
  2
GEVID1210635177
 70
     0
  0
APPID
  5
4FF
330
9
100
AcDbSymbolTableRecord
100
AcDbRegAppTableRecord
  2
GEVID1210635178
 70
     0
  0
APPID
  5
500
330
9
100
AcDbSymbolTableRecord
100
AcDbRegAppTableRecord
  2
GENIUS_GENIUS_GENBHEDTMP_13
 70
     0
  0
APPID
  5
501
330
9
100
AcDbSymbolTableRecord
100
AcDbRegAppTableRecord
  2
GEVID1210635179
 70
     0
  0
APPID
  5
502
330
9
100
AcDbSymbolTableRecord
100
AcDbRegAppTableRecord
  2
GEVID1210635180
 70
     0
  0
APPID
  5
503
330
9
100
AcDbSymbolTableRecord
100
AcDbRegAppTableRecord
  2
GEVID1210635181
 70
     0
  0
APPID
  5
504
330
9
100
AcDbSymbolTableRecord
100
AcDbRegAppTableRecord
  2
GEVID1210635182
 70
     0
  0
APPID
  5
505
330
9
100
AcDbSymbolTableRecord
100
AcDbRegAppTableRecord
  2
GEVID1210635184
 70
     0
  0
APPID
  5
506
330
9
100
AcDbSymbolTableRecord
100
AcDbRegAppTableRecord
  2
GEVID1210635185
 70
     0
  0
APPID
  5
507
330
9
100
AcDbSymbolTableRecord
100
AcDbRegAppTableRecord
  2
GEVID1210635186
 70
     0
  0
APPID
  5
508
330
9
100
AcDbSymbolTableRecord
100
AcDbRegAppTableRecord
  2
GEVID1210635187
 70
     0
  0
APPID
  5
509
330
9
100
AcDbSymbolTableRecord
100
AcDbRegAppTableRecord
  2
GEVID1210635188
 70
     0
  0
APPID
  5
50A
330
9
100
AcDbSymbolTableRecord
100
AcDbRegAppTableRecord
  2
GEVID1210635189
 70
     0
  0
APPID
  5
50B
330
9
100
AcDbSymbolTableRecord
100
AcDbRegAppTableRecord
  2
GEVID1210635190
 70
     0
  0
APPID
  5
50C
330
9
100
AcDbSymbolTableRecord
100
AcDbRegAppTableRecord
  2
GENIUS_GENREC_14
 70
     0
  0
APPID
  5
50D
330
9
100
AcDbSymbolTableRecord
100
AcDbRegAppTableRecord
  2
GENIUS_GENOBJ-N-REC_13
 70
     0
  0
APPID
  5
50E
330
9
100
AcDbSymbolTableRecord
100
AcDbRegAppTableRecord
  2
GEVID1210676655
 70
     0
  0
APPID
  5
50F
330
9
100
AcDbSymbolTableRecord
100
AcDbRegAppTableRecord
  2
GEVID1210676656
 70
     0
  0
APPID
  5
510
330
9
100
AcDbSymbolTableRecord
100
AcDbRegAppTableRecord
  2
GEVID1210676657
 70
     0
  0
APPID
  5
511
330
9
100
AcDbSymbolTableRecord
100
AcDbRegAppTableRecord
  2
GEVID1210676659
 70
     0
  0
APPID
  5
512
330
9
100
AcDbSymbolTableRecord
100
AcDbRegAppTableRecord
  2
GEVID1210676660
 70
     0
  0
APPID
  5
513
330
9
100
AcDbSymbolTableRecord
100
AcDbRegAppTableRecord
  2
GEVID1210676661
 70
     0
  0
APPID
  5
514
330
9
100
AcDbSymbolTableRecord
100
AcDbRegAppTableRecord
  2
GEVID1210676662
 70
     0
  0
APPID
  5
515
330
9
100
AcDbSymbolTableRecord
100
AcDbRegAppTableRecord
  2
GEVID1210721646
 70
     0
  0
APPID
  5
516
330
9
100
AcDbSymbolTableRecord
100
AcDbRegAppTableRecord
  2
GEVID1210721647
 70
     0
  0
APPID
  5
517
330
9
100
AcDbSymbolTableRecord
100
AcDbRegAppTableRecord
  2
GEVID1210721648
 70
     0
  0
APPID
  5
518
330
9
100
AcDbSymbolTableRecord
100
AcDbRegAppTableRecord
  2
GEVID1210721649
 70
     0
  0
APPID
  5
519
330
9
100
AcDbSymbolTableRecord
100
AcDbRegAppTableRecord
  2
GEVID1210721650
 70
     0
  0
APPID
  5
51A
330
9
100
AcDbSymbolTableRecord
100
AcDbRegAppTableRecord
  2
GEVID1210721651
 70
     0
  0
APPID
  5
51B
330
9
100
AcDbSymbolTableRecord
100
AcDbRegAppTableRecord
  2
GEVID1210721652
 70
     0
  0
APPID
  5
51C
330
9
100
AcDbSymbolTableRecord
100
AcDbRegAppTableRecord
  2
GEVID1210721653
 70
     0
  0
APPID
  5
51D
330
9
100
AcDbSymbolTableRecord
100
AcDbRegAppTableRecord
  2
PE_URL
 70
     0
  0
APPID
  5
51E
330
9
100
AcDbSymbolTableRecord
100
AcDbRegAppTableRecord
  2
GEVID1210825555
 70
     0
  0
APPID
  5
51F
330
9
100
AcDbSymbolTableRecord
100
AcDbRegAppTableRecord
  2
GEVID1210825556
 70
     0
  0
APPID
  5
520
330
9
100
AcDbSymbolTableRecord
100
AcDbRegAppTableRecord
  2
GEVID1210825557
 70
     0
  0
APPID
  5
521
330
9
100
AcDbSymbolTableRecord
100
AcDbRegAppTableRecord
  2
GEVID1210825558
 70
     0
  0
APPID
  5
522
330
9
100
AcDbSymbolTableRecord
100
AcDbRegAppTableRecord
  2
GEVID1210825559
 70
     0
  0
APPID
  5
523
330
9
100
AcDbSymbolTableRecord
100
AcDbRegAppTableRecord
  2
GEVID1210825560
 70
     0
  0
APPID
  5
524
330
9
100
AcDbSymbolTableRecord
100
AcDbRegAppTableRecord
  2
GEVID1210825561
 70
     0
  0
APPID
  5
525
330
9
100
AcDbSymbolTableRecord
100
AcDbRegAppTableRecord
  2
GEVID1210825562
 70
     0
  0
APPID
  5
526
330
9
100
AcDbSymbolTableRecord
100
AcDbRegAppTableRecord
  2
GEVID1210825563
 70
     0
  0
APPID
  5
527
330
9
100
AcDbSymbolTableRecord
100
AcDbRegAppTableRecord
  2
GEVID1210825564
 70
     0
  0
APPID
  5
528
330
9
100
AcDbSymbolTableRecord
100
AcDbRegAppTableRecord
  2
GEVID1210825565
 70
     0
  0
APPID
  5
529
330
9
100
AcDbSymbolTableRecord
100
AcDbRegAppTableRecord
  2
GEVID1210825566
 70
     0
  0
APPID
  5
52A
330
9
100
AcDbSymbolTableRecord
100
AcDbRegAppTableRecord
  2
GEVID1210825567
 70
     0
  0
APPID
  5
52B
330
9
100
AcDbSymbolTableRecord
100
AcDbRegAppTableRecord
  2
GENIUS_GENOBJ-N-ZOO_13
 70
     0
  0
APPID
  5
52C
330
9
100
AcDbSymbolTableRecord
100
AcDbRegAppTableRecord
  2
GENIUS_GENZOO_17
 70
     0
  0
APPID
  5
52D
330
9
100
AcDbSymbolTableRecord
100
AcDbRegAppTableRecord
  2
ACADANNOTATIVEDECOMPOSITION
 70
     0
  0
APPID
  5
52E
330
9
100
AcDbSymbolTableRecord
100
AcDbRegAppTableRecord
  2
GENIUS_GENOBJ-N-HTC_13
 70
     0
  0
APPID
  5
52F
330
9
100
AcDbSymbolTableRecord
100
AcDbRegAppTableRecord
  2
GENIUS_GENHATCH_13
 70
     0
  0
APPID
  5
530
330
9
100
AcDbSymbolTableRecord
100
AcDbRegAppTableRecord
  2
GEVID1210896020
 70
     0
  0
APPID
  5
531
330
9
100
AcDbSymbolTableRecord
100
AcDbRegAppTableRecord
  2
GEVID1210896021
 70
     0
  0
APPID
  5
532
330
9
100
AcDbSymbolTableRecord
100
AcDbRegAppTableRecord
  2
GEVID1209083540
 70
     0
  0
APPID
  5
533
330
9
100
AcDbSymbolTableRecord
100
AcDbRegAppTableRecord
  2
GEVMK
 70
     0
  0
APPID
  5
534
330
9
100
AcDbSymbolTableRecord
100
AcDbRegAppTableRecord
  2
GEVID1209083542
 70
     0
  0
APPID
  5
535
330
9
100
AcDbSymbolTableRecord
100
AcDbRegAppTableRecord
  2
GEVID1209083543
 70
     0
  0
APPID
  5
536
330
9
100
AcDbSymbolTableRecord
100
AcDbRegAppTableRecord
  2
GEVID1209083544
 70
     0
  0
APPID
  5
537
330
9
100
AcDbSymbolTableRecord
100
AcDbRegAppTableRecord
  2
GEVID1209083545
 70
     0
  0
APPID
  5
538
330
9
100
AcDbSymbolTableRecord
100
AcDbRegAppTableRecord
  2
GEVID1209083546
 70
     0
  0
APPID
  5
539
330
9
100
AcDbSymbolTableRecord
100
AcDbRegAppTableRecord
  2
GEVID1209083547
 70
     0
  0
APPID
  5
53A
330
9
100
AcDbSymbolTableRecord
100
AcDbRegAppTableRecord
  2
GEVID1209083548
 70
     0
  0
APPID
  5
53B
330
9
100
AcDbSymbolTableRecord
100
AcDbRegAppTableRecord
  2
GEVID1209083549
 70
     0
  0
APPID
  5
53C
330
9
100
AcDbSymbolTableRecord
100
AcDbRegAppTableRecord
  2
GEVID1209083550
 70
     0
  0
APPID
  5
53D
330
9
100
AcDbSymbolTableRecord
100
AcDbRegAppTableRecord
  2
GEVID1209083551
 70
     0
  0
APPID
  5
53E
330
9
100
AcDbSymbolTableRecord
100
AcDbRegAppTableRecord
  2
GEVID1209083552
 70
     0
  0
APPID
  5
53F
330
9
100
AcDbSymbolTableRecord
100
AcDbRegAppTableRecord
  2
GEVID1209083553
 70
     0
  0
APPID
  5
540
330
9
100
AcDbSymbolTableRecord
100
AcDbRegAppTableRecord
  2
GEVID1210896022
 70
     0
  0
APPID
  5
541
330
9
100
AcDbSymbolTableRecord
100
AcDbRegAppTableRecord
  2
GEVID1211508364
 70
     0
  0
APPID
  5
542
330
9
100
AcDbSymbolTableRecord
100
AcDbRegAppTableRecord
  2
GEVID1211414908
 70
     0
  0
APPID
  5
543
330
9
100
AcDbSymbolTableRecord
100
AcDbRegAppTableRecord
  2
GEVID1211414909
 70
     0
  0
APPID
  5
544
330
9
100
AcDbSymbolTableRecord
100
AcDbRegAppTableRecord
  2
GEVID1211508359
 70
     0
  0
APPID
  5
545
330
9
100
AcDbSymbolTableRecord
100
AcDbRegAppTableRecord
  2
GEVID1211508360
 70
     0
  0
APPID
  5
546
330
9
100
AcDbSymbolTableRecord
100
AcDbRegAppTableRecord
  2
GEVID1211508361
 70
     0
  0
APPID
  5
547
330
9
100
AcDbSymbolTableRecord
100
AcDbRegAppTableRecord
  2
GEVID1211508362
 70
     0
  0
APPID
  5
548
330
9
100
AcDbSymbolTableRecord
100
AcDbRegAppTableRecord
  2
GEVID1211508363
 70
     0
  0
APPID
  5
549
330
9
100
AcDbSymbolTableRecord
100
AcDbRegAppTableRecord
  2
GEVID1211878469
 70
     0
  0
APPID
  5
54A
330
9
100
AcDbSymbolTableRecord
100
AcDbRegAppTableRecord
  2
GEVID1212642819
 70
     0
  0
APPID
  5
54B
330
9
100
AcDbSymbolTableRecord
100
AcDbRegAppTableRecord
  2
GEVID1212642820
 70
     0
  0
APPID
  5
54C
330
9
100
AcDbSymbolTableRecord
100
AcDbRegAppTableRecord
  2
GEVID1212642821
 70
     0
  0
APPID
  5
54D
330
9
100
AcDbSymbolTableRecord
100
AcDbRegAppTableRecord
  2
GEVID1212642822
 70
     0
  0
APPID
  5
54E
330
9
100
AcDbSymbolTableRecord
100
AcDbRegAppTableRecord
  2
GEVID1212642823
 70
     0
  0
APPID
  5
54F
330
9
100
AcDbSymbolTableRecord
100
AcDbRegAppTableRecord
  2
GEVID1212642825
 70
     0
  0
APPID
  5
550
330
9
100
AcDbSymbolTableRecord
100
AcDbRegAppTableRecord
  2
GEVID1212642826
 70
     0
  0
APPID
  5
551
330
9
100
AcDbSymbolTableRecord
100
AcDbRegAppTableRecord
  2
GEVID1212642827
 70
     0
  0
APPID
  5
552
330
9
100
AcDbSymbolTableRecord
100
AcDbRegAppTableRecord
  2
GEVID1212642828
 70
     0
  0
APPID
  5
553
330
9
100
AcDbSymbolTableRecord
100
AcDbRegAppTableRecord
  2
GEVID1212642831
 70
     0
  0
APPID
  5
554
330
9
100
AcDbSymbolTableRecord
100
AcDbRegAppTableRecord
  2
GEVID1212642834
 70
     0
  0
APPID
  5
555
330
9
100
AcDbSymbolTableRecord
100
AcDbRegAppTableRecord
  2
GEVID1212642835
 70
     0
  0
APPID
  5
556
330
9
100
AcDbSymbolTableRecord
100
AcDbRegAppTableRecord
  2
GEVID1212642836
 70
     0
  0
APPID
  5
557
330
9
100
AcDbSymbolTableRecord
100
AcDbRegAppTableRecord
  2
GEVID1212642837
 70
     0
  0
APPID
  5
558
330
9
100
AcDbSymbolTableRecord
100
AcDbRegAppTableRecord
  2
GEVID1212642839
 70
     0
  0
APPID
  5
559
330
9
100
AcDbSymbolTableRecord
100
AcDbRegAppTableRecord
  2
GEVID1212642840
 70
     0
  0
APPID
  5
55A
330
9
100
AcDbSymbolTableRecord
100
AcDbRegAppTableRecord
  2
GEVID1212642841
 70
     0
  0
APPID
  5
55B
330
9
100
AcDbSymbolTableRecord
100
AcDbRegAppTableRecord
  2
GEVID1212655312
 70
     0
  0
APPID
  5
55C
330
9
100
AcDbSymbolTableRecord
100
AcDbRegAppTableRecord
  2
GEVID1212655313
 70
     0
  0
APPID
  5
55D
330
9
100
AcDbSymbolTableRecord
100
AcDbRegAppTableRecord
  2
GEVID1212656533
 70
     0
  0
APPID
  5
55E
330
9
100
AcDbSymbolTableRecord
100
AcDbRegAppTableRecord
  2
GEVID1212656534
 70
     0
  0
APPID
  5
55F
330
9
100
AcDbSymbolTableRecord
100
AcDbRegAppTableRecord
  2
GEVID1212656535
 70
     0
  0
APPID
  5
560
330
9
100
AcDbSymbolTableRecord
100
AcDbRegAppTableRecord
  2
GEVID1212656536
 70
     0
  0
APPID
  5
561
330
9
100
AcDbSymbolTableRecord
100
AcDbRegAppTableRecord
  2
GEVID1212656538
 70
     0
  0
APPID
  5
562
330
9
100
AcDbSymbolTableRecord
100
AcDbRegAppTableRecord
  2
GEVID1212656541
 70
     0
  0
APPID
  5
563
330
9
100
AcDbSymbolTableRecord
100
AcDbRegAppTableRecord
  2
GEVID1212656543
 70
     0
  0
APPID
  5
564
330
9
100
AcDbSymbolTableRecord
100
AcDbRegAppTableRecord
  2
GENIUS_GENOBJ-F-PFASSM_13
 70
     0
  0
APPID
  5
565
330
9
100
AcDbSymbolTableRecord
100
AcDbRegAppTableRecord
  2
GEVID1212656544
 70
     0
  0
APPID
  5
566
330
9
100
AcDbSymbolTableRecord
100
AcDbRegAppTableRecord
  2
GEVID1212656545
 70
     0
  0
APPID
  5
567
330
9
100
AcDbSymbolTableRecord
100
AcDbRegAppTableRecord
  2
GEVID1212656546
 70
     0
  0
APPID
  5
568
330
9
100
AcDbSymbolTableRecord
100
AcDbRegAppTableRecord
  2
GEVID1212656547
 70
     0
  0
APPID
  5
569
330
9
100
AcDbSymbolTableRecord
100
AcDbRegAppTableRecord
  2
GEVID1212656548
 70
     0
  0
APPID
  5
56A
330
9
100
AcDbSymbolTableRecord
100
AcDbRegAppTableRecord
  2
GEVID1212656549
 70
     0
  0
APPID
  5
56B
330
9
100
AcDbSymbolTableRecord
100
AcDbRegAppTableRecord
  2
GEVID1212656550
 70
     0
  0
APPID
  5
56C
330
9
100
AcDbSymbolTableRecord
100
AcDbRegAppTableRecord
  2
GEVID1212656552
 70
     0
  0
APPID
  5
56D
330
9
100
AcDbSymbolTableRecord
100
AcDbRegAppTableRecord
  2
GEVID1212656553
 70
     0
  0
APPID
  5
56E
330
9
100
AcDbSymbolTableRecord
100
AcDbRegAppTableRecord
  2
GEVID1212656554
 70
     0
  0
APPID
  5
56F
330
9
100
AcDbSymbolTableRecord
100
AcDbRegAppTableRecord
  2
GEVID1212656555
 70
     0
  0
APPID
  5
570
330
9
100
AcDbSymbolTableRecord
100
AcDbRegAppTableRecord
  2
GEVID1212656556
 70
     0
  0
APPID
  5
571
330
9
100
AcDbSymbolTableRecord
100
AcDbRegAppTableRecord
  2
GEVID1212656557
 70
     0
  0
APPID
  5
572
330
9
100
AcDbSymbolTableRecord
100
AcDbRegAppTableRecord
  2
GEVID1212656559
 70
     0
  0
APPID
  5
573
330
9
100
AcDbSymbolTableRecord
100
AcDbRegAppTableRecord
  2
GEVID1212656560
 70
     0
  0
APPID
  5
574
330
9
100
AcDbSymbolTableRecord
100
AcDbRegAppTableRecord
  2
GEVID1212656561
 70
     0
  0
APPID
  5
575
330
9
100
AcDbSymbolTableRecord
100
AcDbRegAppTableRecord
  2
GEVID1212656562
 70
     0
  0
APPID
  5
576
330
9
100
AcDbSymbolTableRecord
100
AcDbRegAppTableRecord
  2
GEVID1212656563
 70
     0
  0
APPID
  5
577
330
9
100
AcDbSymbolTableRecord
100
AcDbRegAppTableRecord
  2
GEVID1212711781
 70
     0
  0
APPID
  5
578
330
9
100
AcDbSymbolTableRecord
100
AcDbRegAppTableRecord
  2
GEVID1212711782
 70
     0
  0
APPID
  5
579
330
9
100
AcDbSymbolTableRecord
100
AcDbRegAppTableRecord
  2
GEVID1212711783
 70
     0
  0
APPID
  5
57A
330
9
100
AcDbSymbolTableRecord
100
AcDbRegAppTableRecord
  2
GEVID1212711784
 70
     0
  0
APPID
  5
57B
330
9
100
AcDbSymbolTableRecord
100
AcDbRegAppTableRecord
  2
GEVID1212711788
 70
     0
  0
APPID
  5
57C
330
9
100
AcDbSymbolTableRecord
100
AcDbRegAppTableRecord
  2
GEVID1212711789
 70
     0
  0
APPID
  5
57D
330
9
100
AcDbSymbolTableRecord
100
AcDbRegAppTableRecord
  2
GEVID1212711790
 70
     0
  0
APPID
  5
57E
330
9
100
AcDbSymbolTableRecord
100
AcDbRegAppTableRecord
  2
GEVID1212711791
 70
     0
  0
APPID
  5
57F
330
9
100
AcDbSymbolTableRecord
100
AcDbRegAppTableRecord
  2
GEVID1212711792
 70
     0
  0
APPID
  5
580
330
9
100
AcDbSymbolTableRecord
100
AcDbRegAppTableRecord
  2
GEVID1212711793
 70
     0
  0
APPID
  5
581
330
9
100
AcDbSymbolTableRecord
100
AcDbRegAppTableRecord
  2
GEVID1212711794
 70
     0
  0
APPID
  5
582
330
9
100
AcDbSymbolTableRecord
100
AcDbRegAppTableRecord
  2
GEVID1212711795
 70
     0
  0
APPID
  5
583
330
9
100
AcDbSymbolTableRecord
100
AcDbRegAppTableRecord
  2
GEVID1212711797
 70
     0
  0
APPID
  5
584
330
9
100
AcDbSymbolTableRecord
100
AcDbRegAppTableRecord
  2
GEVID1212711798
 70
     0
  0
APPID
  5
585
330
9
100
AcDbSymbolTableRecord
100
AcDbRegAppTableRecord
  2
GEVID1212711799
 70
     0
  0
APPID
  5
586
330
9
100
AcDbSymbolTableRecord
100
AcDbRegAppTableRecord
  2
GEVID1212711800
 70
     0
  0
APPID
  5
587
330
9
100
AcDbSymbolTableRecord
100
AcDbRegAppTableRecord
  2
GEVID1212711801
 70
     0
  0
APPID
  5
588
330
9
100
AcDbSymbolTableRecord
100
AcDbRegAppTableRecord
  2
GEVID1212711802
 70
     0
  0
APPID
  5
589
330
9
100
AcDbSymbolTableRecord
100
AcDbRegAppTableRecord
  2
GEVID1212711803
 70
     0
  0
APPID
  5
58A
330
9
100
AcDbSymbolTableRecord
100
AcDbRegAppTableRecord
  2
GEVID1212711804
 70
     0
  0
APPID
  5
58B
330
9
100
AcDbSymbolTableRecord
100
AcDbRegAppTableRecord
  2
GEVID1212711805
 70
     0
  0
APPID
  5
58C
330
9
100
AcDbSymbolTableRecord
100
AcDbRegAppTableRecord
  2
GEVID1212711806
 70
     0
  0
APPID
  5
58D
330
9
100
AcDbSymbolTableRecord
100
AcDbRegAppTableRecord
  2
GEVID1212711807
 70
     0
  0
APPID
  5
58E
330
9
100
AcDbSymbolTableRecord
100
AcDbRegAppTableRecord
  2
GEVID1212711808
 70
     0
  0
APPID
  5
58F
330
9
100
AcDbSymbolTableRecord
100
AcDbRegAppTableRecord
  2
GEVID1212711809
 70
     0
  0
APPID
  5
590
330
9
100
AcDbSymbolTableRecord
100
AcDbRegAppTableRecord
  2
GEVID1212711810
 70
     0
  0
APPID
  5
591
330
9
100
AcDbSymbolTableRecord
100
AcDbRegAppTableRecord
  2
GEVID1212711811
 70
     0
  0
APPID
  5
90A
330
9
100
AcDbSymbolTableRecord
100
AcDbRegAppTableRecord
  2
GENIUS_GENTRA_14
 70
     0
  0
APPID
  5
919
330
9
100
AcDbSymbolTableRecord
100
AcDbRegAppTableRecord
  2
GENIUS_GENOBJ-N-TIT_13
 70
     0
  0
APPID
  5
91A
330
9
100
AcDbSymbolTableRecord
100
AcDbRegAppTableRecord
  2
GENIUS_GENTITLE_13
 70
     0
  0
APPID
  5
949
330
9
100
AcDbSymbolTableRecord
100
AcDbRegAppTableRecord
  2
GENIUS_GENBLLY_14
 70
     0
  0
APPID
  5
DDD
330
9
100
AcDbSymbolTableRecord
100
AcDbRegAppTableRecord
  2
GEVID1213165152
 70
     0
  0
APPID
  5
12F9
330
9
100
AcDbSymbolTableRecord
100
AcDbRegAppTableRecord
  2
AcDbDynamicBlockTrueName
 70
     0
  0
APPID
  5
12FA
330
9
100
AcDbSymbolTableRecord
100
AcDbRegAppTableRecord
  2
ACDBBLOCKREPETAG
 70
     0
  0
APPID
  5
1C15
330
9
100
AcDbSymbolTableRecord
100
AcDbRegAppTableRecord
  2
GEVID1214872427
 70
     0
  0
APPID
  5
1C2A
330
9
100
AcDbSymbolTableRecord
100
AcDbRegAppTableRecord
  2
GEVID1214872428
 70
     0
  0
APPID
  5
1C2F
330
9
100
AcDbSymbolTableRecord
100
AcDbRegAppTableRecord
  2
GEVID1214872429
 70
     0
  0
APPID
  5
1C33
330
9
100
AcDbSymbolTableRecord
100
AcDbRegAppTableRecord
  2
GEVID1214872430
 70
     0
  0
APPID
  5
1C3F
330
9
100
AcDbSymbolTableRecord
100
AcDbRegAppTableRecord
  2
GEVID1214872432
 70
     0
  0
APPID
  5
1C4E
330
9
100
AcDbSymbolTableRecord
100
AcDbRegAppTableRecord
  2
GEVID1214872433
 70
     0
  0
APPID
  5
20DC
330
9
100
AcDbSymbolTableRecord
100
AcDbRegAppTableRecord
  2
AcDbDynamicBlockGUID
 70
     0
  0
APPID
  5
20FD
330
9
100
AcDbSymbolTableRecord
100
AcDbRegAppTableRecord
  2
GENIUS_GENOBJ-N-REV_13
 70
     0
  0
APPID
  5
20FE
330
9
100
AcDbSymbolTableRecord
100
AcDbRegAppTableRecord
  2
GENIUS_GENOBJ-N-RSSYM_13
 70
     0
  0
APPID
  5
20FF
330
9
100
AcDbSymbolTableRecord
100
AcDbRegAppTableRecord
  2
GENIUS_GENSYMENT_13
 70
     0
  0
APPID
  5
2100
330
9
100
AcDbSymbolTableRecord
100
AcDbRegAppTableRecord
  2
GENIUS_GENSCSYM_13
 70
     0
  0
APPID
  5
5F04
330
9
100
AcDbSymbolTableRecord
100
AcDbRegAppTableRecord
  2
GEVID1240031443
 70
     0
  0
APPID
  5
5F08
330
9
100
AcDbSymbolTableRecord
100
AcDbRegAppTableRecord
  2
GEVID1240031444
 70
     0
  0
APPID
  5
6168
330
9
100
AcDbSymbolTableRecord
100
AcDbRegAppTableRecord
  2
GEVID1240031445
 70
     0
  0
APPID
  5
616C
330
9
100
AcDbSymbolTableRecord
100
AcDbRegAppTableRecord
  2
GEVID1240031446
 70
     0
  0
ENDTAB
  0
TABLE
  2
DIMSTYLE
  5
A
330
0
100
AcDbSymbolTable
 70
    29
100
AcDbDimStyleTable
 71
     1
340
5AB
  0
DIMSTYLE
105
5AB
330
A
100
AcDbSymbolTableRecord
100
AcDbDimStyleTableRecord
  2
SEISA
 70
     0
  4
"
 40
15.0
 41
2.5
 42
0.625
 43
10.0
 44
0.625
 47
0.1
 48
0.1
 73
     0
 74
     0
 77
     3
 78
     8
 79
     2
 90
     1
140
3.5
141
0.0
143
0.0393701
146
0.71
147
1.5
172
     1
176
     3
177
     3
178
     3
271
     2
272
     2
283
     0
286
     8
340
5D5
341
69
342
69
371
    -1
372
    -1
1001
ACAD_DSTYLE_DIMJAG
1070
   388
1040
1.5
1001
ACAD_DSTYLE_DIMTALN
1070
   392
1070
     1
  0
DIMSTYLE
105
5E9
102
{ACAD_REACTORS
330
5900
330
593C
330
597E
330
5996
330
59B2
330
5A72
330
5A8A
330
5B2A
330
5B46
330
5BD7
330
5C37
330
6E76
330
7470
330
749E
102
}
330
A
100
AcDbSymbolTableRecord
100
AcDbDimStyleTableRecord
  2
SEISA$0
 70
     0
  4
"
 40
15.0
 41
2.5
 42
0.625
 43
10.0
 44
0.625
 47
0.1
 48
0.1
 73
     0
 74
     0
 77
     3
 78
     8
 79
     2
 90
     1
140
3.5
141
0.0
143
0.0393701
146
0.71
147
1.5
172
     1
176
     3
177
     3
178
     3
271
     2
272
     2
283
     0
286
     8
340
5D5
341
69
342
69
371
    -1
372
    -1
  0
DIMSTYLE
105
7928
330
A
100
AcDbSymbolTableRecord
100
AcDbDimStyleTableRecord
  2
AM_ISO
 70
     0
  4
"
 41
2.5
 42
1.0
 43
10.0
 44
1.0
 47
0.1
 48
0.1
 73
     0
 74
     0
 77
     1
 78
     8
 79
     2
 90
     1
140
3.5
141
0.0
143
0.0393701
146
0.71
147
1.5
172
     1
176
   256
177
   256
178
     2
271
     2
272
     3
274
     4
283
     0
284
     8
340
11
371
    -1
372
    -1
  0
DIMSTYLE
105
7929
330
A
100
AcDbSymbolTableRecord
100
AcDbDimStyleTableRecord
  2
AM_ISO$3
 70
     0
  4
"
 41
2.5
 42
1.0
 43
10.0
 44
1.0
 47
0.1
 48
0.1
 73
     0
 77
     1
 78
     8
 79
     2
 90
     1
140
3.5
141
0.0
143
0.0393701
146
0.71
147
1.5
176
   256
177
   256
178
     2
271
     2
272
     3
274
     4
283
     0
284
     8
288
     1
289
     0
340
11
371
    -1
372
    -1
  0
DIMSTYLE
105
792A
330
A
100
AcDbSymbolTableRecord
100
AcDbDimStyleTableRecord
  2
AM_ISO$4
 70
     0
  4
"
 41
2.5
 42
1.0
 43
10.0
 44
1.0
 47
0.1
 48
0.1
 73
     0
 77
     1
 78
     8
 79
     2
 90
     1
140
3.5
141
0.0
143
0.0393701
146
0.71
147
1.5
176
   256
177
   256
178
     2
271
     2
272
     3
274
     4
283
     0
284
     8
288
     1
289
     0
340
11
371
    -1
372
    -1
  0
DIMSTYLE
105
792B
330
A
100
AcDbSymbolTableRecord
100
AcDbDimStyleTableRecord
  2
AM_ISO$6
 70
     0
  4
"
 41
2.5
 42
1.0
 43
10.0
 44
1.0
 47
0.1
 48
0.1
 73
     0
 74
     0
 78
     8
 79
     2
 90
     1
140
3.5
141
0.0
143
0.0393701
146
0.71
147
1.5
172
     1
176
   256
177
   256
178
     2
271
     2
272
     3
274
     4
283
     0
284
     8
340
11
371
    -1
372
    -1
  0
DIMSTYLE
105
792C
330
A
100
AcDbSymbolTableRecord
100
AcDbDimStyleTableRecord
  2
AM_ISO$7
 70
     0
  4
"
 41
2.5
 42
1.0
 43
10.0
 44
1.0
 47
0.1
 48
0.1
 73
     0
 74
     0
 77
     1
 78
     8
 79
     2
 90
     1
140
5.0
141
0.0
143
0.0393701
146
0.71
147
1.5
172
     1
176
   256
177
   256
178
     2
271
     2
272
     3
274
     4
283
     0
284
     8
340
11
371
    -1
372
    -1
  0
DIMSTYLE
105
792D
330
A
100
AcDbSymbolTableRecord
100
AcDbDimStyleTableRecord
  2
AM_ISO$SF
 70
     0
  4
"
 41
2.5
 42
1.0
 43
10.0
 44
1.0
 47
0.1
 48
0.1
 73
     0
 74
     0
 75
     1
 76
     1
 77
     1
 78
     8
 79
     2
 90
     1
140
3.5
141
0.0
143
0.0393701
146
0.71
147
1.5
172
     1
176
   256
177
   256
178
     2
271
     2
272
     3
274
     4
283
     0
284
     8
340
11
371
    -1
372
    -1
  0
DIMSTYLE
105
792E
330
A
100
AcDbSymbolTableRecord
100
AcDbDimStyleTableRecord
  2
AM_ISO$SH
 70
     0
  4
"
 41
2.5
 42
1.0
 43
10.0
 44
1.0
 47
0.1
 48
0.1
 73
     0
 74
     0
 75
     1
 76
     1
 77
     1
 78
     8
 79
     2
 90
     1
140
3.5
141
0.0
143
0.0393701
144
2.0
146
0.71
147
1.5
172
     1
173
     1
176
   256
177
   256
178
     2
271
     2
272
     3
274
     4
283
     0
284
     8
340
11
343
74
371
    -1
372
    -1
  0
ENDTAB
  0
TABLE
  2
BLOCK_RECORD
  5
1
330
0
100
AcDbSymbolTable
 70
    32
  0
BLOCK_RECORD
  5
1F
102
{ACAD_XDICTIONARY
360
82
102
}
330
1
100
AcDbSymbolTableRecord
100
AcDbBlockTableRecord
  2
*Model_Space
340
22
 70
     0
280
     1
281
     0
  0
BLOCK_RECORD
  5
1B
330
1
100
AcDbSymbolTableRecord
100
AcDbBlockTableRecord
  2
*Paper_Space
340
1E
 70
     0
280
     1
281
     0
  0
BLOCK_RECORD
  5
23
330
1
100
AcDbSymbolTableRecord
100
AcDbBlockTableRecord
  2
*Paper_Space0
340
26
 70
     0
280
     1
281
     0
  0
BLOCK_RECORD
  5
69
330
1
100
AcDbSymbolTableRecord
100
AcDbBlockTableRecord
  2
_Open30
340
0
102
{BLKREFS
331
7193
331
7194
331
719B
331
719C
331
71AB
331
71AC
331
71B4
331
71B5
331
71C0
331
71CB
331
71F7
331
71F8
331
7228
331
7229
331
73D9
331
73DA
331
73E2
331
73E3
331
776D
331
779F
331
77A0
331
787F
102
}
 70
     0
280
     1
281
     0
  0
BLOCK_RECORD
  5
74
330
1
100
AcDbSymbolTableRecord
100
AcDbBlockTableRecord
  2
GENAXEH
340
0
 70
     0
280
     1
281
     0
  0
BLOCK_RECORD
  5
3B89
330
1
100
AcDbSymbolTableRecord
100
AcDbBlockTableRecord
  2
GENDOT
340
0
102
{BLKREFS
331
71BF
331
71CA
102
}
 70
     0
280
     1
281
     0
  0
BLOCK_RECORD
  5
4D7D
102
{ACAD_XDICTIONARY
360
4DAB
102
}
330
1
100
AcDbSymbolTableRecord
100
AcDbBlockTableRecord
  2
ロッカクアナツキプラグA R1
340
0
310
2800000020000000200000000100080000000000000400000000000000000000000000000000000000000000000080000080000000808000800000008000800080800000C0C0C000C0DCC000F0CAA6000020400000206000002080000020A0000020C0000020E00000400000004020000040400000406000004080000040A0
310
000040C0000040E00000600000006020000060400000606000006080000060A0000060C0000060E00000800000008020000080400000806000008080000080A0000080C0000080E00000A0000000A0200000A0400000A0600000A0800000A0A00000A0C00000A0E00000C0000000C0200000C0400000C0600000C0800000C0
310
A00000C0C00000C0E00000E0000000E0200000E0400000E0600000E0800000E0A00000E0C00000E0E00040000000400020004000400040006000400080004000A0004000C0004000E00040200000402020004020400040206000402080004020A0004020C0004020E000404000004040200040404000404060004040800040
310
40A0004040C0004040E00040600000406020004060400040606000406080004060A0004060C0004060E00040800000408020004080400040806000408080004080A0004080C0004080E00040A0000040A0200040A0400040A0600040A0800040A0A00040A0C00040A0E00040C0000040C0200040C0400040C0600040C08000
310
40C0A00040C0C00040C0E00040E0000040E0200040E0400040E0600040E0800040E0A00040E0C00040E0E00080000000800020008000400080006000800080008000A0008000C0008000E00080200000802020008020400080206000802080008020A0008020C0008020E00080400000804020008040400080406000804080
310
008040A0008040C0008040E00080600000806020008060400080606000806080008060A0008060C0008060E00080800000808020008080400080806000808080008080A0008080C0008080E00080A0000080A0200080A0400080A0600080A0800080A0A00080A0C00080A0E00080C0000080C0200080C0400080C0600080C0
310
800080C0A00080C0C00080C0E00080E0000080E0200080E0400080E0600080E0800080E0A00080E0C00080E0E000C0000000C0002000C0004000C0006000C0008000C000A000C000C000C000E000C0200000C0202000C0204000C0206000C0208000C020A000C020C000C020E000C0400000C0402000C0404000C0406000C0
310
408000C040A000C040C000C040E000C0600000C0602000C0604000C0606000C0608000C060A000C060C000C060E000C0800000C0802000C0804000C0806000C0808000C080A000C080C000C080E000C0A00000C0A02000C0A04000C0A06000C0A08000C0A0A000C0A0C000C0A0E000C0C00000C0C02000C0C04000C0C06000
310
C0C08000C0C0A000F0FBFF00A4A0A000808080000000FF0000FF000000FFFF00FF000000FF00FF00FFFF0000FFFFFF00000000000000000000000000000000000000000000000000000000000000000000000000000000000000000000000000F9000000000000000000000000000000000000000000000000000000000000
310
00F900000000000000000000000000000000000000000000000000000000000000F900000000000000000000000000000000000000000000000000000000000000F900000000000000000000000000000000000000000000000000000000000000F90000000000000000000000000000000000000000000000000000000000
310
0000F900000000000000000000000000000000000000000000000000000000000000F900000000000000000000000000000000000000000000000000000000000000F900000000000000000000000000000000000000000000000000000000000000F900000000000000000000000000000000000000000000000000000000
310
000000F900000000000000000000000000000000000000000000000000000000000000F900000000000000000000000000000000000000000000000000000000000000F90000000000000000000000000000000000000000000000FFFFFFFFFFFFFFFFFFFFFFFFFFFFFFFF0000000000000000000000000000FFFF00000000
310
00000000F900000000000000FFFF00000000000000000000FFFFFFFFFFFFFFFFFFFFFFFFFFFFFFFFFFFFFFFFFFFFFFFF0000000000000000FFFE00000000000000000000F9000000000000000000FEFF0000000000000000FFFE00000000000000000000F9000000000000000000FEFF0000000000000000FFFE0000000000
310
0000000000F9000000000000000000FEFF0000000000000000FFFE00000000000000000000F9000000000000000000FEFF0000000000000000FFFE00000000000000000000F9000000000000000000FEFF0000000000000000FFFE00000000000000000000F9000000000000000000FEFF0000000000000000FFFE00000000
310
000000000000F9000000000000000000FEFF0000000000000000FFFE00000000000000000000F9000000000000000000FEFF0000000000000000FFFFFFFFFFFFFFFFFFFFFFFFFFFFFFFFFFFFFFFFFFFFFFFF000000000000000000FF00000000000000000000F9000000000000000000FF0000000000000000000000FF0000
310
00000000000000F90000000000000000FF00000000000000000000000000000000000000000000F900000000000000000000000000000000000000000000000000000000000000F900000000000000000000000000000000000000000000000000000000000000F90000000000000000000000000000000000000000000000
310
0000000000000000F90000000000000000000000000000000000000000000000000000000000000000000000000000000000000000000000
102
{BLKREFS
331
4E63
102
}
 70
     4
280
     1
281
     0
  0
BLOCK_RECORD
  5
4E24
102
{ACAD_XDICTIONARY
360
4EED
102
}
330
1
100
AcDbSymbolTableRecord
100
AcDbBlockTableRecord
  2
ケースＡ CCMH1250
340
0
310
2800000020000000200000000100080000000000000400000000000000000000000000000000000000000000000080000080000000808000800000008000800080800000C0C0C000C0DCC000F0CAA6000020400000206000002080000020A0000020C0000020E00000400000004020000040400000406000004080000040A0
310
000040C0000040E00000600000006020000060400000606000006080000060A0000060C0000060E00000800000008020000080400000806000008080000080A0000080C0000080E00000A0000000A0200000A0400000A0600000A0800000A0A00000A0C00000A0E00000C0000000C0200000C0400000C0600000C0800000C0
310
A00000C0C00000C0E00000E0000000E0200000E0400000E0600000E0800000E0A00000E0C00000E0E00040000000400020004000400040006000400080004000A0004000C0004000E00040200000402020004020400040206000402080004020A0004020C0004020E000404000004040200040404000404060004040800040
310
40A0004040C0004040E00040600000406020004060400040606000406080004060A0004060C0004060E00040800000408020004080400040806000408080004080A0004080C0004080E00040A0000040A0200040A0400040A0600040A0800040A0A00040A0C00040A0E00040C0000040C0200040C0400040C0600040C08000
310
40C0A00040C0C00040C0E00040E0000040E0200040E0400040E0600040E0800040E0A00040E0C00040E0E00080000000800020008000400080006000800080008000A0008000C0008000E00080200000802020008020400080206000802080008020A0008020C0008020E00080400000804020008040400080406000804080
310
008040A0008040C0008040E00080600000806020008060400080606000806080008060A0008060C0008060E00080800000808020008080400080806000808080008080A0008080C0008080E00080A0000080A0200080A0400080A0600080A0800080A0A00080A0C00080A0E00080C0000080C0200080C0400080C0600080C0
310
800080C0A00080C0C00080C0E00080E0000080E0200080E0400080E0600080E0800080E0A00080E0C00080E0E000C0000000C0002000C0004000C0006000C0008000C000A000C000C000C000E000C0200000C0202000C0204000C0206000C0208000C020A000C020C000C020E000C0400000C0402000C0404000C0406000C0
310
408000C040A000C040C000C040E000C0600000C0602000C0604000C0606000C0608000C060A000C060C000C060E000C0800000C0802000C0804000C0806000C0808000C080A000C080C000C080E000C0A00000C0A02000C0A04000C0A06000C0A08000C0A0A000C0A0C000C0A0E000C0C00000C0C02000C0C04000C0C06000
310
C0C08000C0C0A000F0FBFF00A4A0A000808080000000FF0000FF000000FFFF00FF000000FF00FF00FFFF0000FFFFFF00000000000000000000000000000000000000000000000000000000000000000000000000000000000000000000FFFF000000000000000000000000000000000000000000000000000000000000FFFF
310
000000000000000000000000000000000000000000000000000000000000FFFFFFFFFFFFFFFFFF0000000000000000000000000000000000000000000000FFFF00000000FFFFFF0000000000000000000000000000000000000000000000FFFF00000000FFFFFF0000000000000000000000000000000000000000000000FF
310
FF00000000FFFFFF0000000000000000000000000000000000000000000000FFFF00000000FFFFFF0000000000000000000000000000000000000000000000FFFF00000000FFFFFF0000000000000000000000000000000000000000000000FFFF00000000FFFFFF0000000000000000000000000000000000000000000000
310
FFFF00000000FFFFFF0000000000000000000000000000000000000000000000FFFF00000000FFFFFF0000000000000000000000000000000000000000000000FFFF00000000FFFFFF0000000000000000000000000000000000000000000000FFFF00000000FFFFFF00000000000000000000000000000000000000000000
310
00FFFF00000000FFFFFF0000000000000000000000000000000000000000000000FFFF00000000FFFFFF0000000000000000000000000000000000000000000000FFFF00000000FFFFFF0000000000000000000000000000000000000000000000000000000000000000000000000000000000000000000000000000000000
310
00000000000000000000000000000000000000000000000000000000000000000000000000000000000000000000000000000000000000000000000000000000000000000000000000000000000000000000000000000000000000000000000000000000000000000000000000000000000000000000000000000000000000
310
00000000000000000000000000000000000000000000000000000000000000000000000000000000000000000000000000000000000000000000000000000000000000000000000000000000000000000000000000000000000000000000000000000000000000000000000000000000000000000000000000000000000000
310
0000000000000000000000000000000000000000000000000000000000000000000000FFFFFFFFFFA4A4A4A4FF00000000000000000000000000000000000000000000FFFFFFFFFFFFFFFFFFFF0000000000000000000000000000000000000000F9F9F9FFFFF9000000000000000000000000000000000000000000000000
310
0000000000FFFF00000000000000000000000000000000000000000000000000000000000000000000000000000000000000000000000000
102
{BLKREFS
331
56CC
102
}
 70
     4
280
     1
281
     0
  0
BLOCK_RECORD
  5
4F38
102
{ACAD_XDICTIONARY
360
4F66
102
}
330
1
100
AcDbSymbolTableRecord
100
AcDbBlockTableRecord
  2
ロッカクアナツキプラグB R1
340
0
310
2800000020000000200000000100080000000000000400000000000000000000000000000000000000000000000080000080000000808000800000008000800080800000C0C0C000C0DCC000F0CAA6000020400000206000002080000020A0000020C0000020E00000400000004020000040400000406000004080000040A0
310
000040C0000040E00000600000006020000060400000606000006080000060A0000060C0000060E00000800000008020000080400000806000008080000080A0000080C0000080E00000A0000000A0200000A0400000A0600000A0800000A0A00000A0C00000A0E00000C0000000C0200000C0400000C0600000C0800000C0
310
A00000C0C00000C0E00000E0000000E0200000E0400000E0600000E0800000E0A00000E0C00000E0E00040000000400020004000400040006000400080004000A0004000C0004000E00040200000402020004020400040206000402080004020A0004020C0004020E000404000004040200040404000404060004040800040
310
40A0004040C0004040E00040600000406020004060400040606000406080004060A0004060C0004060E00040800000408020004080400040806000408080004080A0004080C0004080E00040A0000040A0200040A0400040A0600040A0800040A0A00040A0C00040A0E00040C0000040C0200040C0400040C0600040C08000
310
40C0A00040C0C00040C0E00040E0000040E0200040E0400040E0600040E0800040E0A00040E0C00040E0E00080000000800020008000400080006000800080008000A0008000C0008000E00080200000802020008020400080206000802080008020A0008020C0008020E00080400000804020008040400080406000804080
310
008040A0008040C0008040E00080600000806020008060400080606000806080008060A0008060C0008060E00080800000808020008080400080806000808080008080A0008080C0008080E00080A0000080A0200080A0400080A0600080A0800080A0A00080A0C00080A0E00080C0000080C0200080C0400080C0600080C0
310
800080C0A00080C0C00080C0E00080E0000080E0200080E0400080E0600080E0800080E0A00080E0C00080E0E000C0000000C0002000C0004000C0006000C0008000C000A000C000C000C000E000C0200000C0202000C0204000C0206000C0208000C020A000C020C000C020E000C0400000C0402000C0404000C0406000C0
310
408000C040A000C040C000C040E000C0600000C0602000C0604000C0606000C0608000C060A000C060C000C060E000C0800000C0802000C0804000C0806000C0808000C080A000C080C000C080E000C0A00000C0A02000C0A04000C0A06000C0A08000C0A0A000C0A0C000C0A0E000C0C00000C0C02000C0C04000C0C06000
310
C0C08000C0C0A000F0FBFF00A4A0A000808080000000FF0000FF000000FFFF00FF000000FF00FF00FFFF0000FFFFFF00000000000000000000000000000000000000000000000000000000000000000000000000000000000000000000000000F9000000000000000000000000000000000000000000000000000000000000
310
00F900000000000000000000000000000000000000000000000000000000000000F900000000000000000000000000000000000000000000000000000000000000F900000000000000000000000000000000000000000000000000000000000000F90000000000000000000000000000000000000000000000000000000000
310
0000F900000000000000000000000000000000000000000000000000000000000000F900000000000000000000000000000000000000000000000000000000000000F900000000000000000000000000000000000000000000000000000000000000F900000000000000000000000000000000000000000000000000000000
310
000000F900000000000000000000000000000000000000000000000000000000000000F900000000000000000000000000000000000000000000000000000000000000F90000000000000000000000000000000000000000000000FFFFFFFFFFFFFFFFFFFFFFFFFFFFFFFF0000000000000000000000000000FFFF00000000
310
00000000F900000000000000FFFF00000000000000000000FFFFFFFFFFFFFFFFFFFFFFFFFFFFFFFFFFFFFFFFFFFFFFFF0000000000000000FFFE00000000000000000000F9000000000000000000FEFF0000000000000000FFFE00000000000000000000F9000000000000000000FEFF0000000000000000FFFE0000000000
310
0000000000F9000000000000000000FEFF0000000000000000FFFE00000000000000000000F9000000000000000000FEFF0000000000000000FFFE00000000000000000000F9000000000000000000FEFF0000000000000000FFFE00000000000000000000F9000000000000000000FEFF0000000000000000FFFE00000000
310
000000000000F9000000000000000000FEFF0000000000000000FFFE00000000000000000000F9000000000000000000FEFF0000000000000000FFFFFFFFFFFFFFFFFFFFFFFFFFFFFFFFFFFFFFFFFFFFFFFF000000000000000000FF00000000000000000000F9000000000000000000FF0000000000000000000000FF0000
310
00000000000000F90000000000000000FF00000000000000000000000000000000000000000000F900000000000000000000000000000000000000000000000000000000000000F900000000000000000000000000000000000000000000000000000000000000F90000000000000000000000000000000000000000000000
310
0000000000000000F90000000000000000000000000000000000000000000000000000000000000000000000000000000000000000000000
102
{BLKREFS
331
500F
102
}
 70
     4
280
     1
281
     0
  0
BLOCK_RECORD
  5
4FD7
102
{ACAD_XDICTIONARY
360
5094
102
}
330
1
100
AcDbSymbolTableRecord
100
AcDbBlockTableRecord
  2
ケースＢ CCMH1250
340
0
310
2800000020000000200000000100080000000000000400000000000000000000000000000000000000000000000080000080000000808000800000008000800080800000C0C0C000C0DCC000F0CAA6000020400000206000002080000020A0000020C0000020E00000400000004020000040400000406000004080000040A0
310
000040C0000040E00000600000006020000060400000606000006080000060A0000060C0000060E00000800000008020000080400000806000008080000080A0000080C0000080E00000A0000000A0200000A0400000A0600000A0800000A0A00000A0C00000A0E00000C0000000C0200000C0400000C0600000C0800000C0
310
A00000C0C00000C0E00000E0000000E0200000E0400000E0600000E0800000E0A00000E0C00000E0E00040000000400020004000400040006000400080004000A0004000C0004000E00040200000402020004020400040206000402080004020A0004020C0004020E000404000004040200040404000404060004040800040
310
40A0004040C0004040E00040600000406020004060400040606000406080004060A0004060C0004060E00040800000408020004080400040806000408080004080A0004080C0004080E00040A0000040A0200040A0400040A0600040A0800040A0A00040A0C00040A0E00040C0000040C0200040C0400040C0600040C08000
310
40C0A00040C0C00040C0E00040E0000040E0200040E0400040E0600040E0800040E0A00040E0C00040E0E00080000000800020008000400080006000800080008000A0008000C0008000E00080200000802020008020400080206000802080008020A0008020C0008020E00080400000804020008040400080406000804080
310
008040A0008040C0008040E00080600000806020008060400080606000806080008060A0008060C0008060E00080800000808020008080400080806000808080008080A0008080C0008080E00080A0000080A0200080A0400080A0600080A0800080A0A00080A0C00080A0E00080C0000080C0200080C0400080C0600080C0
310
800080C0A00080C0C00080C0E00080E0000080E0200080E0400080E0600080E0800080E0A00080E0C00080E0E000C0000000C0002000C0004000C0006000C0008000C000A000C000C000C000E000C0200000C0202000C0204000C0206000C0208000C020A000C020C000C020E000C0400000C0402000C0404000C0406000C0
310
408000C040A000C040C000C040E000C0600000C0602000C0604000C0606000C0608000C060A000C060C000C060E000C0800000C0802000C0804000C0806000C0808000C080A000C080C000C080E000C0A00000C0A02000C0A04000C0A06000C0A08000C0A0A000C0A0C000C0A0E000C0C00000C0C02000C0C04000C0C06000
310
C0C08000C0C0A000F0FBFF00A4A0A000808080000000FF0000FF000000FFFF00FF000000FF00FF00FFFF0000FFFFFF000000000000000000000000000000000000000000000000000000000000000000000000000000000000000000000000000000FFFF000000000000000000000000000000000000000000000000000000
310
0000F9F9F9F9F90000000000000000000000000000000000000000FFFFFFFFFFFFFFFFFF0000000000000000000000000000000000000000000000FF00FF0000000000FF0000000000000000000000000000000000000000000000FF00FF0000000000FF0000000000000000000000000000000000000000000000FF00FF00
310
00000000FF0000000000000000000000000000000000000000000000FF00FF0000000000FF0000000000000000000000000000000000000000000000FF00FF0000000000FF0000000000000000000000000000000000000000000000FF00FF0000000000FF0000000000000000000000000000000000000000000000FF00FF
310
0000000000FF0000000000000000000000000000000000000000000000FF00FF0000000000FF0000000000000000000000000000000000000000000000FF00FF0000000000FF0000000000000000000000000000000000000000000000FF00FF0000000000FF0000000000000000000000000000000000000000000000FF00
310
FF0000000000FF0000000000000000000000000000000000000000000000FF00FF0000000000FF0000000000000000000000000000000000000000000000FF00FF0000000000FF0000000000000000000000000000000000000000000000000000000000000000000000000000000000000000000000000000000000000000
310
00000000000000000000000000000000000000000000000000000000000000000000000000000000000000000000000000000000000000000000000000000000000000000000000000000000000000000000000000000000000000000000000000000000000000000000000000000000000000000000000000000000000000
310
00000000000000000000000000000000000000000000000000000000000000000000000000000000000000000000000000000000000000000000000000000000000000000000000000000000000000000000000000000000000000000000000000000000000000000000000000000000000000000000000000000000000000
310
000000000000000000000000000000000000000000000000000000000000000000FFFFFFFFFFFFFEFFFFFF00000000000000000000000000000000000000000000FFFFFFFFFFFFFFFFFFFF000000000000000000000000000000000000000000000000000000000000FFFF0000000000000000000000000000000000000000
310
00000000000000000000FFFF0000000000000000000000000000000000000000000000000000000000000000000000000000000000000000
102
{BLKREFS
331
5010
102
}
 70
     4
280
     1
281
     0
  0
BLOCK_RECORD
  5
50EB
102
{ACAD_XDICTIONARY
360
6C20
102
}
330
1
100
AcDbSymbolTableRecord
100
AcDbBlockTableRecord
  2
センタＡ CCMH1250
340
0
310
2800000020000000200000000100080000000000000400000000000000000000000000000000000000000000000080000080000000808000800000008000800080800000C0C0C000C0DCC000F0CAA6000020400000206000002080000020A0000020C0000020E00000400000004020000040400000406000004080000040A0
310
000040C0000040E00000600000006020000060400000606000006080000060A0000060C0000060E00000800000008020000080400000806000008080000080A0000080C0000080E00000A0000000A0200000A0400000A0600000A0800000A0A00000A0C00000A0E00000C0000000C0200000C0400000C0600000C0800000C0
310
A00000C0C00000C0E00000E0000000E0200000E0400000E0600000E0800000E0A00000E0C00000E0E00040000000400020004000400040006000400080004000A0004000C0004000E00040200000402020004020400040206000402080004020A0004020C0004020E000404000004040200040404000404060004040800040
310
40A0004040C0004040E00040600000406020004060400040606000406080004060A0004060C0004060E00040800000408020004080400040806000408080004080A0004080C0004080E00040A0000040A0200040A0400040A0600040A0800040A0A00040A0C00040A0E00040C0000040C0200040C0400040C0600040C08000
310
40C0A00040C0C00040C0E00040E0000040E0200040E0400040E0600040E0800040E0A00040E0C00040E0E00080000000800020008000400080006000800080008000A0008000C0008000E00080200000802020008020400080206000802080008020A0008020C0008020E00080400000804020008040400080406000804080
310
008040A0008040C0008040E00080600000806020008060400080606000806080008060A0008060C0008060E00080800000808020008080400080806000808080008080A0008080C0008080E00080A0000080A0200080A0400080A0600080A0800080A0A00080A0C00080A0E00080C0000080C0200080C0400080C0600080C0
310
800080C0A00080C0C00080C0E00080E0000080E0200080E0400080E0600080E0800080E0A00080E0C00080E0E000C0000000C0002000C0004000C0006000C0008000C000A000C000C000C000E000C0200000C0202000C0204000C0206000C0208000C020A000C020C000C020E000C0400000C0402000C0404000C0406000C0
310
408000C040A000C040C000C040E000C0600000C0602000C0604000C0606000C0608000C060A000C060C000C060E000C0800000C0802000C0804000C0806000C0808000C080A000C080C000C080E000C0A00000C0A02000C0A04000C0A06000C0A08000C0A0A000C0A0C000C0A0E000C0C00000C0C02000C0C04000C0C06000
310
C0C08000C0C0A000F0FBFF00A4A0A000808080000000FF0000FF000000FFFF00FF000000FF00FF00FFFF0000FFFFFF00000000000000000000000000000000000000000000000000000000000000000000000000000000000000000000000000FFFFFFFFFFFFFFFFFFFF000000000000000000000000000000000000000000
310
0000FF00000000000000FF0000000000000000000000000000000000000000000000FF00000000000000FF0000000000000000000000000000000000000000000000FF00000000000000FF0000000000000000000000000000000000000000000000FF00000000000000FF0000000000000000000000000000000000000000
310
000000FF00000000000000FF0000000000000000000000000000000000000000000000FF00000000000000FF0000000000000000000000000000000000000000000000FF00000000000000FF0000000000000000000000000000000000000000000000FF00000000000000FF00000000000000000000000000000000000000
310
00000000FF00000000000000FF0000000000000000000000000000000000000000000000FF00000000000000FF0000000000000000000000000000000000000000000000FF00000000000000FF0000000000000000000000000000000000000000000000FF00000000000000FF000000000000000000000000000000000000
310
0000000000FF00000000000000FF000000000000000000000000A4A4A40000000000000000FF0000000000A4A4FF000000000000000000000000A4A4A40000000000000000000000000000A4A4FF000000000000000000000000FF000000000000000000000000000000000000FF000000000000000000000000FF00000000
310
0000000000000000000000000000FF000000000000000000000000FF000000000000000000000000000000000000FF000000000000000000000000FF000000000000000000000000000000000000FF000000000000000000000000FF000000000000000000000000000000000000FF000000000000000000000000FF000000
310
000000000000000000000000000000FF000000000000000000000000FFFFFFFFFFFFFFFFFFFFFFFFFFFFFFFFFFFFFFFF000000000000000000000000FFFFFFFFFFFFFFFFFFFFFFFFFFFFFFFFFFFFFFFF000000000000000000000000FF000000000000000000000000000000000000FF000000000000000000000000FF0000
310
00000000000000000000000000000000FF000000000000000000000000FF000000000000000000000000000000000000FF000000000000000000000000FFFFFFFFFF00000000FFFFFFFFFFFFFFFFFFFFFF00000000000000000000000000000000FFFFF9FFFFFF000000000000000000000000000000000000000000000000
310
00000000F9000000000000000000000000000000000000000000000000000000000000000000000000000000000000000000000000000000
102
{BLKREFS
331
5119
102
}
 70
     4
280
     1
281
     0
  0
BLOCK_RECORD
  5
5227
102
{ACAD_XDICTIONARY
360
52BB
102
}
330
1
100
AcDbSymbolTableRecord
100
AcDbBlockTableRecord
  2
リーマボルト CCMH1250 M36
340
0
310
2800000020000000200000000100080000000000000400000000000000000000000000000000000000000000000080000080000000808000800000008000800080800000C0C0C000C0DCC000F0CAA6000020400000206000002080000020A0000020C0000020E00000400000004020000040400000406000004080000040A0
310
000040C0000040E00000600000006020000060400000606000006080000060A0000060C0000060E00000800000008020000080400000806000008080000080A0000080C0000080E00000A0000000A0200000A0400000A0600000A0800000A0A00000A0C00000A0E00000C0000000C0200000C0400000C0600000C0800000C0
310
A00000C0C00000C0E00000E0000000E0200000E0400000E0600000E0800000E0A00000E0C00000E0E00040000000400020004000400040006000400080004000A0004000C0004000E00040200000402020004020400040206000402080004020A0004020C0004020E000404000004040200040404000404060004040800040
310
40A0004040C0004040E00040600000406020004060400040606000406080004060A0004060C0004060E00040800000408020004080400040806000408080004080A0004080C0004080E00040A0000040A0200040A0400040A0600040A0800040A0A00040A0C00040A0E00040C0000040C0200040C0400040C0600040C08000
310
40C0A00040C0C00040C0E00040E0000040E0200040E0400040E0600040E0800040E0A00040E0C00040E0E00080000000800020008000400080006000800080008000A0008000C0008000E00080200000802020008020400080206000802080008020A0008020C0008020E00080400000804020008040400080406000804080
310
008040A0008040C0008040E00080600000806020008060400080606000806080008060A0008060C0008060E00080800000808020008080400080806000808080008080A0008080C0008080E00080A0000080A0200080A0400080A0600080A0800080A0A00080A0C00080A0E00080C0000080C0200080C0400080C0600080C0
310
800080C0A00080C0C00080C0E00080E0000080E0200080E0400080E0600080E0800080E0A00080E0C00080E0E000C0000000C0002000C0004000C0006000C0008000C000A000C000C000C000E000C0200000C0202000C0204000C0206000C0208000C020A000C020C000C020E000C0400000C0402000C0404000C0406000C0
310
408000C040A000C040C000C040E000C0600000C0602000C0604000C0606000C0608000C060A000C060C000C060E000C0800000C0802000C0804000C0806000C0808000C080A000C080C000C080E000C0A00000C0A02000C0A04000C0A06000C0A08000C0A0A000C0A0C000C0A0E000C0C00000C0C02000C0C04000C0C06000
310
C0C08000C0C0A000F0FBFF00A4A0A000808080000000FF0000FF000000FFFF00FF000000FF00FF00FFFF0000FFFFFF0000000000000000000000000000000000000000000000000000000000000000000000000000000000000000000000000000000000000000000000000000000000000000000000000000000000000000
310
00000000000000000000000000000000000000000000000000000000000000000000000000000000000000000000000000000000000000000000000000000000000000000000000000000000000000000000000000000000000000000000000000000000000000000000000000000000000000000000000000000000000000
310
00000000000000000000000000000000000000000000000000000000000000000000000000000000000000000000000000000000000000000000000000000000000000000000000000000000000000000000000000000000000000000000000000000000000000000000000000000000000000000000000000000000000000
310
00000000000000000000000000000000000000000000FFFFFFFFFFFFFF00000000000000000000000000000000FFFFFFFFFF00000000FF000000FF000000000000000000000000000000000000000000FFFF0000FFFFFFFFFFFFFF00FF00000000000000000000000000000000FFFFFFFFFF0000FFFFFF000000FF00FF0000
310
0000000000000000000000000000FF0000FFFF0000FFFFFF000000FF00FF00000000000000000000000000000000FF0000FFFF0000FFFFFF000000FFFFFF00000000000000000000000000000000FF0000FFFF0000FFFFFF000000FF00FF00000000000000000000000000000000FF0000FFFF0000FFFFFFFFFFFFFF00FF00
310
000000000000000000000000000000FFFFFFFFFF00000000FF000000FF000000000000000000000000000000000000000000FFFF00000000FFFFFFFFFFFFFF00000000000000000000000000000000FFFFFFFFFF00000000000000000000000000000000000000000000000000000000000000000000000000000000000000
310
00000000000000000000000000000000000000000000000000000000000000000000000000000000000000000000000000000000000000000000000000000000000000000000000000000000000000000000000000000000000000000000000000000000000000000000000000000000000000000000000000000000000000
310
00000000000000000000000000000000000000000000000000000000000000000000000000000000000000000000000000000000000000000000000000000000000000000000000000000000000000000000000000000000000000000000000000000000000000000000000000000000000000000000000000000000000000
310
0000000000000000000000000000000000000000000000000000000000000000000000000000000000000000000000000000000000000000
102
{BLKREFS
331
5256
102
}
 70
     4
280
     1
281
     0
  0
BLOCK_RECORD
  5
55D9
102
{ACAD_XDICTIONARY
360
570C
102
}
330
1
100
AcDbSymbolTableRecord
100
AcDbBlockTableRecord
  2
ＧＣサイドカバ－A CCMH1250
340
0
310
2800000020000000200000000100080000000000000400000000000000000000000000000000000000000000000080000080000000808000800000008000800080800000C0C0C000C0DCC000F0CAA6000020400000206000002080000020A0000020C0000020E00000400000004020000040400000406000004080000040A0
310
000040C0000040E00000600000006020000060400000606000006080000060A0000060C0000060E00000800000008020000080400000806000008080000080A0000080C0000080E00000A0000000A0200000A0400000A0600000A0800000A0A00000A0C00000A0E00000C0000000C0200000C0400000C0600000C0800000C0
310
A00000C0C00000C0E00000E0000000E0200000E0400000E0600000E0800000E0A00000E0C00000E0E00040000000400020004000400040006000400080004000A0004000C0004000E00040200000402020004020400040206000402080004020A0004020C0004020E000404000004040200040404000404060004040800040
310
40A0004040C0004040E00040600000406020004060400040606000406080004060A0004060C0004060E00040800000408020004080400040806000408080004080A0004080C0004080E00040A0000040A0200040A0400040A0600040A0800040A0A00040A0C00040A0E00040C0000040C0200040C0400040C0600040C08000
310
40C0A00040C0C00040C0E00040E0000040E0200040E0400040E0600040E0800040E0A00040E0C00040E0E00080000000800020008000400080006000800080008000A0008000C0008000E00080200000802020008020400080206000802080008020A0008020C0008020E00080400000804020008040400080406000804080
310
008040A0008040C0008040E00080600000806020008060400080606000806080008060A0008060C0008060E00080800000808020008080400080806000808080008080A0008080C0008080E00080A0000080A0200080A0400080A0600080A0800080A0A00080A0C00080A0E00080C0000080C0200080C0400080C0600080C0
310
800080C0A00080C0C00080C0E00080E0000080E0200080E0400080E0600080E0800080E0A00080E0C00080E0E000C0000000C0002000C0004000C0006000C0008000C000A000C000C000C000E000C0200000C0202000C0204000C0206000C0208000C020A000C020C000C020E000C0400000C0402000C0404000C0406000C0
310
408000C040A000C040C000C040E000C0600000C0602000C0604000C0606000C0608000C060A000C060C000C060E000C0800000C0802000C0804000C0806000C0808000C080A000C080C000C080E000C0A00000C0A02000C0A04000C0A06000C0A08000C0A0A000C0A0C000C0A0E000C0C00000C0C02000C0C04000C0C06000
310
C0C08000C0C0A000F0FBFF00A4A0A000808080000000FF0000FF000000FFFF00FF000000FF00FF00FFFF0000FFFFFF000000000000000000000000000000000000000000000000000000000000000000000000000000000000000000FFFF000000000000000000000000000000000000000000000000000000000000FFFF00
310
0000000000000000000000000000000000000000000000000000000000FFFFFFFFFFFFFFFFFFFFF9000000000000000000000000000000000000000000FFFF0000000000FFFFFF00000000000000000000000000000000000000000000FFFF0000000000FFFFFF00000000000000000000000000000000000000000000FFFF
310
0000000000FFFFFF00000000000000000000000000000000000000000000FFFF0000000000FFFFFF00000000000000000000000000000000000000000000FFFF0000000000FFFFFF00000000000000000000000000000000000000000000FFFF0000000000FFFFFF00000000000000000000000000000000000000000000FF
310
FF0000000000FFFFFF00000000000000000000000000000000000000000000FFFF0000000000FFFFFF00000000000000000000000000000000000000000000FFFF0000000000FFFFFF00000000000000000000000000000000000000000000FFFF0000000000FFFFFF00000000000000000000000000000000000000000000
310
FFFF0000000000FFFFFF00000000000000000000000000000000000000000000FFFF0000000000FFFFFF00000000000000000000000000000000000000000000FFFF0000000000FFFFFF0000000000000000000000000000000000000000000000000000000000000000000000000000000000000000000000000000000000
310
00000000000000000000000000000000000000000000000000000000000000000000000000000000000000000000000000000000000000000000000000000000000000000000000000000000000000000000000000000000000000000000000000000000000000000000000000000000000000000000000000000000000000
310
00000000000000000000000000000000000000000000000000000000000000000000000000000000000000000000000000000000000000000000000000000000000000000000000000000000000000000000000000000000000000000000000000000000000000000000000000000000000000000000000000000000000000
310
0000000000000000000000FFFF00000000000000000000000000000000000000000000FFFFFFFEA4A4A4A4FFFFFF000000000000000000000000000000000000000000FFFFFFFFFFFFFFFFFFFFFF000000000000000000000000000000000000F9F9F9FFFFF9F9000000000000000000000000000000000000000000000000
310
00000000FFFF0000000000000000000000000000000000000000000000000000000000000000000000000000000000000000000000000000
102
{BLKREFS
331
5613
102
}
 70
     4
280
     1
281
     0
  0
BLOCK_RECORD
  5
578B
102
{ACAD_XDICTIONARY
360
5839
102
}
330
1
100
AcDbSymbolTableRecord
100
AcDbBlockTableRecord
  2
ＧＣサイドカバ－Ｂ CCMH1250
340
0
310
2800000020000000200000000100080000000000000400000000000000000000000000000000000000000000000080000080000000808000800000008000800080800000C0C0C000C0DCC000F0CAA6000020400000206000002080000020A0000020C0000020E00000400000004020000040400000406000004080000040A0
310
000040C0000040E00000600000006020000060400000606000006080000060A0000060C0000060E00000800000008020000080400000806000008080000080A0000080C0000080E00000A0000000A0200000A0400000A0600000A0800000A0A00000A0C00000A0E00000C0000000C0200000C0400000C0600000C0800000C0
310
A00000C0C00000C0E00000E0000000E0200000E0400000E0600000E0800000E0A00000E0C00000E0E00040000000400020004000400040006000400080004000A0004000C0004000E00040200000402020004020400040206000402080004020A0004020C0004020E000404000004040200040404000404060004040800040
310
40A0004040C0004040E00040600000406020004060400040606000406080004060A0004060C0004060E00040800000408020004080400040806000408080004080A0004080C0004080E00040A0000040A0200040A0400040A0600040A0800040A0A00040A0C00040A0E00040C0000040C0200040C0400040C0600040C08000
310
40C0A00040C0C00040C0E00040E0000040E0200040E0400040E0600040E0800040E0A00040E0C00040E0E00080000000800020008000400080006000800080008000A0008000C0008000E00080200000802020008020400080206000802080008020A0008020C0008020E00080400000804020008040400080406000804080
310
008040A0008040C0008040E00080600000806020008060400080606000806080008060A0008060C0008060E00080800000808020008080400080806000808080008080A0008080C0008080E00080A0000080A0200080A0400080A0600080A0800080A0A00080A0C00080A0E00080C0000080C0200080C0400080C0600080C0
310
800080C0A00080C0C00080C0E00080E0000080E0200080E0400080E0600080E0800080E0A00080E0C00080E0E000C0000000C0002000C0004000C0006000C0008000C000A000C000C000C000E000C0200000C0202000C0204000C0206000C0208000C020A000C020C000C020E000C0400000C0402000C0404000C0406000C0
310
408000C040A000C040C000C040E000C0600000C0602000C0604000C0606000C0608000C060A000C060C000C060E000C0800000C0802000C0804000C0806000C0808000C080A000C080C000C080E000C0A00000C0A02000C0A04000C0A06000C0A08000C0A0A000C0A0C000C0A0E000C0C00000C0C02000C0C04000C0C06000
310
C0C08000C0C0A000F0FBFF00A4A0A000808080000000FF0000FF000000FFFF00FF000000FF00FF00FFFF0000FFFFFF000000000000000000000000000000000000000000000000000000000000000000000000000000000000000000000000FFFF0000000000000000000000000000000000000000000000000000000000F9
310
F9F9F90000000000000000000000000000000000000000000000000000000000FF00000000000000000000000000000000000000000000000000000000000000FF00000000000000000000000000000000000000000000000000000000000000FF000000000000000000000000000000000000000000000000000000000000
310
00FF00000000000000000000000000000000000000000000000000000000000000FF00000000000000000000000000000000000000000000000000000000000000FF00000000000000000000000000000000000000000000000000000000000000FF0000000000000000000000000000000000000000000000000000000000
310
0000FF00000000000000000000000000000000000000000000000000000000000000FF00000000000000000000000000000000000000000000000000000000000000FF00000000000000000000000000000000000000000000000000000000000000FF00000000000000000000000000000000000000000000000000000000
310
000000FF00000000000000000000000000000000000000000000000000000000000000FF00000000000000000000000000000000000000000000000000000000000000FF0000000000000000000000000000000000000000000000000000000000000000000000000000000000000000000000000000000000000000000000
310
00000000000000000000000000000000000000000000000000000000000000000000000000000000000000000000000000000000000000000000000000000000000000000000000000000000000000000000000000000000000000000000000000000000000000000000000000000000000000000000000000000000000000
310
00000000000000000000000000000000000000000000000000000000000000000000000000000000000000000000000000000000000000000000000000000000000000000000000000000000000000000000000000000000000000000000000000000000000000000000000000000000000000000000000000000000000000
310
00000000000000000000000000000000000000000000000000000000000000000000000000000000000000000000000000000000000000000000000000000000000000000000FFFF0000000000000000000000000000000000000000000000000000000000FFFFFFFF00000000000000000000000000000000000000000000
310
00000000000000FFFF0000000000000000000000000000000000000000000000000000000000000000000000000000000000000000000000
102
{BLKREFS
331
57C3
102
}
 70
     4
280
     1
281
     0
  0
BLOCK_RECORD
  5
5901
330
1
100
AcDbSymbolTableRecord
100
AcDbBlockTableRecord
  2
*D15
340
0
 70
     0
280
     1
281
     0
  0
BLOCK_RECORD
  5
593D
330
1
100
AcDbSymbolTableRecord
100
AcDbBlockTableRecord
  2
*D16
340
0
 70
     0
280
     1
281
     0
  0
BLOCK_RECORD
  5
597F
330
1
100
AcDbSymbolTableRecord
100
AcDbBlockTableRecord
  2
*D17
340
0
 70
     0
280
     1
281
     0
  0
BLOCK_RECORD
  5
5997
330
1
100
AcDbSymbolTableRecord
100
AcDbBlockTableRecord
  2
*D18
340
0
 70
     0
280
     1
281
     0
  0
BLOCK_RECORD
  5
59B3
330
1
100
AcDbSymbolTableRecord
100
AcDbBlockTableRecord
  2
*D19
340
0
 70
     0
280
     1
281
     0
  0
BLOCK_RECORD
  5
5A73
330
1
100
AcDbSymbolTableRecord
100
AcDbBlockTableRecord
  2
*D20
340
0
 70
     0
280
     1
281
     0
  0
BLOCK_RECORD
  5
5A8B
330
1
100
AcDbSymbolTableRecord
100
AcDbBlockTableRecord
  2
*D21
340
0
 70
     0
280
     1
281
     0
  0
BLOCK_RECORD
  5
5B2B
330
1
100
AcDbSymbolTableRecord
100
AcDbBlockTableRecord
  2
*D22
340
0
 70
     0
280
     1
281
     0
  0
BLOCK_RECORD
  5
5B47
330
1
100
AcDbSymbolTableRecord
100
AcDbBlockTableRecord
  2
*D23
340
0
 70
     0
280
     1
281
     0
  0
BLOCK_RECORD
  5
5BD8
330
1
100
AcDbSymbolTableRecord
100
AcDbBlockTableRecord
  2
*D24
340
0
 70
     0
280
     1
281
     0
  0
BLOCK_RECORD
  5
5C38
330
1
100
AcDbSymbolTableRecord
100
AcDbBlockTableRecord
  2
*D25
340
0
 70
     0
280
     1
281
     0
  0
BLOCK_RECORD
  5
6E77
330
1
100
AcDbSymbolTableRecord
100
AcDbBlockTableRecord
  2
*D26
340
0
 70
     0
280
     1
281
     0
  0
BLOCK_RECORD
  5
7471
330
1
100
AcDbSymbolTableRecord
100
AcDbBlockTableRecord
  2
*D27
340
0
 70
     0
280
     1
281
     0
  0
BLOCK_RECORD
  5
749F
330
1
100
AcDbSymbolTableRecord
100
AcDbBlockTableRecord
  2
*D28
340
0
 70
     0
280
     1
281
     0
  0
BLOCK_RECORD
  5
7742
330
1
100
AcDbSymbolTableRecord
100
AcDbBlockTableRecord
  2
_DotSmall
340
0
102
{BLKREFS
331
776C
331
7873
331
7874
331
787E
102
}
 70
     0
280
     1
281
     0
  0
BLOCK_RECORD
  5
7843
330
1
100
AcDbSymbolTableRecord
100
AcDbBlockTableRecord
  2
センタB CCMH1250
340
0
310
2800000020000000200000000100080000000000000400000000000000000000000000000000000000000000000080000080000000808000800000008000800080800000C0C0C000C0DCC000F0CAA6000020400000206000002080000020A0000020C0000020E00000400000004020000040400000406000004080000040A0
310
000040C0000040E00000600000006020000060400000606000006080000060A0000060C0000060E00000800000008020000080400000806000008080000080A0000080C0000080E00000A0000000A0200000A0400000A0600000A0800000A0A00000A0C00000A0E00000C0000000C0200000C0400000C0600000C0800000C0
310
A00000C0C00000C0E00000E0000000E0200000E0400000E0600000E0800000E0A00000E0C00000E0E00040000000400020004000400040006000400080004000A0004000C0004000E00040200000402020004020400040206000402080004020A0004020C0004020E000404000004040200040404000404060004040800040
310
40A0004040C0004040E00040600000406020004060400040606000406080004060A0004060C0004060E00040800000408020004080400040806000408080004080A0004080C0004080E00040A0000040A0200040A0400040A0600040A0800040A0A00040A0C00040A0E00040C0000040C0200040C0400040C0600040C08000
310
40C0A00040C0C00040C0E00040E0000040E0200040E0400040E0600040E0800040E0A00040E0C00040E0E00080000000800020008000400080006000800080008000A0008000C0008000E00080200000802020008020400080206000802080008020A0008020C0008020E00080400000804020008040400080406000804080
310
008040A0008040C0008040E00080600000806020008060400080606000806080008060A0008060C0008060E00080800000808020008080400080806000808080008080A0008080C0008080E00080A0000080A0200080A0400080A0600080A0800080A0A00080A0C00080A0E00080C0000080C0200080C0400080C0600080C0
310
800080C0A00080C0C00080C0E00080E0000080E0200080E0400080E0600080E0800080E0A00080E0C00080E0E000C0000000C0002000C0004000C0006000C0008000C000A000C000C000C000E000C0200000C0202000C0204000C0206000C0208000C020A000C020C000C020E000C0400000C0402000C0404000C0406000C0
310
408000C040A000C040C000C040E000C0600000C0602000C0604000C0606000C0608000C060A000C060C000C060E000C0800000C0802000C0804000C0806000C0808000C080A000C080C000C080E000C0A00000C0A02000C0A04000C0A06000C0A08000C0A0A000C0A0C000C0A0E000C0C00000C0C02000C0C04000C0C06000
310
C0C08000C0C0A000F0FBFF00A4A0A000808080000000FF0000FF000000FFFF00FF000000FF00FF00FFFF0000FFFFFF000000000000000000000000000000000000000000000000000000000000000000000000000000FFFFFFFFFFFFFFFFFFFF00000000000000000000000000000000000000000000FF00000000000000FF
310
0000000000000000000000000000000000000000000000FF00000000000000FF0000000000000000000000000000000000000000000000FF00000000000000FF0000000000000000000000000000000000000000000000FF00000000000000FF0000000000000000000000000000000000000000000000FF00000000000000
310
FF0000000000000000000000000000000000000000000000FF00000000000000FF0000000000000000000000000000000000000000000000FF00000000000000FF0000000000000000000000000000000000000000000000FF00000000000000FF0000000000000000000000000000000000000000000000FF000000000000
310
00FF0000000000000000000000000000000000000000000000FF00000000000000FF0000000000000000000000000000000000000000000000FF00000000000000FF0000000000000000000000000000000000000000000000FF00000000000000FF0000000000000000000000000000000000000000000000FF0000000000
310
0000FF0000000000000000000000000000000000000000000000A4A4A40000000000FF0000000000000000A4A4A4000000000000000000000000A4A4A40000000000000000000000000000A4A4A4000000000000000000000000FF000000000000000000000000000000000000FF000000000000000000000000FF00000000
310
0000000000000000000000000000FF000000000000000000000000FF000000000000000000000000000000000000FF000000000000000000000000FF000000000000000000000000000000000000FF000000000000000000000000FF000000000000000000000000000000000000FF000000000000000000000000FF000000
310
000000000000000000000000000000FF000000000000000000000000FFFFFFFFFFFFFFFFFFFFFFFFFFFFFFFFFFFFFFFF000000000000000000000000FF000000000000000000000000000000000000FF000000000000000000000000FF000000000000000000000000000000000000FF000000000000000000000000FF0000
310
00000000000000000000000000000000FF000000000000000000000000FF000000000000000000000000000000000000FF000000000000000000000000FFFFFFFFFFFFFFFFFFFFFF00000000FFFFFFFFFF00000000000000000000000000000000000000000000F9F9F9F9F9F9000000000000000000000000000000000000
310
0000000000000000000000F90000000000000000000000000000000000000000000000000000000000000000000000000000000000000000
102
{BLKREFS
331
7883
102
}
 70
     4
280
     1
281
     1
  0
ENDTAB
  0
ENDSEC
  0
SECTION
  2
BLOCKS
  0
BLOCK
  5
20
330
1F
100
AcDbEntity
  8
0
100
AcDbBlockBegin
  2
*Model_Space
 70
     0
 10
0.0
 20
0.0
 30
0.0
  3
*Model_Space
  1

  0
ENDBLK
  5
21
330
1F
100
AcDbEntity
  8
0
100
AcDbBlockEnd
  0
BLOCK
  5
1C
330
1B
100
AcDbEntity
 67
     1
  8
0
100
AcDbBlockBegin
  2
*Paper_Space
 70
     0
 10
0.0
 20
0.0
 30
0.0
  3
*Paper_Space
  1

  0
ENDBLK
  5
1D
330
1B
100
AcDbEntity
 67
     1
  8
0
100
AcDbBlockEnd
  0
BLOCK
  5
24
330
23
100
AcDbEntity
 67
     1
  8
0
100
AcDbBlockBegin
  2
*Paper_Space0
 70
     0
 10
0.0
 20
0.0
 30
0.0
  3
*Paper_Space0
  1

  0
ENDBLK
  5
25
330
23
100
AcDbEntity
 67
     1
  8
0
100
AcDbBlockEnd
  0
BLOCK
  5
6D
330
69
100
AcDbEntity
  8
0
100
AcDbBlockBegin
  2
_Open30
 70
     0
 10
0.0
 20
0.0
 30
0.0
  3
_Open30
  1

  0
LINE
  5
6A
330
69
100
AcDbEntity
  8
0
  6
ByBlock
 62
     0
370
    -2
100
AcDbLine
 10
-1.0
 20
0.26794919
 30
0.0
 11
0.0
 21
0.0
 31
0.0
  0
LINE
  5
6B
330
69
100
AcDbEntity
  8
0
  6
ByBlock
 62
     0
370
    -2
100
AcDbLine
 10
0.0
 20
0.0
 30
0.0
 11
-1.0
 21
-0.26794919
 31
0.0
  0
LINE
  5
6C
330
69
100
AcDbEntity
  8
0
  6
ByBlock
 62
     0
370
    -2
100
AcDbLine
 10
0.0
 20
0.0
 30
0.0
 11
-1.0
 21
0.0
 31
0.0
  0
ENDBLK
  5
6E
330
69
100
AcDbEntity
  8
0
100
AcDbBlockEnd
  0
BLOCK
  5
76
330
74
100
AcDbEntity
  8
0
100
AcDbBlockBegin
  2
GENAXEH
 70
     0
 10
0.0
 20
0.0
 30
0.0
  3
GENAXEH
  1

  0
LINE
  5
75
330
74
100
AcDbEntity
  8
0
100
AcDbLine
 10
-1.0
 20
0.0
 30
0.0
 11
1.0
 21
0.0
 31
0.0
  0
ENDBLK
  5
77
330
74
100
AcDbEntity
  8
0
100
AcDbBlockEnd
  0
BLOCK
  5
3B8A
330
3B89
100
AcDbEntity
  8
0
100
AcDbBlockBegin
  2
GENDOT
 70
     0
 10
0.0
 20
0.0
 30
0.0
  3
GENDOT
  1

  0
LINE
  5
3B8B
330
3B89
100
AcDbEntity
  8
0
100
AcDbLine
 10
0.0
 20
0.0
 30
0.0
 11
-1.0
 21
0.0
 31
0.0
  0
LWPOLYLINE
  5
3B8C
330
3B89
100
AcDbEntity
  8
0
100
AcDbPolyline
 90
        2
 70
     1
 43
0.25
 10
-0.125
 20
0.0
 42
1.0
 10
0.125
 20
0.0
 42
1.0
  0
ENDBLK
  5
3B8D
330
3B89
100
AcDbEntity
  8
0
100
AcDbBlockEnd
  0
BLOCK
  5
4D7E
330
4D7D
100
AcDbEntity
  8
0
100
AcDbBlockBegin
  2
ロッカクアナツキプラグA R1
 70
     0
 10
0.0
 20
0.0
 30
0.0
  3
ロッカクアナツキプラグA R1
  1

  0
LINE
  5
4D80
330
4D7D
100
AcDbEntity
  8
AM_7 中心線
100
AcDbLine
 10
0.0
 20
5.609929000000192
 30
0.0
 11
0.0
 21
-35.24113499999976
 31
0.0
  0
LINE
  5
4D81
330
4D7D
100
AcDbEntity
  8
AM_4 細線
100
AcDbLine
 10
15.19540500000039
 20
-1.070905000000037
 30
0.0
 11
14.67855799999961
 21
-15.87147099999993
 31
0.0
  0
LINE
  5
4D82
330
4D7D
100
AcDbEntity
  8
AM_4 細線
100
AcDbLine
 10
-15.19540499999948
 20
-1.070905000000037
 30
0.0
 11
-14.67855799999961
 21
-15.87147099999993
 31
0.0
  0
LINE
  5
4D83
330
4D7D
100
AcDbEntity
  8
AM_0 外形線1
100
AcDbLine
 10
-16.18799000000035
 20
-15.0
 30
0.0
 11
16.18799000000035
 21
-15.0
 31
0.0
  0
LINE
  5
4D84
330
4D7D
100
AcDbEntity
  8
AM_0 外形線1
100
AcDbLine
 10
16.6244999999999
 20
-2.5
 30
0.0
 11
-16.6244999999999
 21
-2.5
 31
0.0
  0
LINE
  5
4D85
330
4D7D
100
AcDbEntity
  8
AM_0 外形線1
100
AcDbLine
 10
16.6244999999999
 20
-2.5
 30
0.0
 11
14.1244999999999
 21
0.0
 31
0.0
  0
LINE
  5
4D86
330
4D7D
100
AcDbEntity
  8
AM_0 外形線1
100
AcDbLine
 10
16.18799000000035
 20
-15.0
 30
0.0
 11
16.6244999999999
 21
-2.5
 31
0.0
  0
LINE
  5
4D87
330
4D7D
100
AcDbEntity
  8
AM_0 外形線1
100
AcDbLine
 10
9.25978699999996
 20
-19.0
 30
0.0
 11
16.18799000000035
 21
-15.0
 31
0.0
  0
LINE
  5
4D88
330
4D7D
100
AcDbEntity
  8
AM_0 外形線1
100
AcDbLine
 10
-9.25978699999905
 20
-19.0
 30
0.0
 11
9.25978699999996
 21
-19.0
 31
0.0
  0
LINE
  5
4D89
330
4D7D
100
AcDbEntity
  8
AM_0 外形線1
100
AcDbLine
 10
-16.18799000000035
 20
-15.0
 30
0.0
 11
-9.25978699999905
 21
-19.0
 31
0.0
  0
LINE
  5
4D8A
330
4D7D
100
AcDbEntity
  8
AM_0 外形線1
100
AcDbLine
 10
-16.6244999999999
 20
-2.5
 30
0.0
 11
-16.18799000000035
 21
-15.0
 31
0.0
  0
LINE
  5
4D8B
330
4D7D
100
AcDbEntity
  8
AM_0 外形線1
100
AcDbLine
 10
-14.1244999999999
 20
0.0
 30
0.0
 11
-16.6244999999999
 21
-2.5
 31
0.0
  0
LINE
  5
4DAA
330
4D7D
100
AcDbEntity
  8
AM_0 外形線1
100
AcDbLine
 10
-14.1244999999999
 20
0.0
 30
0.0
 11
14.1244999999999
 21
0.0
 31
0.0
  0
ENDBLK
  5
4D7F
330
4D7D
100
AcDbEntity
  8
0
100
AcDbBlockEnd
  0
BLOCK
  5
4E25
330
4E24
100
AcDbEntity
  8
0
100
AcDbBlockBegin
  2
ケースＡ CCMH1250
 70
     0
 10
0.0
 20
0.0
 30
0.0
  3
ケースＡ CCMH1250
  1

  0
LINE
  5
4E27
330
4E24
100
AcDbEntity
  8
AM_0 外形線1
100
AcDbLine
 10
60.0
 20
-622.9999999999994
 30
0.0
 11
60.0
 21
0.0
 31
0.0
  0
LINE
  5
4E28
330
4E24
100
AcDbEntity
  8
AM_0 外形線1
100
AcDbLine
 10
0.0
 20
0.0
 30
0.0
 11
0.0
 21
-622.9999999999994
 31
0.0
  0
LINE
  5
4E29
330
4E24
100
AcDbEntity
  8
AM_0 外形線1
100
AcDbLine
 10
2.0
 20
-624.9999999999994
 30
0.0
 11
58.0
 21
-624.9999999999994
 31
0.0
  0
LINE
  5
4E2A
330
4E24
100
AcDbEntity
  8
AM_0 外形線1
100
AcDbLine
 10
0.0
 20
-622.9999999999994
 30
0.0
 11
2.0
 21
-624.9999999999994
 31
0.0
  0
LINE
  5
4E2B
330
4E24
100
AcDbEntity
  8
AM_0 外形線1
100
AcDbLine
 10
58.0
 20
-624.9999999999994
 30
0.0
 11
60.0
 21
-622.9999999999994
 31
0.0
  0
LINE
  5
4E2C
330
4E24
100
AcDbEntity
  8
AM_0 外形線1
100
AcDbLine
 10
371.0
 20
-562.9999999999994
 30
0.0
 11
371.0
 21
0.0
 31
0.0
  0
LINE
  5
4E2D
330
4E24
100
AcDbEntity
  8
AM_0 外形線1
100
AcDbLine
 10
311.0
 20
-562.9999999999994
 30
0.0
 11
311.0
 21
0.0
 31
0.0
  0
LINE
  5
4E2E
330
4E24
100
AcDbEntity
  8
AM_0 外形線1
100
AcDbLine
 10
296.0
 20
-547.9999999999994
 30
0.0
 11
296.0
 21
0.0
 31
0.0
  0
LINE
  5
4E2F
330
4E24
100
AcDbEntity
  8
AM_0 外形線1
100
AcDbLine
 10
60.5
 20
-547.9999999999994
 30
0.0
 11
296.0
 21
-547.9999999999994
 31
0.0
  0
LINE
  5
4E30
330
4E24
100
AcDbEntity
  8
AM_0 外形線1
100
AcDbLine
 10
311.0
 20
-562.9999999999994
 30
0.0
 11
296.0
 21
-547.9999999999994
 31
0.0
  0
LINE
  5
4E31
330
4E24
100
AcDbEntity
  8
AM_0 外形線1
100
AcDbLine
 10
371.0
 20
-562.9999999999994
 30
0.0
 11
311.0
 21
-562.9999999999994
 31
0.0
  0
LINE
  5
4E32
330
4E24
100
AcDbEntity
  8
AM_7 中心線
100
AcDbLine
 10
-122.0526549999995
 20
591.0
 30
0.0
 11
114.0
 21
591.0
 31
0.0
  0
LINE
  5
4E33
330
4E24
100
AcDbEntity
  8
AM_0 外形線1
100
AcDbLine
 10
185.0
 20
494.3999999999999
 30
0.0
 11
173.0
 21
494.3999999999999
 31
0.0
  0
LINE
  5
4E34
330
4E24
100
AcDbEntity
  8
AM_7 中心線
100
AcDbLine
 10
169.0
 20
504.0
 30
0.0
 11
365.0
 21
504.0
 31
0.0
  0
LINE
  5
4E35
330
4E24
100
AcDbEntity
  8
AM_0 外形線1
100
AcDbLine
 10
68.0
 20
548.0
 30
0.0
 11
296.0
 21
548.0
 31
0.0
  0
LINE
  5
4E36
330
4E24
100
AcDbEntity
  8
AM_0 外形線1
100
AcDbLine
 10
171.0
 20
516.0
 30
0.0
 11
363.0
 21
516.0
 31
0.0
  0
LINE
  5
4E37
330
4E24
100
AcDbEntity
  8
AM_0 外形線1
100
AcDbLine
 10
170.0
 20
518.0
 30
0.0
 11
-12.0
 21
518.0
 31
0.0
  0
LINE
  5
4E38
330
4E24
100
AcDbEntity
  8
AM_0 外形線1
100
AcDbLine
 10
0.0
 20
572.0
 30
0.0
 11
60.0
 21
572.0
 31
0.0
  0
LINE
  5
4E39
330
4E24
100
AcDbEntity
  8
AM_0 外形線1
100
AcDbLine
 10
2.0
 20
625.0
 30
0.0
 11
58.0
 21
625.0
 31
0.0
  0
LINE
  5
4E3A
330
4E24
100
AcDbEntity
  8
AM_0 外形線1
100
AcDbLine
 10
60.0
 20
610.0
 30
0.0
 11
0.0
 21
610.0
 31
0.0
  0
LINE
  5
4E3B
330
4E24
100
AcDbEntity
  8
AM_0 外形線1
100
AcDbLine
 10
2.0
 20
625.0
 30
0.0
 11
58.0
 21
625.0
 31
0.0
  0
LWPOLYLINE
  5
4E3C
330
4E24
100
AcDbEntity
  8
AM_0 外形線1
100
AcDbPolyline
 90
       73
 70
     0
 43
0.0
 10
3.350000000000362
 20
540.0
 10
3.641972000000349
 20
540.0199779999998
 10
3.931721000000834
 20
540.0797590000002
 10
4.217043999999987
 20
540.1788900000001
 10
4.495768000000679
 20
540.3166139999998
 10
4.765771000000313
 20
540.491884
 10
5.025000000000544
 20
540.7033669999999
 10
5.271480999999766
 20
540.9494520000001
 10
5.503339000000778
 20
541.2282669999998
 10
5.718807999999625
 20
541.53769
 10
5.916248999999877
 20
541.8753649999998
 10
6.094159000000217
 20
542.2387239999998
 10
6.251185000000077
 20
542.625
 10
6.386131000000204
 20
543.031254
 10
6.497970000000349
 20
543.4543939999998
 10
6.585852000000159
 20
543.8912
 10
6.649106000000755
 20
544.3383469999998
 10
6.687251999999716
 20
544.7924320000002
 10
6.700000000000727
 20
545.2499999999998
 10
6.687251999999716
 20
545.7075680000001
 10
6.649106000000755
 20
546.1616530000001
 10
6.585852000000159
 20
546.6088
 10
6.497970000000349
 20
547.0456060000001
 10
6.386131000000204
 20
547.468746
 10
6.251185000000077
 20
547.8749999999998
 10
6.094159000000217
 20
548.2612760000002
 10
5.916248999999877
 20
548.624635
 10
5.718807999999625
 20
548.9623110000001
 10
5.503339000000778
 20
549.271733
 10
5.271480999999766
 20
549.5505479999997
 10
5.025000000000544
 20
549.7966340000003
 10
4.765771000000313
 20
550.0081159999998
 10
4.495768000000679
 20
550.1833860000001
 10
4.217043999999987
 20
550.3211110000002
 10
3.931721000000834
 20
550.4202410000003
 10
3.641972000000349
 20
550.4800220000001
 10
3.350000000000362
 20
550.4999999999999
 10
3.058028000000376
 20
550.4800220000001
 10
2.768278999999893
 20
550.4202410000003
 10
2.48295599999983
 20
550.3211110000002
 10
2.204233000000384
 20
550.1833860000001
 10
1.934229000000413
 20
550.0081159999998
 10
1.67500000000109
 20
549.7966340000003
 10
1.42851900000005
 20
549.5505479999997
 10
1.196662000000287
 20
549.271733
 10
0.981192000000192
 20
548.9623110000001
 10
0.7837510000008479
 20
548.624635
 10
0.6058410000005097
 20
548.2612760000002
 10
0.4488149999997404
 20
547.8749999999998
 10
0.3138689999996131
 20
547.468746
 10
0.2020300000003772
 20
547.0456060000001
 10
0.1141490000009071
 20
546.6088
 10
0.0508939999999711
 20
546.1616530000001
 10
0.0127480000001015
 20
545.7075680000001
 10
0.0
 20
545.2499999999998
 10
0.0127480000001015
 20
544.7924320000002
 10
0.0508939999999711
 20
544.3383469999998
 10
0.1141490000009071
 20
543.8912
 10
0.2020300000003772
 20
543.4543939999998
 10
0.3138689999996131
 20
543.031254
 10
0.4488149999997404
 20
542.625
 10
0.6058410000005097
 20
542.2387239999998
 10
0.7837510000008479
 20
541.8753649999998
 10
0.981192000000192
 20
541.53769
 10
1.196662000000287
 20
541.2282669999998
 10
1.42851900000005
 20
540.9494520000001
 10
1.67500000000109
 20
540.7033669999999
 10
1.934229000000413
 20
540.491884
 10
2.204233000000384
 20
540.3166139999998
 10
2.48295599999983
 20
540.1788900000001
 10
2.768278999999893
 20
540.0797590000002
 10
3.058028000000376
 20
540.0199779999998
 10
3.350000000000362
 20
540.0
  0
LINE
  5
4E3D
330
4E24
100
AcDbEntity
  8
AM_0 外形線1
100
AcDbLine
 10
6.700000000000727
 20
540.5
 30
0.0
 11
6.700000000000727
 21
550.0
 31
0.0
  0
LINE
  5
4E3E
330
4E24
100
AcDbEntity
  8
AM_0 外形線1
100
AcDbLine
 10
-9.0
 20
540.0
 30
0.0
 11
6.200000000000727
 21
540.0
 31
0.0
  0
LINE
  5
4E3F
330
4E24
100
AcDbEntity
  8
AM_0 外形線1
100
AcDbLine
 10
-12.0
 20
537.0
 30
0.0
 11
-9.0
 21
540.0
 31
0.0
  0
LINE
  5
4E40
330
4E24
100
AcDbEntity
  8
AM_0 外形線1
100
AcDbLine
 10
-12.0
 20
518.0
 30
0.0
 11
-12.0
 21
537.0
 31
0.0
  0
ARC
  5
4E41
330
4E24
100
AcDbEntity
  8
AM_0 外形線1
100
AcDbCircle
 10
6.200000000000727
 20
540.5
 30
0.0
 40
0.5
100
AcDbArc
 50
270.0
 51
0.0
  0
LINE
  5
4E42
330
4E24
100
AcDbEntity
  8
AM_0 外形線1
100
AcDbLine
 10
0.0
 20
550.4999999999999
 30
0.0
 11
0.0
 21
572.0
 31
0.0
  0
LINE
  5
4E43
330
4E24
100
AcDbEntity
  8
AM_0 外形線1
100
AcDbLine
 10
6.200000000000727
 20
550.4999999999999
 30
0.0
 11
0.0
 21
550.4999999999999
 31
0.0
  0
ARC
  5
4E44
330
4E24
100
AcDbEntity
  8
AM_0 外形線1
100
AcDbCircle
 10
6.200000000000727
 20
550.0
 30
0.0
 40
0.5
100
AcDbArc
 50
0.0
 51
90.0
  0
LINE
  5
4E45
330
4E24
100
AcDbEntity
  8
AM_0 外形線1
100
AcDbLine
 10
0.0
 20
623.0
 30
0.0
 11
2.0
 21
625.0
 31
0.0
  0
LINE
  5
4E46
330
4E24
100
AcDbEntity
  8
AM_0 外形線1
100
AcDbLine
 10
0.0
 20
623.0
 30
0.0
 11
2.0
 21
625.0
 31
0.0
  0
LINE
  5
4E47
330
4E24
100
AcDbEntity
  8
AM_0 外形線1
100
AcDbLine
 10
0.0
 20
610.0
 30
0.0
 11
0.0
 21
623.0
 31
0.0
  0
ARC
  5
4E48
330
4E24
100
AcDbEntity
  8
AM_0 外形線1
100
AcDbCircle
 10
68.0
 20
556.0
 30
0.0
 40
8.0
100
AcDbArc
 50
180.0
 51
270.0
  0
LINE
  5
4E49
330
4E24
100
AcDbEntity
  8
AM_0 外形線1
100
AcDbLine
 10
111.6244999999999
 20
545.5
 30
0.0
 11
111.7118019999998
 21
548.0
 31
0.0
  0
LINE
  5
4E4A
330
4E24
100
AcDbEntity
  8
AM_0 外形線1
100
AcDbLine
 10
111.1879900000003
 20
533.0
 30
0.0
 11
110.6641790000003
 21
518.0
 31
0.0
  0
LINE
  5
4E4B
330
4E24
100
AcDbEntity
  8
AM_0 外形線1
100
AcDbLine
 10
78.81200999999966
 20
533.0
 30
0.0
 11
79.33582100000058
 21
518.0
 31
0.0
  0
LINE
  5
4E4C
330
4E24
100
AcDbEntity
  8
AM_0 外形線1
100
AcDbLine
 10
78.28819800000019
 20
548.0
 30
0.0
 11
78.3755000000001
 21
545.5
 31
0.0
  0
LINE
  5
4E4D
330
4E24
100
AcDbEntity
  8
AM_0 外形線1
100
AcDbLine
 10
80.32144200000038
 20
532.1285289999999
 30
0.0
 11
80.81482099999993
 21
518.0
 31
0.0
  0
LINE
  5
4E4E
330
4E24
100
AcDbEntity
  8
AM_0 外形線1
100
AcDbLine
 10
109.6785579999996
 20
532.1285289999999
 30
0.0
 11
109.185179
 21
518.0
 31
0.0
  0
ARC
  5
4E4F
330
4E24
100
AcDbEntity
  8
AM_0 外形線1
100
AcDbCircle
 10
170.0
 20
517.0
 30
0.0
 40
1.0
100
AcDbArc
 50
0.0
 51
90.0
  0
LINE
  5
4E50
330
4E24
100
AcDbEntity
  8
AM_0 外形線1
100
AcDbLine
 10
171.0
 20
496.4000000000001
 30
0.0
 11
171.0
 21
517.0
 31
0.0
  0
LINE
  5
4E51
330
4E24
100
AcDbEntity
  8
AM_0 外形線1
100
AcDbLine
 10
173.0
 20
494.3999999999999
 30
0.0
 11
171.0
 21
496.4000000000001
 31
0.0
  0
LINE
  5
4E52
330
4E24
100
AcDbEntity
  8
AM_0 外形線1
100
AcDbLine
 10
60.0
 20
572.0
 30
0.0
 11
60.0
 21
556.0
 31
0.0
  0
LINE
  5
4E53
330
4E24
100
AcDbEntity
  8
AM_0 外形線1
100
AcDbLine
 10
60.0
 20
623.0
 30
0.0
 11
60.0
 21
610.0
 31
0.0
  0
LINE
  5
4E54
330
4E24
100
AcDbEntity
  8
AM_0 外形線1
100
AcDbLine
 10
58.0
 20
625.0
 30
0.0
 11
60.0
 21
623.0
 31
0.0
  0
LINE
  5
4E55
330
4E24
100
AcDbEntity
  8
AM_0 外形線1
100
AcDbLine
 10
60.0
 20
623.0
 30
0.0
 11
60.0
 21
610.0
 31
0.0
  0
LINE
  5
4E56
330
4E24
100
AcDbEntity
  8
AM_0 外形線1
100
AcDbLine
 10
58.0
 20
625.0
 30
0.0
 11
60.0
 21
623.0
 31
0.0
  0
LINE
  5
4E57
330
4E24
100
AcDbEntity
  8
AM_0 外形線1
100
AcDbLine
 10
60.0
 20
559.25
 30
0.0
 11
60.0
 21
622.75
 31
0.0
  0
LINE
  5
4E58
330
4E24
100
AcDbEntity
  8
AM_3 隠れ線
100
AcDbLine
 10
185.0
 20
494.3999999999999
 30
0.0
 11
350.0
 21
494.3999999999999
 31
0.0
  0
LINE
  5
4E59
330
4E24
100
AcDbEntity
  8
AM_0 外形線1
100
AcDbLine
 10
311.0
 20
563.0
 30
0.0
 11
296.0
 21
548.0
 31
0.0
  0
LINE
  5
4E5A
330
4E24
100
AcDbEntity
  8
AM_0 外形線1
100
AcDbLine
 10
363.0
 20
496.4000000000001
 30
0.0
 11
361.0
 21
494.3999999999999
 31
0.0
  0
LINE
  5
4E5B
330
4E24
100
AcDbEntity
  8
AM_0 外形線1
100
AcDbLine
 10
350.0
 20
494.3999999999999
 30
0.0
 11
361.0
 21
494.3999999999999
 31
0.0
  0
ARC
  5
4E5D
330
4E24
100
AcDbEntity
  8
AM_0 外形線1
100
AcDbCircle
 10
364.0
 20
517.0
 30
0.0
 40
1.0
100
AcDbArc
 50
90.0
 51
135.0000000000184
  0
LINE
  5
4E5E
330
4E24
100
AcDbEntity
  8
AM_0 外形線1
100
AcDbLine
 10
363.0
 20
517.0
 30
0.0
 11
363.0
 21
496.4000000000001
 31
0.0
  0
ARC
  5
4E5F
330
4E24
100
AcDbEntity
  8
AM_0 外形線1
100
AcDbCircle
 10
364.0
 20
517.0
 30
0.0
 40
1.0
100
AcDbArc
 50
135.0000000000184
 51
180.0
  0
LINE
  5
4E60
330
4E24
100
AcDbEntity
  8
AM_0 外形線1
100
AcDbLine
 10
371.0
 20
531.0
 30
0.0
 11
371.0
 21
518.0
 31
0.0
  0
LINE
  5
4E61
330
4E24
100
AcDbEntity
  8
AM_0 外形線1
100
AcDbLine
 10
371.0
 20
563.0
 30
0.0
 11
311.0
 21
563.0
 31
0.0
  0
LINE
  5
4E62
330
4E24
100
AcDbEntity
  8
AM_0 外形線1
100
AcDbLine
 10
371.0
 20
563.0
 30
0.0
 11
371.0
 21
551.0
 31
0.0
  0
INSERT
  5
4E63
330
4E24
100
AcDbEntity
  8
AM_0 外形線1
100
AcDbBlockReference
  2
ロッカクアナツキプラグA R1
 10
95.0
 20
548.0
 30
0.0
  0
LINE
  5
4EEB
330
4E24
100
AcDbEntity
  8
AM_0 外形線1
100
AcDbLine
 10
371.0
 20
518.0
 30
0.0
 11
364.0
 21
518.0
 31
0.0
  0
ARC
  5
4EEC
330
4E24
100
AcDbEntity
  8
AM_0 外形線1
100
AcDbCircle
 10
60.5
 20
-548.4999999999994
 30
0.0
 40
0.5
100
AcDbArc
 50
90.0
 51
180.0
  0
ENDBLK
  5
4E26
330
4E24
100
AcDbEntity
  8
0
100
AcDbBlockEnd
  0
BLOCK
  5
4F39
330
4F38
100
AcDbEntity
  8
0
100
AcDbBlockBegin
  2
ロッカクアナツキプラグB R1
 70
     0
 10
0.0
 20
0.0
 30
0.0
  3
ロッカクアナツキプラグB R1
  1

  0
LINE
  5
4F3B
330
4F38
100
AcDbEntity
  8
AM_7 中心線
100
AcDbLine
 10
0.0
 20
5.609929000000192
 30
0.0
 11
0.0
 21
-35.24113499999976
 31
0.0
  0
LINE
  5
4F3C
330
4F38
100
AcDbEntity
  8
AM_4 細線
100
AcDbLine
 10
15.19540500000039
 20
-1.070905000000037
 30
0.0
 11
14.67855799999961
 21
-15.87147099999993
 31
0.0
  0
LINE
  5
4F3D
330
4F38
100
AcDbEntity
  8
AM_4 細線
100
AcDbLine
 10
-15.19540500000039
 20
-1.070905000000037
 30
0.0
 11
-14.67855799999961
 21
-15.87147099999993
 31
0.0
  0
LINE
  5
4F3E
330
4F38
100
AcDbEntity
  8
AM_0 外形線1
100
AcDbLine
 10
-16.18798999999944
 20
-15.0
 30
0.0
 11
16.18799000000035
 21
-15.0
 31
0.0
  0
LINE
  5
4F3F
330
4F38
100
AcDbEntity
  8
AM_0 外形線1
100
AcDbLine
 10
16.6244999999999
 20
-2.5
 30
0.0
 11
-16.6244999999999
 21
-2.5
 31
0.0
  0
LINE
  5
4F40
330
4F38
100
AcDbEntity
  8
AM_0 外形線1
100
AcDbLine
 10
16.6244999999999
 20
-2.5
 30
0.0
 11
14.1244999999999
 21
0.0
 31
0.0
  0
LINE
  5
4F41
330
4F38
100
AcDbEntity
  8
AM_0 外形線1
100
AcDbLine
 10
16.18799000000035
 20
-15.0
 30
0.0
 11
16.6244999999999
 21
-2.5
 31
0.0
  0
LINE
  5
4F42
330
4F38
100
AcDbEntity
  8
AM_0 外形線1
100
AcDbLine
 10
9.25978699999996
 20
-19.0
 30
0.0
 11
16.18799000000035
 21
-15.0
 31
0.0
  0
LINE
  5
4F43
330
4F38
100
AcDbEntity
  8
AM_0 外形線1
100
AcDbLine
 10
-9.25978699999996
 20
-19.0
 30
0.0
 11
9.25978699999996
 21
-19.0
 31
0.0
  0
LINE
  5
4F44
330
4F38
100
AcDbEntity
  8
AM_0 外形線1
100
AcDbLine
 10
-16.18798999999944
 20
-15.0
 30
0.0
 11
-9.25978699999996
 21
-19.0
 31
0.0
  0
LINE
  5
4F45
330
4F38
100
AcDbEntity
  8
AM_0 外形線1
100
AcDbLine
 10
-16.6244999999999
 20
-2.5
 30
0.0
 11
-16.18798999999944
 21
-15.0
 31
0.0
  0
LINE
  5
4F46
330
4F38
100
AcDbEntity
  8
AM_0 外形線1
100
AcDbLine
 10
-14.1244999999999
 20
0.0
 30
0.0
 11
-16.6244999999999
 21
-2.5
 31
0.0
  0
LINE
  5
4F65
330
4F38
100
AcDbEntity
  8
AM_0 外形線1
100
AcDbLine
 10
-14.1244999999999
 20
0.0
 30
0.0
 11
14.1244999999999
 21
0.0
 31
0.0
  0
ENDBLK
  5
4F3A
330
4F38
100
AcDbEntity
  8
0
100
AcDbBlockEnd
  0
BLOCK
  5
4FD8
330
4FD7
100
AcDbEntity
  8
0
100
AcDbBlockBegin
  2
ケースＢ CCMH1250
 70
     0
 10
0.0
 20
0.0
 30
0.0
  3
ケースＢ CCMH1250
  1

  0
LINE
  5
4FDA
330
4FD7
100
AcDbEntity
  8
AM_0 外形線1
100
AcDbLine
 10
-60.0
 20
-622.9999999999994
 30
0.0
 11
-60.0
 21
0.0
 31
0.0
  0
LINE
  5
4FDB
330
4FD7
100
AcDbEntity
  8
AM_7 中心線
100
AcDbLine
 10
77.42358751247684
 20
-590.9999999999994
 30
0.0
 11
-77.42358751247684
 21
-590.9999999999994
 31
0.0
  0
LINE
  5
4FDC
330
4FD7
100
AcDbEntity
  8
AM_0 外形線1
100
AcDbLine
 10
-2.0
 20
-624.9999999999994
 30
0.0
 11
-58.0
 21
-624.9999999999994
 31
0.0
  0
LINE
  5
4FDD
330
4FD7
100
AcDbEntity
  8
AM_0 外形線1
100
AcDbLine
 10
-58.0
 20
-624.9999999999994
 30
0.0
 11
-60.0
 21
-622.9999999999994
 31
0.0
  0
LINE
  5
4FDE
330
4FD7
100
AcDbEntity
  8
AM_0 外形線1
100
AcDbLine
 10
0.0
 20
-622.9999999999994
 30
0.0
 11
-2.0
 21
-624.9999999999994
 31
0.0
  0
LINE
  5
4FDF
330
4FD7
100
AcDbEntity
  8
AM_0 外形線1
100
AcDbLine
 10
-60.5
 20
-547.9999999999994
 30
0.0
 11
-296.0
 21
-547.9999999999994
 31
0.0
  0
LINE
  5
4FE0
330
4FD7
100
AcDbEntity
  8
AM_0 外形線1
100
AcDbLine
 10
-296.0
 20
-547.9999999999994
 30
0.0
 11
-296.0
 21
0.0
 31
0.0
  0
LINE
  5
4FE1
330
4FD7
100
AcDbEntity
  8
AM_0 外形線1
100
AcDbLine
 10
-311.0
 20
-562.9999999999994
 30
0.0
 11
-311.0
 21
0.0
 31
0.0
  0
LINE
  5
4FE2
330
4FD7
100
AcDbEntity
  8
AM_0 外形線1
100
AcDbLine
 10
-371.0
 20
-562.9999999999994
 30
0.0
 11
-371.0
 21
0.0
 31
0.0
  0
LINE
  5
4FE3
330
4FD7
100
AcDbEntity
  8
AM_0 外形線1
100
AcDbLine
 10
-371.0
 20
-562.9999999999994
 30
0.0
 11
-311.0
 21
-562.9999999999994
 31
0.0
  0
LINE
  5
4FE4
330
4FD7
100
AcDbEntity
  8
AM_0 外形線1
100
AcDbLine
 10
-311.0
 20
-562.9999999999994
 30
0.0
 11
-296.0
 21
-547.9999999999994
 31
0.0
  0
ARC
  5
4FE5
330
4FD7
100
AcDbEntity
  8
AM_0 外形線1
100
AcDbCircle
 10
-60.5
 20
-548.4999999999994
 30
0.0
 40
0.5
100
AcDbArc
 50
0.0
 51
90.0
  0
LINE
  5
4FE6
330
4FD7
100
AcDbEntity
  8
AM_0 外形線1
100
AcDbLine
 10
-170.0
 20
518.0
 30
0.0
 11
-14.0
 21
518.0
 31
0.0
  0
LINE
  5
4FE7
330
4FD7
100
AcDbEntity
  8
AM_0 外形線1
100
AcDbLine
 10
-68.0
 20
548.0
 30
0.0
 11
-296.0
 21
548.0
 31
0.0
  0
LINE
  5
4FE8
330
4FD7
100
AcDbEntity
  8
AM_3 隠れ線
100
AcDbLine
 10
-185.0
 20
494.3999999999999
 30
0.0
 11
-350.0
 21
494.3999999999999
 31
0.0
  0
LINE
  5
4FE9
330
4FD7
100
AcDbEntity
  8
AM_7 中心線
100
AcDbLine
 10
-169.0
 20
504.0
 30
0.0
 11
-365.0
 21
504.0
 31
0.0
  0
LINE
  5
4FEA
330
4FD7
100
AcDbEntity
  8
AM_0 外形線1
100
AcDbLine
 10
-371.0
 20
563.0
 30
0.0
 11
-311.0
 21
563.0
 31
0.0
  0
LINE
  5
4FEB
330
4FD7
100
AcDbEntity
  8
AM_0 外形線1
100
AcDbLine
 10
-171.0
 20
516.0
 30
0.0
 11
-363.0
 21
516.0
 31
0.0
  0
LINE
  5
4FEC
330
4FD7
100
AcDbEntity
  8
AM_0 外形線1
100
AcDbLine
 10
-350.0
 20
494.3999999999999
 30
0.0
 11
-361.0
 21
494.3999999999999
 31
0.0
  0
LINE
  5
4FED
330
4FD7
100
AcDbEntity
  8
AM_0 外形線1
100
AcDbLine
 10
-363.0
 20
496.4000000000001
 30
0.0
 11
-361.0
 21
494.3999999999999
 31
0.0
  0
LINE
  5
4FEE
330
4FD7
100
AcDbEntity
  8
AM_0 外形線1
100
AcDbLine
 10
-363.0
 20
517.0
 30
0.0
 11
-363.0
 21
496.4000000000001
 31
0.0
  0
ARC
  5
4FEF
330
4FD7
100
AcDbEntity
  8
AM_0 外形線1
100
AcDbCircle
 10
-364.0
 20
517.0
 30
0.0
 40
1.0
100
AcDbArc
 50
0.0
 51
90.0
  0
LINE
  5
4FF0
330
4FD7
100
AcDbEntity
  8
AM_0 外形線1
100
AcDbLine
 10
-371.0
 20
525.2000000000001
 30
0.0
 11
-371.0
 21
518.0
 31
0.0
  0
ARC
  5
4FF1
330
4FD7
100
AcDbEntity
  8
AM_0 外形線1
100
AcDbCircle
 10
-364.0
 20
517.0
 30
0.0
 40
1.0
100
AcDbArc
 50
44.99999999998157
 51
90.0
  0
LINE
  5
4FF3
330
4FD7
100
AcDbEntity
  8
AM_0 外形線1
100
AcDbLine
 10
-371.0
 20
531.0
 30
0.0
 11
-371.0
 21
525.2000000000001
 31
0.0
  0
LINE
  5
4FF4
330
4FD7
100
AcDbEntity
  8
AM_0 外形線1
100
AcDbLine
 10
-371.0
 20
563.0
 30
0.0
 11
-371.0
 21
551.0000000000003
 31
0.0
  0
LINE
  5
4FF5
330
4FD7
100
AcDbEntity
  8
AM_0 外形線1
100
AcDbLine
 10
-311.0
 20
563.0
 30
0.0
 11
-296.0
 21
548.0
 31
0.0
  0
LINE
  5
4FF6
330
4FD7
100
AcDbEntity
  8
AM_0 外形線1
100
AcDbLine
 10
-185.0
 20
494.3999999999999
 30
0.0
 11
-173.0
 21
494.3999999999999
 31
0.0
  0
ARC
  5
4FF7
330
4FD7
100
AcDbEntity
  8
AM_0 外形線1
100
AcDbCircle
 10
-170.0
 20
517.0
 30
0.0
 40
1.0
100
AcDbArc
 50
90.0
 51
180.0
  0
LINE
  5
4FF8
330
4FD7
100
AcDbEntity
  8
AM_0 外形線1
100
AcDbLine
 10
-171.0
 20
496.4000000000001
 30
0.0
 11
-171.0
 21
517.0
 31
0.0
  0
LINE
  5
4FF9
330
4FD7
100
AcDbEntity
  8
AM_0 外形線1
100
AcDbLine
 10
-173.0
 20
494.3999999999999
 30
0.0
 11
-171.0
 21
496.4000000000001
 31
0.0
  0
LINE
  5
4FFA
330
4FD7
100
AcDbEntity
  8
AM_0 外形線1
100
AcDbLine
 10
-78.3755000000001
 20
545.5
 30
0.0
 11
-78.28819800000019
 21
548.0
 31
0.0
  0
LINE
  5
4FFB
330
4FD7
100
AcDbEntity
  8
AM_0 外形線1
100
AcDbLine
 10
-78.81200999999966
 20
533.0
 30
0.0
 11
-79.33582099999965
 21
518.0
 31
0.0
  0
LINE
  5
4FFC
330
4FD7
100
AcDbEntity
  8
AM_0 外形線1
100
AcDbLine
 10
-111.1879899999994
 20
533.0
 30
0.0
 11
-110.6641789999994
 21
518.0
 31
0.0
  0
LINE
  5
4FFD
330
4FD7
100
AcDbEntity
  8
AM_0 外形線1
100
AcDbLine
 10
-111.7118019999998
 20
548.0
 30
0.0
 11
-111.6244999999999
 21
545.5
 31
0.0
  0
LINE
  5
4FFE
330
4FD7
100
AcDbEntity
  8
AM_0 外形線1
100
AcDbLine
 10
-109.6785579999996
 20
532.1285289999999
 30
0.0
 11
-109.185179
 21
518.0
 31
0.0
  0
LINE
  5
4FFF
330
4FD7
100
AcDbEntity
  8
AM_0 外形線1
100
AcDbLine
 10
-80.32144200000038
 20
532.1285289999999
 30
0.0
 11
-80.81482099999993
 21
518.0
 31
0.0
  0
LINE
  5
5000
330
4FD7
100
AcDbEntity
  8
AM_0 外形線1
100
AcDbLine
 10
0.0
 20
543.0
 30
0.0
 11
0.0
 21
572.0
 31
0.0
  0
ARC
  5
5001
330
4FD7
100
AcDbEntity
  8
AM_0 外形線1
100
AcDbCircle
 10
-68.0
 20
556.0
 30
0.0
 40
8.0
100
AcDbArc
 50
270.0
 51
0.0
  0
LINE
  5
5002
330
4FD7
100
AcDbEntity
  8
AM_0 外形線1
100
AcDbLine
 10
-14.0
 20
540.0
 30
0.0
 11
-3.0
 21
540.0
 31
0.0
  0
LINE
  5
5003
330
4FD7
100
AcDbEntity
  8
AM_0 外形線1
100
AcDbLine
 10
-14.0
 20
518.0
 30
0.0
 11
-14.0
 21
540.0
 31
0.0
  0
LINE
  5
5004
330
4FD7
100
AcDbEntity
  8
AM_0 外形線1
100
AcDbLine
 10
-3.0
 20
540.0
 30
0.0
 11
0.0
 21
543.0
 31
0.0
  0
LINE
  5
5005
330
4FD7
100
AcDbEntity
  8
AM_0 外形線1
100
AcDbLine
 10
0.0
 20
572.0
 30
0.0
 11
-60.0
 21
572.0
 31
0.0
  0
LINE
  5
5006
330
4FD7
100
AcDbEntity
  8
AM_0 外形線1
100
AcDbLine
 10
-2.0
 20
625.0
 30
0.0
 11
-58.0
 21
625.0
 31
0.0
  0
LINE
  5
5007
330
4FD7
100
AcDbEntity
  8
AM_0 外形線1
100
AcDbLine
 10
-60.0
 20
610.0
 30
0.0
 11
0.0
 21
610.0
 31
0.0
  0
LINE
  5
5008
330
4FD7
100
AcDbEntity
  8
AM_0 外形線1
100
AcDbLine
 10
-2.0
 20
625.0
 30
0.0
 11
-58.0
 21
625.0
 31
0.0
  0
LINE
  5
5009
330
4FD7
100
AcDbEntity
  8
AM_0 外形線1
100
AcDbLine
 10
-60.0
 20
572.0
 30
0.0
 11
-60.0
 21
556.0
 31
0.0
  0
LINE
  5
500A
330
4FD7
100
AcDbEntity
  8
AM_0 外形線1
100
AcDbLine
 10
-60.0
 20
623.0
 30
0.0
 11
-60.0
 21
610.0
 31
0.0
  0
LINE
  5
500B
330
4FD7
100
AcDbEntity
  8
AM_0 外形線1
100
AcDbLine
 10
-58.0
 20
625.0
 30
0.0
 11
-60.0
 21
623.0
 31
0.0
  0
LINE
  5
500C
330
4FD7
100
AcDbEntity
  8
AM_0 外形線1
100
AcDbLine
 10
-60.0
 20
620.75
 30
0.0
 11
-60.0
 21
561.2499999999998
 31
0.0
  0
LINE
  5
500D
330
4FD7
100
AcDbEntity
  8
AM_0 外形線1
100
AcDbLine
 10
0.0
 20
623.0
 30
0.0
 11
-2.0
 21
625.0
 31
0.0
  0
LINE
  5
500E
330
4FD7
100
AcDbEntity
  8
AM_0 外形線1
100
AcDbLine
 10
0.0
 20
623.0
 30
0.0
 11
-2.0
 21
625.0
 31
0.0
  0
INSERT
  5
500F
330
4FD7
100
AcDbEntity
  8
AM_0 外形線1
100
AcDbBlockReference
  2
ロッカクアナツキプラグB R1
 10
-95.0
 20
548.0
 30
0.0
  0
LINE
  5
5091
330
4FD7
100
AcDbEntity
  8
AM_0 外形線1
100
AcDbLine
 10
0.0
 20
623.0
 30
0.0
 11
0.0
 21
610.0
 31
0.0
  0
LINE
  5
5092
330
4FD7
100
AcDbEntity
  8
AM_0 外形線1
100
AcDbLine
 10
-371.0
 20
518.0
 30
0.0
 11
-364.0
 21
518.0
 31
0.0
  0
LINE
  5
5093
330
4FD7
100
AcDbEntity
  8
AM_0 外形線1
100
AcDbLine
 10
0.0
 20
0.0
 30
0.0
 11
0.0
 21
-622.9999999999994
 31
0.0
  0
ENDBLK
  5
4FD9
330
4FD7
100
AcDbEntity
  8
0
100
AcDbBlockEnd
  0
BLOCK
  5
50EC
330
50EB
100
AcDbEntity
  8
0
100
AcDbBlockBegin
  2
センタＡ CCMH1250
 70
     0
 10
0.0
 20
0.0
 30
0.0
  3
センタＡ CCMH1250
  1

  0
LINE
  5
50EE
330
50EB
100
AcDbEntity
  8
AM_0 外形線1
100
AcDbLine
 10
419.0
 20
480.0
 30
0.0
 11
330.5
 21
480.0
 31
0.0
  0
LINE
  5
50EF
330
50EB
100
AcDbEntity
  8
AM_0 外形線1
100
AcDbLine
 10
379.0
 20
-480.0
 30
0.0
 11
419.0
 21
-480.0
 31
0.0
  0
LINE
  5
50F0
330
50EB
100
AcDbEntity
  8
AM_0 外形線1
100
AcDbLine
 10
0.0
 20
388.0
 30
0.0
 11
0.0
 21
0.0
 31
0.0
  0
LINE
  5
50F1
330
50EB
100
AcDbEntity
  8
AM_3 隠れ線
100
AcDbLine
 10
0.0
 20
18.75
 30
0.0
 11
94.0
 21
18.75
 31
0.0
  0
LINE
  5
50F2
330
50EB
100
AcDbEntity
  8
AM_3 隠れ線
100
AcDbLine
 10
0.0
 20
21.0
 30
0.0
 11
77.0
 21
21.0
 31
0.0
  0
LINE
  5
50F3
330
50EB
100
AcDbEntity
  8
AM_3 隠れ線
100
AcDbLine
 10
94.0
 20
18.75
 30
0.0
 11
104.825318000001
 21
0.0
 31
0.0
  0
LINE
  5
50F4
330
50EB
100
AcDbEntity
  8
AM_3 隠れ線
100
AcDbLine
 10
94.0
 20
18.75
 30
0.0
 11
94.0
 21
0.0
 31
0.0
  0
LINE
  5
50F5
330
50EB
100
AcDbEntity
  8
AM_0 外形線1
100
AcDbLine
 10
77.0
 20
21.0
 30
0.0
 11
78.2990380000001
 21
18.75
 31
0.0
  0
LINE
  5
50F6
330
50EB
100
AcDbEntity
  8
AM_3 隠れ線
100
AcDbLine
 10
78.2990380000001
 20
18.75
 30
0.0
 11
78.2990380000001
 21
0.0
 31
0.0
  0
LINE
  5
50F7
330
50EB
100
AcDbEntity
  8
AM_3 隠れ線
100
AcDbLine
 10
77.0
 20
0.0
 30
0.0
 11
77.0
 21
21.0
 31
0.0
  0
LINE
  5
50F8
330
50EB
100
AcDbEntity
  8
AM_0 外形線1
100
AcDbLine
 10
0.0
 20
474.5
 30
0.0
 11
0.0
 21
388.0
 31
0.0
  0
LINE
  5
50F9
330
50EB
100
AcDbEntity
  8
AM_0 外形線1
100
AcDbLine
 10
164.5
 20
479.4999999999998
 30
0.0
 11
5.0
 21
479.4999999999998
 31
0.0
  0
LINE
  5
50FA
330
50EB
100
AcDbEntity
  8
AM_0 外形線1
100
AcDbLine
 10
5.0
 20
479.4999999999998
 30
0.0
 11
0.0
 21
474.5
 31
0.0
  0
ARC
  5
50FC
330
50EB
100
AcDbEntity
  8
AM_0 外形線1
100
AcDbCircle
 10
247.5
 20
0.0
 30
0.0
 40
515.5
100
AcDbArc
 50
81.01597500000345
 51
98.98402499999654
  0
ARC
  5
50FE
330
50EB
100
AcDbEntity
  8
AM_0 外形線1
100
AcDbCircle
 10
164.5
 20
480.0
 30
0.0
 40
0.5
100
AcDbArc
 50
270.0
 51
0.0
  0
LINE
  5
50FF
330
50EB
100
AcDbEntity
  8
AM_0 外形線1
100
AcDbLine
 10
165.0
 20
506.8555789999999
 30
0.0
 11
165.0
 21
480.0
 31
0.0
  0
LINE
  5
5100
330
50EB
100
AcDbEntity
  8
AM_0 外形線1
100
AcDbLine
 10
167.0
 20
509.1758049999998
 30
0.0
 11
165.0
 21
506.8555789999999
 31
0.0
  0
LINE
  5
5101
330
50EB
100
AcDbEntity
  8
AM_7 中心線
100
AcDbLine
 10
247.5
 20
520.5
 30
0.0
 11
247.5
 21
487.0
 31
0.0
  0
LINE
  5
5102
330
50EB
100
AcDbEntity
  8
AM_0 外形線1
100
AcDbLine
 10
330.0
 20
506.8555789999999
 30
0.0
 11
328.0
 21
509.1758049999998
 31
0.0
  0
LINE
  5
5103
330
50EB
100
AcDbEntity
  8
AM_0 外形線1
100
AcDbLine
 10
330.0
 20
480.4999999999998
 30
0.0
 11
330.0
 21
506.8555789999999
 31
0.0
  0
ARC
  5
5104
330
50EB
100
AcDbEntity
  8
AM_0 外形線1
100
AcDbCircle
 10
330.5
 20
480.4999999999998
 30
0.0
 40
0.5
100
AcDbArc
 50
180.0
 51
270.0
  0
LINE
  5
5105
330
50EB
100
AcDbEntity
  8
AM_0 外形線1
100
AcDbLine
 10
710.0
 20
-458.0
 30
0.0
 11
710.0
 21
458.0
 31
0.0
  0
LINE
  5
5106
330
50EB
100
AcDbEntity
  8
AM_0 外形線1
100
AcDbLine
 10
425.0
 20
-478.0
 30
0.0
 11
425.0
 21
0.0
 31
0.0
  0
LINE
  5
5107
330
50EB
100
AcDbEntity
  8
AM_0 外形線1
100
AcDbLine
 10
419.0
 20
-480.0
 30
0.0
 11
419.0
 21
0.0
 31
0.0
  0
LINE
  5
5108
330
50EB
100
AcDbEntity
  8
AM_0 外形線1
100
AcDbLine
 10
425.0
 20
-478.0
 30
0.0
 11
690.0
 21
-478.0
 31
0.0
  0
LINE
  5
5109
330
50EB
100
AcDbEntity
  8
AM_0 外形線1
100
AcDbLine
 10
419.0
 20
-480.0
 30
0.0
 11
425.0
 21
-478.0
 31
0.0
  0
ARC
  5
510A
330
50EB
100
AcDbEntity
  8
AM_0 外形線1
100
AcDbCircle
 10
690.0
 20
-458.0
 30
0.0
 40
20.0
100
AcDbArc
 50
270.0
 51
0.0
  0
LINE
  5
510B
330
50EB
100
AcDbEntity
  8
AM_3 隠れ線
100
AcDbLine
 10
710.0
 20
18.75
 30
0.0
 11
616.0
 21
18.75
 31
0.0
  0
LINE
  5
510C
330
50EB
100
AcDbEntity
  8
AM_3 隠れ線
100
AcDbLine
 10
710.0
 20
21.0
 30
0.0
 11
633.0
 21
21.0
 31
0.0
  0
LINE
  5
510D
330
50EB
100
AcDbEntity
  8
AM_3 隠れ線
100
AcDbLine
 10
616.0
 20
18.75
 30
0.0
 11
616.0
 21
0.0
 31
0.0
  0
LINE
  5
510E
330
50EB
100
AcDbEntity
  8
AM_3 隠れ線
100
AcDbLine
 10
616.0
 20
18.75
 30
0.0
 11
605.1746830000001
 21
0.0
 31
0.0
  0
LINE
  5
510F
330
50EB
100
AcDbEntity
  8
AM_3 隠れ線
100
AcDbLine
 10
633.0
 20
21.0
 30
0.0
 11
631.7009620000008
 21
18.75
 31
0.0
  0
LINE
  5
5110
330
50EB
100
AcDbEntity
  8
AM_3 隠れ線
100
AcDbLine
 10
631.7009620000008
 20
18.75
 30
0.0
 11
631.7009620000008
 21
0.0
 31
0.0
  0
LINE
  5
5111
330
50EB
100
AcDbEntity
  8
AM_3 隠れ線
100
AcDbLine
 10
633.0
 20
0.0
 30
0.0
 11
633.0
 21
21.0
 31
0.0
  0
ARC
  5
5112
330
50EB
100
AcDbEntity
  8
AM_0 外形線1
100
AcDbCircle
 10
690.0
 20
458.0
 30
0.0
 40
20.0
100
AcDbArc
 50
0.0
 51
90.0
  0
LINE
  5
5113
330
50EB
100
AcDbEntity
  8
AM_0 外形線1
100
AcDbLine
 10
690.0
 20
478.0
 30
0.0
 11
425.0
 21
478.0
 31
0.0
  0
LINE
  5
5114
330
50EB
100
AcDbEntity
  8
AM_0 外形線1
100
AcDbLine
 10
425.0
 20
478.0
 30
0.0
 11
419.0
 21
480.0
 31
0.0
  0
LINE
  5
5117
330
50EB
100
AcDbEntity
  8
AM_0 外形線1
100
AcDbLine
 10
0.0
 20
302.5
 30
0.0
 11
710.0
 21
302.5
 31
0.0
  0
ARC
  5
758C
330
50EB
100
AcDbEntity
  8
AM_0 外形線1
100
AcDbCircle
 10
247.5
 20
0.0
 30
0.0
 40
492.0
100
AcDbArc
 50
80.34687323749341
 51
99.65312676250661
  0
ARC
  5
76B0
330
50EB
100
AcDbEntity
  8
AM_7 中心線
100
AcDbCircle
 10
248.5
 20
0.0
 30
0.0
 40
504.0
100
AcDbArc
 50
80.00980356835681
 51
100.4621704294621
  0
ENDBLK
  5
50ED
330
50EB
100
AcDbEntity
  8
0
100
AcDbBlockEnd
  0
BLOCK
  5
5228
330
5227
100
AcDbEntity
  8
0
100
AcDbBlockBegin
  2
リーマボルト CCMH1250 M36
 70
     0
 10
0.0
 20
0.0
 30
0.0
  3
リーマボルト CCMH1250 M36
  1

  0
LINE
  5
522A
330
5227
100
AcDbEntity
  8
AM_0 外形線1
100
AcDbLine
 10
-129.0
 20
-15.87713199999962
 30
0.0
 11
-155.5462609999995
 21
-15.87713199999962
 31
0.0
  0
LINE
  5
522B
330
5227
100
AcDbEntity
  8
AM_0 外形線1
100
AcDbLine
 10
-129.0
 20
15.87713299999996
 30
0.0
 11
-155.5462609999995
 21
15.87713299999996
 31
0.0
  0
LINE
  5
522C
330
5227
100
AcDbEntity
  8
AM_0 外形線1
100
AcDbLine
 10
-155.5462609999995
 20
-31.75
 30
0.0
 11
-129.0
 21
-31.75
 31
0.0
  0
LINE
  5
522D
330
5227
100
AcDbEntity
  8
AM_0 外形線1
100
AcDbLine
 10
-129.0
 20
31.75
 30
0.0
 11
-155.5462609999995
 21
31.75
 31
0.0
  0
LINE
  5
522E
330
5227
100
AcDbEntity
  8
AM_4 細線
100
AcDbLine
 10
-158.0
 20
-16.0
 30
0.0
 11
-168.0
 21
-16.0
 31
0.0
  0
LINE
  5
522F
330
5227
100
AcDbEntity
  8
AM_4 細線
100
AcDbLine
 10
-158.0
 20
16.0
 30
0.0
 11
-168.0
 21
16.0
 31
0.0
  0
LINE
  5
5230
330
5227
100
AcDbEntity
  8
AM_0 外形線1
100
AcDbLine
 10
-166.0
 20
18.0
 30
0.0
 11
-166.0
 21
-18.0
 31
0.0
  0
LINE
  5
5231
330
5227
100
AcDbEntity
  8
AM_0 外形線1
100
AcDbLine
 10
-166.0
 20
-18.0
 30
0.0
 11
-158.0
 21
-18.0
 31
0.0
  0
LINE
  5
5232
330
5227
100
AcDbEntity
  8
AM_0 外形線1
100
AcDbLine
 10
-169.0
 20
-15.0
 30
0.0
 11
-166.0
 21
-18.0
 31
0.0
  0
LINE
  5
5233
330
5227
100
AcDbEntity
  8
AM_0 外形線1
100
AcDbLine
 10
-169.0
 20
15.0
 30
0.0
 11
-169.0
 21
-15.0
 31
0.0
  0
LINE
  5
5234
330
5227
100
AcDbEntity
  8
AM_0 外形線1
100
AcDbLine
 10
-166.0
 20
18.0
 30
0.0
 11
-169.0
 21
15.0
 31
0.0
  0
LINE
  5
5235
330
5227
100
AcDbEntity
  8
AM_0 外形線1
100
AcDbLine
 10
-158.0
 20
18.0
 30
0.0
 11
-166.0
 21
18.0
 31
0.0
  0
ARC
  5
5236
330
5227
100
AcDbEntity
  8
AM_0 外形線1
100
AcDbCircle
 10
-143.9382299999997
 20
-23.81356599999981
 30
0.0
 40
14.06177
100
AcDbArc
 50
145.6395059999856
 51
214.3604940000144
  0
ARC
  5
5237
330
5227
100
AcDbEntity
  8
AM_0 外形線1
100
AcDbCircle
 10
-105.4059379999999
 20
0.0
 30
0.0
 40
52.594062
100
AcDbArc
 50
162.4294029999824
 51
197.5705970000175
  0
ARC
  5
5238
330
5227
100
AcDbEntity
  8
AM_0 外形線1
100
AcDbCircle
 10
-143.9382299999997
 20
23.81356600000026
 30
0.0
 40
14.06177
100
AcDbArc
 50
145.6395059999856
 51
214.3604940000144
  0
LINE
  5
5239
330
5227
100
AcDbEntity
  8
AM_0 外形線1
100
AcDbLine
 10
-158.0
 20
-27.5
 30
0.0
 11
-155.5462609999995
 21
-31.75
 31
0.0
  0
LINE
  5
523A
330
5227
100
AcDbEntity
  8
AM_0 外形線1
100
AcDbLine
 10
-158.0
 20
27.5
 30
0.0
 11
-158.0
 21
-27.5
 31
0.0
  0
LINE
  5
523B
330
5227
100
AcDbEntity
  8
AM_0 外形線1
100
AcDbLine
 10
-155.5462609999995
 20
31.75
 30
0.0
 11
-158.0
 21
27.5
 31
0.0
  0
LINE
  5
523C
330
5227
100
AcDbEntity
  8
AM_0 外形線1
100
AcDbLine
 10
-120.0
 20
-18.0
 30
0.0
 11
-117.732050999999
 21
-18.0
 31
0.0
  0
LINE
  5
523D
330
5227
100
AcDbEntity
  8
AM_0 外形線1
100
AcDbLine
 10
-120.0
 20
18.0
 30
0.0
 11
-117.732050999999
 21
18.0
 31
0.0
  0
LINE
  5
523E
330
5227
100
AcDbEntity
  8
AM_0 外形線1
100
AcDbLine
 10
-120.0
 20
3.0
 30
0.0
 11
-129.0
 21
-6.0
 31
0.0
  0
LINE
  5
523F
330
5227
100
AcDbEntity
  8
AM_0 外形線1
100
AcDbLine
 10
-120.0
 20
6.0
 30
0.0
 11
-129.0
 21
-3.0
 31
0.0
  0
LINE
  5
5240
330
5227
100
AcDbEntity
  8
AM_0 外形線1
100
AcDbLine
 10
-129.0
 20
-31.75
 30
0.0
 11
-129.0
 21
31.75
 31
0.0
  0
LINE
  5
5241
330
5227
100
AcDbEntity
  8
AM_0 外形線1
100
AcDbLine
 10
-120.0
 20
-29.75
 30
0.0
 11
-129.0
 21
-29.75
 31
0.0
  0
LINE
  5
5242
330
5227
100
AcDbEntity
  8
AM_0 外形線1
100
AcDbLine
 10
-129.0
 20
29.75
 30
0.0
 11
-120.0
 21
29.75
 31
0.0
  0
LINE
  5
5243
330
5227
100
AcDbEntity
  8
AM_0 外形線1
100
AcDbLine
 10
-116.0
 20
19.0
 30
0.0
 11
-116.0
 21
-19.0
 31
0.0
  0
LINE
  5
5244
330
5227
100
AcDbEntity
  8
AM_0 外形線1
100
AcDbLine
 10
-118.0
 20
-17.84529900000007
 30
0.0
 11
-116.0
 21
-19.0
 31
0.0
  0
LINE
  5
5245
330
5227
100
AcDbEntity
  8
AM_0 外形線1
100
AcDbLine
 10
-118.0
 20
17.84530000000041
 30
0.0
 11
-118.0
 21
-17.84529900000007
 31
0.0
  0
LINE
  5
5246
330
5227
100
AcDbEntity
  8
AM_0 外形線1
100
AcDbLine
 10
-116.0
 20
19.0
 30
0.0
 11
-118.0
 21
17.84530000000041
 31
0.0
  0
ARC
  5
5247
330
5227
100
AcDbEntity
  8
AM_0 外形線1
100
AcDbCircle
 10
-2.0
 20
-19.5
 30
0.0
 40
2.0
100
AcDbArc
 50
14.03624300000194
 51
75.52248800001485
  0
ARC
  5
5248
330
5227
100
AcDbEntity
  8
AM_0 外形線1
100
AcDbCircle
 10
-1.0
 20
-19.5
 30
0.0
 40
2.0
100
AcDbArc
 50
104.4775119999851
 51
165.963756999998
  0
ARC
  5
5249
330
5227
100
AcDbEntity
  8
AM_0 外形線1
100
AcDbCircle
 10
-1.0
 20
19.5
 30
0.0
 40
2.0
100
AcDbArc
 50
194.0362430000019
 51
255.5224880000149
  0
ARC
  5
524A
330
5227
100
AcDbEntity
  8
AM_0 外形線1
100
AcDbCircle
 10
-2.0
 20
19.5
 30
0.0
 40
2.0
100
AcDbArc
 50
284.4775119999852
 51
345.963756999998
  0
LINE
  5
524B
330
5227
100
AcDbEntity
  8
AM_0 外形線1
100
AcDbLine
 10
-3.0
 20
-19.0
 30
0.0
 11
-3.0
 21
19.0
 31
0.0
  0
ARC
  5
524C
330
5227
100
AcDbEntity
  8
AM_0 外形線1
100
AcDbCircle
 10
8.938229999999748
 20
-23.81356599999981
 30
0.0
 40
14.06177
100
AcDbArc
 50
325.6395059999856
 51
34.3604940000144
  0
ARC
  5
524D
330
5227
100
AcDbEntity
  8
AM_0 外形線1
100
AcDbCircle
 10
-29.59406200000012
 20
0.0
 30
0.0
 40
52.594062
100
AcDbArc
 50
342.4294029999825
 51
17.57059700001753
  0
ARC
  5
524E
330
5227
100
AcDbEntity
  8
AM_0 外形線1
100
AcDbCircle
 10
8.938229999999748
 20
23.81356600000026
 30
0.0
 40
14.06177
100
AcDbArc
 50
325.6395059999856
 51
34.3604940000144
  0
LINE
  5
524F
330
5227
100
AcDbEntity
  8
AM_0 外形線1
100
AcDbLine
 10
0.0
 20
-15.87713199999962
 30
0.0
 11
20.54626100000041
 21
-15.87713199999962
 31
0.0
  0
LINE
  5
5250
330
5227
100
AcDbEntity
  8
AM_0 外形線1
100
AcDbLine
 10
0.0
 20
15.87713299999996
 30
0.0
 11
20.54626100000041
 21
15.87713299999996
 31
0.0
  0
LINE
  5
5251
330
5227
100
AcDbEntity
  8
AM_0 外形線1
100
AcDbLine
 10
20.54626100000041
 20
-31.75
 30
0.0
 11
0.0
 21
-31.75
 31
0.0
  0
LINE
  5
5252
330
5227
100
AcDbEntity
  8
AM_0 外形線1
100
AcDbLine
 10
23.0
 20
-27.5
 30
0.0
 11
20.54626100000041
 21
-31.75
 31
0.0
  0
LINE
  5
5253
330
5227
100
AcDbEntity
  8
AM_0 外形線1
100
AcDbLine
 10
23.0
 20
27.5
 30
0.0
 11
23.0
 21
-27.5
 31
0.0
  0
LINE
  5
5254
330
5227
100
AcDbEntity
  8
AM_0 外形線1
100
AcDbLine
 10
20.54626100000041
 20
31.75
 30
0.0
 11
23.0
 21
27.5
 31
0.0
  0
LINE
  5
5255
330
5227
100
AcDbEntity
  8
AM_0 外形線1
100
AcDbLine
 10
0.0
 20
31.75
 30
0.0
 11
20.54626100000041
 21
31.75
 31
0.0
  0
LINE
  5
52A7
330
5227
100
AcDbEntity
  8
AM_0 外形線1
100
AcDbLine
 10
-120.0
 20
29.75
 30
0.0
 11
-120.0
 21
-29.75000000000046
 31
0.0
  0
LINE
  5
52A8
330
5227
100
AcDbEntity
  8
AM_0 外形線1
100
AcDbLine
 10
-116.0
 20
19.0
 30
0.0
 11
-3.0
 21
19.0
 31
0.0
  0
LINE
  5
52A9
330
5227
100
AcDbEntity
  8
AM_0 外形線1
100
AcDbLine
 10
-116.0
 20
-19.0
 30
0.0
 11
-3.0
 21
-19.0
 31
0.0
  0
LINE
  5
52AA
330
5227
100
AcDbEntity
  8
AM_0 外形線1
100
AcDbLine
 10
0.0
 20
31.75
 30
0.0
 11
0.0
 21
-31.75
 31
0.0
  0
ENDBLK
  5
5229
330
5227
100
AcDbEntity
  8
0
100
AcDbBlockEnd
  0
BLOCK
  5
55DA
330
55D9
100
AcDbEntity
  8
0
100
AcDbBlockBegin
  2
ＧＣサイドカバ－A CCMH1250
 70
     0
 10
0.0
 20
0.0
 30
0.0
  3
ＧＣサイドカバ－A CCMH1250
  1

  0
LINE
  5
55DC
330
55D9
100
AcDbEntity
  8
AM_0 外形線1
100
AcDbLine
 10
28.0
 20
-543.9999999999994
 30
0.0
 11
28.0
 21
0.0
 31
0.0
  0
LINE
  5
55DD
330
55D9
100
AcDbEntity
  8
AM_7 中心線
100
AcDbLine
 10
-45.16501299999982
 20
-540.9999999999994
 30
0.0
 11
49.94232100000044
 21
-540.9999999999994
 31
0.0
  0
LINE
  5
55DE
330
55D9
100
AcDbEntity
  8
AM_0 外形線1
100
AcDbLine
 10
16.73967700000048
 20
-562.9999999999994
 30
0.0
 11
0.0
 21
-562.9999999999994
 31
0.0
  0
LINE
  5
55DF
330
55D9
100
AcDbEntity
  8
AM_0 外形線1
100
AcDbLine
 10
28.0
 20
-562.9999999999994
 30
0.0
 11
16.73967700000048
 21
-562.9999999999994
 31
0.0
  0
LINE
  5
55E0
330
55D9
100
AcDbEntity
  8
AM_0 外形線1
100
AcDbLine
 10
28.0
 20
-543.9999999999994
 30
0.0
 11
28.0
 21
-562.9999999999994
 31
0.0
  0
LINE
  5
55E1
330
55D9
100
AcDbEntity
  8
AM_0 外形線1
100
AcDbLine
 10
28.0
 20
551.0
 30
0.0
 11
28.0
 21
531.0
 31
0.0
  0
LINE
  5
55E2
330
55D9
100
AcDbEntity
  8
AM_0 外形線1
100
AcDbLine
 10
46.10000000000036
 20
554.3398630000001
 30
0.0
 11
46.10000000000036
 21
528.4001170000001
 31
0.0
  0
ARC
  5
55E3
330
55D9
100
AcDbEntity
  8
AM_0 外形線1
100
AcDbCircle
 10
20.10000000000037
 20
541.0
 30
0.0
 40
26.0
100
AcDbArc
 50
340.591690999988
 51
19.40830900001197
  0
LINE
  5
55E4
330
55D9
100
AcDbEntity
  8
AM_0 外形線1
100
AcDbLine
 10
33.10000000000036
 20
558.0500000000001
 30
0.0
 11
33.10000000000036
 21
523.9500000000003
 31
0.0
  0
LINE
  5
55E5
330
55D9
100
AcDbEntity
  8
AM_0 外形線1
100
AcDbLine
 10
-31.89999999999964
 20
551.0
 30
0.0
 11
-31.89999999999964
 21
531.0
 31
0.0
  0
LINE
  5
55E6
330
55D9
100
AcDbEntity
  8
AM_0 外形線1
100
AcDbLine
 10
-37.0
 20
549.75
 30
0.0
 11
-42.05181499999979
 21
541.0
 31
0.0
  0
LINE
  5
55E7
330
55D9
100
AcDbEntity
  8
AM_0 外形線1
100
AcDbLine
 10
-37.0
 20
549.75
 30
0.0
 11
-37.0
 21
532.2499999999998
 31
0.0
  0
LINE
  5
55E8
330
55D9
100
AcDbEntity
  8
AM_0 外形線1
100
AcDbLine
 10
-28.89999999999965
 20
551.0
 30
0.0
 11
-28.89999999999965
 21
531.0
 31
0.0
  0
LINE
  5
55E9
330
55D9
100
AcDbEntity
  8
AM_4 細線
100
AcDbLine
 10
-28.89999999999965
 20
532.2499999999998
 30
0.0
 11
28.0
 21
532.2499999999998
 31
0.0
  0
LINE
  5
55EA
330
55D9
100
AcDbEntity
  8
AM_7 中心線
100
AcDbLine
 10
-45.16501299999982
 20
541.0
 30
0.0
 11
49.94232100000044
 21
541.0
 31
0.0
  0
LINE
  5
55EB
330
55D9
100
AcDbEntity
  8
AM_0 外形線1
100
AcDbLine
 10
-28.89999999999965
 20
531.0
 30
0.0
 11
28.0
 21
531.0
 31
0.0
  0
LINE
  5
55EC
330
55D9
100
AcDbEntity
  8
AM_0 外形線1
100
AcDbLine
 10
-31.89999999999964
 20
531.0
 30
0.0
 11
-28.89999999999965
 21
531.0
 31
0.0
  0
LINE
  5
55ED
330
55D9
100
AcDbEntity
  8
AM_0 外形線1
100
AcDbLine
 10
-42.05181499999979
 20
541.0
 30
0.0
 11
-37.0
 21
532.2499999999998
 31
0.0
  0
LINE
  5
55EE
330
55D9
100
AcDbEntity
  8
AM_0 外形線1
100
AcDbLine
 10
-37.0
 20
532.2499999999998
 30
0.0
 11
-28.89999999999965
 21
532.2499999999998
 31
0.0
  0
LWPOLYLINE
  5
55EF
330
55D9
100
AcDbEntity
  8
AM_0 外形線1
100
AcDbPolyline
 90
       73
 70
     0
 43
0.0
 10
2.25
 20
518.0
 10
2.446100000001024
 20
518.0136990000002
 10
2.640708000000813
 20
518.0546920000002
 10
2.832343000000037
 20
518.122667
 10
3.019545000001016
 20
518.2171070000004
 10
3.20089100000041
 20
518.3372920000001
 10
3.375
 20
518.482309
 10
3.540547000000514
 20
518.651053
 10
3.696272000000134
 20
518.8422399999998
 10
3.8409900000006
 20
519.0544160000004
 10
3.97360000000026
 20
519.285965
 10
4.093092000000068
 20
519.5351250000003
 10
4.198557000000618
 20
519.8000000000002
 10
4.289193000000523
 20
520.0785740000001
 10
4.364308000000163
 20
520.3687279999997
 10
4.423333000000639
 20
520.6682519999998
 10
4.465817000000241
 20
520.9748669999998
 10
4.491438000000925
 20
521.286239
 10
4.5
 20
521.6000000000002
 10
4.491438000000925
 20
521.9137610000001
 10
4.465817000000241
 20
522.2251340000001
 10
4.423333000000639
 20
522.5317490000001
 10
4.364308000000163
 20
522.8312729999998
 10
4.289193000000523
 20
523.1214260000001
 10
4.198557000000618
 20
523.3999999999999
 10
4.093092000000068
 20
523.6648750000004
 10
3.97360000000026
 20
523.9140360000001
 10
3.8409900000006
 20
524.1455849999996
 10
3.696272000000134
 20
524.3577599999999
 10
3.540547000000514
 20
524.5489470000001
 10
3.375
 20
524.7176920000002
 10
3.20089100000041
 20
524.8627080000001
 10
3.019545000001016
 20
524.9828939999996
 10
2.832343000000037
 20
525.0773330000002
 10
2.640708000000813
 20
525.145308
 10
2.446100000001024
 20
525.1863010000001
 10
2.25
 20
525.2000000000001
 10
2.053900000000794
 20
525.1863010000001
 10
1.859292000000094
 20
525.145308
 10
1.667656999999961
 20
525.0773330000002
 10
1.480455000000801
 20
524.9828939999996
 10
1.299109000000497
 20
524.8627080000001
 10
1.125
 20
524.7176920000002
 10
0.9594530000003942
 20
524.5489470000001
 10
0.8037280000007742
 20
524.3577599999999
 10
0.6590100000003078
 20
524.1455849999996
 10
0.5264000000006491
 20
523.9140360000001
 10
0.4069080000008399
 20
523.6648750000004
 10
0.3014430000002903
 20
523.3999999999999
 10
0.2108079999998154
 20
523.1214260000001
 10
0.1356919999998354
 20
522.8312729999998
 10
0.0766670000002705
 20
522.5317490000001
 10
0.0341829999997572
 20
522.2251340000001
 10
0.0085619999999835
 20
521.9137610000001
 10
0.0
 20
521.6000000000002
 10
0.0085619999999835
 20
521.286239
 10
0.0341829999997572
 20
520.9748669999998
 10
0.0766670000002705
 20
520.6682519999998
 10
0.1356919999998354
 20
520.3687279999997
 10
0.2108079999998154
 20
520.0785740000001
 10
0.3014430000002903
 20
519.8000000000002
 10
0.4069080000008399
 20
519.5351250000003
 10
0.5264000000006491
 20
519.285965
 10
0.6590100000003078
 20
519.0544160000004
 10
0.8037280000007742
 20
518.8422399999998
 10
0.9594530000003942
 20
518.651053
 10
1.125
 20
518.482309
 10
1.299109000000497
 20
518.3372920000001
 10
1.480455000000801
 20
518.2171070000004
 10
1.667656999999961
 20
518.122667
 10
1.859292000000094
 20
518.0546920000002
 10
2.053900000000794
 20
518.0136990000002
 10
2.25
 20
518.0
  0
LWPOLYLINE
  5
55F0
330
55D9
100
AcDbEntity
  8
AM_0 外形線1
100
AcDbPolyline
 90
       73
 70
     0
 43
0.0
 10
21.0
 20
486.1500000000001
 10
20.96004400000038
 20
486.6860080000001
 10
20.84048100000018
 20
487.217936
 10
20.64222100000006
 20
487.7417369999998
 10
20.36677299999974
 20
488.253424
 10
20.01623199999995
 20
488.7491020000001
 10
19.59326700000019
 20
489.2250000000003
 10
19.10109700000066
 20
489.6774949999998
 10
18.54346700000042
 20
490.1031440000001
 10
17.92462100000011
 20
490.4987070000001
 10
17.24927000000025
 20
490.8611729999996
 10
16.5225530000007
 20
491.1877849999999
 10
15.75
 20
491.4760559999998
 10
14.93749200000002
 20
491.7237930000001
 10
14.09121200000027
 20
491.9291099999999
 10
13.21759999999995
 20
492.0904439999998
 10
12.32330600000023
 20
492.2065680000001
 10
11.41513500000018
 20
492.2765979999998
 10
10.5
 20
492.3
 10
9.584865000000716
 20
492.2765979999998
 10
8.67669399999977
 20
492.2065680000001
 10
7.782400000000052
 20
492.0904439999998
 10
6.908789000000068
 20
491.9291099999999
 10
6.062508000000888
 20
491.7237930000001
 10
5.25
 20
491.4760559999998
 10
4.477447000000211
 20
491.1877849999999
 10
3.750729999999747
 20
490.8611729999996
 10
3.075378999999883
 20
490.4987070000001
 10
2.45653300000049
 20
490.1031440000001
 10
1.898903999999673
 20
489.6774949999998
 10
1.406732999999803
 20
489.2250000000003
 10
0.9837680000000544
 20
488.7491020000001
 10
0.6332280000005996
 20
488.253424
 10
0.3577789999999368
 20
487.7417369999998
 10
0.1595190000007278
 20
487.217936
 10
0.0399560000005295
 20
486.6860080000001
 10
0.0
 20
486.1500000000001
 10
0.0399560000005295
 20
485.613992
 10
0.1595190000007278
 20
485.0820639999997
 10
0.3577789999999368
 20
484.5582629999998
 10
0.6332280000005996
 20
484.0465760000001
 10
0.9837680000000544
 20
483.5508979999998
 10
1.406732999999803
 20
483.0750000000001
 10
1.898903999999673
 20
482.6225049999997
 10
2.45653300000049
 20
482.196856
 10
3.075378999999883
 20
481.801293
 10
3.750729999999747
 20
481.4388269999998
 10
4.477447000000211
 20
481.112215
 10
5.25
 20
480.8239439999996
 10
6.062508000000888
 20
480.576207
 10
6.908789000000068
 20
480.370891
 10
7.782400000000052
 20
480.2095560000001
 10
8.67669399999977
 20
480.0934320000002
 10
9.584865000000716
 20
480.0234030000001
 10
10.5
 20
480.0
 10
11.41513500000018
 20
480.0234030000001
 10
12.32330600000023
 20
480.0934320000002
 10
13.21759999999995
 20
480.2095560000001
 10
14.09121200000027
 20
480.370891
 10
14.93749200000002
 20
480.576207
 10
15.75
 20
480.8239439999996
 10
16.5225530000007
 20
481.112215
 10
17.24927000000025
 20
481.4388269999998
 10
17.92462100000011
 20
481.801293
 10
18.54346700000042
 20
482.196856
 10
19.10109700000066
 20
482.6225049999997
 10
19.59326700000019
 20
483.0750000000001
 10
20.01623199999995
 20
483.5508979999998
 10
20.36677299999974
 20
484.0465760000001
 10
20.64222100000006
 20
484.5582629999998
 10
20.84048100000018
 20
485.0820639999997
 10
20.96004400000038
 20
485.613992
 10
21.0
 20
486.1500000000001
  0
LINE
  5
55F1
330
55D9
100
AcDbEntity
  8
AM_0 外形線1
100
AcDbLine
 10
-7.0
 20
482.5
 30
0.0
 11
-7.0
 21
518.0
 31
0.0
  0
LINE
  5
55F2
330
55D9
100
AcDbEntity
  8
AM_0 外形線1
100
AcDbLine
 10
0.0
 20
482.5
 30
0.0
 11
-7.0
 21
482.5
 31
0.0
  0
LINE
  5
55F3
330
55D9
100
AcDbEntity
  8
AM_0 外形線1
100
AcDbLine
 10
0.0
 20
492.3
 30
0.0
 11
0.0
 21
482.5
 31
0.0
  0
LINE
  5
55F4
330
55D9
100
AcDbEntity
  8
AM_0 外形線1
100
AcDbLine
 10
21.0
 20
492.3
 30
0.0
 11
0.0
 21
492.3
 31
0.0
  0
LINE
  5
55F5
330
55D9
100
AcDbEntity
  8
AM_0 外形線1
100
AcDbLine
 10
21.0
 20
482.5
 30
0.0
 11
21.0
 21
492.3
 31
0.0
  0
LINE
  5
55F6
330
55D9
100
AcDbEntity
  8
AM_0 外形線1
100
AcDbLine
 10
28.0
 20
482.5
 30
0.0
 11
21.0
 21
482.5
 31
0.0
  0
LINE
  5
55F7
330
55D9
100
AcDbEntity
  8
AM_0 外形線1
100
AcDbLine
 10
28.0
 20
531.0
 30
0.0
 11
28.0
 21
482.5
 31
0.0
  0
LINE
  5
55F8
330
55D9
100
AcDbEntity
  8
AM_0 外形線1
100
AcDbLine
 10
4.5
 20
518.0
 30
0.0
 11
-7.0
 21
518.0
 31
0.0
  0
LINE
  5
55F9
330
55D9
100
AcDbEntity
  8
AM_0 外形線1
100
AcDbLine
 10
4.5
 20
525.2000000000001
 30
0.0
 11
4.5
 21
518.0
 31
0.0
  0
LINE
  5
55FA
330
55D9
100
AcDbEntity
  8
AM_0 外形線1
100
AcDbLine
 10
0.0
 20
525.2000000000001
 30
0.0
 11
4.5
 21
525.2000000000001
 31
0.0
  0
LINE
  5
55FB
330
55D9
100
AcDbEntity
  8
AM_0 外形線1
100
AcDbLine
 10
-7.0
 20
482.5
 30
0.0
 11
-7.0
 21
480.0
 31
0.0
  0
LINE
  5
55FC
330
55D9
100
AcDbEntity
  8
AM_0 外形線1
100
AcDbLine
 10
0.0
 20
482.5
 30
0.0
 11
0.0
 21
480.0
 31
0.0
  0
LINE
  5
55FD
330
55D9
100
AcDbEntity
  8
AM_0 外形線1
100
AcDbLine
 10
21.0
 20
482.5
 30
0.0
 11
21.0
 21
480.0
 31
0.0
  0
LINE
  5
55FE
330
55D9
100
AcDbEntity
  8
AM_0 外形線1
100
AcDbLine
 10
28.0
 20
482.5
 30
0.0
 11
28.0
 21
480.0
 31
0.0
  0
LINE
  5
55FF
330
55D9
100
AcDbEntity
  8
AM_0 外形線1
100
AcDbLine
 10
33.10000000000036
 20
544.0
 30
0.0
 11
28.0
 21
536.0
 31
0.0
  0
LINE
  5
5600
330
55D9
100
AcDbEntity
  8
AM_0 外形線1
100
AcDbLine
 10
28.0
 20
538.0
 30
0.0
 11
33.10000000000036
 21
546.0
 31
0.0
  0
LINE
  5
5601
330
55D9
100
AcDbEntity
  8
AM_0 外形線1
100
AcDbLine
 10
33.10000000000036
 20
532.3602540000002
 30
0.0
 11
44.62253600000075
 21
532.3602540000002
 31
0.0
  0
LINE
  5
5602
330
55D9
100
AcDbEntity
  8
AM_0 外形線1
100
AcDbLine
 10
33.10000000000036
 20
523.7000000000001
 30
0.0
 11
33.10000000000036
 21
523.9500000000003
 31
0.0
  0
LINE
  5
5603
330
55D9
100
AcDbEntity
  8
AM_0 外形線1
100
AcDbLine
 10
44.62253600000075
 20
523.7000000000001
 30
0.0
 11
33.10000000000036
 21
523.7000000000001
 31
0.0
  0
ARC
  5
5604
330
55D9
100
AcDbEntity
  8
AM_0 外形線1
100
AcDbCircle
 10
39.06226100000095
 20
528.0301269999998
 30
0.0
 40
7.047457999999998
100
AcDbArc
 50
322.0899220000364
 51
37.91007799996356
  0
LINE
  5
5605
330
55D9
100
AcDbEntity
  8
AM_0 外形線1
100
AcDbLine
 10
33.10000000000036
 20
523.9500000000003
 30
0.0
 11
28.0
 21
523.9500000000003
 31
0.0
  0
LINE
  5
5606
330
55D9
100
AcDbEntity
  8
AM_4 細線
100
AcDbLine
 10
28.0
 20
549.75
 30
0.0
 11
-28.89999999999965
 21
549.75
 31
0.0
  0
LINE
  5
5607
330
55D9
100
AcDbEntity
  8
AM_0 外形線1
100
AcDbLine
 10
28.0
 20
551.0
 30
0.0
 11
-28.89999999999965
 21
551.0
 31
0.0
  0
LINE
  5
5608
330
55D9
100
AcDbEntity
  8
AM_0 外形線1
100
AcDbLine
 10
-28.89999999999965
 20
551.0
 30
0.0
 11
-31.89999999999964
 21
551.0
 31
0.0
  0
LINE
  5
5609
330
55D9
100
AcDbEntity
  8
AM_0 外形線1
100
AcDbLine
 10
-28.89999999999965
 20
549.75
 30
0.0
 11
-37.0
 21
549.75
 31
0.0
  0
LINE
  5
560A
330
55D9
100
AcDbEntity
  8
AM_0 外形線1
100
AcDbLine
 10
28.0
 20
563.0
 30
0.0
 11
0.0
 21
563.0
 31
0.0
  0
LINE
  5
560B
330
55D9
100
AcDbEntity
  8
AM_0 外形線1
100
AcDbLine
 10
28.0
 20
558.0500000000001
 30
0.0
 11
28.0
 21
563.0
 31
0.0
  0
LINE
  5
560C
330
55D9
100
AcDbEntity
  8
AM_0 外形線1
100
AcDbLine
 10
28.0
 20
558.0500000000001
 30
0.0
 11
28.0
 21
551.0
 31
0.0
  0
LINE
  5
560D
330
55D9
100
AcDbEntity
  8
AM_0 外形線1
100
AcDbLine
 10
44.62253600000075
 20
549.6397459999998
 30
0.0
 11
33.10000000000036
 21
549.6397459999998
 31
0.0
  0
ARC
  5
560E
330
55D9
100
AcDbEntity
  8
AM_0 外形線1
100
AcDbCircle
 10
39.06226100000095
 20
553.969873
 30
0.0
 40
7.047457999999998
100
AcDbArc
 50
322.0899220000364
 51
37.91007799996356
  0
LINE
  5
560F
330
55D9
100
AcDbEntity
  8
AM_0 外形線1
100
AcDbLine
 10
33.10000000000036
 20
558.3000000000001
 30
0.0
 11
44.62253600000075
 21
558.3000000000001
 31
0.0
  0
LINE
  5
5610
330
55D9
100
AcDbEntity
  8
AM_0 外形線1
100
AcDbLine
 10
33.10000000000036
 20
558.0500000000001
 30
0.0
 11
33.10000000000036
 21
558.3000000000001
 31
0.0
  0
LINE
  5
5611
330
55D9
100
AcDbEntity
  8
AM_0 外形線1
100
AcDbLine
 10
28.0
 20
558.0500000000001
 30
0.0
 11
33.10000000000036
 21
558.0500000000001
 31
0.0
  0
LINE
  5
5709
330
55D9
100
AcDbEntity
  8
AM_0 外形線1
100
AcDbLine
 10
0.0
 20
0.0
 30
0.0
 11
0.0
 21
-562.9999999999994
 31
0.0
  0
LINE
  5
570A
330
55D9
100
AcDbEntity
  8
AM_0 外形線1
100
AcDbLine
 10
0.0
 20
525.2000000000001
 30
0.0
 11
0.0
 21
531.0
 31
0.0
  0
LINE
  5
570B
330
55D9
100
AcDbEntity
  8
AM_0 外形線1
100
AcDbLine
 10
0.0
 20
551.0
 30
0.0
 11
-0.0000000000004547
 21
563.0
 31
0.0
  0
ENDBLK
  5
55DB
330
55D9
100
AcDbEntity
  8
0
100
AcDbBlockEnd
  0
BLOCK
  5
578C
330
578B
100
AcDbEntity
  8
0
100
AcDbBlockBegin
  2
ＧＣサイドカバ－Ｂ CCMH1250
 70
     0
 10
0.0
 20
0.0
 30
0.0
  3
ＧＣサイドカバ－Ｂ CCMH1250
  1

  0
LINE
  5
578E
330
578B
100
AcDbEntity
  8
AM_0 外形線1
100
AcDbLine
 10
-28.0
 20
-562.9999999999994
 30
0.0
 11
-28.0
 21
0.0
 31
0.0
  0
LINE
  5
578F
330
578B
100
AcDbEntity
  8
AM_7 中心線
100
AcDbLine
 10
45.16501299999982
 20
-540.9999999999994
 30
0.0
 11
-49.94232099999955
 21
-540.9999999999994
 31
0.0
  0
LINE
  5
5790
330
578B
100
AcDbEntity
  8
AM_0 外形線1
100
AcDbLine
 10
-28.0
 20
-562.9999999999994
 30
0.0
 11
0.0
 21
-562.9999999999994
 31
0.0
  0
LINE
  5
5791
330
578B
100
AcDbEntity
  8
AM_0 外形線1
100
AcDbLine
 10
-28.0
 20
551.0
 30
0.0
 11
-28.0
 21
544.0
 31
0.0
  0
LINE
  5
5792
330
578B
100
AcDbEntity
  8
AM_0 外形線1
100
AcDbLine
 10
-46.09999999999945
 20
554.3398630000001
 30
0.0
 11
-46.09999999999945
 21
528.4001170000001
 31
0.0
  0
ARC
  5
5793
330
578B
100
AcDbEntity
  8
AM_0 外形線1
100
AcDbCircle
 10
-20.09999999999946
 20
541.0
 30
0.0
 40
26.0
100
AcDbArc
 50
160.591690999988
 51
199.4083090000119
  0
LINE
  5
5794
330
578B
100
AcDbEntity
  8
AM_0 外形線1
100
AcDbLine
 10
-33.09999999999945
 20
558.0500000000001
 30
0.0
 11
-33.09999999999945
 21
523.9500000000003
 31
0.0
  0
LINE
  5
5795
330
578B
100
AcDbEntity
  8
AM_0 外形線1
100
AcDbLine
 10
31.90000000000055
 20
551.0
 30
0.0
 11
31.90000000000055
 21
531.0
 31
0.0
  0
LINE
  5
5796
330
578B
100
AcDbEntity
  8
AM_0 外形線1
100
AcDbLine
 10
37.0
 20
549.75
 30
0.0
 11
42.05181500000072
 21
541.0
 31
0.0
  0
LINE
  5
5797
330
578B
100
AcDbEntity
  8
AM_0 外形線1
100
AcDbLine
 10
37.0
 20
549.75
 30
0.0
 11
37.0
 21
532.2499999999998
 31
0.0
  0
LINE
  5
5798
330
578B
100
AcDbEntity
  8
AM_0 外形線1
100
AcDbLine
 10
28.90000000000055
 20
551.0
 30
0.0
 11
28.90000000000055
 21
531.0
 31
0.0
  0
LWPOLYLINE
  5
5799
330
578B
100
AcDbEntity
  8
AM_0 外形線1
100
AcDbPolyline
 90
       73
 70
     0
 43
0.0
 10
-21.0
 20
486.1500000000001
 10
-20.96004399999947
 20
485.613992
 10
-20.84048099999927
 20
485.0820639999997
 10
-20.64222100000006
 20
484.5582629999998
 10
-20.3667719999994
 20
484.0465760000001
 10
-20.01623199999995
 20
483.5508979999998
 10
-19.59326700000019
 20
483.0750000000001
 10
-19.10109600000032
 20
482.6225049999997
 10
-18.54346699999951
 20
482.196856
 10
-17.92462100000011
 20
481.801293
 10
-17.24927000000025
 20
481.4388269999998
 10
-16.52255299999979
 20
481.112215
 10
-15.75
 20
480.8239439999996
 10
-14.93749199999911
 20
480.576207
 10
-14.09121099999902
 20
480.370891
 10
-13.21759999999995
 20
480.2095560000001
 10
-12.32330600000023
 20
480.0934320000002
 10
-11.41513499999928
 20
480.0234030000001
 10
-10.5
 20
480.0
 10
-9.584864999998901
 20
480.0234030000001
 10
-8.67669399999977
 20
480.0934320000002
 10
-7.782400000000052
 20
480.2095560000001
 10
-6.908787999999732
 20
480.370891
 10
-6.06250799999907
 20
480.576207
 10
-5.25
 20
480.8239439999996
 10
-4.4774469999993
 20
481.112215
 10
-3.750729999999747
 20
481.4388269999998
 10
-3.075378999999883
 20
481.801293
 10
-2.456532999999581
 20
482.196856
 10
-1.898902999999336
 20
482.6225049999997
 10
-1.406732999999803
 20
483.0750000000001
 10
-0.9837680000000544
 20
483.5508979999998
 10
-0.6332270000002609
 20
484.0465760000001
 10
-0.3577789999999368
 20
484.5582629999998
 10
-0.1595190000007278
 20
485.0820639999997
 10
-0.03995599999962
 20
485.613992
 10
0.0
 20
486.1500000000001
 10
-0.03995599999962
 20
486.6860080000001
 10
-0.1595190000007278
 20
487.217936
 10
-0.3577789999999368
 20
487.7417369999998
 10
-0.6332270000002609
 20
488.253424
 10
-0.9837680000000544
 20
488.7491020000001
 10
-1.406732999999803
 20
489.2250000000003
 10
-1.898902999999336
 20
489.6774949999998
 10
-2.456532999999581
 20
490.1031440000001
 10
-3.075378999999883
 20
490.4987070000001
 10
-3.750729999999747
 20
490.8611729999996
 10
-4.4774469999993
 20
491.1877849999999
 10
-5.25
 20
491.4760559999998
 10
-6.06250799999907
 20
491.7237930000001
 10
-6.908787999999732
 20
491.9291099999999
 10
-7.782400000000052
 20
492.0904439999998
 10
-8.67669399999977
 20
492.2065680000001
 10
-9.584864999998901
 20
492.2765979999998
 10
-10.5
 20
492.3
 10
-11.41513499999928
 20
492.2765979999998
 10
-12.32330600000023
 20
492.2065680000001
 10
-13.21759999999995
 20
492.0904439999998
 10
-14.09121099999902
 20
491.9291099999999
 10
-14.93749199999911
 20
491.7237930000001
 10
-15.75
 20
491.4760559999998
 10
-16.52255299999979
 20
491.1877849999999
 10
-17.24927000000025
 20
490.8611729999996
 10
-17.92462100000011
 20
490.4987070000001
 10
-18.54346699999951
 20
490.1031440000001
 10
-19.10109600000032
 20
489.6774949999998
 10
-19.59326700000019
 20
489.2250000000003
 10
-20.01623199999995
 20
488.7491020000001
 10
-20.3667719999994
 20
488.253424
 10
-20.64222100000006
 20
487.7417369999998
 10
-20.84048099999927
 20
487.217936
 10
-20.96004399999947
 20
486.6860080000001
 10
-21.0
 20
486.1500000000001
  0
LINE
  5
579A
330
578B
100
AcDbEntity
  8
AM_0 外形線1
100
AcDbLine
 10
28.90000000000055
 20
532.2499999999998
 30
0.0
 11
-28.0
 21
532.2499999999998
 31
0.0
  0
LINE
  5
579B
330
578B
100
AcDbEntity
  8
AM_7 中心線
100
AcDbLine
 10
45.16501299999982
 20
541.0
 30
0.0
 11
-49.94232099999955
 21
541.0
 31
0.0
  0
LINE
  5
579C
330
578B
100
AcDbEntity
  8
AM_0 外形線1
100
AcDbLine
 10
-21.0
 20
492.3
 30
0.0
 11
0.0
 21
492.3
 31
0.0
  0
LINE
  5
579D
330
578B
100
AcDbEntity
  8
AM_4 細線
100
AcDbLine
 10
28.90000000000055
 20
531.0
 30
0.0
 11
-28.0
 21
531.0
 31
0.0
  0
LINE
  5
579E
330
578B
100
AcDbEntity
  8
AM_0 外形線1
100
AcDbLine
 10
-28.0
 20
544.0
 30
0.0
 11
-33.09999999999945
 21
536.0
 31
0.0
  0
LINE
  5
579F
330
578B
100
AcDbEntity
  8
AM_0 外形線1
100
AcDbLine
 10
-33.09999999999945
 20
538.0
 30
0.0
 11
-28.0
 21
546.0
 31
0.0
  0
LINE
  5
57A0
330
578B
100
AcDbEntity
  8
AM_0 外形線1
100
AcDbLine
 10
-21.0
 20
482.5
 30
0.0
 11
-21.0
 21
492.3
 31
0.0
  0
LINE
  5
57A1
330
578B
100
AcDbEntity
  8
AM_0 外形線1
100
AcDbLine
 10
-28.0
 20
482.5
 30
0.0
 11
-21.0
 21
482.5
 31
0.0
  0
LINE
  5
57A2
330
578B
100
AcDbEntity
  8
AM_0 外形線1
100
AcDbLine
 10
-28.0
 20
544.0
 30
0.0
 11
-28.0
 21
482.5
 31
0.0
  0
LINE
  5
57A3
330
578B
100
AcDbEntity
  8
AM_0 外形線1
100
AcDbLine
 10
-28.0
 20
544.0
 30
0.0
 11
-28.0
 21
531.0
 31
0.0
  0
LINE
  5
57A4
330
578B
100
AcDbEntity
  8
AM_0 外形線1
100
AcDbLine
 10
-33.09999999999945
 20
532.3602540000002
 30
0.0
 11
-44.62253599999893
 21
532.3602540000002
 31
0.0
  0
LINE
  5
57A5
330
578B
100
AcDbEntity
  8
AM_0 外形線1
100
AcDbLine
 10
-33.09999999999945
 20
523.7000000000001
 30
0.0
 11
-33.09999999999945
 21
523.9500000000003
 31
0.0
  0
LINE
  5
57A6
330
578B
100
AcDbEntity
  8
AM_0 外形線1
100
AcDbLine
 10
-44.62253599999893
 20
523.7000000000001
 30
0.0
 11
-33.09999999999945
 21
523.7000000000001
 31
0.0
  0
ARC
  5
57A7
330
578B
100
AcDbEntity
  8
AM_0 外形線1
100
AcDbCircle
 10
-39.06226099999912
 20
528.0301269999998
 30
0.0
 40
7.047457999999998
100
AcDbArc
 50
142.0899220000364
 51
217.9100779999636
  0
LINE
  5
57A8
330
578B
100
AcDbEntity
  8
AM_0 外形線1
100
AcDbLine
 10
-33.09999999999945
 20
523.9500000000003
 30
0.0
 11
-28.0
 21
523.9500000000003
 31
0.0
  0
LINE
  5
57A9
330
578B
100
AcDbEntity
  8
AM_0 外形線1
100
AcDbLine
 10
-21.0
 20
482.5
 30
0.0
 11
-21.0
 21
480.0
 31
0.0
  0
LINE
  5
57AA
330
578B
100
AcDbEntity
  8
AM_0 外形線1
100
AcDbLine
 10
-28.0
 20
482.5
 30
0.0
 11
-28.0
 21
480.0
 31
0.0
  0
LWPOLYLINE
  5
57AB
330
578B
100
AcDbEntity
  8
AM_0 外形線1
100
AcDbPolyline
 90
       73
 70
     0
 43
0.0
 10
-2.25
 20
518.0
 10
-2.053899999998975
 20
518.0136990000002
 10
-1.859291999999186
 20
518.0546920000002
 10
-1.667656999999961
 20
518.122667
 10
-1.480454999999891
 20
518.2171070000004
 10
-1.299108999999589
 20
518.3372920000001
 10
-1.125
 20
518.482309
 10
-0.9594529999994847
 20
518.651053
 10
-0.8037279999998645
 20
518.8422399999998
 10
-0.6590099999993983
 20
519.0544160000004
 10
-0.5263999999997396
 20
519.285965
 10
-0.406907999999021
 20
519.5351250000003
 10
-0.3014429999993808
 20
519.8000000000002
 10
-0.2108069999994768
 20
520.0785740000001
 10
-0.1356919999998354
 20
520.3687279999997
 10
-0.076666999999361
 20
520.6682519999998
 10
-0.0341829999997572
 20
520.9748669999998
 10
-0.0085619999999835
 20
521.286239
 10
0.0
 20
521.6000000000002
 10
-0.0085619999999835
 20
521.9137610000001
 10
-0.0341829999997572
 20
522.2251340000001
 10
-0.076666999999361
 20
522.5317490000001
 10
-0.1356919999998354
 20
522.8312729999998
 10
-0.2108069999994768
 20
523.1214260000001
 10
-0.3014429999993808
 20
523.3999999999999
 10
-0.406907999999021
 20
523.6648750000004
 10
-0.5263999999997396
 20
523.9140360000001
 10
-0.6590099999993983
 20
524.1455849999996
 10
-0.8037279999998645
 20
524.3577599999999
 10
-0.9594529999994847
 20
524.5489470000001
 10
-1.125
 20
524.7176920000002
 10
-1.299108999999589
 20
524.8627080000001
 10
-1.480454999999891
 20
524.9828939999996
 10
-1.667656999999961
 20
525.0773330000002
 10
-1.859291999999186
 20
525.145308
 10
-2.053899999998975
 20
525.1863010000001
 10
-2.25
 20
525.2000000000001
 10
-2.446099999999205
 20
525.1863010000001
 10
-2.640707999998994
 20
525.145308
 10
-2.832343000000037
 20
525.0773330000002
 10
-3.019544999999196
 20
524.9828939999996
 10
-3.20089100000041
 20
524.8627080000001
 10
-3.375
 20
524.7176920000002
 10
-3.540546999999604
 20
524.5489470000001
 10
-3.696271999999225
 20
524.3577599999999
 10
-3.840989999998781
 20
524.1455849999996
 10
-3.97359999999935
 20
523.9140360000001
 10
-4.09309199999916
 20
523.6648750000004
 10
-4.198556999999708
 20
523.3999999999999
 10
-4.289192000000183
 20
523.1214260000001
 10
-4.364307999999255
 20
522.8312729999998
 10
-4.42333299999882
 20
522.5317490000001
 10
-4.465817000000241
 20
522.2251340000001
 10
-4.491438000000016
 20
521.9137610000001
 10
-4.5
 20
521.6000000000002
 10
-4.491438000000016
 20
521.286239
 10
-4.465817000000241
 20
520.9748669999998
 10
-4.42333299999882
 20
520.6682519999998
 10
-4.364307999999255
 20
520.3687279999997
 10
-4.289192000000183
 20
520.0785740000001
 10
-4.198556999999708
 20
519.8000000000002
 10
-4.09309199999916
 20
519.5351250000003
 10
-3.97359999999935
 20
519.285965
 10
-3.840989999998781
 20
519.0544160000004
 10
-3.696271999999225
 20
518.8422399999998
 10
-3.540546999999604
 20
518.651053
 10
-3.375
 20
518.482309
 10
-3.20089100000041
 20
518.3372920000001
 10
-3.019544999999196
 20
518.2171070000004
 10
-2.832343000000037
 20
518.122667
 10
-2.640707999998994
 20
518.0546920000002
 10
-2.446099999999205
 20
518.0136990000002
 10
-2.25
 20
518.0
  0
LINE
  5
57AC
330
578B
100
AcDbEntity
  8
AM_0 外形線1
100
AcDbLine
 10
31.90000000000055
 20
531.0
 30
0.0
 11
28.90000000000055
 21
531.0
 31
0.0
  0
LINE
  5
57AD
330
578B
100
AcDbEntity
  8
AM_0 外形線1
100
AcDbLine
 10
7.0
 20
482.5
 30
0.0
 11
7.0
 21
518.0
 31
0.0
  0
LINE
  5
57AE
330
578B
100
AcDbEntity
  8
AM_0 外形線1
100
AcDbLine
 10
0.0
 20
482.5
 30
0.0
 11
7.0
 21
482.5
 31
0.0
  0
LINE
  5
57AF
330
578B
100
AcDbEntity
  8
AM_0 外形線1
100
AcDbLine
 10
0.0
 20
492.3
 30
0.0
 11
0.0
 21
482.5
 31
0.0
  0
LINE
  5
57B0
330
578B
100
AcDbEntity
  8
AM_0 外形線1
100
AcDbLine
 10
-4.5
 20
525.2000000000001
 30
0.0
 11
-4.5
 21
518.0
 31
0.0
  0
LINE
  5
57B1
330
578B
100
AcDbEntity
  8
AM_0 外形線1
100
AcDbLine
 10
0.0
 20
525.2000000000001
 30
0.0
 11
-4.5
 21
525.2000000000001
 31
0.0
  0
LINE
  5
57B2
330
578B
100
AcDbEntity
  8
AM_0 外形線1
100
AcDbLine
 10
42.05181500000072
 20
541.0
 30
0.0
 11
37.0
 21
532.2499999999998
 31
0.0
  0
LINE
  5
57B3
330
578B
100
AcDbEntity
  8
AM_0 外形線1
100
AcDbLine
 10
37.0
 20
532.2499999999998
 30
0.0
 11
28.90000000000055
 21
532.2499999999998
 31
0.0
  0
LINE
  5
57B4
330
578B
100
AcDbEntity
  8
AM_0 外形線1
100
AcDbLine
 10
7.0
 20
482.5
 30
0.0
 11
7.0
 21
480.0
 31
0.0
  0
LINE
  5
57B5
330
578B
100
AcDbEntity
  8
AM_0 外形線1
100
AcDbLine
 10
0.0
 20
482.5
 30
0.0
 11
0.0
 21
480.0
 31
0.0
  0
LINE
  5
57B6
330
578B
100
AcDbEntity
  8
AM_0 外形線1
100
AcDbLine
 10
-28.0
 20
549.75
 30
0.0
 11
28.90000000000055
 21
549.75
 31
0.0
  0
LINE
  5
57B7
330
578B
100
AcDbEntity
  8
AM_0 外形線1
100
AcDbLine
 10
-28.0
 20
563.0
 30
0.0
 11
0.0
 21
563.0
 31
0.0
  0
LINE
  5
57B8
330
578B
100
AcDbEntity
  8
AM_4 細線
100
AcDbLine
 10
-28.0
 20
551.0
 30
0.0
 11
28.90000000000055
 21
551.0
 31
0.0
  0
LINE
  5
57B9
330
578B
100
AcDbEntity
  8
AM_0 外形線1
100
AcDbLine
 10
-28.0
 20
558.0500000000001
 30
0.0
 11
-28.0
 21
563.0
 31
0.0
  0
LINE
  5
57BA
330
578B
100
AcDbEntity
  8
AM_0 外形線1
100
AcDbLine
 10
-28.0
 20
558.0500000000001
 30
0.0
 11
-28.0
 21
551.0
 31
0.0
  0
LINE
  5
57BB
330
578B
100
AcDbEntity
  8
AM_0 外形線1
100
AcDbLine
 10
-44.62253599999893
 20
549.6397459999998
 30
0.0
 11
-33.09999999999945
 21
549.6397459999998
 31
0.0
  0
ARC
  5
57BC
330
578B
100
AcDbEntity
  8
AM_0 外形線1
100
AcDbCircle
 10
-39.06226099999912
 20
553.969873
 30
0.0
 40
7.047457999999998
100
AcDbArc
 50
142.0899220000364
 51
217.9100779999636
  0
LINE
  5
57BD
330
578B
100
AcDbEntity
  8
AM_0 外形線1
100
AcDbLine
 10
-33.09999999999945
 20
558.3000000000001
 30
0.0
 11
-44.62253599999893
 21
558.3000000000001
 31
0.0
  0
LINE
  5
57BE
330
578B
100
AcDbEntity
  8
AM_0 外形線1
100
AcDbLine
 10
-33.09999999999945
 20
558.0500000000001
 30
0.0
 11
-33.09999999999945
 21
558.3000000000001
 31
0.0
  0
LINE
  5
57BF
330
578B
100
AcDbEntity
  8
AM_0 外形線1
100
AcDbLine
 10
-28.0
 20
558.0500000000001
 30
0.0
 11
-33.09999999999945
 21
558.0500000000001
 31
0.0
  0
LINE
  5
57C0
330
578B
100
AcDbEntity
  8
AM_0 外形線1
100
AcDbLine
 10
28.90000000000055
 20
551.0
 30
0.0
 11
31.90000000000055
 21
551.0
 31
0.0
  0
LINE
  5
57C1
330
578B
100
AcDbEntity
  8
AM_0 外形線1
100
AcDbLine
 10
28.90000000000055
 20
549.75
 30
0.0
 11
37.0
 21
549.75
 31
0.0
  0
LINE
  5
57C2
330
578B
100
AcDbEntity
  8
AM_0 外形線1
100
AcDbLine
 10
-4.5
 20
518.0
 30
0.0
 11
6.999999999999544
 21
518.0
 31
0.0
  0
LINE
  5
5836
330
578B
100
AcDbEntity
  8
AM_0 外形線1
100
AcDbLine
 10
0.0
 20
0.0
 30
0.0
 11
0.0
 21
-562.9999999999994
 31
0.0
  0
LINE
  5
5837
330
578B
100
AcDbEntity
  8
AM_0 外形線1
100
AcDbLine
 10
0.0
 20
563.0
 30
0.0
 11
0.0
 21
551.0000000000003
 31
0.0
  0
LINE
  5
5838
330
578B
100
AcDbEntity
  8
AM_0 外形線1
100
AcDbLine
 10
0.0
 20
531.0
 30
0.0
 11
0.0
 21
525.2000000000007
 31
0.0
  0
ENDBLK
  5
578D
330
578B
100
AcDbEntity
  8
0
100
AcDbBlockEnd
  0
BLOCK
  5
5902
330
5901
100
AcDbEntity
  8
0
100
AcDbBlockBegin
  2
*D15
 70
     1
 10
0.0
 20
0.0
 30
0.0
  3
*D15
  1

  0
LINE
  5
73D6
330
5901
100
AcDbEntity
  8
AM_5 寸法線
 62
     3
100
AcDbLine
 10
2525.889121941099
 20
3683.206078241382
 30
0.0
 11
1934.889121941099
 21
3683.206078241382
 31
0.0
  0
LINE
  5
73D7
330
5901
100
AcDbEntity
  8
AM_5 寸法線
 62
     3
100
AcDbLine
 10
2525.889121941099
 20
2723.206078241382
 30
0.0
 11
1934.889121941099
 21
2723.206078241382
 31
0.0
  0
LINE
  5
73D8
330
5901
100
AcDbEntity
  8
AM_5 寸法線
 62
     3
100
AcDbLine
 10
1944.264121941099
 20
3645.706078241382
 30
0.0
 11
1944.264121941099
 21
2760.706078241382
 31
0.0
  0
INSERT
  5
73D9
330
5901
100
AcDbEntity
  8
AM_5 寸法線
 62
     3
100
AcDbBlockReference
  2
_Open30
 10
1944.264121941099
 20
3683.206078241382
 30
0.0
 41
37.5
 42
37.5
 43
37.5
 50
90.0
  0
INSERT
  5
73DA
330
5901
100
AcDbEntity
  8
AM_5 寸法線
 62
     3
100
AcDbBlockReference
  2
_Open30
 10
1944.264121941099
 20
2723.206078241382
 30
0.0
 41
37.5
 42
37.5
 43
37.5
 50
270.0
  0
MTEXT
  5
73DB
330
5901
100
AcDbEntity
  8
AM_5 寸法線
 62
     3
100
AcDbMText
 10
1895.514121941099
 20
3203.206078241382
 30
0.0
 40
52.5
 41
0.0
 46
0.0
 71
     5
 72
     1
  1
%%c960
  7
SEISA
 11
0.0000000000000001
 21
1.0
 31
0.0
 73
     1
 44
1.0
  0
POINT
  5
73DC
330
5901
100
AcDbEntity
  8
Defpoints
 62
     0
100
AcDbPoint
 10
2535.264121941099
 20
3683.206078241382
 30
0.0
  0
POINT
  5
73DD
330
5901
100
AcDbEntity
  8
Defpoints
 62
     0
100
AcDbPoint
 10
2535.264121941099
 20
2723.206078241382
 30
0.0
  0
POINT
  5
73DE
330
5901
100
AcDbEntity
  8
Defpoints
 62
     0
100
AcDbPoint
 10
1944.264121941099
 20
2723.206078241382
 30
0.0
  0
ENDBLK
  5
5903
330
5901
100
AcDbEntity
  8
0
100
AcDbBlockEnd
  0
BLOCK
  5
593E
330
593D
100
AcDbEntity
  8
0
100
AcDbBlockBegin
  2
*D16
 70
     1
 10
0.0
 20
0.0
 30
0.0
  3
*D16
  1

  0
LINE
  5
7767
330
593D
100
AcDbEntity
  8
AM_5 寸法線
 62
     3
100
AcDbLine
 10
2624.264121941099
 20
3674.331078241382
 30
0.0
 11
2624.264121941099
 21
3565.534259667774
 31
0.0
  0
LINE
  5
7768
330
593D
100
AcDbEntity
  8
AM_5 寸法線
 62
     3
100
AcDbLine
 10
2610.264121941099
 20
3673.831078241382
 30
0.0
 11
2610.264121941099
 21
3565.534259667774
 31
0.0
  0
LINE
  5
7769
330
593D
100
AcDbEntity
  8
AM_5 寸法線
 62
     3
100
AcDbLine
 10
2624.264121941099
 20
3574.909259667774
 30
0.0
 11
2661.764121941099
 21
3574.909259667774
 31
0.0
  0
LINE
  5
776A
330
593D
100
AcDbEntity
  8
AM_5 寸法線
 62
     3
100
AcDbLine
 10
2572.764121941099
 20
3574.909259667774
 30
0.0
 11
2418.264121941099
 21
3574.909259667774
 31
0.0
  0
LINE
  5
776B
330
593D
100
AcDbEntity
  8
AM_5 寸法線
 62
     3
100
AcDbLine
 10
2624.264121941099
 20
3574.909259667774
 30
0.0
 11
2610.264121941099
 21
3574.909259667774
 31
0.0
  0
INSERT
  5
776C
330
593D
100
AcDbEntity
  8
AM_5 寸法線
 62
     3
100
AcDbBlockReference
  2
_DotSmall
 10
2624.264121941099
 20
3574.909259667774
 30
0.0
 41
37.5
 42
37.5
 43
37.5
 50
180.0
  0
INSERT
  5
776D
330
593D
100
AcDbEntity
  8
AM_5 寸法線
 62
     3
100
AcDbBlockReference
  2
_Open30
 10
2610.264121941099
 20
3574.909259667774
 30
0.0
 41
37.5
 42
37.5
 43
37.5
  0
MTEXT
  5
776E
330
593D
100
AcDbEntity
  8
AM_5 寸法線
 62
     3
100
AcDbMText
 10
2476.764121941099
 20
3623.659259667775
 30
0.0
 40
52.5
 41
0.0
 46
0.0
 71
     5
 72
     1
  1
14
  7
SEISA
 73
     1
 44
1.0
  0
POINT
  5
776F
330
593D
100
AcDbEntity
  8
Defpoints
 62
     0
100
AcDbPoint
 10
2624.264121941099
 20
3683.706078241382
 30
0.0
  0
POINT
  5
7770
330
593D
100
AcDbEntity
  8
Defpoints
 62
     0
100
AcDbPoint
 10
2610.264121941099
 20
3683.206078241382
 30
0.0
  0
POINT
  5
7771
330
593D
100
AcDbEntity
  8
Defpoints
 62
     0
100
AcDbPoint
 10
2610.264121941099
 20
3574.909259667774
 30
0.0
  0
ENDBLK
  5
593F
330
593D
100
AcDbEntity
  8
0
100
AcDbBlockEnd
  0
BLOCK
  5
5980
330
597F
100
AcDbEntity
  8
0
100
AcDbBlockBegin
  2
*D17
 70
     1
 10
0.0
 20
0.0
 30
0.0
  3
*D17
  1

  0
LINE
  5
73DF
330
597F
100
AcDbEntity
  8
AM_5 寸法線
 62
     3
100
AcDbLine
 10
2954.2641219411
 20
3212.581078241382
 30
0.0
 11
2954.2641219411
 21
3304.635504241382
 31
0.0
  0
LINE
  5
73E0
330
597F
100
AcDbEntity
  8
AM_5 寸法線
 62
     3
100
AcDbLine
 10
2244.264121941099
 20
3212.581078241382
 30
0.0
 11
2244.264121941099
 21
3304.635504241382
 31
0.0
  0
LINE
  5
73E1
330
597F
100
AcDbEntity
  8
AM_5 寸法線
 62
     3
100
AcDbLine
 10
2916.764121941099
 20
3295.260504241382
 30
0.0
 11
2281.764121941099
 21
3295.260504241382
 31
0.0
  0
INSERT
  5
73E2
330
597F
100
AcDbEntity
  8
AM_5 寸法線
 62
     3
100
AcDbBlockReference
  2
_Open30
 10
2954.2641219411
 20
3295.260504241382
 30
0.0
 41
37.5
 42
37.5
 43
37.5
  0
INSERT
  5
73E3
330
597F
100
AcDbEntity
  8
AM_5 寸法線
 62
     3
100
AcDbBlockReference
  2
_Open30
 10
2244.264121941099
 20
3295.260504241382
 30
0.0
 41
37.5
 42
37.5
 43
37.5
 50
180.0
  0
MTEXT
  5
73E4
330
597F
100
AcDbEntity
  8
AM_5 寸法線
 62
     3
100
AcDbMText
 10
2599.264121941099
 20
3344.010504241382
 30
0.0
 40
52.5
 41
0.0
 46
0.0
 71
     5
 72
     1
  1
710
  7
SEISA
 73
     1
 44
1.0
  0
POINT
  5
73E5
330
597F
100
AcDbEntity
  8
Defpoints
 62
     0
100
AcDbPoint
 10
2954.2641219411
 20
3203.206078241382
 30
0.0
  0
POINT
  5
73E6
330
597F
100
AcDbEntity
  8
Defpoints
 62
     0
100
AcDbPoint
 10
2244.264121941099
 20
3203.206078241382
 30
0.0
  0
POINT
  5
73E7
330
597F
100
AcDbEntity
  8
Defpoints
 62
     0
100
AcDbPoint
 10
2244.264121941099
 20
3295.260504241382
 30
0.0
  0
ENDBLK
  5
5981
330
597F
100
AcDbEntity
  8
0
100
AcDbBlockEnd
  0
BLOCK
  5
5998
330
5997
100
AcDbEntity
  8
0
100
AcDbBlockBegin
  2
*D18
 70
     1
 10
0.0
 20
0.0
 30
0.0
  3
*D18
  1

  0
LINE
  5
718D
330
5997
100
AcDbEntity
  8
AM_5 寸法線
 62
     3
100
AcDbLine
 10
2994.2641219411
 20
3212.581078241382
 30
0.0
 11
2994.2641219411
 21
3304.635504241382
 31
0.0
  0
LINE
  5
718E
330
5997
100
AcDbEntity
  8
AM_5 寸法線
 62
     3
100
AcDbLine
 10
2954.2641219411
 20
3212.581078241382
 30
0.0
 11
2954.2641219411
 21
3304.635504241382
 31
0.0
  0
LINE
  5
718F
330
5997
100
AcDbEntity
  8
AM_5 寸法線
 62
     3
100
AcDbLine
 10
3031.7641219411
 20
3295.260504241382
 30
0.0
 11
3069.264121941099
 21
3295.260504241382
 31
0.0
  0
LINE
  5
7190
330
5997
100
AcDbEntity
  8
AM_5 寸法線
 62
     3
100
AcDbLine
 10
2916.764121941099
 20
3295.260504241382
 30
0.0
 11
2879.2641219411
 21
3295.260504241382
 31
0.0
  0
MTEXT
  5
7191
330
5997
100
AcDbEntity
  8
AM_5 寸法線
 62
     3
100
AcDbMText
 10
3072.878070819476
 20
3341.908090158091
 30
0.0
 40
52.5
 41
0.0
 46
0.0
 71
     5
 72
     1
  1
40
  7
SEISA
 73
     1
 44
1.0
  0
LINE
  5
7192
330
5997
100
AcDbEntity
  8
AM_5 寸法線
 62
     3
100
AcDbLine
 10
2994.2641219411
 20
3295.260504241382
 30
0.0
 11
2954.2641219411
 21
3295.260504241382
 31
0.0
  0
INSERT
  5
7193
330
5997
100
AcDbEntity
  8
AM_5 寸法線
 62
     3
100
AcDbBlockReference
  2
_Open30
 10
2994.2641219411
 20
3295.260504241382
 30
0.0
 41
37.5
 42
37.5
 43
37.5
 50
180.0
  0
INSERT
  5
7194
330
5997
100
AcDbEntity
  8
AM_5 寸法線
 62
     3
100
AcDbBlockReference
  2
_Open30
 10
2954.2641219411
 20
3295.260504241382
 30
0.0
 41
37.5
 42
37.5
 43
37.5
  0
POINT
  5
7195
330
5997
100
AcDbEntity
  8
Defpoints
 62
     0
100
AcDbPoint
 10
2994.2641219411
 20
3203.206078241382
 30
0.0
  0
POINT
  5
7196
330
5997
100
AcDbEntity
  8
Defpoints
 62
     0
100
AcDbPoint
 10
2954.2641219411
 20
3203.206078241382
 30
0.0
  0
POINT
  5
7197
330
5997
100
AcDbEntity
  8
Defpoints
 62
     0
100
AcDbPoint
 10
2954.2641219411
 20
3295.260504241382
 30
0.0
  0
ENDBLK
  5
5999
330
5997
100
AcDbEntity
  8
0
100
AcDbBlockEnd
  0
BLOCK
  5
59B4
330
59B3
100
AcDbEntity
  8
0
100
AcDbBlockBegin
  2
*D19
 70
     1
 10
0.0
 20
0.0
 30
0.0
  3
*D19
  1

  0
LINE
  5
7198
330
59B3
100
AcDbEntity
  8
AM_5 寸法線
 62
     3
100
AcDbLine
 10
2994.2641219411
 20
3212.581078241382
 30
0.0
 11
2994.2641219411
 21
3304.635504241382
 31
0.0
  0
LINE
  5
7199
330
59B3
100
AcDbEntity
  8
AM_5 寸法線
 62
     3
100
AcDbLine
 10
3704.2641219411
 20
3212.581078241382
 30
0.0
 11
3704.2641219411
 21
3304.635504241382
 31
0.0
  0
LINE
  5
719A
330
59B3
100
AcDbEntity
  8
AM_5 寸法線
 62
     3
100
AcDbLine
 10
3031.7641219411
 20
3295.260504241382
 30
0.0
 11
3666.7641219411
 21
3295.260504241382
 31
0.0
  0
INSERT
  5
719B
330
59B3
100
AcDbEntity
  8
AM_5 寸法線
 62
     3
100
AcDbBlockReference
  2
_Open30
 10
2994.2641219411
 20
3295.260504241382
 30
0.0
 41
37.5
 42
37.5
 43
37.5
 50
180.0
  0
INSERT
  5
719C
330
59B3
100
AcDbEntity
  8
AM_5 寸法線
 62
     3
100
AcDbBlockReference
  2
_Open30
 10
3704.2641219411
 20
3295.260504241382
 30
0.0
 41
37.5
 42
37.5
 43
37.5
  0
MTEXT
  5
719D
330
59B3
100
AcDbEntity
  8
AM_5 寸法線
 62
     3
100
AcDbMText
 10
3349.264121941099
 20
3344.010504241382
 30
0.0
 40
52.5
 41
0.0
 46
0.0
 71
     5
 72
     1
  1
710
  7
SEISA
 73
     1
 44
1.0
  0
POINT
  5
719E
330
59B3
100
AcDbEntity
  8
Defpoints
 62
     0
100
AcDbPoint
 10
2994.2641219411
 20
3203.206078241382
 30
0.0
  0
POINT
  5
719F
330
59B3
100
AcDbEntity
  8
Defpoints
 62
     0
100
AcDbPoint
 10
3704.2641219411
 20
3203.206078241382
 30
0.0
  0
POINT
  5
71A0
330
59B3
100
AcDbEntity
  8
Defpoints
 62
     0
100
AcDbPoint
 10
3704.2641219411
 20
3295.260504241382
 30
0.0
  0
ENDBLK
  5
59B5
330
59B3
100
AcDbEntity
  8
0
100
AcDbBlockEnd
  0
BLOCK
  5
5A74
330
5A73
100
AcDbEntity
  8
0
100
AcDbBlockBegin
  2
*D20
 70
     1
 10
0.0
 20
0.0
 30
0.0
  3
*D20
  1

  0
LINE
  5
71A8
330
5A73
100
AcDbEntity
  8
AM_5 寸法線
 62
     3
100
AcDbLine
 10
3382.6391219411
 20
3766.206078241382
 30
0.0
 11
4133.6391219411
 21
3766.206078241382
 31
0.0
  0
LINE
  5
71A9
330
5A73
100
AcDbEntity
  8
AM_5 寸法線
 62
     3
100
AcDbLine
 10
3382.6391219411
 20
2640.206078241382
 30
0.0
 11
4133.6391219411
 21
2640.206078241382
 31
0.0
  0
LINE
  5
71AA
330
5A73
100
AcDbEntity
  8
AM_5 寸法線
 62
     3
100
AcDbLine
 10
4124.2641219411
 20
3728.706078241382
 30
0.0
 11
4124.2641219411
 21
2677.706078241382
 31
0.0
  0
INSERT
  5
71AB
330
5A73
100
AcDbEntity
  8
AM_5 寸法線
 62
     3
100
AcDbBlockReference
  2
_Open30
 10
4124.2641219411
 20
3766.206078241382
 30
0.0
 41
37.5
 42
37.5
 43
37.5
 50
90.0
  0
INSERT
  5
71AC
330
5A73
100
AcDbEntity
  8
AM_5 寸法線
 62
     3
100
AcDbBlockReference
  2
_Open30
 10
4124.2641219411
 20
2640.206078241382
 30
0.0
 41
37.5
 42
37.5
 43
37.5
 50
270.0
  0
MTEXT
  5
71AD
330
5A73
100
AcDbEntity
  8
AM_5 寸法線
 62
     3
100
AcDbMText
 10
4075.514121941099
 20
3203.206078241382
 30
0.0
 40
52.5
 41
0.0
 46
0.0
 71
     5
 72
     1
  1
%%c1126
  7
SEISA
 11
0.0000000000000001
 21
1.0
 31
0.0
 73
     1
 44
1.0
  0
POINT
  5
71AE
330
5A73
100
AcDbEntity
  8
Defpoints
 62
     0
100
AcDbPoint
 10
3373.2641219411
 20
3766.206078241382
 30
0.0
  0
POINT
  5
71AF
330
5A73
100
AcDbEntity
  8
Defpoints
 62
     0
100
AcDbPoint
 10
3373.2641219411
 20
2640.206078241382
 30
0.0
  0
POINT
  5
71B0
330
5A73
100
AcDbEntity
  8
Defpoints
 62
     0
100
AcDbPoint
 10
4124.2641219411
 20
2640.206078241382
 30
0.0
  0
ENDBLK
  5
5A75
330
5A73
100
AcDbEntity
  8
0
100
AcDbBlockEnd
  0
BLOCK
  5
5A8C
330
5A8B
100
AcDbEntity
  8
0
100
AcDbBlockBegin
  2
*D21
 70
     1
 10
0.0
 20
0.0
 30
0.0
  3
*D21
  1

  0
LINE
  5
71B1
330
5A8B
100
AcDbEntity
  8
AM_5 寸法線
 62
     3
100
AcDbLine
 10
3041.639121941099
 20
3828.206078241382
 30
0.0
 11
4253.6391219411
 21
3828.206078241382
 31
0.0
  0
LINE
  5
71B2
330
5A8B
100
AcDbEntity
  8
AM_5 寸法線
 62
     3
100
AcDbLine
 10
3041.639121941099
 20
2578.206078241382
 30
0.0
 11
4253.6391219411
 21
2578.206078241382
 31
0.0
  0
LINE
  5
71B3
330
5A8B
100
AcDbEntity
  8
AM_5 寸法線
 62
     3
100
AcDbLine
 10
4244.2641219411
 20
3790.706078241381
 30
0.0
 11
4244.2641219411
 21
2615.706078241383
 31
0.0
  0
INSERT
  5
71B4
330
5A8B
100
AcDbEntity
  8
AM_5 寸法線
 62
     3
100
AcDbBlockReference
  2
_Open30
 10
4244.2641219411
 20
3828.206078241382
 30
0.0
 41
37.5
 42
37.5
 43
37.5
 50
90.0
  0
INSERT
  5
71B5
330
5A8B
100
AcDbEntity
  8
AM_5 寸法線
 62
     3
100
AcDbBlockReference
  2
_Open30
 10
4244.2641219411
 20
2578.206078241382
 30
0.0
 41
37.5
 42
37.5
 43
37.5
 50
270.0
  0
MTEXT
  5
71B6
330
5A8B
100
AcDbEntity
  8
AM_5 寸法線
 62
     3
100
AcDbMText
 10
4195.514121941099
 20
3203.206078241382
 30
0.0
 40
52.5
 41
0.0
 46
0.0
 71
     5
 72
     1
  1
%%c1250
  7
SEISA
 11
0.0000000000000001
 21
1.0
 31
0.0
 73
     1
 44
1.0
  0
POINT
  5
71B7
330
5A8B
100
AcDbEntity
  8
Defpoints
 62
     0
100
AcDbPoint
 10
3032.264121941099
 20
3828.206078241382
 30
0.0
  0
POINT
  5
71B8
330
5A8B
100
AcDbEntity
  8
Defpoints
 62
     0
100
AcDbPoint
 10
3032.264121941099
 20
2578.206078241382
 30
0.0
  0
POINT
  5
71B9
330
5A8B
100
AcDbEntity
  8
Defpoints
 62
     0
100
AcDbPoint
 10
4244.2641219411
 20
2578.206078241382
 30
0.0
  0
ENDBLK
  5
5A8D
330
5A8B
100
AcDbEntity
  8
0
100
AcDbBlockEnd
  0
BLOCK
  5
5B2C
330
5B2B
100
AcDbEntity
  8
0
100
AcDbBlockBegin
  2
*D22
 70
     1
 10
0.0
 20
0.0
 30
0.0
  3
*D22
  1

  0
LINE
  5
71BA
330
5B2B
100
AcDbEntity
  8
AM_5 寸法線
 62
     3
100
AcDbLine
 10
2974.2641219411
 20
2570.831078241383
 30
0.0
 11
2974.2641219411
 21
2343.831078241382
 31
0.0
  0
LINE
  5
71BB
330
5B2B
100
AcDbEntity
  8
AM_5 寸法線
 62
     3
100
AcDbLine
 10
3034.264121941099
 20
2570.831078241383
 30
0.0
 11
3034.264121941099
 21
2343.831078241382
 31
0.0
  0
LINE
  5
71BC
330
5B2B
100
AcDbEntity
  8
AM_5 寸法線
 62
     3
100
AcDbLine
 10
2936.7641219411
 20
2353.206078241382
 30
0.0
 11
2899.264121941099
 21
2353.206078241382
 31
0.0
  0
LINE
  5
71BD
330
5B2B
100
AcDbEntity
  8
AM_5 寸法線
 62
     3
100
AcDbLine
 10
3071.764121941099
 20
2353.206078241382
 30
0.0
 11
3228.514121941099
 21
2353.206078241382
 31
0.0
  0
LINE
  5
71BE
330
5B2B
100
AcDbEntity
  8
AM_5 寸法線
 62
     3
100
AcDbLine
 10
2974.2641219411
 20
2353.206078241382
 30
0.0
 11
3034.264121941099
 21
2353.206078241382
 31
0.0
  0
INSERT
  5
71BF
330
5B2B
100
AcDbEntity
  8
AM_5 寸法線
 62
     3
100
AcDbBlockReference
  2
GENDOT
 10
2974.2641219411
 20
2353.206078241382
 30
0.0
 41
37.5
 42
37.5
 43
37.5
  0
INSERT
  5
71C0
330
5B2B
100
AcDbEntity
  8
AM_5 寸法線
 62
     3
100
AcDbBlockReference
  2
_Open30
 10
3034.264121941099
 20
2353.206078241382
 30
0.0
 41
37.5
 42
37.5
 43
37.5
 50
180.0
  0
MTEXT
  5
71C1
330
5B2B
100
AcDbEntity
  8
AM_5 寸法線
 62
     3
100
AcDbMText
 10
3168.889121941099
 20
2401.956078241382
 30
0.0
 40
52.5
 41
0.0
 46
0.0
 71
     5
 72
     1
  1
60
  7
SEISA
 73
     1
 44
1.0
  0
POINT
  5
71C2
330
5B2B
100
AcDbEntity
  8
Defpoints
 62
     0
100
AcDbPoint
 10
2974.2641219411
 20
2580.206078241384
 30
0.0
  0
POINT
  5
71C3
330
5B2B
100
AcDbEntity
  8
Defpoints
 62
     0
100
AcDbPoint
 10
3034.264121941099
 20
2580.206078241384
 30
0.0
  0
POINT
  5
71C4
330
5B2B
100
AcDbEntity
  8
Defpoints
 62
     0
100
AcDbPoint
 10
3034.264121941099
 20
2353.206078241382
 30
0.0
  0
ENDBLK
  5
5B2D
330
5B2B
100
AcDbEntity
  8
0
100
AcDbBlockEnd
  0
BLOCK
  5
5B48
330
5B47
100
AcDbEntity
  8
0
100
AcDbBlockBegin
  2
*D23
 70
     1
 10
0.0
 20
0.0
 30
0.0
  3
*D23
  1

  0
LINE
  5
71C5
330
5B47
100
AcDbEntity
  8
AM_5 寸法線
 62
     3
100
AcDbLine
 10
2974.2641219411
 20
2570.831078241383
 30
0.0
 11
2974.2641219411
 21
2343.831078241382
 31
0.0
  0
LINE
  5
71C6
330
5B47
100
AcDbEntity
  8
AM_5 寸法線
 62
     3
100
AcDbLine
 10
2914.2641219411
 20
2570.831078241383
 30
0.0
 11
2914.2641219411
 21
2343.831078241382
 31
0.0
  0
LINE
  5
71C7
330
5B47
100
AcDbEntity
  8
AM_5 寸法線
 62
     3
100
AcDbLine
 10
3011.7641219411
 20
2353.206078241382
 30
0.0
 11
3049.2641219411
 21
2353.206078241382
 31
0.0
  0
LINE
  5
71C8
330
5B47
100
AcDbEntity
  8
AM_5 寸法線
 62
     3
100
AcDbLine
 10
2876.7641219411
 20
2353.206078241382
 30
0.0
 11
2720.014121941099
 21
2353.206078241382
 31
0.0
  0
LINE
  5
71C9
330
5B47
100
AcDbEntity
  8
AM_5 寸法線
 62
     3
100
AcDbLine
 10
2974.2641219411
 20
2353.206078241382
 30
0.0
 11
2914.2641219411
 21
2353.206078241382
 31
0.0
  0
INSERT
  5
71CA
330
5B47
100
AcDbEntity
  8
AM_5 寸法線
 62
     3
100
AcDbBlockReference
  2
GENDOT
 10
2974.2641219411
 20
2353.206078241382
 30
0.0
 41
37.5
 42
37.5
 43
37.5
 50
180.0
  0
INSERT
  5
71CB
330
5B47
100
AcDbEntity
  8
AM_5 寸法線
 62
     3
100
AcDbBlockReference
  2
_Open30
 10
2914.2641219411
 20
2353.206078241382
 30
0.0
 41
37.5
 42
37.5
 43
37.5
  0
MTEXT
  5
71CC
330
5B47
100
AcDbEntity
  8
AM_5 寸法線
 62
     3
100
AcDbMText
 10
2779.639121941099
 20
2401.956078241382
 30
0.0
 40
52.5
 41
0.0
 46
0.0
 71
     5
 72
     1
  1
60
  7
SEISA
 73
     1
 44
1.0
  0
POINT
  5
71CD
330
5B47
100
AcDbEntity
  8
Defpoints
 62
     0
100
AcDbPoint
 10
2974.2641219411
 20
2580.206078241384
 30
0.0
  0
POINT
  5
71CE
330
5B47
100
AcDbEntity
  8
Defpoints
 62
     0
100
AcDbPoint
 10
2914.2641219411
 20
2580.206078241384
 30
0.0
  0
POINT
  5
71CF
330
5B47
100
AcDbEntity
  8
Defpoints
 62
     0
100
AcDbPoint
 10
2914.2641219411
 20
2353.206078241382
 30
0.0
  0
ENDBLK
  5
5B49
330
5B47
100
AcDbEntity
  8
0
100
AcDbBlockEnd
  0
BLOCK
  5
5BD9
330
5BD8
100
AcDbEntity
  8
0
100
AcDbBlockBegin
  2
*D24
 70
     1
 10
0.0
 20
0.0
 30
0.0
  3
*D24
  1

  0
LINE
  5
779C
330
5BD8
100
AcDbEntity
  8
AM_5 寸法線
 62
     3
100
AcDbLine
 10
3373.2641219411
 20
2630.831078241382
 30
0.0
 11
3373.2641219411
 21
2223.831078241382
 31
0.0
  0
LINE
  5
779D
330
5BD8
100
AcDbEntity
  8
AM_5 寸法線
 62
     3
100
AcDbLine
 10
2575.264121941099
 20
2630.831078241382
 30
0.0
 11
2575.264121941099
 21
2223.831078241382
 31
0.0
  0
LINE
  5
779E
330
5BD8
100
AcDbEntity
  8
AM_5 寸法線
 62
     3
100
AcDbLine
 10
3335.7641219411
 20
2233.206078241382
 30
0.0
 11
2612.764121941099
 21
2233.206078241382
 31
0.0
  0
INSERT
  5
779F
330
5BD8
100
AcDbEntity
  8
AM_5 寸法線
 62
     3
100
AcDbBlockReference
  2
_Open30
 10
3373.2641219411
 20
2233.206078241382
 30
0.0
 41
37.5
 42
37.5
 43
37.5
  0
INSERT
  5
77A0
330
5BD8
100
AcDbEntity
  8
AM_5 寸法線
 62
     3
100
AcDbBlockReference
  2
_Open30
 10
2575.264121941099
 20
2233.206078241382
 30
0.0
 41
37.5
 42
37.5
 43
37.5
 50
180.0
  0
MTEXT
  5
77A1
330
5BD8
100
AcDbEntity
  8
AM_5 寸法線
 62
     3
100
AcDbMText
 10
2974.2641219411
 20
2281.956078241382
 30
0.0
 40
52.5
 41
0.0
 46
0.0
 71
     5
 72
     1
  1
798
  7
SEISA
 73
     1
 44
1.0
  0
POINT
  5
77A2
330
5BD8
100
AcDbEntity
  8
Defpoints
 62
     0
100
AcDbPoint
 10
3373.2641219411
 20
2640.206078241382
 30
0.0
  0
POINT
  5
77A3
330
5BD8
100
AcDbEntity
  8
Defpoints
 62
     0
100
AcDbPoint
 10
2575.264121941099
 20
2640.206078241382
 30
0.0
  0
POINT
  5
77A4
330
5BD8
100
AcDbEntity
  8
Defpoints
 62
     0
100
AcDbPoint
 10
2575.264121941099
 20
2233.206078241382
 30
0.0
  0
ENDBLK
  5
5BDA
330
5BD8
100
AcDbEntity
  8
0
100
AcDbBlockEnd
  0
BLOCK
  5
5C39
330
5C38
100
AcDbEntity
  8
0
100
AcDbBlockBegin
  2
*D25
 70
     1
 10
0.0
 20
0.0
 30
0.0
  3
*D25
  1

  0
LINE
  5
71F4
330
5C38
100
AcDbEntity
  8
AM_5 寸法線
 62
     3
100
AcDbLine
 10
2244.264121941099
 20
2735.831078241382
 30
0.0
 11
2244.264121941099
 21
2103.831078241382
 31
0.0
  0
LINE
  5
71F5
330
5C38
100
AcDbEntity
  8
AM_5 寸法線
 62
     3
100
AcDbLine
 10
3704.2641219411
 20
2735.831078241382
 30
0.0
 11
3704.2641219411
 21
2103.831078241382
 31
0.0
  0
LINE
  5
71F6
330
5C38
100
AcDbEntity
  8
AM_5 寸法線
 62
     3
100
AcDbLine
 10
2281.764121941099
 20
2113.206078241383
 30
0.0
 11
3666.7641219411
 21
2113.206078241383
 31
0.0
  0
INSERT
  5
71F7
330
5C38
100
AcDbEntity
  8
AM_5 寸法線
 62
     3
100
AcDbBlockReference
  2
_Open30
 10
2244.264121941099
 20
2113.206078241383
 30
0.0
 41
37.5
 42
37.5
 43
37.5
 50
180.0
  0
INSERT
  5
71F8
330
5C38
100
AcDbEntity
  8
AM_5 寸法線
 62
     3
100
AcDbBlockReference
  2
_Open30
 10
3704.2641219411
 20
2113.206078241383
 30
0.0
 41
37.5
 42
37.5
 43
37.5
  0
MTEXT
  5
71F9
330
5C38
100
AcDbEntity
  8
AM_5 寸法線
 62
     3
100
AcDbMText
 10
2974.2641219411
 20
2161.956078241383
 30
0.0
 40
52.5
 41
0.0
 46
0.0
 71
     5
 72
     1
  1
1460
  7
SEISA
 73
     1
 44
1.0
  0
POINT
  5
71FA
330
5C38
100
AcDbEntity
  8
Defpoints
 62
     0
100
AcDbPoint
 10
2244.264121941099
 20
2745.206078241383
 30
0.0
  0
POINT
  5
71FB
330
5C38
100
AcDbEntity
  8
Defpoints
 62
     0
100
AcDbPoint
 10
3704.2641219411
 20
2745.206078241383
 30
0.0
  0
POINT
  5
71FC
330
5C38
100
AcDbEntity
  8
Defpoints
 62
     0
100
AcDbPoint
 10
3704.2641219411
 20
2113.206078241383
 30
0.0
  0
ENDBLK
  5
5C3A
330
5C38
100
AcDbEntity
  8
0
100
AcDbBlockEnd
  0
BLOCK
  5
6E78
330
6E77
100
AcDbEntity
  8
0
100
AcDbBlockBegin
  2
*D26
 70
     1
 10
0.0
 20
0.0
 30
0.0
  3
*D26
  1

  0
LINE
  5
7225
330
6E77
100
AcDbEntity
  8
AM_5 寸法線
 62
     3
100
AcDbLine
 10
3422.639121941099
 20
3683.206078241382
 30
0.0
 11
4013.639121941099
 21
3683.206078241382
 31
0.0
  0
LINE
  5
7226
330
6E77
100
AcDbEntity
  8
AM_5 寸法線
 62
     3
100
AcDbLine
 10
3422.639121941099
 20
2723.206078241382
 30
0.0
 11
4013.639121941099
 21
2723.206078241382
 31
0.0
  0
LINE
  5
7227
330
6E77
100
AcDbEntity
  8
AM_5 寸法線
 62
     3
100
AcDbLine
 10
4004.264121941099
 20
3645.706078241382
 30
0.0
 11
4004.264121941099
 21
2760.706078241382
 31
0.0
  0
INSERT
  5
7228
330
6E77
100
AcDbEntity
  8
AM_5 寸法線
 62
     3
100
AcDbBlockReference
  2
_Open30
 10
4004.264121941099
 20
3683.206078241382
 30
0.0
 41
37.5
 42
37.5
 43
37.5
 50
90.0
  0
INSERT
  5
7229
330
6E77
100
AcDbEntity
  8
AM_5 寸法線
 62
     3
100
AcDbBlockReference
  2
_Open30
 10
4004.264121941099
 20
2723.206078241382
 30
0.0
 41
37.5
 42
37.5
 43
37.5
 50
270.0
  0
MTEXT
  5
722A
330
6E77
100
AcDbEntity
  8
AM_5 寸法線
 62
     3
100
AcDbMText
 10
3955.514121941098
 20
3203.206078241382
 30
0.0
 40
52.5
 41
0.0
 46
0.0
 71
     5
 72
     1
  1
%%c960
  7
SEISA
 11
0.0000000000000001
 21
1.0
 31
0.0
 73
     1
 44
1.0
  0
POINT
  5
722B
330
6E77
100
AcDbEntity
  8
Defpoints
 62
     0
100
AcDbPoint
 10
3413.264121941099
 20
3683.206078241382
 30
0.0
  0
POINT
  5
722C
330
6E77
100
AcDbEntity
  8
Defpoints
 62
     0
100
AcDbPoint
 10
3413.264121941099
 20
2723.206078241382
 30
0.0
  0
POINT
  5
722D
330
6E77
100
AcDbEntity
  8
Defpoints
 62
     0
100
AcDbPoint
 10
4004.264121941099
 20
2723.206078241382
 30
0.0
  0
ENDBLK
  5
6E79
330
6E77
100
AcDbEntity
  8
0
100
AcDbBlockEnd
  0
BLOCK
  5
7472
330
7471
100
AcDbEntity
  8
0
100
AcDbBlockBegin
  2
*D27
 70
     1
 10
0.0
 20
0.0
 30
0.0
  3
*D27
  1

  0
LINE
  5
786D
330
7471
100
AcDbEntity
  8
AM_5 寸法線
 62
     3
100
AcDbLine
 10
2624.264121941099
 20
3674.331078241382
 30
0.0
 11
2624.264121941099
 21
3565.534259667777
 31
0.0
  0
LINE
  5
786E
330
7471
100
AcDbEntity
  8
AM_5 寸法線
 62
     3
100
AcDbLine
 10
2789.2641219411
 20
3674.331078241382
 30
0.0
 11
2789.2641219411
 21
3565.534259667777
 31
0.0
  0
LINE
  5
786F
330
7471
100
AcDbEntity
  8
AM_5 寸法線
 62
     3
100
AcDbLine
 10
2624.264121941099
 20
3574.909259667777
 30
0.0
 11
2586.764121941099
 21
3574.909259667777
 31
0.0
  0
LINE
  5
7870
330
7471
100
AcDbEntity
  8
AM_5 寸法線
 62
     3
100
AcDbLine
 10
2789.2641219411
 20
3574.909259667777
 30
0.0
 11
2826.7641219411
 21
3574.909259667777
 31
0.0
  0
MTEXT
  5
7871
330
7471
100
AcDbEntity
  8
AM_5 寸法線
 62
     3
100
AcDbMText
 10
2698.614566468384
 20
3619.554484732127
 30
0.0
 40
52.5
 41
0.0
 46
0.0
 71
     5
 72
     1
  1
165
  7
SEISA
 73
     1
 44
1.0
  0
LINE
  5
7872
330
7471
100
AcDbEntity
  8
AM_5 寸法線
 62
     3
100
AcDbLine
 10
2624.264121941099
 20
3574.909259667777
 30
0.0
 11
2789.2641219411
 21
3574.909259667777
 31
0.0
  0
INSERT
  5
7873
330
7471
100
AcDbEntity
  8
AM_5 寸法線
 62
     3
100
AcDbBlockReference
  2
_DotSmall
 10
2624.264121941099
 20
3574.909259667777
 30
0.0
 41
37.5
 42
37.5
 43
37.5
  0
INSERT
  5
7874
330
7471
100
AcDbEntity
  8
AM_5 寸法線
 62
     3
100
AcDbBlockReference
  2
_DotSmall
 10
2789.2641219411
 20
3574.909259667777
 30
0.0
 41
37.5
 42
37.5
 43
37.5
 50
180.0
  0
POINT
  5
7875
330
7471
100
AcDbEntity
  8
Defpoints
 62
     0
100
AcDbPoint
 10
2624.264121941099
 20
3683.706078241382
 30
0.0
  0
POINT
  5
7876
330
7471
100
AcDbEntity
  8
Defpoints
 62
     0
100
AcDbPoint
 10
2789.2641219411
 20
3683.706078241382
 30
0.0
  0
POINT
  5
7877
330
7471
100
AcDbEntity
  8
Defpoints
 62
     0
100
AcDbPoint
 10
2789.2641219411
 20
3574.909259667777
 30
0.0
  0
ENDBLK
  5
7473
330
7471
100
AcDbEntity
  8
0
100
AcDbBlockEnd
  0
BLOCK
  5
74A0
330
749F
100
AcDbEntity
  8
0
100
AcDbBlockBegin
  2
*D28
 70
     1
 10
0.0
 20
0.0
 30
0.0
  3
*D28
  1

  0
LINE
  5
7878
330
749F
100
AcDbEntity
  8
AM_5 寸法線
 62
     3
100
AcDbLine
 10
2789.2641219411
 20
3673.831078241382
 30
0.0
 11
2789.2641219411
 21
3565.534259667777
 31
0.0
  0
LINE
  5
7879
330
749F
100
AcDbEntity
  8
AM_5 寸法線
 62
     3
100
AcDbLine
 10
2954.2641219411
 20
3668.331078241382
 30
0.0
 11
2954.2641219411
 21
3565.534259667777
 31
0.0
  0
LINE
  5
787A
330
749F
100
AcDbEntity
  8
AM_5 寸法線
 62
     3
100
AcDbLine
 10
2789.2641219411
 20
3574.909259667776
 30
0.0
 11
2751.764121941099
 21
3574.909259667776
 31
0.0
  0
LINE
  5
787B
330
749F
100
AcDbEntity
  8
AM_5 寸法線
 62
     3
100
AcDbLine
 10
2991.7641219411
 20
3574.909259667776
 30
0.0
 11
3029.2641219411
 21
3574.909259667776
 31
0.0
  0
MTEXT
  5
787C
330
749F
100
AcDbEntity
  8
AM_5 寸法線
 62
     3
100
AcDbMText
 10
2864.854612180105
 20
3615.063171574715
 30
0.0
 40
52.5
 41
0.0
 46
0.0
 71
     5
 72
     1
  1
165
  7
SEISA
 73
     1
 44
1.0
  0
LINE
  5
787D
330
749F
100
AcDbEntity
  8
AM_5 寸法線
 62
     3
100
AcDbLine
 10
2789.2641219411
 20
3574.909259667776
 30
0.0
 11
2954.2641219411
 21
3574.909259667776
 31
0.0
  0
INSERT
  5
787E
330
749F
100
AcDbEntity
  8
AM_5 寸法線
 62
     3
100
AcDbBlockReference
  2
_DotSmall
 10
2789.2641219411
 20
3574.909259667776
 30
0.0
 41
37.5
 42
37.5
 43
37.5
  0
INSERT
  5
787F
330
749F
100
AcDbEntity
  8
AM_5 寸法線
 62
     3
100
AcDbBlockReference
  2
_Open30
 10
2954.2641219411
 20
3574.909259667776
 30
0.0
 41
37.5
 42
37.5
 43
37.5
 50
180.0
  0
POINT
  5
7880
330
749F
100
AcDbEntity
  8
Defpoints
 62
     0
100
AcDbPoint
 10
2789.2641219411
 20
3683.206078241382
 30
0.0
  0
POINT
  5
7881
330
749F
100
AcDbEntity
  8
Defpoints
 62
     0
100
AcDbPoint
 10
2954.2641219411
 20
3677.706078241382
 30
0.0
  0
POINT
  5
7882
330
749F
100
AcDbEntity
  8
Defpoints
 62
     0
100
AcDbPoint
 10
2954.2641219411
 20
3574.909259667776
 30
0.0
  0
ENDBLK
  5
74A1
330
749F
100
AcDbEntity
  8
0
100
AcDbBlockEnd
  0
BLOCK
  5
7744
330
7742
100
AcDbEntity
  8
0
100
AcDbBlockBegin
  2
_DotSmall
 70
     0
 10
0.0
 20
0.0
 30
0.0
  3
_DotSmall
  1

  0
LWPOLYLINE
  5
7743
330
7742
100
AcDbEntity
  8
0
  6
ByBlock
 62
     0
100
AcDbPolyline
 90
        2
 70
     1
 43
0.5
 10
-0.0625
 20
0.0
 42
1.0
 10
0.0625
 20
0.0
 42
1.0
  0
ENDBLK
  5
7745
330
7742
100
AcDbEntity
  8
0
100
AcDbBlockEnd
  0
BLOCK
  5
7844
330
7843
100
AcDbEntity
  8
0
100
AcDbBlockBegin
  2
センタB CCMH1250
 70
     0
 10
0.0
 20
0.0
 30
0.0
  3
センタB CCMH1250
  1

  0
LINE
  5
7846
330
7843
100
AcDbEntity
  8
AM_0 外形線1
100
AcDbLine
 10
-690.0
 20
175.5
 30
0.0
 11
-425.0
 21
175.5
 31
0.0
  0
LINE
  5
7847
330
7843
100
AcDbEntity
  8
AM_0 外形線1
100
AcDbLine
 10
-425.0
 20
-780.5
 30
0.0
 11
-690.0
 21
-780.5
 31
0.0
  0
LINE
  5
7848
330
7843
100
AcDbEntity
  8
AM_0 外形線1
100
AcDbLine
 10
-710.0
 20
-55.0
 30
0.0
 11
-710.0
 21
-302.5
 31
0.0
  0
LINE
  5
7849
330
7843
100
AcDbEntity
  8
AM_0 外形線1
100
AcDbLine
 10
-710.0
 20
-760.5
 30
0.0
 11
-710.0
 21
155.5
 31
0.0
  0
ARC
  5
784A
330
7843
100
AcDbEntity
  8
AM_0 外形線1
100
AcDbCircle
 10
-690.0
 20
-760.5
 30
0.0
 40
20.0
100
AcDbArc
 50
180.0
 51
270.0
  0
LINE
  5
784B
330
7843
100
AcDbEntity
  8
AM_3 隠れ線
100
AcDbLine
 10
-710.0
 20
-281.5
 30
0.0
 11
-633.0
 21
-281.5
 31
0.0
  0
LINE
  5
784C
330
7843
100
AcDbEntity
  8
AM_3 隠れ線
100
AcDbLine
 10
-710.0
 20
-283.75
 30
0.0
 11
-616.0
 21
-283.75
 31
0.0
  0
LINE
  5
784D
330
7843
100
AcDbEntity
  8
AM_3 隠れ線
100
AcDbLine
 10
-633.0
 20
-281.5
 30
0.0
 11
-631.7009619999999
 21
-283.75
 31
0.0
  0
LINE
  5
784E
330
7843
100
AcDbEntity
  8
AM_3 隠れ線
100
AcDbLine
 10
-633.0
 20
-302.5
 30
0.0
 11
-633.0
 21
-281.5
 31
0.0
  0
LINE
  5
784F
330
7843
100
AcDbEntity
  8
AM_3 隠れ線
100
AcDbLine
 10
-631.7009619999999
 20
-283.75
 30
0.0
 11
-631.7009619999999
 21
-302.5
 31
0.0
  0
LINE
  5
7850
330
7843
100
AcDbEntity
  8
AM_3 隠れ線
100
AcDbLine
 10
-616.0
 20
-283.75
 30
0.0
 11
-605.1746819999988
 21
-302.5
 31
0.0
  0
LINE
  5
7851
330
7843
100
AcDbEntity
  8
AM_3 隠れ線
100
AcDbLine
 10
-616.0
 20
-283.75
 30
0.0
 11
-616.0
 21
-302.5
 31
0.0
  0
ARC
  5
7852
330
7843
100
AcDbEntity
  8
AM_0 外形線1
100
AcDbCircle
 10
-690.0
 20
155.5
 30
0.0
 40
20.0
100
AcDbArc
 50
90.0
 51
180.0
  0
LINE
  5
7853
330
7843
100
AcDbEntity
  8
AM_0 外形線1
100
AcDbLine
 10
0.0
 20
172.0
 30
0.0
 11
0.0
 21
-302.5
 31
0.0
  0
LINE
  5
7854
330
7843
100
AcDbEntity
  8
AM_3 隠れ線
100
AcDbLine
 10
0.0
 20
-283.75
 30
0.0
 11
-94.0
 21
-283.75
 31
0.0
  0
LINE
  5
7855
330
7843
100
AcDbEntity
  8
AM_3 隠れ線
100
AcDbLine
 10
0.0
 20
-281.5
 30
0.0
 11
-77.0
 21
-281.5
 31
0.0
  0
LINE
  5
7856
330
7843
100
AcDbEntity
  8
AM_0 外形線1
100
AcDbLine
 10
-425.0
 20
-780.5
 30
0.0
 11
-425.0
 21
-302.5
 31
0.0
  0
LINE
  5
7857
330
7843
100
AcDbEntity
  8
AM_0 外形線1
100
AcDbLine
 10
-419.0
 20
-782.5
 30
0.0
 11
-419.0
 21
-302.5
 31
0.0
  0
LINE
  5
7858
330
7843
100
AcDbEntity
  8
AM_0 外形線1
100
AcDbLine
 10
-379.0
 20
-782.5
 30
0.0
 11
-419.0
 21
-782.5
 31
0.0
  0
LINE
  5
7859
330
7843
100
AcDbEntity
  8
AM_0 外形線1
100
AcDbLine
 10
-419.0
 20
-782.5
 30
0.0
 11
-425.0
 21
-780.5
 31
0.0
  0
LINE
  5
785A
330
7843
100
AcDbEntity
  8
AM_3 隠れ線
100
AcDbLine
 10
-94.0
 20
-283.75
 30
0.0
 11
-104.8253169999998
 21
-302.5
 31
0.0
  0
LINE
  5
785B
330
7843
100
AcDbEntity
  8
AM_3 隠れ線
100
AcDbLine
 10
-94.0
 20
-283.75
 30
0.0
 11
-94.0
 21
-302.5
 31
0.0
  0
LINE
  5
785C
330
7843
100
AcDbEntity
  8
AM_0 外形線1
100
AcDbLine
 10
-77.0
 20
-281.5
 30
0.0
 11
-78.2990379999992
 21
-283.75
 31
0.0
  0
LINE
  5
785D
330
7843
100
AcDbEntity
  8
AM_3 隠れ線
100
AcDbLine
 10
-78.2990379999992
 20
-283.75
 30
0.0
 11
-78.2990379999992
 21
-302.5
 31
0.0
  0
LINE
  5
785E
330
7843
100
AcDbEntity
  8
AM_3 隠れ線
100
AcDbLine
 10
-77.0
 20
-302.5
 30
0.0
 11
-77.0
 21
-281.5
 31
0.0
  0
LINE
  5
785F
330
7843
100
AcDbEntity
  8
AM_0 外形線1
100
AcDbLine
 10
-164.5
 20
177.0
 30
0.0
 11
-5.0
 21
177.0
 31
0.0
  0
ARC
  5
7860
330
7843
100
AcDbEntity
  8
AM_0 外形線1
100
AcDbCircle
 10
-247.5
 20
-302.5
 30
0.0
 40
515.5
100
AcDbArc
 50
81.01597500000345
 51
98.98402499999654
  0
LINE
  5
7861
330
7843
100
AcDbEntity
  8
AM_0 外形線1
100
AcDbLine
 10
-419.0
 20
177.5
 30
0.0
 11
-330.5
 21
177.5
 31
0.0
  0
LINE
  5
7862
330
7843
100
AcDbEntity
  8
AM_0 外形線1
100
AcDbLine
 10
-425.0
 20
175.5
 30
0.0
 11
-419.0
 21
177.5
 31
0.0
  0
LINE
  5
7863
330
7843
100
AcDbEntity
  8
AM_0 外形線1
100
AcDbLine
 10
-330.0
 20
204.355579
 30
0.0
 11
-328.0
 21
206.6758049999998
 31
0.0
  0
LINE
  5
7864
330
7843
100
AcDbEntity
  8
AM_0 外形線1
100
AcDbLine
 10
-330.0
 20
178.0
 30
0.0
 11
-330.0
 21
204.355579
 31
0.0
  0
LINE
  5
7865
330
7843
100
AcDbEntity
  8
AM_7 中心線
100
AcDbLine
 10
-247.5
 20
218.0
 30
0.0
 11
-247.5
 21
184.5
 31
0.0
  0
ARC
  5
7866
330
7843
100
AcDbEntity
  8
AM_0 外形線1
100
AcDbCircle
 10
-164.5
 20
177.5
 30
0.0
 40
0.5
100
AcDbArc
 50
180.0
 51
270.0
  0
LINE
  5
7867
330
7843
100
AcDbEntity
  8
AM_0 外形線1
100
AcDbLine
 10
-165.0
 20
204.355579
 30
0.0
 11
-165.0
 21
177.5
 31
0.0
  0
LINE
  5
7868
330
7843
100
AcDbEntity
  8
AM_0 外形線1
100
AcDbLine
 10
-167.0
 20
206.6758049999998
 30
0.0
 11
-165.0
 21
204.355579
 31
0.0
  0
LINE
  5
7869
330
7843
100
AcDbEntity
  8
AM_0 外形線1
100
AcDbLine
 10
-5.0
 20
177.0
 30
0.0
 11
0.0
 21
172.0
 31
0.0
  0
LINE
  5
786A
330
7843
100
AcDbEntity
  8
AM_0 外形線1
100
AcDbLine
 10
-710.0
 20
0.0000000000009095
 30
0.0
 11
0.0
 21
0.0
 31
0.0
  0
ARC
  5
786B
330
7843
100
AcDbEntity
  8
AM_0 外形線1
100
AcDbCircle
 10
-247.5
 20
-302.5
 30
0.0
 40
492.0
100
AcDbArc
 50
80.34687323746771
 51
99.65312676253226
  0
ARC
  5
786C
330
7843
100
AcDbEntity
  8
AM_7 中心線
100
AcDbCircle
 10
-247.5
 20
-302.5
 30
0.0
 40
504.0
100
AcDbArc
 50
79.5378295705635
 51
99.99019643164322
  0
ENDBLK
  5
7845
330
7843
100
AcDbEntity
  8
0
100
AcDbBlockEnd
  0
ENDSEC
  0
SECTION
  2
ENTITIES
  0
LINE
  5
45A4
330
1F
100
AcDbEntity
  8
AM_7 中心線
100
AcDbLine
 10
2183.23971896689
 20
3203.206078241382
 30
0.0
 11
3741.944734526516
 21
3203.206078241382
 31
0.0
  0
LINE
  5
45B8
330
1F
100
AcDbEntity
  8
AM_0 外形線1
100
AcDbLine
 10
2974.2641219411
 20
3203.206078241382
 30
0.0
 11
2974.2641219411
 21
2580.206078241384
 31
0.0
  0
LINE
  5
4696
330
1F
100
AcDbEntity
  8
AM_0 外形線1
100
AcDbLine
 10
3034.264121941099
 20
3813.206078241382
 30
0.0
 11
2974.2641219411
 21
3813.206078241382
 31
0.0
  0
LINE
  5
469A
330
1F
100
AcDbEntity
  8
AM_0 外形線1
100
AcDbLine
 10
2918.264121941099
 20
3775.206078241382
 30
0.0
 11
3031.2641219411
 21
3775.206078241382
 31
0.0
  0
LINE
  5
469B
330
1F
100
AcDbEntity
  8
AM_0 外形線1
100
AcDbLine
 10
3031.2641219411
 20
3813.206078241382
 30
0.0
 11
2918.264121941099
 21
3813.206078241382
 31
0.0
  0
LINE
  5
46AA
330
1F
100
AcDbEntity
  8
AM_0 外形線1
100
AcDbLine
 10
2914.2641219411
 20
3813.206078241382
 30
0.0
 11
2974.2641219411
 21
3813.206078241382
 31
0.0
  0
LINE
  5
46AF
330
1F
100
AcDbEntity
  8
AM_0 外形線1
100
AcDbLine
 10
2914.2641219411
 20
3826.206078241382
 30
0.0
 11
2914.2641219411
 21
3813.206078241382
 31
0.0
  0
LINE
  5
46B0
330
1F
100
AcDbEntity
  8
AM_0 外形線1
100
AcDbLine
 10
2916.264121941099
 20
3828.206078241382
 30
0.0
 11
2914.2641219411
 21
3826.206078241382
 31
0.0
  0
LINE
  5
46C3
330
1F
100
AcDbEntity
  8
AM_0 外形線1
100
AcDbLine
 10
2974.2641219411
 20
3813.206078241382
 30
0.0
 11
2974.2641219411
 21
3826.206078241382
 31
0.0
  0
LINE
  5
46C5
330
1F
100
AcDbEntity
  8
AM_0 外形線1
100
AcDbLine
 10
2974.2641219411
 20
3813.206078241382
 30
0.0
 11
2974.2641219411
 21
3826.206078241382
 31
0.0
  0
LINE
  5
46C7
330
1F
100
AcDbEntity
  8
AM_0 外形線1
100
AcDbLine
 10
2974.2641219411
 20
3813.206078241382
 30
0.0
 11
2974.2641219411
 21
3826.206078241382
 31
0.0
  0
LINE
  5
4759
330
1F
100
AcDbEntity
  8
AM_0 外形線1
100
AcDbLine
 10
3704.2641219411
 20
3450.706078241382
 30
0.0
 11
3704.2641219411
 21
3203.206078241382
 31
0.0
  0
INSERT
  5
5010
102
{ACAD_REACTORS
330
5B61
102
}
330
1F
100
AcDbEntity
  8
AM_0 外形線1
100
AcDbBlockReference
  2
ケースＢ CCMH1250
 10
2974.2641219411
 20
3203.206078241382
 30
0.0
  0
INSERT
  5
5119
102
{ACAD_REACTORS
330
59B1
330
59C9
330
5C4E
330
6E8D
102
}
330
1F
100
AcDbEntity
  8
AM_0 外形線1
100
AcDbBlockReference
  2
センタＡ CCMH1250
 10
2994.2641219411
 20
3203.206078241382
 30
0.0
  0
INSERT
  5
5256
330
1F
100
AcDbEntity
  8
AM_0 外形線1
100
AcDbBlockReference
  2
リーマボルト CCMH1250 M36
 10
3034.264121941099
 20
3794.206078241382
 30
0.0
  0
INSERT
  5
5613
102
{ACAD_REACTORS
330
5A89
102
}
330
1F
100
AcDbEntity
  8
AM_0 外形線1
100
AcDbBlockReference
  2
ＧＣサイドカバ－A CCMH1250
 10
3345.264121941099
 20
3203.206078241382
 30
0.0
  0
INSERT
  5
56CC
102
{ACAD_REACTORS
330
5AA1
330
5B45
330
5B61
102
}
330
1F
100
AcDbEntity
  8
AM_0 外形線1
100
AcDbBlockReference
  2
ケースＡ CCMH1250
 10
2974.2641219411
 20
3203.206078241382
 30
0.0
  0
INSERT
  5
57C3
102
{ACAD_REACTORS
330
5957
330
5BEE
102
}
330
1F
100
AcDbEntity
  8
AM_0 外形線1
100
AcDbBlockReference
  2
ＧＣサイドカバ－Ｂ CCMH1250
 10
2603.264121941099
 20
3203.206078241382
 30
0.0
  0
DIMENSION
  5
5900
330
1F
100
AcDbEntity
  8
AM_5 寸法線
100
AcDbDimension
  2
*D15
 10
1944.264121941099
 20
2723.206078241382
 30
0.0
 11
1895.514121941099
 21
3203.206078241382
 31
0.0
 70
    32
  1
%%c<>
 71
     5
 42
960.0
 73
     0
 74
     0
 75
     0
  3
SEISA$0
100
AcDbAlignedDimension
 13
2535.264121941099
 23
3683.206078241382
 33
0.0
 14
2535.264121941099
 24
2723.206078241382
 34
0.0
 50
90.0
100
AcDbRotatedDimension
1001
ACAD_DSTYLE_DIMINSPECT
1070
   396
1000
100%
1070
   395
1000

1070
   394
1070
    33
1070
   393
1070
     0
  0
DIMENSION
  5
593C
102
{ACAD_XDICTIONARY
360
594B
102
}
102
{ACAD_REACTORS
330
5957
102
}
330
1F
100
AcDbEntity
  8
AM_5 寸法線
100
AcDbDimension
  2
*D16
 10
2610.264121941099
 20
3574.909259667774
 30
0.0
 11
2476.764121941099
 21
3623.659259667775
 31
0.0
 70
    32
 71
     5
 42
14.0
 73
     0
 74
     0
 75
     0
  3
SEISA$0
100
AcDbAlignedDimension
 13
2624.264121941099
 23
3683.706078241382
 33
0.0
 14
2610.264121941099
 24
3683.206078241382
 34
0.0
100
AcDbRotatedDimension
1001
ACAD
1000
DSTYLE
1002
{
1070
   344
1005
69
1070
   342
1005
0
1070
   173
1070
     1
1070
   343
1005
7742
1002
}
  0
DIMENSION
  5
597E
330
1F
100
AcDbEntity
  8
AM_5 寸法線
100
AcDbDimension
  2
*D17
 10
2244.264121941099
 20
3295.260504241382
 30
0.0
 11
2599.264121941099
 21
3344.010504241382
 31
0.0
 70
    32
 71
     5
 42
710.0
 73
     0
 74
     0
 75
     0
  3
SEISA$0
100
AcDbAlignedDimension
 13
2954.2641219411
 23
3203.206078241382
 33
0.0
 14
2244.264121941099
 24
3203.206078241382
 34
0.0
100
AcDbRotatedDimension
  0
DIMENSION
  5
5996
102
{ACAD_XDICTIONARY
360
59A5
102
}
102
{ACAD_REACTORS
330
59B1
102
}
330
1F
100
AcDbEntity
  8
AM_5 寸法線
100
AcDbDimension
  2
*D18
 10
2954.2641219411
 20
3295.260504241382
 30
0.0
 11
3072.878070819476
 21
3341.908090158091
 31
0.0
 70
   160
 71
     5
 42
40.0
 73
     0
 74
     0
 75
     0
  3
SEISA$0
100
AcDbAlignedDimension
 13
2994.2641219411
 23
3203.206078241382
 33
0.0
 14
2954.2641219411
 24
3203.206078241382
 34
0.0
100
AcDbRotatedDimension
1001
ACAD
1000
DSTYLE
1002
{
1070
   279
1070
     2
1002
}
  0
DIMENSION
  5
59B2
102
{ACAD_XDICTIONARY
360
59BF
102
}
102
{ACAD_REACTORS
330
59C9
102
}
330
1F
100
AcDbEntity
  8
AM_5 寸法線
100
AcDbDimension
  2
*D19
 10
3704.2641219411
 20
3295.260504241382
 30
0.0
 11
3349.264121941099
 21
3344.010504241382
 31
0.0
 70
    32
 71
     5
 42
710.0
 73
     0
 74
     0
 75
     0
  3
SEISA$0
100
AcDbAlignedDimension
 13
2994.2641219411
 23
3203.206078241382
 33
0.0
 14
3704.2641219411
 24
3203.206078241382
 34
0.0
100
AcDbRotatedDimension
  0
DIMENSION
  5
5A72
102
{ACAD_XDICTIONARY
360
5A7F
102
}
102
{ACAD_REACTORS
330
5A89
102
}
330
1F
100
AcDbEntity
  8
AM_5 寸法線
100
AcDbDimension
  2
*D20
 10
4124.2641219411
 20
2640.206078241382
 30
0.0
 11
4124.264121941099
 21
3203.206078241382
 31
0.0
 70
   160
  1
%%c<>
 71
     5
 42
1125.999999999999
 73
     0
 74
     0
 75
     0
  3
SEISA$0
100
AcDbAlignedDimension
 13
3373.2641219411
 23
3766.206078241382
 33
0.0
 14
3373.2641219411
 24
2640.206078241382
 34
0.0
 50
90.0
100
AcDbRotatedDimension
1001
ACAD_DSTYLE_DIMINSPECT
1070
   396
1000
100%
1070
   395
1000

1070
   394
1070
    33
1070
   393
1070
     0
1001
ACAD
1000
DSTYLE
1002
{
1070
   279
1070
     0
1002
}
  0
DIMENSION
  5
5A8A
102
{ACAD_XDICTIONARY
360
5A97
102
}
102
{ACAD_REACTORS
330
5AA1
102
}
330
1F
100
AcDbEntity
  8
AM_5 寸法線
100
AcDbDimension
  2
*D21
 10
4244.2641219411
 20
2578.206078241382
 30
0.0
 11
4244.264121941099
 21
3203.206078241382
 31
0.0
 70
   160
  1
%%c<>
 71
     5
 42
1250.0
 73
     0
 74
     0
 75
     0
  3
SEISA$0
100
AcDbAlignedDimension
 13
3032.264121941099
 23
3828.206078241382
 33
0.0
 14
3032.264121941099
 24
2578.206078241382
 34
0.0
 50
90.0
100
AcDbRotatedDimension
1001
ACAD_DSTYLE_DIMINSPECT
1070
   396
1000
100%
1070
   395
1000

1070
   394
1070
    33
1070
   393
1070
     0
1001
ACAD
1000
DSTYLE
1002
{
1070
   279
1070
     0
1002
}
  0
DIMENSION
  5
5B2A
102
{ACAD_XDICTIONARY
360
5B39
102
}
102
{ACAD_REACTORS
330
5B45
102
}
330
1F
100
AcDbEntity
  8
AM_5 寸法線
100
AcDbDimension
  2
*D22
 10
3034.264121941099
 20
2353.206078241382
 30
0.0
 11
3168.889121941099
 21
2401.956078241382
 31
0.0
 70
    32
 71
     5
 42
60.00000000000046
 73
     0
 74
     0
 75
     0
  3
SEISA$0
100
AcDbAlignedDimension
 13
2974.2641219411
 23
2580.206078241384
 33
0.0
 14
3034.264121941099
 24
2580.206078241384
 34
0.0
100
AcDbRotatedDimension
1001
ACAD_DSTYLE_DIMINSPECT
1070
   396
1000
100%
1070
   395
1000

1070
   394
1070
    33
1070
   393
1070
     0
1001
ACAD
1000
DSTYLE
1002
{
1070
   173
1070
     1
1070
   342
1005
0
1070
   343
1005
3B89
1070
   344
1005
69
1002
}
  0
DIMENSION
  5
5B46
102
{ACAD_XDICTIONARY
360
5B55
102
}
102
{ACAD_REACTORS
330
5B61
102
}
330
1F
100
AcDbEntity
  8
AM_5 寸法線
100
AcDbDimension
  2
*D23
 10
2914.2641219411
 20
2353.206078241382
 30
0.0
 11
2779.639121941099
 21
2401.956078241382
 31
0.0
 70
    32
 71
     5
 42
60.0
 73
     0
 74
     0
 75
     0
  3
SEISA$0
100
AcDbAlignedDimension
 13
2974.2641219411
 23
2580.206078241384
 33
0.0
 14
2914.2641219411
 24
2580.206078241384
 34
0.0
100
AcDbRotatedDimension
1001
ACAD_DSTYLE_DIMINSPECT
1070
   396
1000
100%
1070
   395
1000

1070
   394
1070
    33
1070
   393
1070
     0
1001
ACAD
1000
DSTYLE
1002
{
1070
   173
1070
     1
1070
   342
1005
0
1070
   343
1005
3B89
1070
   344
1005
69
1002
}
  0
DIMENSION
  5
5BD7
102
{ACAD_XDICTIONARY
360
5BE4
102
}
102
{ACAD_REACTORS
330
5BEE
102
}
330
1F
100
AcDbEntity
  8
AM_5 寸法線
100
AcDbDimension
  2
*D24
 10
2575.264121941099
 20
2233.206078241382
 30
0.0
 11
2974.2641219411
 21
2281.956078241382
 31
0.0
 70
    32
 71
     5
 42
798.0
 73
     0
 74
     0
 75
     0
  3
SEISA$0
100
AcDbAlignedDimension
 13
3373.2641219411
 23
2640.206078241382
 33
0.0
 14
2575.264121941099
 24
2640.206078241382
 34
0.0
100
AcDbRotatedDimension
  0
DIMENSION
  5
5C37
102
{ACAD_XDICTIONARY
360
5C44
102
}
102
{ACAD_REACTORS
330
5C4E
102
}
330
1F
100
AcDbEntity
  8
AM_5 寸法線
100
AcDbDimension
  2
*D25
 10
3704.2641219411
 20
2113.206078241383
 30
0.0
 11
2974.2641219411
 21
2161.956078241383
 31
0.0
 70
    32
 71
     5
 42
1460.0
 73
     0
 74
     0
 75
     0
  3
SEISA$0
100
AcDbAlignedDimension
 13
2244.264121941099
 23
2745.206078241383
 33
0.0
 14
3704.2641219411
 24
2745.206078241383
 34
0.0
100
AcDbRotatedDimension
  0
DIMENSION
  5
6E76
102
{ACAD_XDICTIONARY
360
6E83
102
}
102
{ACAD_REACTORS
330
6E8D
102
}
330
1F
100
AcDbEntity
  8
AM_5 寸法線
100
AcDbDimension
  2
*D26
 10
4004.264121941099
 20
2723.206078241382
 30
0.0
 11
3955.514121941098
 21
3203.206078241382
 31
0.0
 70
    32
  1
%%c<>
 71
     5
 42
960.0
 73
     0
 74
     0
 75
     0
  3
SEISA$0
100
AcDbAlignedDimension
 13
3413.264121941099
 23
3683.206078241382
 33
0.0
 14
3413.264121941099
 24
2723.206078241382
 34
0.0
 50
90.0
100
AcDbRotatedDimension
1001
ACAD_DSTYLE_DIMINSPECT
1070
   396
1000
100%
1070
   395
1000

1070
   394
1070
    33
1070
   393
1070
     0
  0
ARC
  5
73CB
330
1F
100
AcDbEntity
  8
AM_0 外形線1
100
AcDbCircle
 10
2623.764121941099
 20
3683.706078241382
 30
0.0
 40
0.5
100
AcDbArc
 50
270.0
 51
0.0
  0
TEXT
  5
73FD
330
1F
100
AcDbEntity
  8
AM_6 文字
100
AcDbText
 10
3997.084787499875
 20
2218.434141241826
 30
0.0
 40
27.8904
  1
　
 41
0.9
  7
SEISA
100
AcDbText
  0
TEXT
  5
73FE
330
1F
100
AcDbEntity
  8
AM_6 文字
100
AcDbText
 10
4024.098632071303
 20
2193.082232481826
 30
0.0
 40
60.00061752
  1
 
 41
0.1
  7
SEISA
100
AcDbText
  0
TEXT
  5
7401
330
1F
100
AcDbEntity
  8
AM_6 文字
100
AcDbText
 10
4678.612979537589
 20
2218.452141241826
 30
0.0
 40
27.7824
  1
 
 41
0.9
  7
SEISA
100
AcDbText
  0
TEXT
  5
7404
330
1F
100
AcDbEntity
  8
AM_6 文字
100
AcDbText
 10
4018.684787499874
 20
2093.082026641826
 30
0.0
 40
60.0
  1
 
 41
0.2
  7
SEISA
100
AcDbText
  0
TEXT
  5
7406
330
1F
100
AcDbEntity
  8
AM_6 文字
100
AcDbText
 10
4095.484787499874
 20
2093.082026641826
 30
0.0
 40
60.0
  1
 
 41
0.8
  7
SEISA
100
AcDbText
  0
TEXT
  5
7408
330
1F
100
AcDbEntity
  8
AM_6 文字
100
AcDbText
 10
4478.79907321416
 20
2093.082026641826
 30
0.0
 40
60.0
  1
　
 41
0.7
  7
SEISA
100
AcDbText
  0
TEXT
  5
7409
330
1F
100
AcDbEntity
  8
AM_6 文字
100
AcDbText
 10
4529.199073214158
 20
2093.082026641826
 30
0.0
 40
60.0
  1
　　
 41
0.9
  7
SEISA
100
AcDbText
  0
TEXT
  5
740A
330
1F
100
AcDbEntity
  8
AM_6 文字
100
AcDbText
 10
4658.79907321416
 20
2093.082026641826
 30
0.0
 40
60.0
  1
 
 41
0.6
  7
SEISA
100
AcDbText
  0
MTEXT
  5
746A
330
1F
100
AcDbEntity
  8
AM_6 文字
100
AcDbMText
 10
3781.895232883071
 20
2481.68595752229
 30
0.0
 40
52.5
 41
1089.718499034586
 46
253.846415617505
 71
     1
 72
     5
  1
{\W0.6;TYPE:CCM1250/CCMH1250\PSHAFT DIA:MAX/MIN φ710/φ500}
  7
SEISA
 73
     1
 44
1.0
  0
DIMENSION
  5
7470
330
1F
100
AcDbEntity
  8
AM_5 寸法線
100
AcDbDimension
  2
*D27
 10
2789.2641219411
 20
3574.909259667777
 30
0.0
 11
2698.614566468384
 21
3619.554484732127
 31
0.0
 70
   160
 71
     5
 42
165.0
 73
     0
 74
     0
 75
     0
  3
SEISA$0
100
AcDbAlignedDimension
 13
2624.264121941099
 23
3683.706078241382
 33
0.0
 14
2789.2641219411
 24
3683.706078241382
 34
0.0
 50
0.0000000000001132
100
AcDbRotatedDimension
1001
ACAD_DSTYLE_DIMINSPECT
1070
   396
1000
100%
1070
   395
1000

1070
   394
1070
    33
1070
   393
1070
     0
1001
ACAD
1000
DSTYLE
1002
{
1070
   173
1070
     1
1070
   279
1070
     2
1070
   342
1005
0
1070
   343
1005
7742
1070
   344
1005
7742
1002
}
  0
DIMENSION
  5
749E
330
1F
100
AcDbEntity
  8
AM_5 寸法線
100
AcDbDimension
  2
*D28
 10
2954.2641219411
 20
3574.909259667776
 30
0.0
 11
2864.854612180105
 21
3615.063171574715
 31
0.0
 70
   160
 71
     5
 42
165.0
 73
     0
 74
     0
 75
     0
  3
SEISA$0
100
AcDbAlignedDimension
 13
2789.2641219411
 23
3683.206078241382
 33
0.0
 14
2954.2641219411
 24
3677.706078241382
 34
0.0
 50
0.0000000000001132
100
AcDbRotatedDimension
1001
ACAD_DSTYLE_DIMINSPECT
1070
   396
1000
100%
1070
   395
1000

1070
   394
1070
    33
1070
   393
1070
     0
1001
ACAD
1000
DSTYLE
1002
{
1070
   343
1005
7742
1070
   342
1005
0
1070
   173
1070
     1
1070
   344
1005
69
1070
   279
1070
     2
1002
}
  0
INSERT
  5
7883
330
1F
100
AcDbEntity
  8
AM_0 外形線1
100
AcDbBlockReference
  2
センタB CCMH1250
 10
2954.2641219411
 20
3505.706078241382
 30
0.0
  0
ENDSEC
  0
SECTION
  2
OBJECTS
  0
DICTIONARY
  5
C
330
0
100
AcDbDictionary
281
     1
  3
ACAD_COLOR
350
C5
  3
ACAD_GROUP
350
D
  3
ACAD_LAYOUT
350
1A
  3
ACAD_MATERIAL
350
C4
  3
ACAD_MLEADERSTYLE
350
2D5
  3
ACAD_MLINESTYLE
350
17
  3
ACAD_PLOTSETTINGS
350
19
  3
ACAD_PLOTSTYLENAME
350
E
  3
ACAD_SCALELIST
350
2B3
  3
ACAD_TABLESTYLE
350
121
  3
ACAD_VISUALSTYLE
350
27F
  3
ACDB_RECOMPOSE_DATA
350
2F7
  3
AcDbVariableDictionary
350
34
  3
AcmDictionary
350
49
  3
AMG
350
2B
  3
AMGSNAPSETTINGS
350
1DE
  0
DICTIONARY
  5
BF
330
2
100
AcDbDictionary
280
     1
281
     1
  3
ACAD_LAYERSTATES
360
3C6F
  3
AMLAYER_GROUPCOLORS
360
C0
  0
DICTIONARY
  5
29F7
330
10
100
AcDbDictionary
280
     1
281
     1
  3
ADSK_XREC_LAYER_RECONCILED
360
29F8
  0
DICTIONARY
  5
29F9
330
81
100
AcDbDictionary
280
     1
281
     1
  3
ADSK_XREC_LAYER_RECONCILED
360
29FA
  0
DICTIONARY
  5
82
330
1F
100
AcDbDictionary
280
     1
281
     1
  3
ACAD_SORTENTS
360
A41
  0
DICTIONARY
  5
4DAB
330
4D7D
100
AcDbDictionary
280
     1
281
     1
  3
ACAD_SORTENTS
360
6AA8
  0
DICTIONARY
  5
4EED
330
4E24
100
AcDbDictionary
280
     1
281
     1
  3
ACAD_SORTENTS
360
6B48
  0
DICTIONARY
  5
4F66
330
4F38
100
AcDbDictionary
280
     1
281
     1
  3
ACAD_SORTENTS
360
6AC7
  0
DICTIONARY
  5
5094
330
4FD7
100
AcDbDictionary
280
     1
281
     1
  3
ACAD_SORTENTS
360
6BC5
  0
DICTIONARY
  5
6C20
330
50EB
100
AcDbDictionary
280
     1
281
     1
  3
ACAD_SORTENTS
360
7842
  0
DICTIONARY
  5
52BB
330
5227
100
AcDbDictionary
280
     1
281
     1
  3
ACAD_SORTENTS
360
6D59
  0
DICTIONARY
  5
570C
330
55D9
100
AcDbDictionary
280
     1
281
     1
  3
ACAD_SORTENTS
360
6DD0
  0
DICTIONARY
  5
5839
330
578B
100
AcDbDictionary
280
     1
281
     1
  3
ACAD_SORTENTS
360
6E45
  0
DICTIONARY
  5
594B
330
593C
100
AcDbDictionary
280
     1
281
     1
  3
ACAD_DIMASSOC
360
5957
  0
DICTIONARY
  5
59A5
330
5996
100
AcDbDictionary
280
     1
281
     1
  3
ACAD_DIMASSOC
360
59B1
  0
DICTIONARY
  5
59BF
330
59B2
100
AcDbDictionary
280
     1
281
     1
  3
ACAD_DIMASSOC
360
59C9
  0
DICTIONARY
  5
5A7F
330
5A72
100
AcDbDictionary
280
     1
281
     1
  3
ACAD_DIMASSOC
360
5A89
  0
DICTIONARY
  5
5A97
330
5A8A
100
AcDbDictionary
280
     1
281
     1
  3
ACAD_DIMASSOC
360
5AA1
  0
DICTIONARY
  5
5B39
330
5B2A
100
AcDbDictionary
280
     1
281
     1
  3
ACAD_DIMASSOC
360
5B45
  0
DICTIONARY
  5
5B55
330
5B46
100
AcDbDictionary
280
     1
281
     1
  3
ACAD_DIMASSOC
360
5B61
  0
DICTIONARY
  5
5BE4
330
5BD7
100
AcDbDictionary
280
     1
281
     1
  3
ACAD_DIMASSOC
360
5BEE
  0
DICTIONARY
  5
5C44
330
5C37
100
AcDbDictionary
280
     1
281
     1
  3
ACAD_DIMASSOC
360
5C4E
  0
DICTIONARY
  5
6E83
330
6E76
100
AcDbDictionary
280
     1
281
     1
  3
ACAD_DIMASSOC
360
6E8D
  0
DICTIONARY
  5
C5
102
{ACAD_REACTORS
330
C
102
}
330
C
100
AcDbDictionary
281
     1
  0
DICTIONARY
  5
D
102
{ACAD_REACTORS
330
C
102
}
330
C
100
AcDbDictionary
281
     1
  0
DICTIONARY
  5
1A
102
{ACAD_REACTORS
330
C
102
}
330
C
100
AcDbDictionary
281
     1
  3
Model
350
22
  3
レイアウト1
350
1E
  3
レイアウト2
350
26
  0
DICTIONARY
  5
C4
102
{ACAD_REACTORS
330
C
102
}
330
C
100
AcDbDictionary
281
     1
  3
ByBlock
350
27D
  3
ByLayer
350
27C
  3
Global
350
27E
  0
DICTIONARY
  5
2D5
102
{ACAD_REACTORS
330
C
102
}
330
C
100
AcDbDictionary
281
     1
  3
Standard
350
2D6
  0
DICTIONARY
  5
17
102
{ACAD_REACTORS
330
C
102
}
330
C
100
AcDbDictionary
281
     1
  3
Standard
350
18
  0
DICTIONARY
  5
19
102
{ACAD_REACTORS
330
C
102
}
330
C
100
AcDbDictionary
281
     1
  3
SEISA基本
350
1C7E
  0
ACDBDICTIONARYWDFLT
  5
E
102
{ACAD_REACTORS
330
C
102
}
330
C
100
AcDbDictionary
281
     1
  3
Normal
350
F
100
AcDbDictionaryWithDefault
340
F
  0
DICTIONARY
  5
2B3
102
{ACAD_REACTORS
330
C
102
}
330
C
100
AcDbDictionary
281
     1
  3
*A1
350
2A04
  3
*A2
350
7454
  3
*A3
350
7455
  3
*A4
350
7456
  3
*A5
350
7457
  3
A0
350
2B4
  3
A1
350
2B5
  3
A2
350
2B6
  3
A3
350
2B7
  3
A4
350
2B8
  3
A5
350
2B9
  3
A6
350
2BA
  3
A7
350
2BB
  3
A8
350
2BC
  3
A9
350
2BD
  3
B0
350
2BE
  3
B1
350
2BF
  3
B2
350
2C0
  3
B3
350
2C1
  3
B4
350
2C2
  3
B5
350
2C3
  3
B6
350
2C4
  3
B7
350
2C5
  3
B8
350
2C6
  3
B9
350
2C7
  3
C0
350
2C8
  3
C1
350
2C9
  3
C2
350
2CA
  3
C3
350
2CB
  3
C4
350
2CC
  3
C5
350
2CD
  3
C6
350
2CE
  3
C7
350
2CF
  3
C8
350
2D0
  3
C9
350
2D1
  3
D0
350
2D2
  3
D1
350
2D3
  3
D2
350
2D4
  0
DICTIONARY
  5
121
102
{ACAD_REACTORS
330
C
102
}
330
C
100
AcDbDictionary
281
     1
  3
Standard
350
122
  0
DICTIONARY
  5
27F
102
{ACAD_REACTORS
330
C
102
}
330
C
100
AcDbDictionary
281
     1
  3
2dWireframe
350
285
  3
3D Hidden
350
287
  3
3dWireframe
350
286
  3
Basic
350
284
  3
Brighten
350
28B
  3
ColorChange
350
28F
  3
Conceptual
350
288
  3
Dim
350
28A
  3
Facepattern
350
28E
  3
Flat
350
280
  3
FlatWithEdges
350
281
  3
Gouraud
350
282
  3
GouraudWithEdges
350
283
  3
Linepattern
350
28D
  3
Realistic
350
289
  3
Thicken
350
28C
  0
XRECORD
  5
2F7
102
{ACAD_REACTORS
330
C
102
}
330
C
100
AcDbXrecord
280
     1
 90
        1
330
122
  0
DICTIONARY
  5
34
102
{ACAD_REACTORS
330
C
102
}
330
C
100
AcDbDictionary
281
     1
  3
CANNOSCALE
350
2FA
  3
CMLEADERSTYLE
350
2F8
  3
CTABLESTYLE
350
140
  3
DIMASSOC
350
AC
  3
INDEXCTL
350
35
  3
LAYEREVAL
350
6ED9
  3
LAYERNOTIFY
350
6EDA
  3
LIGHTINGUNITS
350
2FB
  3
MSLTSCALE
350
2F9
  0
DICTIONARY
  5
49
102
{ACAD_REACTORS
330
C
102
}
330
C
100
AcDbDictionary
281
     1
  3
AcmBOM
350
161B
  3
AcmStdDictionary
350
4A
  3
AMDTSECTSYM_ARROWCOLOR
350
12B
  0
DICTIONARY
  5
2B
102
{ACAD_REACTORS
330
C
102
}
330
C
100
AcDbDictionary
281
     1
  0
DICTIONARY
  5
1DE
102
{ACAD_REACTORS
330
C
102
}
330
C
100
AcDbDictionary
281
     1
  0
DICTIONARY
  5
3C6F
102
{ACAD_REACTORS
330
BF
102
}
330
BF
100
AcDbDictionary
281
     1
  0
DICTIONARY
  5
C0
102
{ACAD_REACTORS
330
BF
102
}
330
BF
100
AcDbDictionary
280
     1
281
     1
  0
XRECORD
  5
29F8
102
{ACAD_REACTORS
330
29F7
102
}
330
29F7
100
AcDbXrecord
280
     1
290
     1
  0
XRECORD
  5
29FA
102
{ACAD_REACTORS
330
29F9
102
}
330
29F9
100
AcDbXrecord
280
     1
290
     1
  0
SORTENTSTABLE
  5
A41
102
{ACAD_REACTORS
330
82
102
}
330
82
100
AcDbSortentsTable
330
1F
331
45B8
  5
45B8
331
7409
  5
7402
331
46C5
  5
46FF
331
5BD7
  5
63D3
331
7404
  5
73FD
331
59B2
  5
63B3
331
46AA
  5
46C3
331
45A4
  5
45A4
331
5900
  5
6178
331
46AF
  5
46C5
331
5B46
  5
63D0
331
5A8A
  5
63BE
331
5996
  5
63B0
331
740A
  5
7403
331
7401
  5
73FA
331
56CC
  5
6041
331
46C7
  5
4700
331
46B0
  5
46C7
331
7406
  5
73FF
331
57C3
  5
6078
331
46C3
  5
46FE
331
593C
  5
627A
331
597E
  5
63AB
331
5256
  5
6003
331
73CB
  5
5EC7
331
73FD
  5
73D1
331
469A
  5
46AF
331
5C37
  5
63DF
331
5A72
  5
63BB
331
5010
  5
5613
331
5613
  5
600D
331
746A
  5
746A
331
6E76
  5
740B
331
4759
  5
4760
331
5119
  5
56CC
331
469B
  5
46B0
331
5B2A
  5
63C3
331
73FE
  5
73D2
331
4696
  5
46AA
331
7408
  5
7401
  0
SORTENTSTABLE
  5
6AA8
102
{ACAD_REACTORS
330
4DAB
102
}
330
4DAB
100
AcDbSortentsTable
330
4D7D
  0
SORTENTSTABLE
  5
6B48
102
{ACAD_REACTORS
330
4EED
102
}
330
4EED
100
AcDbSortentsTable
330
4E24
331
4E58
  5
4E59
331
4E50
  5
4E51
331
4E31
  5
4E32
331
4E27
  5
4E28
331
4E41
  5
4E42
331
4E51
  5
4E52
331
4E59
  5
4E5A
331
4E42
  5
4E43
331
4E32
  5
4E33
331
4E5A
  5
4E5B
331
4E52
  5
4E53
331
4E33
  5
4E34
331
4E43
  5
4E44
331
4E53
  5
4E54
331
4E5B
  5
4E5D
331
4E44
  5
4E45
331
4E34
  5
4E35
331
4E54
  5
4E55
331
4E35
  5
4E36
331
4E45
  5
4E46
331
4E55
  5
4E56
331
4E5D
  5
4E5E
331
4E46
  5
4E47
331
4E36
  5
4E37
331
4E5E
  5
4E5F
331
4E56
  5
4E57
331
4E37
  5
4E38
331
4E47
  5
4E48
331
4E57
  5
4E58
331
4E28
  5
4E29
331
4E5F
  5
4E60
331
4E48
  5
4E49
331
4E38
  5
4E39
331
4E29
  5
4E2A
331
4E60
  5
4E61
331
4E39
  5
4E3A
331
4E49
  5
4E4A
331
4E2A
  5
4E2B
331
4E61
  5
4E62
331
4E3A
  5
4E3B
331
4E4A
  5
4E4B
331
4E2B
  5
4E2C
331
4E4B
  5
4E4C
331
4E3B
  5
4E3C
331
4E62
  5
4E63
331
4E2C
  5
4E2D
331
4E63
  5
4EEB
331
4E3C
  5
4E3D
331
4E4C
  5
4E4D
331
4E2D
  5
4E2E
331
4EEB
  5
4EEC
331
4E4D
  5
4E4E
331
4E3D
  5
4E3E
331
4EEC
  5
4E27
331
4E2E
  5
4E2F
331
4E3E
  5
4E3F
331
4E4E
  5
4E4F
331
4E2F
  5
4E30
331
4E4F
  5
4E50
331
4E3F
  5
4E40
331
4E40
  5
4E41
331
4E30
  5
4E31
  0
SORTENTSTABLE
  5
6AC7
102
{ACAD_REACTORS
330
4F66
102
}
330
4F66
100
AcDbSortentsTable
330
4F38
  0
SORTENTSTABLE
  5
6BC5
102
{ACAD_REACTORS
330
5094
102
}
330
5094
100
AcDbSortentsTable
330
4FD7
331
4FF7
  5
4FF8
331
500D
  5
500E
331
4FFF
  5
5000
331
5007
  5
5008
331
4FF8
  5
4FF9
331
500E
  5
500F
331
5000
  5
5001
331
4FF9
  5
4FFA
331
500F
  5
5091
331
5001
  5
5002
331
5008
  5
5009
331
4FFA
  5
4FFB
331
5002
  5
5003
331
4FF3
  5
4FF4
331
4FFB
  5
4FFC
331
5009
  5
500A
331
5003
  5
5004
331
5091
  5
5092
331
4FF4
  5
4FF5
331
500A
  5
500B
331
4FFC
  5
4FFD
331
5004
  5
5005
331
5092
  5
4FF3
331
4FF5
  5
4FF6
331
4FFD
  5
4FFE
331
500B
  5
500C
331
5005
  5
5006
331
4FF6
  5
4FF7
331
500C
  5
500D
331
4FFE
  5
4FFF
331
5006
  5
5007
  0
SORTENTSTABLE
  5
7842
102
{ACAD_REACTORS
330
6C20
102
}
330
6C20
100
AcDbSortentsTable
330
50EB
331
5111
  5
5113
331
50F8
  5
50FA
331
76B0
  5
50EE
331
5107
  5
5109
331
5102
  5
5104
331
50F3
  5
50F5
331
510C
  5
510E
331
5112
  5
5114
331
50F4
  5
50F6
331
5117
  5
76B0
331
758C
  5
50EF
331
5103
  5
5105
331
50FE
  5
5100
331
510D
  5
510F
331
5108
  5
510A
331
50F9
  5
50FC
331
50F0
  5
50F2
331
5113
  5
5117
331
50EE
  5
50F0
331
50FA
  5
50FE
331
50F5
  5
50F7
331
5109
  5
510B
331
5104
  5
5106
331
510E
  5
5110
331
50FF
  5
5101
331
5114
  5
758C
331
50F6
  5
50F8
331
50F1
  5
50F3
331
5105
  5
5107
331
5100
  5
5102
331
50EF
  5
50F1
331
510F
  5
5111
331
510A
  5
510C
331
50F2
  5
50F4
331
5101
  5
5103
331
50FC
  5
50FF
331
510B
  5
510D
331
5106
  5
5108
331
50F7
  5
50F9
331
5110
  5
5112
  0
SORTENTSTABLE
  5
6D59
102
{ACAD_REACTORS
330
52BB
102
}
330
52BB
100
AcDbSortentsTable
330
5227
  0
SORTENTSTABLE
  5
6DD0
102
{ACAD_REACTORS
330
570C
102
}
330
570C
100
AcDbSortentsTable
330
55D9
  0
SORTENTSTABLE
  5
6E45
102
{ACAD_REACTORS
330
5839
102
}
330
5839
100
AcDbSortentsTable
330
578B
  0
DIMASSOC
  5
5957
102
{ACAD_REACTORS
330
594B
102
}
330
594B
100
AcDbDimAssoc
330
593C
 90
        2
 70
     0
 71
     0
  1
AcDbOsnapPointRef
 72
     1
331
57C3
331
57B4
 73
     2
 91
        0
 40
1.0
 10
0.0
 20
0.0
 30
2.000000000000000E+50
 75
     0
  0
DIMASSOC
  5
59B1
102
{ACAD_REACTORS
330
59A5
102
}
330
59A5
100
AcDbDimAssoc
330
5996
 90
        1
 70
     0
 71
     0
  1
AcDbOsnapPointRef
 72
     1
331
5119
331
50F0
 73
     2
 91
        0
 40
1.0
 10
0.0
 20
0.0
 30
2.000000000000000E+50
 75
     0
  0
DIMASSOC
  5
59C9
102
{ACAD_REACTORS
330
59BF
102
}
330
59BF
100
AcDbDimAssoc
330
59B2
 90
        3
 70
     0
 71
     0
  1
AcDbOsnapPointRef
 72
     1
331
5119
331
50F0
 73
     2
 91
        0
 40
1.0
 10
0.0
 20
0.0
 30
2.000000000000000E+50
 75
     0
  1
AcDbOsnapPointRef
 72
     2
331
5119
331
5105
 73
     2
 91
        0
 40
0.5
 10
0.0
 20
0.0
 30
0.0
 75
     0
  0
DIMASSOC
  5
5A89
102
{ACAD_REACTORS
330
5A7F
102
}
330
5A7F
100
AcDbDimAssoc
330
5A72
 90
        3
 70
     0
 71
     0
  1
AcDbOsnapPointRef
 72
    13
331
5613
331
560A
 73
     2
 91
        0
 40
0.0
 10
0.0
 20
0.0
 30
2.000000000000000E+50
 75
     0
  1
AcDbOsnapPointRef
 72
    13
331
5613
331
55DF
 73
     2
 91
        0
 40
0.0
 10
0.0
 20
0.0
 30
2.000000000000000E+50
 75
     0
  0
DIMASSOC
  5
5AA1
102
{ACAD_REACTORS
330
5A97
102
}
330
5A97
100
AcDbDimAssoc
330
5A8A
 90
        3
 70
     0
 71
     0
  1
AcDbOsnapPointRef
 72
     1
331
56CC
331
4E39
 73
     2
 91
        0
 40
1.0
 10
0.0
 20
0.0
 30
2.000000000000000E+50
 75
     0
  1
AcDbOsnapPointRef
 72
     8
331
56CC
331
4E29
 73
     2
 91
        0
 40
0.9999999999999918
 10
0.0
 20
0.0
 30
0.0
 75
     1
  1
AcDbOsnapPointRef
 72
     1
331
56CC
331
4E39
 73
     2
 91
        0
 40
1.0
 10
0.0
 20
0.0
 30
2.000000000000000E+50
 75
     0
  0
DIMASSOC
  5
5B45
102
{ACAD_REACTORS
330
5B39
102
}
330
5B39
100
AcDbDimAssoc
330
5B2A
 90
        3
 70
     0
 71
     0
  1
AcDbOsnapPointRef
 72
     1
331
56CC
331
4E28
 73
     2
 91
        0
 40
1.0
 10
0.0
 20
0.0
 30
2.000000000000000E+50
 75
     0
  1
AcDbOsnapPointRef
 72
     8
331
56CC
331
4E27
 73
     2
 91
        0
 40
0.0
 10
0.0
 20
0.0
 30
0.0
 75
     1
  1
AcDbOsnapPointRef
 72
     1
331
56CC
331
4E28
 73
     2
 91
        0
 40
1.0
 10
0.0
 20
0.0
 30
2.000000000000000E+50
 75
     0
  0
DIMASSOC
  5
5B61
102
{ACAD_REACTORS
330
5B55
102
}
330
5B55
100
AcDbDimAssoc
330
5B46
 90
        3
 70
     0
 71
     0
  1
AcDbOsnapPointRef
 72
     1
331
56CC
331
4E28
 73
     2
 91
        0
 40
1.0
 10
0.0
 20
0.0
 30
2.000000000000000E+50
 75
     0
  1
AcDbOsnapPointRef
 72
    13
331
5010
331
4FDA
 73
     2
 91
        0
 40
0.0
 10
0.0
 20
0.0
 30
2.000000000000000E+50
 75
     0
  0
DIMASSOC
  5
5BEE
102
{ACAD_REACTORS
330
5BE4
102
}
330
5BE4
100
AcDbDimAssoc
330
5BD7
 90
        2
 70
     0
 71
     0
  1
AcDbOsnapPointRef
 72
    13
331
57C3
331
578E
 73
     2
 91
        0
 40
0.0
 10
0.0
 20
0.0
 30
2.000000000000000E+50
 75
     0
  0
DIMASSOC
  5
5C4E
102
{ACAD_REACTORS
330
5C44
102
}
330
5C44
100
AcDbDimAssoc
330
5C37
 90
        2
 70
     0
 71
     0
  1
AcDbOsnapPointRef
 72
    13
331
5119
331
5105
 73
     2
 91
        0
 40
0.0
 10
0.0
 20
0.0
 30
2.000000000000000E+50
 75
     0
  0
DIMASSOC
  5
6E8D
102
{ACAD_REACTORS
330
6E83
102
}
330
6E83
100
AcDbDimAssoc
330
6E76
 90
        3
 70
     0
 71
     0
  1
AcDbOsnapPointRef
 72
    13
331
5119
331
50EE
 73
     2
 91
        0
 40
0.0
 10
0.0
 20
0.0
 30
2.000000000000000E+50
 75
     0
  1
AcDbOsnapPointRef
 72
     1
331
5119
331
50EF
 73
     2
 91
        0
 40
1.0
 10
0.0
 20
0.0
 30
2.000000000000000E+50
 75
     0
  0
LAYOUT
  5
22
102
{ACAD_REACTORS
330
1A
102
}
330
1A
100
AcDbPlotSettings
  1

  2
KONICA MINOLTA 501 PCL
  4
A4
  6

 40
5.027082920074462
 41
5.027085781097412
 42
5.027069091796875
 43
5.027069091796875
 44
209.9733276367186
 45
296.9259948730469
 46
7.938660655499107
 47
0.0
 48
0.0
 49
0.0
140
0.0
141
0.0
142
1.0
143
9.374385185882161
 70
 11956
 72
     1
 73
     1
 74
     1
  7
SEISA.ctb
 75
     0
147
0.1066736623438518
 76
     0
 77
     2
 78
   300
148
-1869.062824891496
149
-2103.100451711278
100
AcDbLayout
  1
Model
 70
     1
 71
     0
 10
0.0
 20
0.0
 11
12.0
 21
9.0
 12
0.0
 22
0.0
 32
0.0
 14
0.0
 24
0.0
 34
0.0
 15
0.0
 25
0.0
 35
0.0
146
0.0
 13
0.0
 23
0.0
 33
0.0
 16
1.0
 26
0.0
 36
0.0
 17
0.0
 27
1.0
 37
0.0
 76
     0
330
1F
331
27A
1001
ACAD_PSEXT
1000
KONICA MINOLTA 501 PCL
1000
KONICA MINOLTA 501/421/361PCL
1000
IP_192.168.20.231_(1)
1000

1070
     0
  0
LAYOUT
  5
1E
102
{ACAD_REACTORS
330
1A
102
}
330
1A
100
AcDbPlotSettings
  1

  2
none_device
  4
Letter_(8.50_x_11.00_Inches)
  6

 40
6.349999904632567
 41
6.349999904632567
 42
6.350006103515625
 43
6.350006103515625
 44
215.8999938964844
 45
279.3999938964844
 46
0.0
 47
0.0
 48
0.0
 49
0.0
140
0.0
141
0.0
142
1.0
143
1.0
 70
 15024
 72
     1
 73
     1
 74
     5
  7
SEISA.ctb
 75
    16
147
1.0
 76
     0
 77
     2
 78
   300
148
0.0
149
0.0
100
AcDbLayout
  1
レイアウト1
 70
     1
 71
     1
 10
0.0
 20
0.0
 11
420.0
 21
297.0
 12
0.0
 22
0.0
 32
0.0
 14
1.000000000000000E+20
 24
1.000000000000000E+20
 34
1.000000000000000E+20
 15
-1.000000000000000E+20
 25
-1.000000000000000E+20
 35
-1.000000000000000E+20
146
0.0
 13
0.0
 23
0.0
 33
0.0
 16
1.0
 26
0.0
 36
0.0
 17
0.0
 27
1.0
 37
0.0
 76
     0
330
1B
  0
LAYOUT
  5
26
102
{ACAD_REACTORS
330
1A
102
}
330
1A
100
AcDbPlotSettings
  1

  2
none_device
  4
Letter_(8.50_x_11.00_Inches)
  6

 40
6.349999904632567
 41
6.349999904632567
 42
6.350006103515625
 43
6.350006103515625
 44
215.8999938964844
 45
279.3999938964844
 46
0.0
 47
0.0
 48
0.0
 49
0.0
140
0.0
141
0.0
142
1.0
143
1.0
 70
 15024
 72
     1
 73
     1
 74
     5
  7
SEISA.ctb
 75
    16
147
1.0
 76
     0
 77
     2
 78
   300
148
0.0
149
0.0
100
AcDbLayout
  1
レイアウト2
 70
     1
 71
     2
 10
0.0
 20
0.0
 11
12.0
 21
9.0
 12
0.0
 22
0.0
 32
0.0
 14
0.0
 24
0.0
 34
0.0
 15
0.0
 25
0.0
 35
0.0
146
0.0
 13
0.0
 23
0.0
 33
0.0
 16
1.0
 26
0.0
 36
0.0
 17
0.0
 27
1.0
 37
0.0
 76
     0
330
23
  0
MATERIAL
  5
27D
102
{ACAD_REACTORS
330
C4
102
}
330
C4
100
AcDbMaterial
  1
ByBlock
 73
     1
 78
     1
172
     1
176
     1
270
     1
274
     1
 94
       63
  0
MATERIAL
  5
27C
102
{ACAD_REACTORS
330
C4
102
}
330
C4
100
AcDbMaterial
  1
ByLayer
 73
     1
 78
     1
172
     1
176
     1
270
     1
274
     1
 94
       63
  0
MATERIAL
  5
27E
102
{ACAD_REACTORS
330
C4
102
}
330
C4
100
AcDbMaterial
  1
Global
 73
     1
 78
     1
172
     1
176
     1
270
     1
274
     1
 94
       63
  0
MLEADERSTYLE
  5
2D6
102
{ACAD_REACTORS
330
2D5
102
}
330
2D5
100
AcDbMLeaderStyle
170
     2
171
     1
172
     0
 90
        2
 40
0.0
 41
0.0
173
     1
 91
-1056964608
340
14
 92
       -2
290
     1
 42
2.0
291
     1
 43
0.36
  3
Standard
 44
4.0
300

342
11
174
     1
178
     6
175
     1
176
     0
 93
-1056964608
 45
4.0
292
     0
297
     0
 46
4.0
 94
-1056964608
 47
1.0
 49
1.0
140
1.0
293
     1
141
0.0
294
     1
177
     0
142
1.0
295
     0
296
     0
143
0.125
1001
ACAD_MLEADERVER
1070
     2
  0
MLINESTYLE
  5
18
102
{ACAD_REACTORS
330
17
102
}
330
17
100
AcDbMlineStyle
  2
STANDARD
 70
     0
  3

 62
   256
 51
90.0
 52
90.0
 71
     2
 49
0.5
 62
   256
  6
BYLAYER
 49
-0.5
 62
   256
  6
BYLAYER
  0
PLOTSETTINGS
  5
1C7E
102
{ACAD_REACTORS
330
19
102
}
330
19
100
AcDbPlotSettings
  1
SEISA基本
  2
none_device
  4
Letter_(8.50_x_11.00_Inches)
  6

 40
6.349999904632567
 41
6.349999904632567
 42
6.350006103515625
 43
6.350006103515625
 44
215.8999938964844
 45
279.3999938964844
 46
7.302498226506357
 47
0.0
 48
0.0
 49
0.0
140
0.0
141
0.0
142
1.0
143
1.574803221122935
 70
 11956
 72
     1
 73
     1
 74
     2
  7
SEISA.ctb
 75
     0
147
0.6349999711627054
 76
     0
 77
     2
 78
   300
148
0.0
149
0.0
1001
ACAD_PSEXT
1000
なし
1000
なし
1000
適切ではありません
1000
新しいプロッタ環境設定名を選択しない限り、レイアウトは印刷されません。
1070
     0
  0
ACDBPLACEHOLDER
  5
F
102
{ACAD_REACTORS
330
E
102
}
330
E
  0
SCALE
  5
2A04
102
{ACAD_REACTORS
330
2B3
102
}
330
2B3
100
AcDbScale
 70
     0
300
1:15
140
1.0
141
15.0
290
     0
  0
SCALE
  5
7454
102
{ACAD_REACTORS
330
2B3
102
}
330
2B3
100
AcDbScale
 70
     0
300
1:6
140
1.0
141
6.0
290
     0
  0
SCALE
  5
7455
102
{ACAD_REACTORS
330
2B3
102
}
330
2B3
100
AcDbScale
 70
     0
300
1:3
140
1.0
141
3.0
290
     0
  0
SCALE
  5
7456
102
{ACAD_REACTORS
330
2B3
102
}
330
2B3
100
AcDbScale
 70
     0
300
1:2.5
140
1.0
141
2.5
290
     0
  0
SCALE
  5
7457
102
{ACAD_REACTORS
330
2B3
102
}
330
2B3
100
AcDbScale
 70
     0
300
1:1.5
140
1.0
141
1.5
290
     0
  0
SCALE
  5
2B4
102
{ACAD_REACTORS
330
2B3
102
}
330
2B3
100
AcDbScale
 70
     0
300
1:1
140
1.0
141
1.0
290
     1
  0
SCALE
  5
2B5
102
{ACAD_REACTORS
330
2B3
102
}
330
2B3
100
AcDbScale
 70
     0
300
1:2
140
1.0
141
2.0
290
     0
  0
SCALE
  5
2B6
102
{ACAD_REACTORS
330
2B3
102
}
330
2B3
100
AcDbScale
 70
     0
300
1:4
140
1.0
141
4.0
290
     0
  0
SCALE
  5
2B7
102
{ACAD_REACTORS
330
2B3
102
}
330
2B3
100
AcDbScale
 70
     0
300
1:5
140
1.0
141
5.0
290
     0
  0
SCALE
  5
2B8
102
{ACAD_REACTORS
330
2B3
102
}
330
2B3
100
AcDbScale
 70
     0
300
1:8
140
1.0
141
8.0
290
     0
  0
SCALE
  5
2B9
102
{ACAD_REACTORS
330
2B3
102
}
330
2B3
100
AcDbScale
 70
     0
300
1:10
140
1.0
141
10.0
290
     0
  0
SCALE
  5
2BA
102
{ACAD_REACTORS
330
2B3
102
}
330
2B3
100
AcDbScale
 70
     0
300
1:16
140
1.0
141
16.0
290
     0
  0
SCALE
  5
2BB
102
{ACAD_REACTORS
330
2B3
102
}
330
2B3
100
AcDbScale
 70
     0
300
1:20
140
1.0
141
20.0
290
     0
  0
SCALE
  5
2BC
102
{ACAD_REACTORS
330
2B3
102
}
330
2B3
100
AcDbScale
 70
     0
300
1:30
140
1.0
141
30.0
290
     0
  0
SCALE
  5
2BD
102
{ACAD_REACTORS
330
2B3
102
}
330
2B3
100
AcDbScale
 70
     0
300
1:40
140
1.0
141
40.0
290
     0
  0
SCALE
  5
2BE
102
{ACAD_REACTORS
330
2B3
102
}
330
2B3
100
AcDbScale
 70
     0
300
1:50
140
1.0
141
50.0
290
     0
  0
SCALE
  5
2BF
102
{ACAD_REACTORS
330
2B3
102
}
330
2B3
100
AcDbScale
 70
     0
300
1:100
140
1.0
141
100.0
290
     0
  0
SCALE
  5
2C0
102
{ACAD_REACTORS
330
2B3
102
}
330
2B3
100
AcDbScale
 70
     0
300
2:1
140
2.0
141
1.0
290
     0
  0
SCALE
  5
2C1
102
{ACAD_REACTORS
330
2B3
102
}
330
2B3
100
AcDbScale
 70
     0
300
4:1
140
4.0
141
1.0
290
     0
  0
SCALE
  5
2C2
102
{ACAD_REACTORS
330
2B3
102
}
330
2B3
100
AcDbScale
 70
     0
300
8:1
140
8.0
141
1.0
290
     0
  0
SCALE
  5
2C3
102
{ACAD_REACTORS
330
2B3
102
}
330
2B3
100
AcDbScale
 70
     0
300
10:1
140
10.0
141
1.0
290
     0
  0
SCALE
  5
2C4
102
{ACAD_REACTORS
330
2B3
102
}
330
2B3
100
AcDbScale
 70
     0
300
100:1
140
100.0
141
1.0
290
     0
  0
SCALE
  5
2C5
102
{ACAD_REACTORS
330
2B3
102
}
330
2B3
100
AcDbScale
 70
     0
300
1/128" = 1'-0"
140
0.0078125
141
12.0
290
     0
  0
SCALE
  5
2C6
102
{ACAD_REACTORS
330
2B3
102
}
330
2B3
100
AcDbScale
 70
     0
300
1/64" = 1'-0"
140
0.015625
141
12.0
290
     0
  0
SCALE
  5
2C7
102
{ACAD_REACTORS
330
2B3
102
}
330
2B3
100
AcDbScale
 70
     0
300
1/32" = 1'-0"
140
0.03125
141
12.0
290
     0
  0
SCALE
  5
2C8
102
{ACAD_REACTORS
330
2B3
102
}
330
2B3
100
AcDbScale
 70
     0
300
1/16" = 1'-0"
140
0.0625
141
12.0
290
     0
  0
SCALE
  5
2C9
102
{ACAD_REACTORS
330
2B3
102
}
330
2B3
100
AcDbScale
 70
     0
300
3/32" = 1'-0"
140
0.09375
141
12.0
290
     0
  0
SCALE
  5
2CA
102
{ACAD_REACTORS
330
2B3
102
}
330
2B3
100
AcDbScale
 70
     0
300
1/8" = 1'-0"
140
0.125
141
12.0
290
     0
  0
SCALE
  5
2CB
102
{ACAD_REACTORS
330
2B3
102
}
330
2B3
100
AcDbScale
 70
     0
300
3/16" = 1'-0"
140
0.1875
141
12.0
290
     0
  0
SCALE
  5
2CC
102
{ACAD_REACTORS
330
2B3
102
}
330
2B3
100
AcDbScale
 70
     0
300
1/4" = 1'-0"
140
0.25
141
12.0
290
     0
  0
SCALE
  5
2CD
102
{ACAD_REACTORS
330
2B3
102
}
330
2B3
100
AcDbScale
 70
     0
300
3/8" = 1'-0"
140
0.375
141
12.0
290
     0
  0
SCALE
  5
2CE
102
{ACAD_REACTORS
330
2B3
102
}
330
2B3
100
AcDbScale
 70
     0
300
1/2" = 1'-0"
140
0.5
141
12.0
290
     0
  0
SCALE
  5
2CF
102
{ACAD_REACTORS
330
2B3
102
}
330
2B3
100
AcDbScale
 70
     0
300
3/4" = 1'-0"
140
0.75
141
12.0
290
     0
  0
SCALE
  5
2D0
102
{ACAD_REACTORS
330
2B3
102
}
330
2B3
100
AcDbScale
 70
     0
300
1" = 1'-0"
140
1.0
141
12.0
290
     0
  0
SCALE
  5
2D1
102
{ACAD_REACTORS
330
2B3
102
}
330
2B3
100
AcDbScale
 70
     0
300
1-1/2" = 1'-0"
140
1.5
141
12.0
290
     0
  0
SCALE
  5
2D2
102
{ACAD_REACTORS
330
2B3
102
}
330
2B3
100
AcDbScale
 70
     0
300
3" = 1'-0"
140
3.0
141
12.0
290
     0
  0
SCALE
  5
2D3
102
{ACAD_REACTORS
330
2B3
102
}
330
2B3
100
AcDbScale
 70
     0
300
6" = 1'-0"
140
6.0
141
12.0
290
     0
  0
SCALE
  5
2D4
102
{ACAD_REACTORS
330
2B3
102
}
330
2B3
100
AcDbScale
 70
     0
300
1'-0" = 1'-0"
140
12.0
141
12.0
290
     0
  0
TABLESTYLE
  5
122
102
{ACAD_XDICTIONARY
360
2F5
102
}
102
{ACAD_REACTORS
330
121
102
}
330
121
100
AcDbTableStyle
  3
Standard
 70
     0
 71
     0
 40
1.5
 41
1.5
280
     0
281
     0
  7
STANDARD
140
4.5
170
     2
 62
     0
 63
     7
283
     0
 90
      512
 91
        0
  1

274
    -2
284
     1
 64
     0
275
    -2
285
     1
 65
     0
276
    -2
286
     1
 66
     0
277
    -2
287
     1
 67
     0
278
    -2
288
     1
 68
     0
279
    -2
289
     1
 69
     0
  7
STANDARD
140
6.0
170
     5
 62
     0
 63
     7
283
     0
 90
      512
 91
        0
  1

274
    -2
284
     1
 64
     0
275
    -2
285
     1
 65
     0
276
    -2
286
     1
 66
     0
277
    -2
287
     1
 67
     0
278
    -2
288
     1
 68
     0
279
    -2
289
     1
 69
     0
  7
STANDARD
140
4.5
170
     5
 62
     0
 63
     7
283
     0
 90
      512
 91
        0
  1

274
    -2
284
     1
 64
     0
275
    -2
285
     1
 65
     0
276
    -2
286
     1
 66
     0
277
    -2
287
     1
 67
     0
278
    -2
288
     1
 68
     0
279
    -2
289
     1
 69
     0
  0
VISUALSTYLE
  5
285
102
{ACAD_REACTORS
330
27F
102
}
330
27F
100
AcDbVisualStyle
  2
2dWireframe
 70
     4
 71
     0
 72
     2
 73
     0
 90
        0
 40
-0.6
 41
-30.0
 62
     5
 63
     7
421
 16777215
 74
     1
 91
        4
 64
     7
 65
   257
 75
     1
175
     1
 42
1.0
 92
        0
 66
   257
 43
1.0
 76
     1
 77
     6
 78
     2
 67
     7
 79
     5
170
     0
171
     0
290
     0
174
     0
 93
        1
 44
0.0
173
     0
291
     0
 45
0.0
  0
VISUALSTYLE
  5
287
102
{ACAD_REACTORS
330
27F
102
}
330
27F
100
AcDbVisualStyle
  2
3D Hidden
 70
     6
 71
     1
 72
     2
 73
     2
 90
        0
 40
-0.6
 41
-30.0
 62
     5
 63
     7
421
 16777215
 74
     2
 91
        2
 64
     7
 65
   257
 75
     2
175
     1
 42
40.0
 92
        0
 66
   257
 43
1.0
 76
     1
 77
     6
 78
     2
 67
     7
 79
     3
170
     0
171
     0
290
     0
174
     0
 93
        1
 44
0.0
173
     0
291
     0
 45
0.0
  0
VISUALSTYLE
  5
286
102
{ACAD_REACTORS
330
27F
102
}
330
27F
100
AcDbVisualStyle
  2
3dWireframe
 70
     5
 71
     0
 72
     2
 73
     0
 90
        0
 40
-0.6
 41
-30.0
 62
     5
 63
     7
421
 16777215
 74
     1
 91
        4
 64
     7
 65
   257
 75
     1
175
     1
 42
1.0
 92
        0
 66
   257
 43
1.0
 76
     1
 77
     6
 78
     2
 67
     7
 79
     5
170
     0
171
     0
290
     0
174
     0
 93
        1
 44
0.0
173
     0
291
     0
 45
0.0
  0
VISUALSTYLE
  5
284
102
{ACAD_REACTORS
330
27F
102
}
330
27F
100
AcDbVisualStyle
  2
Basic
 70
     7
 71
     1
 72
     0
 73
     1
 90
        0
 40
-0.6
 41
-30.0
 62
     5
 63
     7
421
 16777215
 74
     0
 91
        4
 64
     7
 65
   257
 75
     1
175
     1
 42
1.0
 92
        8
 66
     7
 43
1.0
 76
     1
 77
     6
 78
     2
 67
     7
 79
     5
170
     0
171
     0
290
     0
174
     0
 93
        1
 44
0.0
173
     0
291
     1
 45
0.0
  0
VISUALSTYLE
  5
28B
102
{ACAD_REACTORS
330
27F
102
}
330
27F
100
AcDbVisualStyle
  2
Brighten
 70
    12
 71
     2
 72
     2
 73
     0
 90
        0
 40
-0.6
 41
-30.0
 62
     5
 63
     7
421
 16777215
 74
     1
 91
        4
 64
     7
 65
   257
 75
     1
175
     1
 42
1.0
 92
        8
 66
     7
 43
1.0
 76
     1
 77
     6
 78
     2
 67
     7
 79
     5
170
     0
171
     0
290
     0
174
     0
 93
        1
 44
50.0
173
     0
291
     1
 45
0.0
  0
VISUALSTYLE
  5
28F
102
{ACAD_REACTORS
330
27F
102
}
330
27F
100
AcDbVisualStyle
  2
ColorChange
 70
    16
 71
     2
 72
     2
 73
     3
 90
        0
 40
-0.6
 41
-30.0
 62
     5
 63
     8
421
  8421504
 74
     1
 91
        4
 64
     7
 65
   257
 75
     1
175
     1
 42
1.0
 92
        8
 66
     8
424
  8421504
 43
1.0
 76
     1
 77
     6
 78
     2
 67
     7
 79
     5
170
     0
171
     0
290
     0
174
     0
 93
        1
 44
0.0
173
     0
291
     1
 45
0.0
  0
VISUALSTYLE
  5
288
102
{ACAD_REACTORS
330
27F
102
}
330
27F
100
AcDbVisualStyle
  2
Conceptual
 70
     9
 71
     3
 72
     2
 73
     0
 90
        0
 40
-0.6
 41
-30.0
 62
     5
 63
     7
421
 16777215
 74
     2
 91
        2
 64
     7
 65
   257
 75
     1
175
     1
 42
40.0
 92
        8
 66
     7
 43
1.0
 76
     1
 77
     6
 78
     2
 67
     7
 79
     3
170
     0
171
     0
290
     0
174
     0
 93
        1
 44
0.0
173
     0
291
     0
 45
0.0
  0
VISUALSTYLE
  5
28A
102
{ACAD_REACTORS
330
27F
102
}
330
27F
100
AcDbVisualStyle
  2
Dim
 70
    11
 71
     2
 72
     2
 73
     0
 90
        0
 40
-0.6
 41
-30.0
 62
     5
 63
     7
421
 16777215
 74
     1
 91
        4
 64
     7
 65
   257
 75
     1
175
     1
 42
1.0
 92
        8
 66
     7
 43
1.0
 76
     1
 77
     6
 78
     2
 67
     7
 79
     5
170
     0
171
     0
290
     0
174
     0
 93
        1
 44
-50.0
173
     0
291
     1
 45
0.0
  0
VISUALSTYLE
  5
28E
102
{ACAD_REACTORS
330
27F
102
}
330
27F
100
AcDbVisualStyle
  2
Facepattern
 70
    15
 71
     2
 72
     2
 73
     0
 90
        0
 40
-0.6
 41
-30.0
 62
     5
 63
     7
421
 16777215
 74
     1
 91
        4
 64
     7
 65
   257
 75
     1
175
     1
 42
1.0
 92
        8
 66
     7
 43
1.0
 76
     1
 77
     6
 78
     2
 67
     7
 79
     5
170
     0
171
     0
290
     0
174
     0
 93
        1
 44
0.0
173
     0
291
     1
 45
0.0
  0
VISUALSTYLE
  5
280
102
{ACAD_REACTORS
330
27F
102
}
330
27F
100
AcDbVisualStyle
  2
Flat
 70
     0
 71
     2
 72
     1
 73
     1
 90
        2
 40
-0.6
 41
30.0
 62
     5
 63
     7
421
 16777215
 74
     0
 91
        4
 64
     7
 65
   257
 75
     1
175
     1
 42
1.0
 92
        8
 66
     7
 43
1.0
 76
     1
 77
     6
 78
     2
 67
     7
 79
     5
170
     0
171
     0
290
     0
174
     0
 93
       13
 44
0.0
173
     0
291
     1
 45
0.0
  0
VISUALSTYLE
  5
281
102
{ACAD_REACTORS
330
27F
102
}
330
27F
100
AcDbVisualStyle
  2
FlatWithEdges
 70
     1
 71
     2
 72
     1
 73
     1
 90
        2
 40
-0.6
 41
30.0
 62
     5
 63
     7
421
 16777215
 74
     1
 91
        4
 64
     7
 65
   257
 75
     1
175
     1
 42
1.0
 92
        0
 66
   257
 43
1.0
 76
     1
 77
     6
 78
     2
 67
     7
 79
     5
170
     0
171
     0
290
     0
174
     0
 93
       13
 44
0.0
173
     0
291
     1
 45
0.0
  0
VISUALSTYLE
  5
282
102
{ACAD_REACTORS
330
27F
102
}
330
27F
100
AcDbVisualStyle
  2
Gouraud
 70
     2
 71
     2
 72
     2
 73
     1
 90
        2
 40
-0.6
 41
30.0
 62
     5
 63
     7
421
 16777215
 74
     0
 91
        4
 64
     7
 65
   257
 75
     1
175
     1
 42
1.0
 92
        0
 66
     7
 43
1.0
 76
     1
 77
     6
 78
     2
 67
     7
 79
     5
170
     0
171
     0
290
     0
174
     0
 93
       13
 44
0.0
173
     0
291
     1
 45
0.0
  0
VISUALSTYLE
  5
283
102
{ACAD_REACTORS
330
27F
102
}
330
27F
100
AcDbVisualStyle
  2
GouraudWithEdges
 70
     3
 71
     2
 72
     2
 73
     1
 90
        2
 40
-0.6
 41
30.0
 62
     5
 63
     7
421
 16777215
 74
     1
 91
        4
 64
     7
 65
   257
 75
     1
175
     1
 42
1.0
 92
        0
 66
   257
 43
1.0
 76
     1
 77
     6
 78
     2
 67
     7
 79
     5
170
     0
171
     0
290
     0
174
     0
 93
       13
 44
0.0
173
     0
291
     1
 45
0.0
  0
VISUALSTYLE
  5
28D
102
{ACAD_REACTORS
330
27F
102
}
330
27F
100
AcDbVisualStyle
  2
Linepattern
 70
    14
 71
     2
 72
     2
 73
     0
 90
        0
 40
-0.6
 41
-30.0
 62
     5
 63
     7
421
 16777215
 74
     1
 91
        4
 64
     7
 65
   257
 75
     7
175
     7
 42
1.0
 92
        8
 66
     7
 43
1.0
 76
     1
 77
     6
 78
     2
 67
     7
 79
     5
170
     0
171
     0
290
     0
174
     0
 93
        1
 44
0.0
173
     0
291
     1
 45
0.0
  0
VISUALSTYLE
  5
289
102
{ACAD_REACTORS
330
27F
102
}
330
27F
100
AcDbVisualStyle
  2
Realistic
 70
     8
 71
     2
 72
     2
 73
     0
 90
        0
 40
-0.6
 41
-30.0
 62
     5
 63
     7
421
 16777215
 74
     1
 91
        0
 64
     7
 65
   257
 75
     1
175
     1
 42
1.0
 92
        8
 66
     8
424
  7895160
 43
1.0
 76
     1
 77
     6
 78
     2
 67
     7
 79
     5
170
     0
171
     0
290
     0
174
     0
 93
       13
 44
0.0
173
     0
291
     0
 45
0.0
  0
VISUALSTYLE
  5
28C
102
{ACAD_REACTORS
330
27F
102
}
330
27F
100
AcDbVisualStyle
  2
Thicken
 70
    13
 71
     2
 72
     2
 73
     0
 90
        0
 40
-0.6
 41
-30.0
 62
     5
 63
     7
421
 16777215
 74
     1
 91
        4
 64
     7
 65
   257
 75
     1
175
     1
 42
1.0
 92
       12
 66
     7
 43
1.0
 76
     1
 77
     6
 78
     2
 67
     7
 79
     5
170
     0
171
     0
290
     0
174
     0
 93
        1
 44
0.0
173
     0
291
     1
 45
0.0
  0
DICTIONARYVAR
  5
2FA
102
{ACAD_REACTORS
330
34
102
}
330
34
100
DictionaryVariables
280
     0
  1
1:15
  0
DICTIONARYVAR
  5
2F8
102
{ACAD_REACTORS
330
34
102
}
330
34
100
DictionaryVariables
280
     0
  1
STANDARD
  0
DICTIONARYVAR
  5
140
102
{ACAD_REACTORS
330
34
102
}
330
34
100
DictionaryVariables
280
     0
  1
STANDARD
  0
DICTIONARYVAR
  5
AC
102
{ACAD_REACTORS
330
34
102
}
330
34
100
DictionaryVariables
280
     0
  1
1
  0
DICTIONARYVAR
  5
35
102
{ACAD_REACTORS
330
34
102
}
330
34
100
DictionaryVariables
280
     0
  1
1
  0
DICTIONARYVAR
  5
6ED9
102
{ACAD_REACTORS
330
34
102
}
330
34
100
DictionaryVariables
280
     0
  1
1
  0
DICTIONARYVAR
  5
6EDA
102
{ACAD_REACTORS
330
34
102
}
330
34
100
DictionaryVariables
280
     0
  1
15
  0
DICTIONARYVAR
  5
2FB
102
{ACAD_REACTORS
330
34
102
}
330
34
100
DictionaryVariables
280
     0
  1
0
  0
DICTIONARYVAR
  5
2F9
102
{ACAD_REACTORS
330
34
102
}
330
34
100
DictionaryVariables
280
     0
  1
0
  0
DICTIONARY
  5
161B
102
{ACAD_REACTORS
330
49
102
}
330
49
100
AcDbDictionary
281
     1
  0
DICTIONARY
  5
4A
102
{ACAD_REACTORS
330
49
102
}
330
49
100
AcDbDictionary
281
     1
  0
XRECORD
  5
12B
102
{ACAD_REACTORS
330
49
102
}
330
49
100
AcDbXrecord
280
     1
 90
-1023410169
  0
DICTIONARY
  5
2F5
330
122
100
AcDbDictionary
280
     1
281
     1
  3
ACAD_ROUNDTRIP_2008_TABLESTYLE_CELLSTYLEMAP
360
7931
  0
CELLSTYLEMAP
  5
7931
102
{ACAD_REACTORS
330
2F5
102
}
330
2F5
100
AcDbCellStyleMap
 90
        3
300
CELLSTYLE
  1
TABLEFORMAT_BEGIN
 90
        5
170
     1
 91
        0
 92
    32768
 62
   257
 93
        1
300
CONTENTFORMAT
  1
CONTENTFORMAT_BEGIN
 90
        0
 91
        0
 92
      512
 93
        0
300

 40
0.0
140
1.0
 94
        5
 62
     0
340
11
144
6.0
309
CONTENTFORMAT_END
171
     1
301
MARGIN
  1
CELLMARGIN_BEGIN
 40
1.5
 40
1.5
 40
1.5
 40
1.5
 40
0.18
 40
0.18
309
CELLMARGIN_END
 94
        6
 95
        1
302
GRIDFORMAT
  1
GRIDFORMAT_BEGIN
 90
        0
 91
        1
 62
     0
 92
       -2
340
0
 93
        0
 40
0.045
309
GRIDFORMAT_END
 95
        2
302
GRIDFORMAT
  1
GRIDFORMAT_BEGIN
 90
        0
 91
        1
 62
     0
 92
       -2
340
0
 93
        0
 40
0.045
309
GRIDFORMAT_END
 95
        4
302
GRIDFORMAT
  1
GRIDFORMAT_BEGIN
 90
        0
 91
        1
 62
     0
 92
       -2
340
0
 93
        0
 40
0.045
309
GRIDFORMAT_END
 95
        8
302
GRIDFORMAT
  1
GRIDFORMAT_BEGIN
 90
        0
 91
        1
 62
     0
 92
       -2
340
0
 93
        0
 40
0.045
309
GRIDFORMAT_END
 95
       16
302
GRIDFORMAT
  1
GRIDFORMAT_BEGIN
 90
        0
 91
        1
 62
     0
 92
       -2
340
0
 93
        0
 40
0.045
309
GRIDFORMAT_END
 95
       32
302
GRIDFORMAT
  1
GRIDFORMAT_BEGIN
 90
        0
 91
        1
 62
     0
 92
       -2
340
0
 93
        0
 40
0.045
309
GRIDFORMAT_END
309
TABLEFORMAT_END
  1
CELLSTYLE_BEGIN
 90
        1
 91
        1
300
_TITLE
309
CELLSTYLE_END
300
CELLSTYLE
  1
TABLEFORMAT_BEGIN
 90
        5
170
     1
 91
        0
 92
        0
 62
   257
 93
        1
300
CONTENTFORMAT
  1
CONTENTFORMAT_BEGIN
 90
        0
 91
        0
 92
      512
 93
        0
300

 40
0.0
140
1.0
 94
        5
 62
     0
340
11
144
4.5
309
CONTENTFORMAT_END
171
     1
301
MARGIN
  1
CELLMARGIN_BEGIN
 40
1.5
 40
1.5
 40
1.5
 40
1.5
 40
0.18
 40
0.18
309
CELLMARGIN_END
 94
        6
 95
        1
302
GRIDFORMAT
  1
GRIDFORMAT_BEGIN
 90
        0
 91
        1
 62
     0
 92
       -2
340
0
 93
        0
 40
0.045
309
GRIDFORMAT_END
 95
        2
302
GRIDFORMAT
  1
GRIDFORMAT_BEGIN
 90
        0
 91
        1
 62
     0
 92
       -2
340
0
 93
        0
 40
0.045
309
GRIDFORMAT_END
 95
        4
302
GRIDFORMAT
  1
GRIDFORMAT_BEGIN
 90
        0
 91
        1
 62
     0
 92
       -2
340
0
 93
        0
 40
0.045
309
GRIDFORMAT_END
 95
        8
302
GRIDFORMAT
  1
GRIDFORMAT_BEGIN
 90
        0
 91
        1
 62
     0
 92
       -2
340
0
 93
        0
 40
0.045
309
GRIDFORMAT_END
 95
       16
302
GRIDFORMAT
  1
GRIDFORMAT_BEGIN
 90
        0
 91
        1
 62
     0
 92
       -2
340
0
 93
        0
 40
0.045
309
GRIDFORMAT_END
 95
       32
302
GRIDFORMAT
  1
GRIDFORMAT_BEGIN
 90
        0
 91
        1
 62
     0
 92
       -2
340
0
 93
        0
 40
0.045
309
GRIDFORMAT_END
309
TABLEFORMAT_END
  1
CELLSTYLE_BEGIN
 90
        2
 91
        1
300
_HEADER
309
CELLSTYLE_END
300
CELLSTYLE
  1
TABLEFORMAT_BEGIN
 90
        5
170
     1
 91
        0
 92
        0
 62
   257
 93
        1
300
CONTENTFORMAT
  1
CONTENTFORMAT_BEGIN
 90
        0
 91
        0
 92
      512
 93
        0
300

 40
0.0
140
1.0
 94
        2
 62
     0
340
11
144
4.5
309
CONTENTFORMAT_END
171
     1
301
MARGIN
  1
CELLMARGIN_BEGIN
 40
1.5
 40
1.5
 40
1.5
 40
1.5
 40
0.18
 40
0.18
309
CELLMARGIN_END
 94
        6
 95
        1
302
GRIDFORMAT
  1
GRIDFORMAT_BEGIN
 90
        0
 91
        1
 62
     0
 92
       -2
340
0
 93
        0
 40
0.045
309
GRIDFORMAT_END
 95
        2
302
GRIDFORMAT
  1
GRIDFORMAT_BEGIN
 90
        0
 91
        1
 62
     0
 92
       -2
340
0
 93
        0
 40
0.045
309
GRIDFORMAT_END
 95
        4
302
GRIDFORMAT
  1
GRIDFORMAT_BEGIN
 90
        0
 91
        1
 62
     0
 92
       -2
340
0
 93
        0
 40
0.045
309
GRIDFORMAT_END
 95
        8
302
GRIDFORMAT
  1
GRIDFORMAT_BEGIN
 90
        0
 91
        1
 62
     0
 92
       -2
340
0
 93
        0
 40
0.045
309
GRIDFORMAT_END
 95
       16
302
GRIDFORMAT
  1
GRIDFORMAT_BEGIN
 90
        0
 91
        1
 62
     0
 92
       -2
340
0
 93
        0
 40
0.045
309
GRIDFORMAT_END
 95
       32
302
GRIDFORMAT
  1
GRIDFORMAT_BEGIN
 90
        0
 91
        1
 62
     0
 92
       -2
340
0
 93
        0
 40
0.045
309
GRIDFORMAT_END
309
TABLEFORMAT_END
  1
CELLSTYLE_BEGIN
 90
        3
 91
        2
300
_DATA
309
CELLSTYLE_END
  0
ENDSEC
  0
EOF
