  0
SECTION
  2
HEADER
  9
$ACADVER
  1
AC1021
  9
$ACADMAINTVER
 70
    26
  9
$DWGCODEPAGE
  3
ANSI_932
  9
$LASTSAVEDBY
  1
Htm_Terada
  9
$CUSTOMPROPERTYTAG
  1
AmdtFileType
  9
$CUSTOMPROPERTY
  1
84
  9
$INSBASE
 10
0.0
 20
0.0
 30
0.0
  9
$EXTMIN
 10
2148.983211733644
 20
2134.09478059099
 30
0.0
  9
$EXTMAX
 10
4546.786092620128
 20
3729.14287521599
 30
0.0
  9
$LIMMIN
 10
0.0000028715078315
 20
0.0000055407309674
  9
$LIMMAX
 10
6300.000002871508
 20
4455.000005540731
  9
$ORTHOMODE
 70
     1
  9
$REGENMODE
 70
     1
  9
$FILLMODE
 70
     1
  9
$QTEXTMODE
 70
     0
  9
$MIRRTEXT
 70
     1
  9
$LTSCALE
 40
15.0
  9
$ATTMODE
 70
     1
  9
$TEXTSIZE
 40
25.0
  9
$TRACEWID
 40
1.0
  9
$TEXTSTYLE
  7
SEISA
  9
$CLAYER
  8
AM_0 外形線1
  9
$CELTYPE
  6
ByLayer
  9
$CECOLOR
 62
   256
  9
$CELTSCALE
 40
1.0
  9
$DISPSILH
 70
     0
  9
$DIMSCALE
 40
15.0
  9
$DIMASZ
 40
2.5
  9
$DIMEXO
 40
0.625
  9
$DIMDLI
 40
10.0
  9
$DIMRND
 40
0.0
  9
$DIMDLE
 40
0.0
  9
$DIMEXE
 40
0.625
  9
$DIMTP
 40
0.1
  9
$DIMTM
 40
0.1
  9
$DIMTXT
 40
3.5
  9
$DIMCEN
 40
0.0
  9
$DIMTSZ
 40
0.0
  9
$DIMTOL
 70
     0
  9
$DIMLIM
 70
     0
  9
$DIMTIH
 70
     0
  9
$DIMTOH
 70
     0
  9
$DIMSE1
 70
     0
  9
$DIMSE2
 70
     0
  9
$DIMTAD
 70
     3
  9
$DIMZIN
 70
     8
  9
$DIMBLK
  1
Open30
  9
$DIMASO
 70
     1
  9
$DIMSHO
 70
     1
  9
$DIMPOST
  1

  9
$DIMAPOST
  1
"
  9
$DIMALT
 70
     0
  9
$DIMALTD
 70
     2
  9
$DIMALTF
 40
0.0393701
  9
$DIMLFAC
 40
1.0
  9
$DIMTOFL
 70
     1
  9
$DIMTVP
 40
0.0
  9
$DIMTIX
 70
     0
  9
$DIMSOXD
 70
     0
  9
$DIMSAH
 70
     0
  9
$DIMBLK1
  1

  9
$DIMBLK2
  1

  9
$DIMSTYLE
  2
SEISA
  9
$DIMCLRD
 70
     3
  9
$DIMCLRE
 70
     3
  9
$DIMCLRT
 70
     3
  9
$DIMTFAC
 40
0.71
  9
$DIMGAP
 40
1.5
  9
$DIMJUST
 70
     0
  9
$DIMSD1
 70
     0
  9
$DIMSD2
 70
     0
  9
$DIMTOLJ
 70
     0
  9
$DIMTZIN
 70
     0
  9
$DIMALTZ
 70
     0
  9
$DIMALTTZ
 70
     8
  9
$DIMUPT
 70
     0
  9
$DIMDEC
 70
     2
  9
$DIMTDEC
 70
     2
  9
$DIMALTU
 70
     2
  9
$DIMALTTD
 70
     2
  9
$DIMTXSTY
  7
SEISA
  9
$DIMAUNIT
 70
     0
  9
$DIMADEC
 70
     0
  9
$DIMALTRND
 40
0.0
  9
$DIMAZIN
 70
     2
  9
$DIMDSEP
 70
    46
  9
$DIMATFIT
 70
     3
  9
$DIMFRAC
 70
     0
  9
$DIMLDRBLK
  1
Open30
  9
$DIMLUNIT
 70
     2
  9
$DIMLWD
 70
    -1
  9
$DIMLWE
 70
    -1
  9
$DIMTMOVE
 70
     0
  9
$DIMFXL
 40
1.0
  9
$DIMFXLON
 70
     0
  9
$DIMJOGANG
 40
0.7853981633974483
  9
$DIMTFILL
 70
     0
  9
$DIMTFILLCLR
 70
     0
  9
$DIMARCSYM
 70
     1
  9
$DIMLTYPE
  6

  9
$DIMLTEX1
  6

  9
$DIMLTEX2
  6

  9
$LUNITS
 70
     2
  9
$LUPREC
 70
     2
  9
$SKETCHINC
 40
1.0
  9
$FILLETRAD
 40
2.5
  9
$AUNITS
 70
     0
  9
$AUPREC
 70
     0
  9
$MENU
  1
.
  9
$ELEVATION
 40
0.0
  9
$PELEVATION
 40
0.0
  9
$THICKNESS
 40
0.0
  9
$LIMCHECK
 70
     0
  9
$CHAMFERA
 40
15.0
  9
$CHAMFERB
 40
14.99999999999954
  9
$CHAMFERC
 40
15.0
  9
$CHAMFERD
 40
0.7853981633974785
  9
$SKPOLY
 70
     0
  9
$TDCREATE
 40
2454939.689207964
  9
$TDUCREATE
 40
2454939.314207964
  9
$TDUPDATE
 40
2456479.695156783
  9
$TDUUPDATE
 40
2456479.320156783
  9
$TDINDWG
 40
0.2247622917
  9
$TDUSRTIMER
 40
0.2247612153
  9
$USRTIMER
 70
     1
  9
$ANGBASE
 50
0.0
  9
$ANGDIR
 70
     0
  9
$PDMODE
 70
     0
  9
$PDSIZE
 40
0.0
  9
$PLINEWID
 40
0.0
  9
$SPLFRAME
 70
     0
  9
$SPLINETYPE
 70
     6
  9
$SPLINESEGS
 70
     8
  9
$HANDSEED
  5
7614
  9
$SURFTAB1
 70
     6
  9
$SURFTAB2
 70
     6
  9
$SURFTYPE
 70
     6
  9
$SURFU
 70
     6
  9
$SURFV
 70
     6
  9
$UCSBASE
  2

  9
$UCSNAME
  2

  9
$UCSORG
 10
0.0
 20
0.0
 30
0.0
  9
$UCSXDIR
 10
1.0
 20
0.0
 30
0.0
  9
$UCSYDIR
 10
0.0
 20
1.0
 30
0.0
  9
$UCSORTHOREF
  2

  9
$UCSORTHOVIEW
 70
     0
  9
$UCSORGTOP
 10
0.0
 20
0.0
 30
0.0
  9
$UCSORGBOTTOM
 10
0.0
 20
0.0
 30
0.0
  9
$UCSORGLEFT
 10
0.0
 20
0.0
 30
0.0
  9
$UCSORGRIGHT
 10
0.0
 20
0.0
 30
0.0
  9
$UCSORGFRONT
 10
0.0
 20
0.0
 30
0.0
  9
$UCSORGBACK
 10
0.0
 20
0.0
 30
0.0
  9
$PUCSBASE
  2

  9
$PUCSNAME
  2

  9
$PUCSORG
 10
0.0
 20
0.0
 30
0.0
  9
$PUCSXDIR
 10
1.0
 20
0.0
 30
0.0
  9
$PUCSYDIR
 10
0.0
 20
1.0
 30
0.0
  9
$PUCSORTHOREF
  2

  9
$PUCSORTHOVIEW
 70
     0
  9
$PUCSORGTOP
 10
0.0
 20
0.0
 30
0.0
  9
$PUCSORGBOTTOM
 10
0.0
 20
0.0
 30
0.0
  9
$PUCSORGLEFT
 10
0.0
 20
0.0
 30
0.0
  9
$PUCSORGRIGHT
 10
0.0
 20
0.0
 30
0.0
  9
$PUCSORGFRONT
 10
0.0
 20
0.0
 30
0.0
  9
$PUCSORGBACK
 10
0.0
 20
0.0
 30
0.0
  9
$USERI1
 70
     0
  9
$USERI2
 70
     0
  9
$USERI3
 70
     0
  9
$USERI4
 70
     0
  9
$USERI5
 70
     0
  9
$USERR1
 40
0.0
  9
$USERR2
 40
0.0
  9
$USERR3
 40
0.0
  9
$USERR4
 40
0.0
  9
$USERR5
 40
0.0
  9
$WORLDVIEW
 70
     1
  9
$SHADEDGE
 70
     3
  9
$SHADEDIF
 70
    70
  9
$TILEMODE
 70
     1
  9
$MAXACTVP
 70
    64
  9
$PINSBASE
 10
0.0
 20
0.0
 30
0.0
  9
$PLIMCHECK
 70
     0
  9
$PEXTMIN
 10
1.000000000000000E+20
 20
1.000000000000000E+20
 30
1.000000000000000E+20
  9
$PEXTMAX
 10
-1.000000000000000E+20
 20
-1.000000000000000E+20
 30
-1.000000000000000E+20
  9
$PLIMMIN
 10
0.0
 20
0.0
  9
$PLIMMAX
 10
420.0
 20
297.0
  9
$UNITMODE
 70
     0
  9
$VISRETAIN
 70
     1
  9
$PLINEGEN
 70
     0
  9
$PSLTSCALE
 70
     1
  9
$TREEDEPTH
 70
  3020
  9
$CMLSTYLE
  2
Standard
  9
$CMLJUST
 70
     0
  9
$CMLSCALE
 40
20.0
  9
$PROXYGRAPHICS
 70
     1
  9
$MEASUREMENT
 70
     1
  9
$CELWEIGHT
370
    -1
  9
$ENDCAPS
280
     0
  9
$JOINSTYLE
280
     0
  9
$LWDISPLAY
290
     0
  9
$INSUNITS
 70
     4
  9
$HYPERLINKBASE
  1

  9
$STYLESHEET
  1
SEISA.CTB
  9
$XEDIT
290
     1
  9
$CEPSNTYPE
380
     0
  9
$PSTYLEMODE
290
     1
  9
$FINGERPRINTGUID
  2
{293A0814-3401-4137-8239-A7052E259BD4}
  9
$VERSIONGUID
  2
{49A1F64A-56EB-4B16-B50E-32A231AB002B}
  9
$EXTNAMES
290
     1
  9
$PSVPSCALE
 40
0.0
  9
$OLESTARTUP
290
     0
  9
$SORTENTS
280
   127
  9
$INDEXCTL
280
     0
  9
$HIDETEXT
280
     0
  9
$XCLIPFRAME
290
     0
  9
$HALOGAP
280
     0
  9
$OBSCOLOR
 70
   257
  9
$OBSLTYPE
280
     0
  9
$INTERSECTIONDISPLAY
280
     0
  9
$INTERSECTIONCOLOR
 70
   257
  9
$DIMASSOC
280
     2
  9
$PROJECTNAME
  1

  9
$CAMERADISPLAY
290
     0
  9
$LENSLENGTH
 40
50.0
  9
$CAMERAHEIGHT
 40
0.0
  9
$STEPSPERSEC
 40
2.0
  9
$STEPSIZE
 40
6.0
  9
$3DDWFPREC
 40
2.0
  9
$PSOLWIDTH
 40
0.25
  9
$PSOLHEIGHT
 40
4.0
  9
$LOFTANG1
 40
1.570796326794896
  9
$LOFTANG2
 40
1.570796326794896
  9
$LOFTMAG1
 40
0.0
  9
$LOFTMAG2
 40
0.0
  9
$LOFTPARAM
 70
     7
  9
$LOFTNORMALS
280
     1
  9
$LATITUDE
 40
37.795
  9
$LONGITUDE
 40
-122.394
  9
$NORTHDIRECTION
 40
0.0
  9
$TIMEZONE
 70
 -8000
  9
$LIGHTGLYPHDISPLAY
280
     1
  9
$TILEMODELIGHTSYNCH
280
     1
  9
$CMATERIAL
347
27C
  9
$SOLIDHIST
280
     1
  9
$SHOWHIST
280
     1
  9
$DWFFRAME
280
     2
  9
$DGNFRAME
280
     0
  9
$REALWORLDSCALE
290
     1
  9
$INTERFERECOLOR
 62
     1
  9
$INTERFEREOBJVS
345
289
  9
$INTERFEREVPVS
346
286
  9
$CSHADOW
280
     0
  9
$SHADOWPLANELOCATION
 40
0.0
  0
ENDSEC
  0
SECTION
  2
CLASSES
  0
CLASS
  1
ACDBDICTIONARYWDFLT
  2
AcDbDictionaryWithDefault
  3
ObjectDBX Classes
 90
        0
 91
        1
280
     0
281
     0
  0
CLASS
  1
AMGSETTINGSOBJ
  2
AmgSettingsObj
  3
"AcadM|Product Description: AutoCAD Mechanical|Company: Autodesk, Inc."
 90
     1024
 91
        2
280
     0
281
     0
  0
CLASS
  1
ACME_DOCUMENT
  2
AcMeDbDoc
  3
AcMeServices
 90
     1024
 91
        1
280
     0
281
     0
  0
CLASS
  1
ACMESCOPE
  2
AcMeScope
  3
AcMeServices
 90
     1024
 91
        1
280
     0
281
     0
  0
CLASS
  1
ACMECOMMANDHISTORY
  2
AcMeCommandHistory
  3
AcMeServices
 90
     1024
 91
        1
280
     0
281
     0
  0
CLASS
  1
DICTIONARYVAR
  2
AcDbDictionaryVar
  3
ObjectDBX Classes
 90
        0
 91
        9
280
     0
281
     0
  0
CLASS
  1
ACIMSYSVARMAN
  2
AcImSysVarManager
  3
AcMeServices
 90
     1024
 91
        5
280
     0
281
     0
  0
CLASS
  1
ACIMREALSYSVAR
  2
AcImRealSysVar
  3
AcMeServices
 90
     1024
 91
        1
280
     0
281
     0
  0
CLASS
  1
ACIMINTSYSVAR
  2
AcImIntSysVar
  3
AcMeServices
 90
     1024
 91
       27
280
     0
281
     0
  0
CLASS
  1
ACMEDRAWINGMAN
  2
AcMeDrawingMan
  3
AcMeServices
 90
     1024
 91
        1
280
     0
281
     0
  0
CLASS
  1
ACMEVIEW
  2
AcMeView
  3
AcMeServices
 90
     1024
 91
        1
280
     0
281
     0
  0
CLASS
  1
ACDBENTITYCACHE
  2
AcMeEntityCache
  3
AcMeServices
 90
     1024
 91
        1
280
     0
281
     0
  0
CLASS
  1
GSMANAGER
  2
AcMeGSManager
  3
AcMeServices
 90
     1024
 91
        1
280
     0
281
     0
  0
CLASS
  1
AMDTINTERNALREACTOR
  2
AmdtInternalReactor
  3
AcMeServices
 90
     1024
 91
        2
280
     0
281
     0
  0
CLASS
  1
ACMESTATEMGR
  2
AcMeStateMgr
  3
AcMeServices
 90
     1024
 91
        1
280
     0
281
     0
  0
CLASS
  1
ACGREFMASTER
  2
AcGrefMaster
  3
AcAttribServices
 90
     1024
 91
        1
280
     0
281
     0
  0
CLASS
  1
ACME_DATABASE
  2
AcMeDbDatabase
  3
AcMeServices
 90
     1024
 91
        1
280
     0
281
     0
  0
CLASS
  1
ACRFINSADJUSTERMGR
  2
AcRfInsAdjusterMgr
  3
AcMeServices
 90
     1024
 91
        1
280
     0
281
     0
  0
CLASS
  1
ACGREFACADMASTER
  2
AcGrefacadMaster
  3
AcGrefServices
 90
     1024
 91
        1
280
     0
281
     0
  0
CLASS
  1
AMIMASTER
  2
AmiMaster
  3
AmiServices
 90
     1024
 91
        1
280
     0
281
     0
  0
CLASS
  1
ACIMSTRSYSVAR
  2
AcImStrSysVar
  3
AcMeServices
 90
     1024
 91
        5
280
     0
281
     0
  0
CLASS
  1
ACMSTANDARDJIS
  2
AcmStandardJIS
  3
"Amdt_StdImp|Product Description: AutoCAD Mechanical|Company: Autodesk, Inc."
 90
     1024
 91
        0
280
     0
281
     0
  0
CLASS
  1
AMGOBJPROPCFG
  2
AmgObjPropCfg
  3
"AmgLay|Product Description: AutoCAD Mechanical|Company: Autodesk, Inc."
 90
     1025
 91
        1
280
     0
281
     0
  0
CLASS
  1
ACMSURFSTANDARDJIS
  2
AcmSurfTextStdJIS
  3
"Amdt_StdImp|Product Description: AutoCAD Mechanical|Company: Autodesk, Inc."
 90
     1024
 91
        0
280
     0
281
     0
  0
CLASS
  1
ACMFCFSTANDARDJIS
  2
AcmFCFStdJIS
  3
"Amdt_StdImp|Product Description: AutoCAD Mechanical|Company: Autodesk, Inc."
 90
     1024
 91
        0
280
     0
281
     0
  0
CLASS
  1
ACMWELDSTANDARDJIS
  2
AcmWeldingStdJIS
  3
"Amdt_StdImp|Product Description: AutoCAD Mechanical|Company: Autodesk, Inc."
 90
     1024
 91
        0
280
     0
281
     0
  0
CLASS
  1
ACMIDSTANDARDJIS
  2
AcmIdStdJIS
  3
"Amdt_StdImp|Product Description: AutoCAD Mechanical|Company: Autodesk, Inc."
 90
     1024
 91
        0
280
     0
281
     0
  0
CLASS
  1
ACMDATUMSTANDARDJIS
  2
AcmDatumStdJIS
  3
"Amdt_StdImp|Product Description: AutoCAD Mechanical|Company: Autodesk, Inc."
 90
     1024
 91
        0
280
     0
281
     0
  0
CLASS
  1
ACMBOMSTANDARDJIS
  2
AcmBOMStdJIS
  3
"Amdt_StdImp|Product Description: AutoCAD Mechanical|Company: Autodesk, Inc."
 90
     1024
 91
        0
280
     0
281
     0
  0
CLASS
  1
ACMDETAILSTANDARDJIS
  2
AmdtDetailSymStdJIS
  3
"Amdt_StdImp|Product Description: AutoCAD Mechanical|Company: Autodesk, Inc."
 90
     1024
 91
        0
280
     0
281
     0
  0
CLASS
  1
ACMSECTIONSTANDARDJIS
  2
AmdtSectionSymStdJIS
  3
"Amdt_StdImp|Product Description: AutoCAD Mechanical|Company: Autodesk, Inc."
 90
     1024
 91
        0
280
     0
281
     0
  0
CLASS
  1
ACMCENTERLINESTANDARDJIS
  2
AmdtCenterLineStdJIS
  3
"Amdt_StdImp|Product Description: AutoCAD Mechanical|Company: Autodesk, Inc."
 90
     1024
 91
        0
280
     0
281
     0
  0
CLASS
  1
ACMTHREADLINESTANDARDJIS
  2
AmdtThreadLineStdJIS
  3
"Amdt_StdImp|Product Description: AutoCAD Mechanical|Company: Autodesk, Inc."
 90
     1024
 91
        0
280
     0
281
     0
  0
CLASS
  1
ACAMGLAYSTD
  2
AcAmgLayStd
  3
"AmgLay|Product Description: AutoCAD Mechanical|Company: Autodesk, Inc."
 90
     1024
 91
        1
280
     0
281
     0
  0
CLASS
  1
ACAMGDIMSTD
  2
AcAmgDimStd
  3
"AmgDim|Product Description: AutoCAD Mechanical|Company: Autodesk, Inc."
 90
     1024
 91
        1
280
     0
281
     0
  0
CLASS
  1
ACAMGTITLESTD
  2
AcAmgTitleStd
  3
"AmgTitle|Product Description: AutoCAD Mechanical|Company: Autodesk, Inc."
 90
     4095
 91
        1
280
     0
281
     0
  0
CLASS
  1
ACMDATADICTIONARY
  2
AcmDataDictionary
  3
"AcmSymBB|Product Description: AutoCAD Mechanical|Company: Autodesk, Inc."
 90
     1024
 91
        1
280
     0
281
     0
  0
CLASS
  1
ACMDATAENTRYBLOCK
  2
AcmDataEntryBlock
  3
AcmSymBB|Product Description: AutoCAD Mechanical|Company: Autodesk, Inc.
 90
     1024
 91
        0
280
     0
281
     0
  0
CLASS
  1
LAYER_INDEX
  2
AcDbLayerIndex
  3
ObjectDBX Classes
 90
        0
 91
        0
280
     0
281
     0
  0
CLASS
  1
IDBUFFER
  2
AcDbIdBuffer
  3
ObjectDBX Classes
 90
        0
 91
        0
280
     0
281
     0
  0
CLASS
  1
ACMNOTESTANDARDJIS
  2
AmdtNoteStdJIS
  3
"Amdt_StdImp|Product Description: AutoCAD Mechanical|Company: Autodesk, Inc."
 90
     1024
 91
        0
280
     0
281
     0
  0
CLASS
  1
ACAMGHOLECHARTSTDJIS
  2
AcAmgHoleChartStdJIS
  3
AmgDim|Product Description: AutoCAD Mechanical|Company: Autodesk, Inc.
 90
     1024
 91
        0
280
     0
281
     0
  0
CLASS
  1
AM_DRAWING_MGR
  2
AcDmDwgMgr
  3
AcMechDwgViewMgmt
 90
     1024
 91
        1
280
     0
281
     0
  0
CLASS
  1
AM_DWG_DOCUMENT
  2
AcDmDwgDocument
  3
AcMechDwgViewMgmt
 90
     1024
 91
        1
280
     0
281
     0
  0
CLASS
  1
AM_DWG_SHEET
  2
AcDmSheet
  3
AcMechDwgViewMgmt
 90
     1024
 91
        2
280
     0
281
     0
  0
CLASS
  1
AM_VIEWDIMPARMAP
  2
AcDmViewDimParMap
  3
AcMechDwgViewMgmt
 90
     1024
 91
        2
280
     0
281
     0
  0
CLASS
  1
AM_DWGMGR_NAME
  2
AcDmDwgMgrName
  3
AcMechDwgViewMgmt
 90
     1024
 91
        1
280
     0
281
     0
  0
CLASS
  1
AMDTMENUSTATEMGR
  2
AmdtMenuStateMgr
  3
McadcomServices
 90
     1024
 91
        1
280
     0
281
     0
  0
CLASS
  1
AMDTMCOMMENUSTATE
  2
AmdtMcomMenuState
  3
McadcomServices
 90
     1024
 91
        1
280
     0
281
     0
  0
CLASS
  1
MAPIAMMOUDLE
  2
MApiAmModule
  3
MApiAmServices
 90
     1024
 91
        1
280
     0
281
     0
  0
CLASS
  1
AMDTADMENUSTATE
  2
AmdtAdMenuState
  3
DesignerServices
 90
     1024
 91
        1
280
     0
281
     0
  0
CLASS
  1
ADAPPL
  2
AcAdAppl
  3
DesignerServices
 90
     1024
 91
        1
280
     0
281
     0
  0
CLASS
  1
DEPMGR
  2
AcAdDepMgr
  3
DesignerServices
 90
     1024
 91
        1
280
     0
281
     0
  0
CLASS
  1
PARAMMGR
  2
AcAdParamMgr
  3
DesignerServices
 90
     1024
 91
        1
280
     0
281
     0
  0
CLASS
  1
PARAMSCOPE
  2
AcAdParamScope
  3
DesignerServices
 90
     1024
 91
        1
280
     0
281
     0
  0
CLASS
  1
NAMEDAPPL
  2
AcAdNamedAppl
  3
DesignerServices
 90
     1024
 91
        1
280
     0
281
     0
  0
CLASS
  1
AMDTDMMENUSTATE
  2
AmdtDmMenuState
  3
AcMechDwgViewMgmt
 90
     1024
 91
        1
280
     0
281
     0
  0
CLASS
  1
AMDTAMMENUSTATE
  2
AmdtAmMenuState
  3
DesignerAssemblies
 90
     1024
 91
        1
280
     0
281
     0
  0
CLASS
  1
ACAMPROJECT
  2
AcAmProject
  3
DesignerAssemblies
 90
     1024
 91
        1
280
     0
281
     0
  0
CLASS
  1
ACAMGRCOMPDEF
  2
AcAmGrCompDef
  3
DesignerAssemblies
 90
     1024
 91
        1
280
     0
281
     0
  0
CLASS
  1
ACCMCONTEXT
  2
AcCmContext
  3
DesignerAssemblies
 90
     1024
 91
        1
280
     0
281
     0
  0
CLASS
  1
ACAMCOMPDEF
  2
AcAmCompDef
  3
DesignerAssemblies
 90
     1024
 91
        1
280
     0
281
     0
  0
CLASS
  1
ACAMCOMPDEFMGR
  2
AcAmCompDefMgr
  3
DesignerAssemblies
 90
     1024
 91
        1
280
     0
281
     0
  0
CLASS
  1
AMCONTEXTMGR
  2
AcAmContextMgr
  3
DesignerAssemblies
 90
     1024
 91
        1
280
     0
281
     0
  0
CLASS
  1
ACAMCONTEXTMODELER
  2
AcAmContextModeler
  3
DesignerAssemblies
 90
     1024
 91
        1
280
     0
281
     0
  0
CLASS
  1
CATALOGSTATE
  2
AcAmCatalogState
  3
DesignerAssemblies
 90
     1024
 91
        1
280
     0
281
     0
  0
CLASS
  1
ACAMGRCOMPDEFSET
  2
AcAmGrCompDefSet
  3
DesignerAssemblies
 90
     1024
 91
        1
280
     0
281
     0
  0
CLASS
  1
AMDTBROWSERDBTAB
  2
AmdtBrowserDbTab
  3
McadcomServices
 90
     1024
 91
        1
280
     0
281
     0
  0
CLASS
  1
CBROWSERAPPOBJECT
  2
CBrowserAppObject
  3
McadcomServices
 90
     1024
 91
        3
280
     0
281
     0
  0
CLASS
  1
DM_PLACEHOLDER
  2
AcDmSelsetPlaceholder
  3
AcMechDwgViewMgmt
 90
     1024
 91
        1
280
     0
281
     0
  0
CLASS
  1
TABLESTYLE
  2
AcDbTableStyle
  3
ObjectDBX Classes
 90
     4095
 91
        1
280
     0
281
     0
  0
CLASS
  1
VAACXREFPANELOBJECT
  2
VaAcXREFPanelObject
  3
VAAC_ADDIN
 90
        0
 91
        0
280
     0
281
     0
  0
CLASS
  1
VAACIMAGEINVENTORY
  2
VaAcImageInventory
  3
VAAC_ADDIN
 90
        0
 91
        0
280
     0
281
     0
  0
CLASS
  1
AMDTNOTETEMPLATEDB
  2
AmdtNoteTemplateDB
  3
AcmSymBB|Product Description: AutoCAD Mechanical|Company: Autodesk, Inc.
 90
     1024
 91
        6
280
     0
281
     0
  0
CLASS
  1
ACAMGFILTERDAT
  2
AcAmgFilterDat
  3
"AcadM|Product Description: AutoCAD Mechanical|Company: Autodesk, Inc."
 90
     1024
 91
        0
280
     0
281
     0
  0
CLASS
  1
MATERIAL
  2
AcDbMaterial
  3
ObjectDBX Classes
 90
     1153
 91
        3
280
     0
281
     0
  0
CLASS
  1
VISUALSTYLE
  2
AcDbVisualStyle
  3
ObjectDBX Classes
 90
     4095
 91
       16
280
     0
281
     0
  0
CLASS
  1
ACRFATTGENMGR
  2
AcRfAttGeneralMgr
  3
AcAttribServices
 90
     1024
 91
        0
280
     0
281
     0
  0
CLASS
  1
ACRFOBJATTMGR
  2
AcRfObjAttGroupMgr
  3
AcAttribServices
 90
     1024
 91
        0
280
     0
281
     0
  0
CLASS
  1
ACRFMCADAPIATTHOLDER
  2
AcRfMCADAPIAttHolder
  3
AcAttribServices
 90
     1024
 91
        0
280
     0
281
     0
  0
CLASS
  1
AMDTSYSATTR
  2
AmdtSystemAttribute
  3
AcAttribServices
 90
     1024
 91
        0
280
     0
281
     0
  0
CLASS
  1
ACMTAPERSTANDARDJIS
  2
AcmTaperStdJIS
  3
"Amdt_StdImp|Product Description: AutoCAD Mechanical|Company: Autodesk, Inc."
 90
     1024
 91
        0
280
     0
281
     0
  0
CLASS
  1
CAMSSTRUCTBTNSTATE
  2
StructBtnState
  3
DesignerAssemblies
 90
     1024
 91
        0
280
     0
281
     0
  0
CLASS
  1
SCALE
  2
AcDbScale
  3
ObjectDBX Classes
 90
     1153
 91
       38
280
     0
281
     0
  0
CLASS
  1
MLEADERSTYLE
  2
AcDbMLeaderStyle
  3
ACDB_MLEADERSTYLE_CLASS
 90
     4095
 91
        1
280
     0
281
     0
  0
CLASS
  1
ACMANOOTATIONVIEWSTANDARDJIS
  2
AmdtAnViewStdJIS
  3
"Amdt_StdImp|Product Description: AutoCAD Mechanical|Company: Autodesk, Inc."
 90
     1024
 91
        0
280
     0
281
     0
  0
CLASS
  1
ACMSURFSTANDARDJIS2003
  2
AcmSurfTextStdJIS2003
  3
"Amdt_StdImp|Product Description: AutoCAD Mechanical|Company: Autodesk, Inc."
 90
     1024
 91
        0
280
     0
281
     0
  0
CLASS
  1
CELLSTYLEMAP
  2
AcDbCellStyleMap
  3
ObjectDBX Classes
 90
     1152
 91
        2
280
     0
281
     0
  0
CLASS
  1
ACMFCFSTANDARDJIS98
  2
AcmFCFStdJIS98
  3
"Amdt_StdImp|Product Description: AutoCAD Mechanical|Company: Autodesk, Inc."
 90
     1024
 91
        0
280
     0
281
     0
  0
CLASS
  1
SORTENTSTABLE
  2
AcDbSortentsTable
  3
ObjectDBX Classes
 90
        0
 91
       13
280
     0
281
     0
  0
CLASS
  1
DIMASSOC
  2
AcDbDimAssoc
  3
"AcDbDimAssoc|Product Desc:     AcDim ARX App For Dimension|Company:          Autodesk, Inc.|WEB Address:      www.autodesk.com"
 90
        0
 91
        8
280
     0
281
     0
  0
CLASS
  1
STDPART2D
  2
AmgStdPart
  3
AmgStdPart|Product Description: AutoCAD Mechanical|Company: Autodesk, Inc.
 90
     4095
 91
        0
280
     0
281
     1
  0
CLASS
  1
ACMDATAENTRYPART
  2
AcmDataEntryPart
  3
AcmSymBB|Product Description: AutoCAD Mechanical|Company: Autodesk, Inc.
 90
     1024
 91
        0
280
     0
281
     0
  0
CLASS
  1
ACMPARTREF
  2
AcmPartRef
  3
"AcmSymBB|Product Description: AutoCAD Mechanical|Company: Autodesk, Inc."
 90
     4095
 91
        0
280
     0
281
     1
  0
CLASS
  1
ACDBSTDPARTRES_LINE
  2
AcDbStdPartRes_Line
  3
AmgStdPart|Product Description: AutoCAD Mechanical|Company: Autodesk, Inc.
 90
     1024
 91
        0
280
     0
281
     0
  0
CLASS
  1
ACMBOM
  2
AcmBom
  3
"AcmSymBB|Product Description: AutoCAD Mechanical|Company: Autodesk, Inc."
 90
     1024
 91
        0
280
     0
281
     0
  0
CLASS
  1
AMDTFORMULAUPDATEDISPATCHER
  2
AmdtFormulaUpdateDispatcher
  3
AcMeServices
 90
     1024
 91
        0
280
     0
281
     0
  0
CLASS
  1
ACMBOMROW
  2
AcmBomRow
  3
"AcmSymBB|Product Description: AutoCAD Mechanical|Company: Autodesk, Inc."
 90
     1024
 91
        0
280
     0
281
     0
  0
CLASS
  1
ACMPARTLIST
  2
AcmPartList
  3
"AcmSymBB|Product Description: AutoCAD Mechanical|Company: Autodesk, Inc."
 90
     4095
 91
        0
280
     0
281
     1
  0
CLASS
  1
ACDBLINERES
  2
AcDbLineRes
  3
AcGrefServices
 90
     1024
 91
        0
280
     0
281
     0
  0
CLASS
  1
ACRFINSADJ
  2
AcRfInsAdjuster
  3
AcMeServices
 90
     1024
 91
        0
280
     0
281
     0
  0
CLASS
  1
ACMSTANDARDISO
  2
AcmStandardISO
  3
"Amdt_StdImp|Product Description: AutoCAD Mechanical|Company: Autodesk, Inc."
 90
     1024
 91
        1
280
     0
281
     0
  0
CLASS
  1
AMDTEDGESTANDARDISO13715
  2
AmdtEdgeStdISO13715
  3
"Amdt_StdImp|Product Description: AutoCAD Mechanical|Company: Autodesk, Inc."
 90
     1024
 91
        1
280
     0
281
     0
  0
CLASS
  1
ACMSURFSTANDARDISO2002
  2
AcmSurfTextStdISO2002
  3
"Amdt_StdImp|Product Description: AutoCAD Mechanical|Company: Autodesk, Inc."
 90
     1024
 91
        1
280
     0
281
     0
  0
CLASS
  1
ACMFCFSTANDARDISO
  2
AcmFCFStdISO
  3
"Amdt_StdImp|Product Description: AutoCAD Mechanical|Company: Autodesk, Inc."
 90
     1024
 91
        1
280
     0
281
     0
  0
CLASS
  1
ACMWELDSTANDARDISO
  2
AcmWeldingStdISO
  3
"Amdt_StdImp|Product Description: AutoCAD Mechanical|Company: Autodesk, Inc."
 90
     1024
 91
        1
280
     0
281
     0
  0
CLASS
  1
ACMIDSTANDARDISO
  2
AcmIdStdISO
  3
"Amdt_StdImp|Product Description: AutoCAD Mechanical|Company: Autodesk, Inc."
 90
     1024
 91
        1
280
     0
281
     0
  0
CLASS
  1
ACMDATUMSTANDARDISO
  2
AcmDatumStdISO
  3
"Amdt_StdImp|Product Description: AutoCAD Mechanical|Company: Autodesk, Inc."
 90
     1024
 91
        1
280
     0
281
     0
  0
CLASS
  1
ACMBOMSTANDARDISO
  2
AcmBOMStdISO
  3
"Amdt_StdImp|Product Description: AutoCAD Mechanical|Company: Autodesk, Inc."
 90
     1024
 91
        1
280
     0
281
     0
  0
CLASS
  1
ACMDETAILSTANDARDISO
  2
AmdtDetailSymStdISO
  3
"Amdt_StdImp|Product Description: AutoCAD Mechanical|Company: Autodesk, Inc."
 90
     1024
 91
        1
280
     0
281
     0
  0
CLASS
  1
ACMSECTIONSTANDARDISO2001
  2
AmdtSectionSymStdISO2001
  3
"Amdt_StdImp|Product Description: AutoCAD Mechanical|Company: Autodesk, Inc."
 90
     1024
 91
        1
280
     0
281
     0
  0
CLASS
  1
ACMCENTERLINESTANDARDISO
  2
AmdtCenterLineStdISO
  3
"Amdt_StdImp|Product Description: AutoCAD Mechanical|Company: Autodesk, Inc."
 90
     1024
 91
        1
280
     0
281
     0
  0
CLASS
  1
ACMTHREADLINESTANDARDISO
  2
AmdtThreadLineStdISO
  3
"Amdt_StdImp|Product Description: AutoCAD Mechanical|Company: Autodesk, Inc."
 90
     1024
 91
        1
280
     0
281
     0
  0
CLASS
  1
ACMNOTESTANDARDISO
  2
AmdtNoteStdISO
  3
"Amdt_StdImp|Product Description: AutoCAD Mechanical|Company: Autodesk, Inc."
 90
     1024
 91
        1
280
     0
281
     0
  0
CLASS
  1
ACMTAPERSTANDARDISO
  2
AcmTaperStdISO
  3
"Amdt_StdImp|Product Description: AutoCAD Mechanical|Company: Autodesk, Inc."
 90
     1024
 91
        1
280
     0
281
     0
  0
CLASS
  1
ACMANOOTATIONVIEWSTANDARDISO
  2
AmdtAnViewStdISO
  3
"Amdt_StdImp|Product Description: AutoCAD Mechanical|Company: Autodesk, Inc."
 90
     1024
 91
        1
280
     0
281
     0
  0
CLASS
  1
ACAMGHOLECHARTSTDISO
  2
AcAmgHoleChartStdISO
  3
AmgDim|Product Description: AutoCAD Mechanical|Company: Autodesk, Inc.
 90
     1024
 91
        1
280
     0
281
     0
  0
CLASS
  1
EXACXREFPANELOBJECT
  2
ExAcXREFPanelObject
  3
EXAC_ESW
 90
     1025
 91
        0
280
     0
281
     0
  0
CLASS
  1
NPOCOLLECTION
  2
AcDbImpNonPersistentObjectsCollection
  3
ObjectDBX Classes
 90
     1153
 91
        0
280
     0
281
     0
  0
CLASS
  1
ACDBSTDPARTRES_ARC
  2
AcDbStdPartRes_Arc
  3
AmgStdPart|Product Description: AutoCAD Mechanical|Company: Autodesk, Inc.
 90
     1024
 91
        0
280
     0
281
     0
  0
CLASS
  1
AMDTNOTE
  2
AmdtNote
  3
"AcmSymBB|Product Description: AutoCAD Mechanical|Company: Autodesk, Inc."
 90
     4095
 91
        0
280
     0
281
     1
  0
CLASS
  1
PLOTSETTINGS
  2
AcDbPlotSettings
  3
ObjectDBX Classes
 90
        0
 91
        1
280
     0
281
     0
  0
CLASS
  1
ACMSTANDARDANSI
  2
AcmStandardANSI
  3
"Amdt_StdImp|Product Description: AutoCAD Mechanical|Company: Autodesk, Inc."
 90
     1024
 91
        0
280
     0
281
     0
  0
CLASS
  1
ACMSURFSTANDARDANSI
  2
AcmSurfTextStdANSI
  3
"Amdt_StdImp|Product Description: AutoCAD Mechanical|Company: Autodesk, Inc."
 90
     1024
 91
        0
280
     0
281
     0
  0
CLASS
  1
ACMFCFSTANDARDANSI
  2
AcmFCFStdANSI
  3
"Amdt_StdImp|Product Description: AutoCAD Mechanical|Company: Autodesk, Inc."
 90
     1024
 91
        0
280
     0
281
     0
  0
CLASS
  1
ACMWELDSTANDARDANSI
  2
AcmWeldingStdANSI
  3
"Amdt_StdImp|Product Description: AutoCAD Mechanical|Company: Autodesk, Inc."
 90
     1024
 91
        0
280
     0
281
     0
  0
CLASS
  1
ACMIDSTANDARDANSI
  2
AcmIdStdANSI
  3
"Amdt_StdImp|Product Description: AutoCAD Mechanical|Company: Autodesk, Inc."
 90
     1024
 91
        0
280
     0
281
     0
  0
CLASS
  1
ACMDATUMSTANDARDANSI
  2
AcmDatumStdANSI
  3
"Amdt_StdImp|Product Description: AutoCAD Mechanical|Company: Autodesk, Inc."
 90
     1024
 91
        0
280
     0
281
     0
  0
CLASS
  1
ACMBOMSTANDARDANSI
  2
AcmBOMStdANSI
  3
"Amdt_StdImp|Product Description: AutoCAD Mechanical|Company: Autodesk, Inc."
 90
     1024
 91
        0
280
     0
281
     0
  0
CLASS
  1
ACMDETAILSTANDARDANSI
  2
AmdtDetailSymStdANSI
  3
"Amdt_StdImp|Product Description: AutoCAD Mechanical|Company: Autodesk, Inc."
 90
     1024
 91
        0
280
     0
281
     0
  0
CLASS
  1
ACMSECTIONSTANDARDANSI
  2
AmdtSectionSymStdANSI
  3
"Amdt_StdImp|Product Description: AutoCAD Mechanical|Company: Autodesk, Inc."
 90
     1024
 91
        0
280
     0
281
     0
  0
CLASS
  1
ACMCENTERLINESTANDARDANSI
  2
AmdtCenterLineStdANSI
  3
"Amdt_StdImp|Product Description: AutoCAD Mechanical|Company: Autodesk, Inc."
 90
     1024
 91
        0
280
     0
281
     0
  0
CLASS
  1
ACMTHREADLINESTANDARDANSI
  2
AmdtThreadLineStdANSI
  3
"Amdt_StdImp|Product Description: AutoCAD Mechanical|Company: Autodesk, Inc."
 90
     1024
 91
        0
280
     0
281
     0
  0
CLASS
  1
ACMNOTESTANDARDANSI
  2
AmdtNoteStdANSI
  3
"Amdt_StdImp|Product Description: AutoCAD Mechanical|Company: Autodesk, Inc."
 90
     1024
 91
        0
280
     0
281
     0
  0
CLASS
  1
ACMTAPERSTANDARDANSI
  2
AcmTaperStdANSI
  3
"Amdt_StdImp|Product Description: AutoCAD Mechanical|Company: Autodesk, Inc."
 90
     1024
 91
        0
280
     0
281
     0
  0
CLASS
  1
ACMANOOTATIONVIEWSTANDARDANSI
  2
AmdtAnViewStdANSI
  3
"Amdt_StdImp|Product Description: AutoCAD Mechanical|Company: Autodesk, Inc."
 90
     1024
 91
        0
280
     0
281
     0
  0
CLASS
  1
ACAMGHOLECHARTSTDANSI
  2
AcAmgHoleChartStdANSI
  3
AmgDim|Product Description: AutoCAD Mechanical|Company: Autodesk, Inc.
 90
     1024
 91
        0
280
     0
281
     0
  0
CLASS
  1
ACMSTANDARDBSI
  2
AcmStandardBSI
  3
"Amdt_StdImp|Product Description: AutoCAD Mechanical|Company: Autodesk, Inc."
 90
     1024
 91
        0
280
     0
281
     0
  0
CLASS
  1
ACMSURFSTANDARDBSI2002
  2
AcmSurfTextStdBSI2002
  3
"Amdt_StdImp|Product Description: AutoCAD Mechanical|Company: Autodesk, Inc."
 90
     1024
 91
        0
280
     0
281
     0
  0
CLASS
  1
ACMFCFSTANDARDBSI
  2
AcmFCFStdBSI
  3
"Amdt_StdImp|Product Description: AutoCAD Mechanical|Company: Autodesk, Inc."
 90
     1024
 91
        0
280
     0
281
     0
  0
CLASS
  1
ACMWELDSTANDARDBSI
  2
AcmWeldingStdBSI
  3
"Amdt_StdImp|Product Description: AutoCAD Mechanical|Company: Autodesk, Inc."
 90
     1024
 91
        0
280
     0
281
     0
  0
CLASS
  1
ACMIDSTANDARDBSI
  2
AcmIdStdBSI
  3
"Amdt_StdImp|Product Description: AutoCAD Mechanical|Company: Autodesk, Inc."
 90
     1024
 91
        0
280
     0
281
     0
  0
CLASS
  1
ACMDATUMSTANDARDBSI
  2
AcmDatumStdBSI
  3
"Amdt_StdImp|Product Description: AutoCAD Mechanical|Company: Autodesk, Inc."
 90
     1024
 91
        0
280
     0
281
     0
  0
CLASS
  1
ACMBOMSTANDARDBSI
  2
AcmBOMStdBSI
  3
"Amdt_StdImp|Product Description: AutoCAD Mechanical|Company: Autodesk, Inc."
 90
     1024
 91
        0
280
     0
281
     0
  0
CLASS
  1
ACMDETAILSTANDARDBSI
  2
AmdtDetailSymStdBSI
  3
"Amdt_StdImp|Product Description: AutoCAD Mechanical|Company: Autodesk, Inc."
 90
     1024
 91
        0
280
     0
281
     0
  0
CLASS
  1
ACMSECTIONSTANDARDBSI2001
  2
AmdtSectionSymStdBSI2001
  3
"Amdt_StdImp|Product Description: AutoCAD Mechanical|Company: Autodesk, Inc."
 90
     1024
 91
        0
280
     0
281
     0
  0
CLASS
  1
ACMCENTERLINESTANDARDBSI
  2
AmdtCenterLineStdBSI
  3
"Amdt_StdImp|Product Description: AutoCAD Mechanical|Company: Autodesk, Inc."
 90
     1024
 91
        0
280
     0
281
     0
  0
CLASS
  1
ACMTHREADLINESTANDARDBSI
  2
AmdtThreadLineStdBSI
  3
"Amdt_StdImp|Product Description: AutoCAD Mechanical|Company: Autodesk, Inc."
 90
     1024
 91
        0
280
     0
281
     0
  0
CLASS
  1
ACMNOTESTANDARDBSI
  2
AmdtNoteStdBSI
  3
"Amdt_StdImp|Product Description: AutoCAD Mechanical|Company: Autodesk, Inc."
 90
     1024
 91
        0
280
     0
281
     0
  0
CLASS
  1
ACMTAPERSTANDARDBSI
  2
AcmTaperStdBSI
  3
"Amdt_StdImp|Product Description: AutoCAD Mechanical|Company: Autodesk, Inc."
 90
     1024
 91
        0
280
     0
281
     0
  0
CLASS
  1
ACMANOOTATIONVIEWSTANDARDBSI
  2
AmdtAnViewStdBSI
  3
"Amdt_StdImp|Product Description: AutoCAD Mechanical|Company: Autodesk, Inc."
 90
     1024
 91
        0
280
     0
281
     0
  0
CLASS
  1
ACAMGHOLECHARTSTDBSI
  2
AcAmgHoleChartStdBSI
  3
AmgDim|Product Description: AutoCAD Mechanical|Company: Autodesk, Inc.
 90
     1024
 91
        0
280
     0
281
     0
  0
CLASS
  1
AMDTEDGESTANDARDJIS
  2
AmdtEdgeStdJIS
  3
"Amdt_StdImp|Product Description: AutoCAD Mechanical|Company: Autodesk, Inc."
 90
     1024
 91
        0
280
     0
281
     0
  0
CLASS
  1
ACDB_BLKREFOBJECTCONTEXTDATA_CLASS
  2
AcDbBlkRefObjectContextData
  3
ObjectDBX Classes
 90
     1153
 91
        0
280
     0
281
     0
  0
CLASS
  1
ACMSURFSYM
  2
AcmSurfaceTexture
  3
"AcmSymBB|Product Description: AutoCAD Mechanical|Company: Autodesk, Inc."
 90
     4095
 91
        0
280
     0
281
     1
  0
CLASS
  1
ACDBDIMENSIONRES
  2
AcDbDimensionRes
  3
AcmSymBB|Product Description: AutoCAD Mechanical|Company: Autodesk, Inc.
 90
     1024
 91
        0
280
     0
281
     0
  0
CLASS
  1
ACDBCIRCARCRES
  2
AcDbCircArcRes
  3
AcGrefServices
 90
     1024
 91
        0
280
     0
281
     0
  0
CLASS
  1
AMDTACMWBLOCKBOMENTITY
  2
AmdtAcmWblockBomEntity
  3
"AcmSymBB|Product Description: AutoCAD Mechanical|Company: Autodesk, Inc."
 90
     4095
 91
        0
280
     0
281
     1
  0
CLASS
  1
ACDBOPPOLYLINERES
  2
AcDbOpPolylineRes
  3
AcGrefServices
 90
     1024
 91
        0
280
     0
281
     0
  0
CLASS
  1
ACMPICKOBJ
  2
AcmPickEnt
  3
"AcmSymBB|Product Description: AutoCAD Mechanical|Company: Autodesk, Inc."
 90
     1024
 91
        0
280
     0
281
     1
  0
CLASS
  1
ACDBELLIPSERES
  2
AcDbEllipseRes
  3
AcGrefServices
 90
     1024
 91
        0
280
     0
281
     0
  0
CLASS
  1
ACMBALLOON
  2
AcmBalloon
  3
"AcmSymBB|Product Description: AutoCAD Mechanical|Company: Autodesk, Inc."
 90
     4095
 91
        0
280
     0
281
     1
  0
ENDSEC
  0
SECTION
  2
TABLES
  0
TABLE
  2
VPORT
  5
8
330
0
100
AcDbSymbolTable
 70
     1
  0
VPORT
  5
27A
330
8
100
AcDbSymbolTableRecord
100
AcDbViewportTableRecord
  2
*Active
 70
     0
 10
0.0
 20
0.0
 11
1.0
 21
1.0
 12
3884.234913829446
 22
2931.751115366007
 13
0.0
 23
0.0
 14
37.5
 24
37.5
 15
150.0
 25
150.0
 16
0.0
 26
0.0
 36
1.0
 17
0.0
 27
0.0
 37
0.0
 40
1876.891265158615
 41
1.571428571428571
 42
50.0
 43
0.0
 44
0.0
 50
0.0
 51
0.0
 71
    16
 72
 20000
 73
     1
 74
     3
 75
     0
 76
     0
 77
     0
 78
     1
281
     0
 65
     0
110
0.0
120
0.0
130
0.0
111
1.0
121
0.0
131
0.0
112
0.0
122
1.0
132
0.0
 79
     0
146
0.0
348
285
 60
     3
 61
     5
292
     1
282
     0
141
0.0
142
0.0
 63
   250
421
  3355443
  0
ENDTAB
  0
TABLE
  2
LTYPE
  5
5
330
0
100
AcDbSymbolTable
 70
    22
  0
LTYPE
  5
14
330
5
100
AcDbSymbolTableRecord
100
AcDbLinetypeTableRecord
  2
ByBlock
 70
     0
  3

 72
    65
 73
     0
 40
0.0
  0
LTYPE
  5
15
330
5
100
AcDbSymbolTableRecord
100
AcDbLinetypeTableRecord
  2
ByLayer
 70
     0
  3

 72
    65
 73
     0
 40
0.0
  0
LTYPE
  5
16
330
5
100
AcDbSymbolTableRecord
100
AcDbLinetypeTableRecord
  2
Continuous
 70
     0
  3
Solid line
 72
    65
 73
     0
 40
0.0
  0
LTYPE
  5
4D
330
5
100
AcDbSymbolTableRecord
100
AcDbLinetypeTableRecord
  2
AM_ISO02W050
 70
     0
  3
__ __ __ __ __ __ __ __ __ __ __ __ __ __ __
 72
    65
 73
     2
 40
7.5
 49
6.0
 74
     0
 49
-1.5
 74
     0
  0
LTYPE
  5
4E
330
5
100
AcDbSymbolTableRecord
100
AcDbLinetypeTableRecord
  2
AM_ISO08W050
 70
     0
  3
____ . ____ . ____ . ____ . ____ . ____ . ____
 72
    65
 73
     4
 40
18.0
 49
12.0
 74
     0
 49
-1.5
 74
     0
 49
3.0
 74
     0
 49
-1.5
 74
     0
  0
LTYPE
  5
4F
330
5
100
AcDbSymbolTableRecord
100
AcDbLinetypeTableRecord
  2
AM_ISO09W050
 70
     0
  3
_____ . . _____ . . _____ . . ____ .. ____
 72
    65
 73
     6
 40
22.5
 49
12.0
 74
     0
 49
-1.5
 74
     0
 49
3.0
 74
     0
 49
-1.5
 74
     0
 49
3.0
 74
     0
 49
-1.5
 74
     0
  0
LTYPE
  5
50
330
5
100
AcDbSymbolTableRecord
100
AcDbLinetypeTableRecord
  2
Amconstr
 70
     0
  3
_______________________
 72
    65
 73
     2
 40
9999.0
 49
9999.0
 74
     0
 49
0.0
 74
     0
  0
LTYPE
  5
51
330
5
100
AcDbSymbolTableRecord
100
AcDbLinetypeTableRecord
  2
AM_ISO08W050x2
 70
     0
  3
__ . __ . __ . __ . __ . __
 72
    65
 73
     4
 40
9.0
 49
6.0
 74
     0
 49
-0.75
 74
     0
 49
1.5
 74
     0
 49
-0.75
 74
     0
  0
LTYPE
  5
52
330
5
100
AcDbSymbolTableRecord
100
AcDbLinetypeTableRecord
  2
AM_ISO02W050x2
 70
     0
  3
 _ _ _ _ _ _ _ _ _ _ _ _
 72
    65
 73
     2
 40
3.75
 49
3.0
 74
     0
 49
-0.75
 74
     0
  0
LTYPE
  5
55
330
5
100
AcDbSymbolTableRecord
100
AcDbLinetypeTableRecord
  2
Amzigzag
 70
     0
  3
/\/-/\/-/\/-/\/-/\/-/\/
 72
    65
 73
     2
 40
11.0001
 49
0.0001
 74
     4
 75
   136
340
23D
 46
0.04
 50
0.0
 44
0.0
 45
0.0
 49
-11.0
 74
     0
  0
LTYPE
  5
65
330
5
100
AcDbSymbolTableRecord
100
AcDbLinetypeTableRecord
  2
CENTER
 70
     0
  3
__ . __
 72
    65
 73
     4
 40
7.0
 49
4.0
 74
     0
 49
-1.0
 74
     0
 49
1.0
 74
     0
 49
-1.0
 74
     0
  0
LTYPE
  5
E0
330
5
100
AcDbSymbolTableRecord
100
AcDbLinetypeTableRecord
  2
HIDDEN
 70
     0
  3
Hidden __ __ __ __ __ __ __ __ __ __ __ __ __ _
 72
    65
 73
     2
 40
9.524999999999996
 49
6.349999999999998
 74
     0
 49
-3.174999999999998
 74
     0
  0
LTYPE
  5
E1
330
5
100
AcDbSymbolTableRecord
100
AcDbLinetypeTableRecord
  2
PHANTOM2
 70
     0
  3
Phantom (.5x) ___ _ _ ___ _ _ ___ _ _ ___ _ _
 72
    65
 73
     6
 40
31.75
 49
15.875
 74
     0
 49
-3.174999999999998
 74
     0
 49
3.174999999999998
 74
     0
 49
-3.174999999999998
 74
     0
 49
3.174999999999998
 74
     0
 49
-3.174999999999998
 74
     0
  0
LTYPE
  5
5A2
330
5
100
AcDbSymbolTableRecord
100
AcDbLinetypeTableRecord
  2
ACJISWELD
 70
     0
  3
_ _ _ _ _
 72
    65
 73
     2
 40
2.0
 49
2.0
 74
     0
 49
-1.0
 74
     0
  0
LTYPE
  5
75FF
330
5
100
AcDbSymbolTableRecord
100
AcDbLinetypeTableRecord
  2
ACISOWELD
 70
     0
  3
_ _ _ _ _
 72
    65
 73
     2
 40
2.0
 49
2.0
 74
     0
 49
-1.0
 74
     0
  0
LTYPE
  5
7600
330
5
100
AcDbSymbolTableRecord
100
AcDbLinetypeTableRecord
  2
ACISOTGB
 70
     0
  3
__ . . __ . .
 72
    65
 73
     6
 40
9.0
 49
4.0
 74
     0
 49
-1.0
 74
     0
 49
1.0
 74
     0
 49
-1.0
 74
     0
 49
1.0
 74
     0
 49
-1.0
 74
     0
  0
LTYPE
  5
7601
330
5
100
AcDbSymbolTableRecord
100
AcDbLinetypeTableRecord
  2
ACISOTGL
 70
     0
  3
_ _ _ _ _
 72
    65
 73
     2
 40
3.0
 49
2.0
 74
     0
 49
-1.0
 74
     0
  0
ENDTAB
  0
TABLE
  2
LAYER
  5
2
102
{ACAD_XDICTIONARY
360
BF
102
}
330
0
100
AcDbSymbolTable
 70
     9
  0
LAYER
  5
10
102
{ACAD_XDICTIONARY
360
29F7
102
}
330
2
100
AcDbSymbolTableRecord
100
AcDbLayerTableRecord
  2
0
 70
     0
 62
     7
  6
Continuous
370
    -3
390
F
347
27E
  0
LAYER
  5
81
102
{ACAD_XDICTIONARY
360
29F9
102
}
330
2
100
AcDbSymbolTableRecord
100
AcDbLayerTableRecord
  2
AM_0 外形線1
 70
     0
 62
     7
  6
Continuous
370
    25
390
F
347
27E
  0
LAYER
  5
427
330
2
100
AcDbSymbolTableRecord
100
AcDbLayerTableRecord
  2
Defpoints
 70
     0
 62
     7
  6
Continuous
290
     0
370
    -3
390
F
347
27E
  0
LAYER
  5
3A9B
330
2
100
AcDbSymbolTableRecord
100
AcDbLayerTableRecord
  2
AM_5 寸法線
 70
     0
 62
     3
  6
Continuous
370
    13
390
F
347
27E
1001
AcAecLayerStandard
1000

1000

  0
LAYER
  5
3A9C
330
2
100
AcDbSymbolTableRecord
100
AcDbLayerTableRecord
  2
AM_4 細線
 70
     0
 62
     4
  6
Continuous
370
    13
390
F
347
27E
1001
AcAecLayerStandard
1000

1000

  0
LAYER
  5
3A9D
330
2
100
AcDbSymbolTableRecord
100
AcDbLayerTableRecord
  2
AM_7 中心線
 70
     0
 62
     1
  6
AM_ISO08W050
370
    13
390
F
347
27E
1001
AcAecLayerStandard
1000

1000

  0
LAYER
  5
3A9E
330
2
100
AcDbSymbolTableRecord
100
AcDbLayerTableRecord
  2
AM_3 隠れ線
 70
     0
 62
     8
  6
ACJISWELD
370
    13
390
F
347
27E
1001
AcAecLayerStandard
1000

1000

  0
LAYER
  5
3AA1
330
2
100
AcDbSymbolTableRecord
100
AcDbLayerTableRecord
  2
AM_6 文字
 70
     0
 62
     2
  6
Continuous
370
    13
390
F
347
27E
1001
AcAecLayerStandard
1000

1000

  0
ENDTAB
  0
TABLE
  2
STYLE
  5
3
330
0
100
AcDbSymbolTable
 70
    11
  0
STYLE
  5
11
330
3
100
AcDbSymbolTableRecord
100
AcDbTextStyleTableRecord
  2
STANDARD
 70
     0
 40
0.0
 41
1.0
 50
0.0
 71
     0
 42
25.0
  3
ISOCP.SHX
  4
EXTFONT.SHX
  0
STYLE
  5
23D
330
3
100
AcDbSymbolTableRecord
100
AcDbTextStyleTableRecord
  2

 70
     1
 40
0.0
 41
1.0
 50
0.0
 71
     0
 42
2.5
  3
genltshp.shx
  4

  0
STYLE
  5
5D5
330
3
100
AcDbSymbolTableRecord
100
AcDbTextStyleTableRecord
  2
SEISA
 70
     0
 40
0.0
 41
0.9
 50
0.0
 71
     0
 42
25.0
  3
romans.shx
  4
extfont2.shx
  0
STYLE
  5
75EF
330
3
100
AcDbSymbolTableRecord
100
AcDbTextStyleTableRecord
  2
ACISOTS
 70
     0
 40
1.0
 41
1.0
 50
0.0
 71
     0
 42
25.0
  3
isocp.shx
  4
extfont.shx
  0
STYLE
  5
75FE
330
3
100
AcDbSymbolTableRecord
100
AcDbTextStyleTableRecord
  2
ACISOGDT
 70
     0
 40
0.0
 41
1.0
 50
0.0
 71
     0
 42
25.0
  3
amgdt.shx
  4

  0
ENDTAB
  0
TABLE
  2
VIEW
  5
6
330
0
100
AcDbSymbolTable
 70
     6
  0
VIEW
  5
91B
330
6
100
AcDbSymbolTableRecord
100
AcDbViewTableRecord
  2
AM_VIEW1
 70
     0
 40
2227.5
 10
2153.432884644907
 20
3341.250005540732
 41
4306.865763546799
 11
0.0
 21
0.0
 31
1.0
 12
0.0
 22
0.0
 32
0.0
 42
50.0
 43
0.0
 44
0.0
 50
0.0
 71
    16
281
     0
 72
     0
 73
     0
  0
VIEW
  5
91C
330
6
100
AcDbSymbolTableRecord
100
AcDbViewTableRecord
  2
AM_VIEW2
 70
     0
 40
2227.5
 10
4146.567121098108
 20
3341.250005540732
 41
4306.865763546799
 11
0.0
 21
0.0
 31
1.0
 12
0.0
 22
0.0
 32
0.0
 42
50.0
 43
0.0
 44
0.0
 50
0.0
 71
    16
281
     0
 72
     0
 73
     0
  0
VIEW
  5
91D
330
6
100
AcDbSymbolTableRecord
100
AcDbViewTableRecord
  2
AM_VIEW3
 70
     0
 40
2227.5
 10
2153.432884644907
 20
1113.750005540731
 41
4306.865763546799
 11
0.0
 21
0.0
 31
1.0
 12
0.0
 22
0.0
 32
0.0
 42
50.0
 43
0.0
 44
0.0
 50
0.0
 71
    16
281
     0
 72
     0
 73
     0
  0
VIEW
  5
91E
330
6
100
AcDbSymbolTableRecord
100
AcDbViewTableRecord
  2
AM_VIEW4
 70
     0
 40
2227.5
 10
4146.567121098108
 20
1113.750005540731
 41
4306.865763546799
 11
0.0
 21
0.0
 31
1.0
 12
0.0
 22
0.0
 32
0.0
 42
50.0
 43
0.0
 44
0.0
 50
0.0
 71
    16
281
     0
 72
     0
 73
     0
  0
VIEW
  5
91F
330
6
100
AcDbSymbolTableRecord
100
AcDbViewTableRecord
  2
AM_VIEW5
 70
     0
 40
2227.500000000001
 10
3150.000002871508
 20
2227.500005540731
 41
4306.865763546799
 11
0.0
 21
0.0
 31
1.0
 12
0.0
 22
0.0
 32
0.0
 42
50.0
 43
0.0
 44
0.0
 50
0.0
 71
    16
281
     0
 72
     0
 73
     0
  0
VIEW
  5
920
330
6
100
AcDbSymbolTableRecord
100
AcDbViewTableRecord
  2
AM_VIEW6
 70
     0
 40
4454.955450000001
 10
3150.000002871508
 20
2227.500005540731
 41
8613.645389778326
 11
0.0
 21
0.0
 31
1.0
 12
0.0
 22
0.0
 32
0.0
 42
50.0
 43
0.0
 44
0.0
 50
0.0
 71
    16
281
     0
 72
     0
 73
     0
  0
ENDTAB
  0
TABLE
  2
UCS
  5
7
330
0
100
AcDbSymbolTable
 70
     0
  0
ENDTAB
  0
TABLE
  2
APPID
  5
9
330
0
100
AcDbSymbolTable
 70
   396
  0
APPID
  5
12
330
9
100
AcDbSymbolTableRecord
100
AcDbRegAppTableRecord
  2
ACAD
 70
     0
  0
APPID
  5
30
330
9
100
AcDbSymbolTableRecord
100
AcDbRegAppTableRecord
  2
MCAD_NO_VIS
 70
     0
  0
APPID
  5
31
330
9
100
AcDbSymbolTableRecord
100
AcDbRegAppTableRecord
  2
ACAD_TEMP_GRAPHIC
 70
     0
  0
APPID
  5
44
330
9
100
AcDbSymbolTableRecord
100
AcDbRegAppTableRecord
  2
ACATTRIBSERVICES
 70
     0
  0
APPID
  5
F6
330
9
100
AcDbSymbolTableRecord
100
AcDbRegAppTableRecord
  2
AD_DRAW
 70
     0
  0
APPID
  5
114
330
9
100
AcDbSymbolTableRecord
100
AcDbRegAppTableRecord
  2
DESIGNERASSEMBLIES
 70
     0
  0
APPID
  5
118
330
9
100
AcDbSymbolTableRecord
100
AcDbRegAppTableRecord
  2
ACADM_DIM_EDIT
 70
     0
  0
APPID
  5
119
330
9
100
AcDbSymbolTableRecord
100
AcDbRegAppTableRecord
  2
AMDT_DM_ADJ
 70
     0
  0
APPID
  5
1AF
330
9
100
AcDbSymbolTableRecord
100
AcDbRegAppTableRecord
  2
ACAD_DSTYLE_DIMARC_LENGTH_SYMBOL
 70
     0
  0
APPID
  5
1B0
330
9
100
AcDbSymbolTableRecord
100
AcDbRegAppTableRecord
  2
ACAD_DSTYLE_DIMJOGGED_JOGANGLE_SYMBOL
 70
     0
  0
APPID
  5
2D7
330
9
100
AcDbSymbolTableRecord
100
AcDbRegAppTableRecord
  2
ACAD_MLEADERVER
 70
     0
  0
APPID
  5
355
330
9
100
AcDbSymbolTableRecord
100
AcDbRegAppTableRecord
  2
AcadAnnoPO
 70
     0
  0
APPID
  5
428
330
9
100
AcDbSymbolTableRecord
100
AcDbRegAppTableRecord
  2
ACAD_DSTYLE_DIMTEXT_FILL
 70
     0
  0
APPID
  5
429
330
9
100
AcDbSymbolTableRecord
100
AcDbRegAppTableRecord
  2
GENIUS_GENSCREG_15
 70
     0
  0
APPID
  5
42A
330
9
100
AcDbSymbolTableRecord
100
AcDbRegAppTableRecord
  2
GENIUS_GENOBJ-N-SDF_13
 70
     0
  0
APPID
  5
42B
330
9
100
AcDbSymbolTableRecord
100
AcDbRegAppTableRecord
  2
GENIUS_GENODEF_13
 70
     0
  0
APPID
  5
42C
330
9
100
AcDbSymbolTableRecord
100
AcDbRegAppTableRecord
  2
ACAD_EXEMPT_FROM_CAD_STANDARDS
 70
     0
  0
APPID
  5
42D
330
9
100
AcDbSymbolTableRecord
100
AcDbRegAppTableRecord
  2
AcAecLayerStandard
 70
     0
  0
APPID
  5
42E
330
9
100
AcDbSymbolTableRecord
100
AcDbRegAppTableRecord
  2
GENIUS_GENOBJ-N-CEN_13
 70
     0
  0
APPID
  5
42F
330
9
100
AcDbSymbolTableRecord
100
AcDbRegAppTableRecord
  2
GENIUS_GENCEN_19
 70
     0
  0
APPID
  5
430
330
9
100
AcDbSymbolTableRecord
100
AcDbRegAppTableRecord
  2
ACAD_DSTYLE_DIMINSPECT
 70
     0
  0
APPID
  5
431
330
9
100
AcDbSymbolTableRecord
100
AcDbRegAppTableRecord
  2
GENIUS_AMGTXT_16
 70
     0
  0
APPID
  5
432
330
9
100
AcDbSymbolTableRecord
100
AcDbRegAppTableRecord
  2
GENIUS_GENFIL_13
 70
     0
  0
APPID
  5
433
330
9
100
AcDbSymbolTableRecord
100
AcDbRegAppTableRecord
  2
GENIUS_GENOLIS_13
 70
     0
  0
APPID
  5
434
330
9
100
AcDbSymbolTableRecord
100
AcDbRegAppTableRecord
  2
GENIUS_GENOBJ-N-CHA_13
 70
     0
  0
APPID
  5
435
330
9
100
AcDbSymbolTableRecord
100
AcDbRegAppTableRecord
  2
GENIUS_GENOENT_13
 70
     0
  0
APPID
  5
436
330
9
100
AcDbSymbolTableRecord
100
AcDbRegAppTableRecord
  2
GENIUS_GENOREF_13
 70
     0
  0
APPID
  5
437
330
9
100
AcDbSymbolTableRecord
100
AcDbRegAppTableRecord
  2
GENIUS_GENOBJ-N-FIL_13
 70
     0
  0
APPID
  5
438
330
9
100
AcDbSymbolTableRecord
100
AcDbRegAppTableRecord
  2
GEVID1208829536
 70
     0
  0
APPID
  5
439
330
9
100
AcDbSymbolTableRecord
100
AcDbRegAppTableRecord
  2
GEVDC
 70
     0
  0
APPID
  5
43A
330
9
100
AcDbSymbolTableRecord
100
AcDbRegAppTableRecord
  2
GEVRADREF
 70
     0
  0
APPID
  5
43B
330
9
100
AcDbSymbolTableRecord
100
AcDbRegAppTableRecord
  2
GENIUS_GENBH_13
 70
     0
  0
APPID
  5
43C
330
9
100
AcDbSymbolTableRecord
100
AcDbRegAppTableRecord
  2
GENIUS_GENOBJ-NBEHI-BHF_13
 70
     0
  0
APPID
  5
43D
330
9
100
AcDbSymbolTableRecord
100
AcDbRegAppTableRecord
  2
GENIUS_GENOBJ-NBEHI-BHB_13
 70
     0
  0
APPID
  5
43E
330
9
100
AcDbSymbolTableRecord
100
AcDbRegAppTableRecord
  2
GEVID1208829537
 70
     0
  0
APPID
  5
43F
330
9
100
AcDbSymbolTableRecord
100
AcDbRegAppTableRecord
  2
ACAD_DSTYLE_DIMJAG
 70
     0
  0
APPID
  5
440
330
9
100
AcDbSymbolTableRecord
100
AcDbRegAppTableRecord
  2
ACAD_DSTYLE_DIMTALN
 70
     0
  0
APPID
  5
441
330
9
100
AcDbSymbolTableRecord
100
AcDbRegAppTableRecord
  2
AMG_2DHIDE
 70
     0
  0
APPID
  5
442
330
9
100
AcDbSymbolTableRecord
100
AcDbRegAppTableRecord
  2
AMG_2DSTRUCT_BTR
 70
     0
  0
APPID
  5
443
330
9
100
AcDbSymbolTableRecord
100
AcDbRegAppTableRecord
  2
GEVID1208845772
 70
     0
  0
APPID
  5
444
330
9
100
AcDbSymbolTableRecord
100
AcDbRegAppTableRecord
  2
GEVID1208845773
 70
     0
  0
APPID
  5
445
330
9
100
AcDbSymbolTableRecord
100
AcDbRegAppTableRecord
  2
ACADM_2DVIEW_IGN_NOTIFY
 70
     0
  0
APPID
  5
446
330
9
100
AcDbSymbolTableRecord
100
AcDbRegAppTableRecord
  2
GEVID1208845774
 70
     0
  0
APPID
  5
447
330
9
100
AcDbSymbolTableRecord
100
AcDbRegAppTableRecord
  2
GEVID1208845775
 70
     0
  0
APPID
  5
448
330
9
100
AcDbSymbolTableRecord
100
AcDbRegAppTableRecord
  2
GEVID1208845776
 70
     0
  0
APPID
  5
449
330
9
100
AcDbSymbolTableRecord
100
AcDbRegAppTableRecord
  2
GEVID1208845777
 70
     0
  0
APPID
  5
44A
330
9
100
AcDbSymbolTableRecord
100
AcDbRegAppTableRecord
  2
GEVCON
 70
     0
  0
APPID
  5
44B
330
9
100
AcDbSymbolTableRecord
100
AcDbRegAppTableRecord
  2
GENIUS_GENOBJ-F-SCPASSM_13
 70
     0
  0
APPID
  5
44C
330
9
100
AcDbSymbolTableRecord
100
AcDbRegAppTableRecord
  2
GEVID1208845778
 70
     0
  0
APPID
  5
44D
330
9
100
AcDbSymbolTableRecord
100
AcDbRegAppTableRecord
  2
GEVID1208845779
 70
     0
  0
APPID
  5
44E
330
9
100
AcDbSymbolTableRecord
100
AcDbRegAppTableRecord
  2
GEVID1208845780
 70
     0
  0
APPID
  5
44F
330
9
100
AcDbSymbolTableRecord
100
AcDbRegAppTableRecord
  2
GEVID1208845781
 70
     0
  0
APPID
  5
450
330
9
100
AcDbSymbolTableRecord
100
AcDbRegAppTableRecord
  2
GEVID1208845782
 70
     0
  0
APPID
  5
451
330
9
100
AcDbSymbolTableRecord
100
AcDbRegAppTableRecord
  2
GEVID1208845783
 70
     0
  0
APPID
  5
452
330
9
100
AcDbSymbolTableRecord
100
AcDbRegAppTableRecord
  2
GEVID1208845784
 70
     0
  0
APPID
  5
453
330
9
100
AcDbSymbolTableRecord
100
AcDbRegAppTableRecord
  2
GEVID1208845785
 70
     0
  0
APPID
  5
454
330
9
100
AcDbSymbolTableRecord
100
AcDbRegAppTableRecord
  2
GEVID1208845787
 70
     0
  0
APPID
  5
455
330
9
100
AcDbSymbolTableRecord
100
AcDbRegAppTableRecord
  2
GEVID1208845788
 70
     0
  0
APPID
  5
456
330
9
100
AcDbSymbolTableRecord
100
AcDbRegAppTableRecord
  2
GEVID1208845789
 70
     0
  0
APPID
  5
457
330
9
100
AcDbSymbolTableRecord
100
AcDbRegAppTableRecord
  2
GEVID1208845790
 70
     0
  0
APPID
  5
458
330
9
100
AcDbSymbolTableRecord
100
AcDbRegAppTableRecord
  2
GEVID1208845791
 70
     0
  0
APPID
  5
459
330
9
100
AcDbSymbolTableRecord
100
AcDbRegAppTableRecord
  2
GEVID1208845792
 70
     0
  0
APPID
  5
45A
330
9
100
AcDbSymbolTableRecord
100
AcDbRegAppTableRecord
  2
GEVID1208845793
 70
     0
  0
APPID
  5
45B
330
9
100
AcDbSymbolTableRecord
100
AcDbRegAppTableRecord
  2
GEVID1208845794
 70
     0
  0
APPID
  5
45C
330
9
100
AcDbSymbolTableRecord
100
AcDbRegAppTableRecord
  2
GEVID1208845795
 70
     0
  0
APPID
  5
45D
330
9
100
AcDbSymbolTableRecord
100
AcDbRegAppTableRecord
  2
GEVID1208845796
 70
     0
  0
APPID
  5
45E
330
9
100
AcDbSymbolTableRecord
100
AcDbRegAppTableRecord
  2
GEVID1208845797
 70
     0
  0
APPID
  5
45F
330
9
100
AcDbSymbolTableRecord
100
AcDbRegAppTableRecord
  2
GEVID1208845798
 70
     0
  0
APPID
  5
460
330
9
100
AcDbSymbolTableRecord
100
AcDbRegAppTableRecord
  2
GEVID1208845799
 70
     0
  0
APPID
  5
461
330
9
100
AcDbSymbolTableRecord
100
AcDbRegAppTableRecord
  2
GEVID1208845800
 70
     0
  0
APPID
  5
462
330
9
100
AcDbSymbolTableRecord
100
AcDbRegAppTableRecord
  2
GEVID1208845801
 70
     0
  0
APPID
  5
463
330
9
100
AcDbSymbolTableRecord
100
AcDbRegAppTableRecord
  2
GEVID1208845802
 70
     0
  0
APPID
  5
464
330
9
100
AcDbSymbolTableRecord
100
AcDbRegAppTableRecord
  2
GENIUS_GENOBJ-N-DIM_13
 70
     0
  0
APPID
  5
465
330
9
100
AcDbSymbolTableRecord
100
AcDbRegAppTableRecord
  2
GENIUS_GENDIM_13
 70
     0
  0
APPID
  5
466
330
9
100
AcDbSymbolTableRecord
100
AcDbRegAppTableRecord
  2
GENIUS_GENDIMSH_14
 70
     0
  0
APPID
  5
467
330
9
100
AcDbSymbolTableRecord
100
AcDbRegAppTableRecord
  2
GEVID1208845803
 70
     0
  0
APPID
  5
468
330
9
100
AcDbSymbolTableRecord
100
AcDbRegAppTableRecord
  2
GEVID1208845804
 70
     0
  0
APPID
  5
469
330
9
100
AcDbSymbolTableRecord
100
AcDbRegAppTableRecord
  2
GEVID1208845805
 70
     0
  0
APPID
  5
46A
330
9
100
AcDbSymbolTableRecord
100
AcDbRegAppTableRecord
  2
GEVID1208845806
 70
     0
  0
APPID
  5
46B
330
9
100
AcDbSymbolTableRecord
100
AcDbRegAppTableRecord
  2
GEVID1208845807
 70
     0
  0
APPID
  5
46C
330
9
100
AcDbSymbolTableRecord
100
AcDbRegAppTableRecord
  2
GEVID1208845808
 70
     0
  0
APPID
  5
46D
330
9
100
AcDbSymbolTableRecord
100
AcDbRegAppTableRecord
  2
GEVID1208845809
 70
     0
  0
APPID
  5
46E
330
9
100
AcDbSymbolTableRecord
100
AcDbRegAppTableRecord
  2
GEVID1208845810
 70
     0
  0
APPID
  5
46F
330
9
100
AcDbSymbolTableRecord
100
AcDbRegAppTableRecord
  2
GEVID1208845811
 70
     0
  0
APPID
  5
470
330
9
100
AcDbSymbolTableRecord
100
AcDbRegAppTableRecord
  2
GEVID1208845813
 70
     0
  0
APPID
  5
471
330
9
100
AcDbSymbolTableRecord
100
AcDbRegAppTableRecord
  2
GEVID1208845814
 70
     0
  0
APPID
  5
472
330
9
100
AcDbSymbolTableRecord
100
AcDbRegAppTableRecord
  2
GEVID1208845815
 70
     0
  0
APPID
  5
473
330
9
100
AcDbSymbolTableRecord
100
AcDbRegAppTableRecord
  2
GEVID1208845816
 70
     0
  0
APPID
  5
474
330
9
100
AcDbSymbolTableRecord
100
AcDbRegAppTableRecord
  2
GEVID1208845817
 70
     0
  0
APPID
  5
475
330
9
100
AcDbSymbolTableRecord
100
AcDbRegAppTableRecord
  2
GEVID1208845818
 70
     0
  0
APPID
  5
476
330
9
100
AcDbSymbolTableRecord
100
AcDbRegAppTableRecord
  2
GEVID1208845819
 70
     0
  0
APPID
  5
477
330
9
100
AcDbSymbolTableRecord
100
AcDbRegAppTableRecord
  2
GEVID1208845820
 70
     0
  0
APPID
  5
478
330
9
100
AcDbSymbolTableRecord
100
AcDbRegAppTableRecord
  2
GENIUS_GENOBJ-F-SHCL_13
 70
     0
  0
APPID
  5
479
330
9
100
AcDbSymbolTableRecord
100
AcDbRegAppTableRecord
  2
GENIUS_GEFMSH_13
 70
     0
  0
APPID
  5
47A
330
9
100
AcDbSymbolTableRecord
100
AcDbRegAppTableRecord
  2
GENIUS_GENOBJ-F-SHCA_13
 70
     0
  0
APPID
  5
47B
330
9
100
AcDbSymbolTableRecord
100
AcDbRegAppTableRecord
  2
GENIUS_GEFSH_13
 70
     0
  0
APPID
  5
47C
330
9
100
AcDbSymbolTableRecord
100
AcDbRegAppTableRecord
  2
GENIUS_GEFSHP_13
 70
     0
  0
APPID
  5
47D
330
9
100
AcDbSymbolTableRecord
100
AcDbRegAppTableRecord
  2
GENIUS_GEFSHP0_13
 70
     0
  0
APPID
  5
47E
330
9
100
AcDbSymbolTableRecord
100
AcDbRegAppTableRecord
  2
GENIUS_GEFSH0_13
 70
     0
  0
APPID
  5
47F
330
9
100
AcDbSymbolTableRecord
100
AcDbRegAppTableRecord
  2
GENIUS_GEFSHP1_13
 70
     0
  0
APPID
  5
480
330
9
100
AcDbSymbolTableRecord
100
AcDbRegAppTableRecord
  2
GENIUS_GEFSH1_13
 70
     0
  0
APPID
  5
481
330
9
100
AcDbSymbolTableRecord
100
AcDbRegAppTableRecord
  2
GEVID1208866337
 70
     0
  0
APPID
  5
482
330
9
100
AcDbSymbolTableRecord
100
AcDbRegAppTableRecord
  2
GEVID1208866338
 70
     0
  0
APPID
  5
483
330
9
100
AcDbSymbolTableRecord
100
AcDbRegAppTableRecord
  2
GEVID1208866339
 70
     0
  0
APPID
  5
484
330
9
100
AcDbSymbolTableRecord
100
AcDbRegAppTableRecord
  2
GEVID1208866340
 70
     0
  0
APPID
  5
485
330
9
100
AcDbSymbolTableRecord
100
AcDbRegAppTableRecord
  2
GEVID1208866341
 70
     0
  0
APPID
  5
486
330
9
100
AcDbSymbolTableRecord
100
AcDbRegAppTableRecord
  2
ACAD_PSEXT
 70
     0
  0
APPID
  5
487
330
9
100
AcDbSymbolTableRecord
100
AcDbRegAppTableRecord
  2
GEVID1208866342
 70
     0
  0
APPID
  5
488
330
9
100
AcDbSymbolTableRecord
100
AcDbRegAppTableRecord
  2
GEVID1208913836
 70
     0
  0
APPID
  5
489
330
9
100
AcDbSymbolTableRecord
100
AcDbRegAppTableRecord
  2
GEVID1208913837
 70
     0
  0
APPID
  5
48A
330
9
100
AcDbSymbolTableRecord
100
AcDbRegAppTableRecord
  2
GEVID1208913838
 70
     0
  0
APPID
  5
48B
330
9
100
AcDbSymbolTableRecord
100
AcDbRegAppTableRecord
  2
GEVID1208913839
 70
     0
  0
APPID
  5
48C
330
9
100
AcDbSymbolTableRecord
100
AcDbRegAppTableRecord
  2
GENIUS_GENDTOL_13
 70
     0
  0
APPID
  5
48D
330
9
100
AcDbSymbolTableRecord
100
AcDbRegAppTableRecord
  2
GEVID1208928889
 70
     0
  0
APPID
  5
48E
330
9
100
AcDbSymbolTableRecord
100
AcDbRegAppTableRecord
  2
GEVID1208928890
 70
     0
  0
APPID
  5
48F
330
9
100
AcDbSymbolTableRecord
100
AcDbRegAppTableRecord
  2
GEVID1208928891
 70
     0
  0
APPID
  5
490
330
9
100
AcDbSymbolTableRecord
100
AcDbRegAppTableRecord
  2
GEVID1208928892
 70
     0
  0
APPID
  5
491
330
9
100
AcDbSymbolTableRecord
100
AcDbRegAppTableRecord
  2
GEVID1208933827
 70
     0
  0
APPID
  5
492
330
9
100
AcDbSymbolTableRecord
100
AcDbRegAppTableRecord
  2
GEVID1208933829
 70
     0
  0
APPID
  5
493
330
9
100
AcDbSymbolTableRecord
100
AcDbRegAppTableRecord
  2
GEVID1208933830
 70
     0
  0
APPID
  5
494
330
9
100
AcDbSymbolTableRecord
100
AcDbRegAppTableRecord
  2
GEVID1208933831
 70
     0
  0
APPID
  5
495
330
9
100
AcDbSymbolTableRecord
100
AcDbRegAppTableRecord
  2
GEVID1208933832
 70
     0
  0
APPID
  5
496
330
9
100
AcDbSymbolTableRecord
100
AcDbRegAppTableRecord
  2
GEVID1208933833
 70
     0
  0
APPID
  5
497
330
9
100
AcDbSymbolTableRecord
100
AcDbRegAppTableRecord
  2
GEVID1208933834
 70
     0
  0
APPID
  5
498
330
9
100
AcDbSymbolTableRecord
100
AcDbRegAppTableRecord
  2
GEVID1208933835
 70
     0
  0
APPID
  5
499
330
9
100
AcDbSymbolTableRecord
100
AcDbRegAppTableRecord
  2
GEVID1208933836
 70
     0
  0
APPID
  5
49A
330
9
100
AcDbSymbolTableRecord
100
AcDbRegAppTableRecord
  2
GEVID1208933837
 70
     0
  0
APPID
  5
49B
330
9
100
AcDbSymbolTableRecord
100
AcDbRegAppTableRecord
  2
GEVID1208933838
 70
     0
  0
APPID
  5
49C
330
9
100
AcDbSymbolTableRecord
100
AcDbRegAppTableRecord
  2
GEVID1208933840
 70
     0
  0
APPID
  5
49D
330
9
100
AcDbSymbolTableRecord
100
AcDbRegAppTableRecord
  2
GEVID1208933842
 70
     0
  0
APPID
  5
49E
330
9
100
AcDbSymbolTableRecord
100
AcDbRegAppTableRecord
  2
GEVID1208933843
 70
     0
  0
APPID
  5
49F
330
9
100
AcDbSymbolTableRecord
100
AcDbRegAppTableRecord
  2
GEVID1208933844
 70
     0
  0
APPID
  5
4A0
330
9
100
AcDbSymbolTableRecord
100
AcDbRegAppTableRecord
  2
GEVID1208933845
 70
     0
  0
APPID
  5
4A1
330
9
100
AcDbSymbolTableRecord
100
AcDbRegAppTableRecord
  2
GEVID1208933846
 70
     0
  0
APPID
  5
4A2
330
9
100
AcDbSymbolTableRecord
100
AcDbRegAppTableRecord
  2
GEVID1208933847
 70
     0
  0
APPID
  5
4A3
330
9
100
AcDbSymbolTableRecord
100
AcDbRegAppTableRecord
  2
GEVID1208933848
 70
     0
  0
APPID
  5
4A4
330
9
100
AcDbSymbolTableRecord
100
AcDbRegAppTableRecord
  2
GEVID1208933849
 70
     0
  0
APPID
  5
4A5
330
9
100
AcDbSymbolTableRecord
100
AcDbRegAppTableRecord
  2
GEVID1208933850
 70
     0
  0
APPID
  5
4A6
330
9
100
AcDbSymbolTableRecord
100
AcDbRegAppTableRecord
  2
GEVID1208933851
 70
     0
  0
APPID
  5
4A7
330
9
100
AcDbSymbolTableRecord
100
AcDbRegAppTableRecord
  2
GEVID1208933852
 70
     0
  0
APPID
  5
4A8
330
9
100
AcDbSymbolTableRecord
100
AcDbRegAppTableRecord
  2
GEVID1208933853
 70
     0
  0
APPID
  5
4A9
330
9
100
AcDbSymbolTableRecord
100
AcDbRegAppTableRecord
  2
GEVID1208933854
 70
     0
  0
APPID
  5
4AA
330
9
100
AcDbSymbolTableRecord
100
AcDbRegAppTableRecord
  2
GEVID1208933855
 70
     0
  0
APPID
  5
4AB
330
9
100
AcDbSymbolTableRecord
100
AcDbRegAppTableRecord
  2
GEVID1208933856
 70
     0
  0
APPID
  5
4AC
330
9
100
AcDbSymbolTableRecord
100
AcDbRegAppTableRecord
  2
GEVID1208933857
 70
     0
  0
APPID
  5
4AD
330
9
100
AcDbSymbolTableRecord
100
AcDbRegAppTableRecord
  2
GEVID1208933858
 70
     0
  0
APPID
  5
4AE
330
9
100
AcDbSymbolTableRecord
100
AcDbRegAppTableRecord
  2
GEVID1208933859
 70
     0
  0
APPID
  5
4AF
330
9
100
AcDbSymbolTableRecord
100
AcDbRegAppTableRecord
  2
GEVID1208933860
 70
     0
  0
APPID
  5
4B0
330
9
100
AcDbSymbolTableRecord
100
AcDbRegAppTableRecord
  2
GEVID1208933861
 70
     0
  0
APPID
  5
4B1
330
9
100
AcDbSymbolTableRecord
100
AcDbRegAppTableRecord
  2
GEVID1208933862
 70
     0
  0
APPID
  5
4B2
330
9
100
AcDbSymbolTableRecord
100
AcDbRegAppTableRecord
  2
GEVID1208933863
 70
     0
  0
APPID
  5
4B3
330
9
100
AcDbSymbolTableRecord
100
AcDbRegAppTableRecord
  2
GEVID1208933864
 70
     0
  0
APPID
  5
4B4
330
9
100
AcDbSymbolTableRecord
100
AcDbRegAppTableRecord
  2
GEVID1208933865
 70
     0
  0
APPID
  5
4B5
330
9
100
AcDbSymbolTableRecord
100
AcDbRegAppTableRecord
  2
GEVID1208933866
 70
     0
  0
APPID
  5
4B6
330
9
100
AcDbSymbolTableRecord
100
AcDbRegAppTableRecord
  2
GEVID1208933867
 70
     0
  0
APPID
  5
4B7
330
9
100
AcDbSymbolTableRecord
100
AcDbRegAppTableRecord
  2
GEVID1208933868
 70
     0
  0
APPID
  5
4B8
330
9
100
AcDbSymbolTableRecord
100
AcDbRegAppTableRecord
  2
GEVID1208933869
 70
     0
  0
APPID
  5
4B9
330
9
100
AcDbSymbolTableRecord
100
AcDbRegAppTableRecord
  2
GEVID1208933870
 70
     0
  0
APPID
  5
4BA
330
9
100
AcDbSymbolTableRecord
100
AcDbRegAppTableRecord
  2
GEVID1208933871
 70
     0
  0
APPID
  5
4BB
330
9
100
AcDbSymbolTableRecord
100
AcDbRegAppTableRecord
  2
GEVID1208933872
 70
     0
  0
APPID
  5
4BC
330
9
100
AcDbSymbolTableRecord
100
AcDbRegAppTableRecord
  2
GEVID1208933873
 70
     0
  0
APPID
  5
4BD
330
9
100
AcDbSymbolTableRecord
100
AcDbRegAppTableRecord
  2
GEVID1208933874
 70
     0
  0
APPID
  5
4BE
330
9
100
AcDbSymbolTableRecord
100
AcDbRegAppTableRecord
  2
GEVID1208933875
 70
     0
  0
APPID
  5
4BF
330
9
100
AcDbSymbolTableRecord
100
AcDbRegAppTableRecord
  2
GEVID1208933876
 70
     0
  0
APPID
  5
4C0
330
9
100
AcDbSymbolTableRecord
100
AcDbRegAppTableRecord
  2
ACAD_DSTYLE_DIMRADIAL_EXTENSION
 70
     0
  0
APPID
  5
4C1
330
9
100
AcDbSymbolTableRecord
100
AcDbRegAppTableRecord
  2
GEVID1208999100
 70
     0
  0
APPID
  5
4C2
330
9
100
AcDbSymbolTableRecord
100
AcDbRegAppTableRecord
  2
GEVID1208999101
 70
     0
  0
APPID
  5
4C3
330
9
100
AcDbSymbolTableRecord
100
AcDbRegAppTableRecord
  2
GEVID1208999102
 70
     0
  0
APPID
  5
4C4
330
9
100
AcDbSymbolTableRecord
100
AcDbRegAppTableRecord
  2
GEVID1208999103
 70
     0
  0
APPID
  5
4C5
330
9
100
AcDbSymbolTableRecord
100
AcDbRegAppTableRecord
  2
GEVID1208999105
 70
     0
  0
APPID
  5
4C6
330
9
100
AcDbSymbolTableRecord
100
AcDbRegAppTableRecord
  2
GEVID1208999106
 70
     0
  0
APPID
  5
4C7
330
9
100
AcDbSymbolTableRecord
100
AcDbRegAppTableRecord
  2
GEVID1208999108
 70
     0
  0
APPID
  5
4C8
330
9
100
AcDbSymbolTableRecord
100
AcDbRegAppTableRecord
  2
GEVID1208999109
 70
     0
  0
APPID
  5
4C9
330
9
100
AcDbSymbolTableRecord
100
AcDbRegAppTableRecord
  2
GEVID1208999110
 70
     0
  0
APPID
  5
4CA
330
9
100
AcDbSymbolTableRecord
100
AcDbRegAppTableRecord
  2
GEVID1208999111
 70
     0
  0
APPID
  5
4CB
330
9
100
AcDbSymbolTableRecord
100
AcDbRegAppTableRecord
  2
GEVID1208999112
 70
     0
  0
APPID
  5
4CC
330
9
100
AcDbSymbolTableRecord
100
AcDbRegAppTableRecord
  2
GEVID1208999113
 70
     0
  0
APPID
  5
4CD
330
9
100
AcDbSymbolTableRecord
100
AcDbRegAppTableRecord
  2
GEVID1208999114
 70
     0
  0
APPID
  5
4CE
330
9
100
AcDbSymbolTableRecord
100
AcDbRegAppTableRecord
  2
GEVID1210218799
 70
     0
  0
APPID
  5
4CF
330
9
100
AcDbSymbolTableRecord
100
AcDbRegAppTableRecord
  2
GEVID1210218800
 70
     0
  0
APPID
  5
4D0
330
9
100
AcDbSymbolTableRecord
100
AcDbRegAppTableRecord
  2
GENIUS_GEFWELD_13
 70
     0
  0
APPID
  5
4D1
330
9
100
AcDbSymbolTableRecord
100
AcDbRegAppTableRecord
  2
GENIUS_GENOBJ-F-WELS_13
 70
     0
  0
APPID
  5
4D2
330
9
100
AcDbSymbolTableRecord
100
AcDbRegAppTableRecord
  2
AcadAnnotative
 70
     0
  0
APPID
  5
4D3
330
9
100
AcDbSymbolTableRecord
100
AcDbRegAppTableRecord
  2
GEVID1210145339
 70
     0
  0
APPID
  5
4D4
330
9
100
AcDbSymbolTableRecord
100
AcDbRegAppTableRecord
  2
ACAD_DSTYLE_DIMBREAK
 70
     0
  0
APPID
  5
4D5
330
9
100
AcDbSymbolTableRecord
100
AcDbRegAppTableRecord
  2
GEVID1210145340
 70
     0
  0
APPID
  5
4D6
330
9
100
AcDbSymbolTableRecord
100
AcDbRegAppTableRecord
  2
GEVID1210145341
 70
     0
  0
APPID
  5
4D7
330
9
100
AcDbSymbolTableRecord
100
AcDbRegAppTableRecord
  2
GEVID1210145342
 70
     0
  0
APPID
  5
4D8
330
9
100
AcDbSymbolTableRecord
100
AcDbRegAppTableRecord
  2
GEVID1210145343
 70
     0
  0
APPID
  5
4D9
330
9
100
AcDbSymbolTableRecord
100
AcDbRegAppTableRecord
  2
GEVID1210145344
 70
     0
  0
APPID
  5
4DA
330
9
100
AcDbSymbolTableRecord
100
AcDbRegAppTableRecord
  2
GEVID1210145345
 70
     0
  0
APPID
  5
4DB
330
9
100
AcDbSymbolTableRecord
100
AcDbRegAppTableRecord
  2
GEVID1210152816
 70
     0
  0
APPID
  5
4DC
330
9
100
AcDbSymbolTableRecord
100
AcDbRegAppTableRecord
  2
GEVID1210153850
 70
     0
  0
APPID
  5
4DD
330
9
100
AcDbSymbolTableRecord
100
AcDbRegAppTableRecord
  2
GEVID1210153851
 70
     0
  0
APPID
  5
4DE
330
9
100
AcDbSymbolTableRecord
100
AcDbRegAppTableRecord
  2
GEVID1210153852
 70
     0
  0
APPID
  5
4DF
330
9
100
AcDbSymbolTableRecord
100
AcDbRegAppTableRecord
  2
GEVID1210549898
 70
     0
  0
APPID
  5
4E0
330
9
100
AcDbSymbolTableRecord
100
AcDbRegAppTableRecord
  2
GEVID1210549899
 70
     0
  0
APPID
  5
4E1
330
9
100
AcDbSymbolTableRecord
100
AcDbRegAppTableRecord
  2
GEVID1210549900
 70
     0
  0
APPID
  5
4E2
330
9
100
AcDbSymbolTableRecord
100
AcDbRegAppTableRecord
  2
GEVID1210549901
 70
     0
  0
APPID
  5
4E3
330
9
100
AcDbSymbolTableRecord
100
AcDbRegAppTableRecord
  2
GEVID1210549902
 70
     0
  0
APPID
  5
4E4
330
9
100
AcDbSymbolTableRecord
100
AcDbRegAppTableRecord
  2
GEVID1210549903
 70
     0
  0
APPID
  5
4E5
330
9
100
AcDbSymbolTableRecord
100
AcDbRegAppTableRecord
  2
GEVID1210549904
 70
     0
  0
APPID
  5
4E6
330
9
100
AcDbSymbolTableRecord
100
AcDbRegAppTableRecord
  2
GEVID1210549905
 70
     0
  0
APPID
  5
4E7
330
9
100
AcDbSymbolTableRecord
100
AcDbRegAppTableRecord
  2
GEVID1210549906
 70
     0
  0
APPID
  5
4E8
330
9
100
AcDbSymbolTableRecord
100
AcDbRegAppTableRecord
  2
GEVID1210549907
 70
     0
  0
APPID
  5
4E9
330
9
100
AcDbSymbolTableRecord
100
AcDbRegAppTableRecord
  2
GEVID1210549908
 70
     0
  0
APPID
  5
4EA
330
9
100
AcDbSymbolTableRecord
100
AcDbRegAppTableRecord
  2
GEVID1210549909
 70
     0
  0
APPID
  5
4EB
330
9
100
AcDbSymbolTableRecord
100
AcDbRegAppTableRecord
  2
GEVID1210549910
 70
     0
  0
APPID
  5
4EC
330
9
100
AcDbSymbolTableRecord
100
AcDbRegAppTableRecord
  2
GEVID1210549911
 70
     0
  0
APPID
  5
4ED
330
9
100
AcDbSymbolTableRecord
100
AcDbRegAppTableRecord
  2
GEVID1210549912
 70
     0
  0
APPID
  5
4EE
330
9
100
AcDbSymbolTableRecord
100
AcDbRegAppTableRecord
  2
GEVID1210549913
 70
     0
  0
APPID
  5
4EF
330
9
100
AcDbSymbolTableRecord
100
AcDbRegAppTableRecord
  2
GEVID1210549914
 70
     0
  0
APPID
  5
4F0
330
9
100
AcDbSymbolTableRecord
100
AcDbRegAppTableRecord
  2
GEVID1210549915
 70
     0
  0
APPID
  5
4F1
330
9
100
AcDbSymbolTableRecord
100
AcDbRegAppTableRecord
  2
GEVID1210549916
 70
     0
  0
APPID
  5
4F2
330
9
100
AcDbSymbolTableRecord
100
AcDbRegAppTableRecord
  2
GEVID1210549917
 70
     0
  0
APPID
  5
4F3
330
9
100
AcDbSymbolTableRecord
100
AcDbRegAppTableRecord
  2
GENIUS_GENOBJ-N-CRS_13
 70
     0
  0
APPID
  5
4F4
330
9
100
AcDbSymbolTableRecord
100
AcDbRegAppTableRecord
  2
GEVID1210549918
 70
     0
  0
APPID
  5
4F5
330
9
100
AcDbSymbolTableRecord
100
AcDbRegAppTableRecord
  2
GENIUS_GENOBJ-N-CRC_13
 70
     0
  0
APPID
  5
4F6
330
9
100
AcDbSymbolTableRecord
100
AcDbRegAppTableRecord
  2
GENIUS_GENCRC_14
 70
     0
  0
APPID
  5
4F7
330
9
100
AcDbSymbolTableRecord
100
AcDbRegAppTableRecord
  2
GEVID1210549919
 70
     0
  0
APPID
  5
4F8
330
9
100
AcDbSymbolTableRecord
100
AcDbRegAppTableRecord
  2
GEVID1210549921
 70
     0
  0
APPID
  5
4F9
330
9
100
AcDbSymbolTableRecord
100
AcDbRegAppTableRecord
  2
GEVID1210549922
 70
     0
  0
APPID
  5
4FA
330
9
100
AcDbSymbolTableRecord
100
AcDbRegAppTableRecord
  2
GEVID1210635173
 70
     0
  0
APPID
  5
4FB
330
9
100
AcDbSymbolTableRecord
100
AcDbRegAppTableRecord
  2
GEVID1210635174
 70
     0
  0
APPID
  5
4FC
330
9
100
AcDbSymbolTableRecord
100
AcDbRegAppTableRecord
  2
GEVID1210635175
 70
     0
  0
APPID
  5
4FD
330
9
100
AcDbSymbolTableRecord
100
AcDbRegAppTableRecord
  2
GEVID1210635176
 70
     0
  0
APPID
  5
4FE
330
9
100
AcDbSymbolTableRecord
100
AcDbRegAppTableRecord
  2
GEVID1210635177
 70
     0
  0
APPID
  5
4FF
330
9
100
AcDbSymbolTableRecord
100
AcDbRegAppTableRecord
  2
GEVID1210635178
 70
     0
  0
APPID
  5
500
330
9
100
AcDbSymbolTableRecord
100
AcDbRegAppTableRecord
  2
GENIUS_GENIUS_GENBHEDTMP_13
 70
     0
  0
APPID
  5
501
330
9
100
AcDbSymbolTableRecord
100
AcDbRegAppTableRecord
  2
GEVID1210635179
 70
     0
  0
APPID
  5
502
330
9
100
AcDbSymbolTableRecord
100
AcDbRegAppTableRecord
  2
GEVID1210635180
 70
     0
  0
APPID
  5
503
330
9
100
AcDbSymbolTableRecord
100
AcDbRegAppTableRecord
  2
GEVID1210635181
 70
     0
  0
APPID
  5
504
330
9
100
AcDbSymbolTableRecord
100
AcDbRegAppTableRecord
  2
GEVID1210635182
 70
     0
  0
APPID
  5
505
330
9
100
AcDbSymbolTableRecord
100
AcDbRegAppTableRecord
  2
GEVID1210635184
 70
     0
  0
APPID
  5
506
330
9
100
AcDbSymbolTableRecord
100
AcDbRegAppTableRecord
  2
GEVID1210635185
 70
     0
  0
APPID
  5
507
330
9
100
AcDbSymbolTableRecord
100
AcDbRegAppTableRecord
  2
GEVID1210635186
 70
     0
  0
APPID
  5
508
330
9
100
AcDbSymbolTableRecord
100
AcDbRegAppTableRecord
  2
GEVID1210635187
 70
     0
  0
APPID
  5
509
330
9
100
AcDbSymbolTableRecord
100
AcDbRegAppTableRecord
  2
GEVID1210635188
 70
     0
  0
APPID
  5
50A
330
9
100
AcDbSymbolTableRecord
100
AcDbRegAppTableRecord
  2
GEVID1210635189
 70
     0
  0
APPID
  5
50B
330
9
100
AcDbSymbolTableRecord
100
AcDbRegAppTableRecord
  2
GEVID1210635190
 70
     0
  0
APPID
  5
50C
330
9
100
AcDbSymbolTableRecord
100
AcDbRegAppTableRecord
  2
GENIUS_GENREC_14
 70
     0
  0
APPID
  5
50D
330
9
100
AcDbSymbolTableRecord
100
AcDbRegAppTableRecord
  2
GENIUS_GENOBJ-N-REC_13
 70
     0
  0
APPID
  5
50E
330
9
100
AcDbSymbolTableRecord
100
AcDbRegAppTableRecord
  2
GEVID1210676655
 70
     0
  0
APPID
  5
50F
330
9
100
AcDbSymbolTableRecord
100
AcDbRegAppTableRecord
  2
GEVID1210676656
 70
     0
  0
APPID
  5
510
330
9
100
AcDbSymbolTableRecord
100
AcDbRegAppTableRecord
  2
GEVID1210676657
 70
     0
  0
APPID
  5
511
330
9
100
AcDbSymbolTableRecord
100
AcDbRegAppTableRecord
  2
GEVID1210676659
 70
     0
  0
APPID
  5
512
330
9
100
AcDbSymbolTableRecord
100
AcDbRegAppTableRecord
  2
GEVID1210676660
 70
     0
  0
APPID
  5
513
330
9
100
AcDbSymbolTableRecord
100
AcDbRegAppTableRecord
  2
GEVID1210676661
 70
     0
  0
APPID
  5
514
330
9
100
AcDbSymbolTableRecord
100
AcDbRegAppTableRecord
  2
GEVID1210676662
 70
     0
  0
APPID
  5
515
330
9
100
AcDbSymbolTableRecord
100
AcDbRegAppTableRecord
  2
GEVID1210721646
 70
     0
  0
APPID
  5
516
330
9
100
AcDbSymbolTableRecord
100
AcDbRegAppTableRecord
  2
GEVID1210721647
 70
     0
  0
APPID
  5
517
330
9
100
AcDbSymbolTableRecord
100
AcDbRegAppTableRecord
  2
GEVID1210721648
 70
     0
  0
APPID
  5
518
330
9
100
AcDbSymbolTableRecord
100
AcDbRegAppTableRecord
  2
GEVID1210721649
 70
     0
  0
APPID
  5
519
330
9
100
AcDbSymbolTableRecord
100
AcDbRegAppTableRecord
  2
GEVID1210721650
 70
     0
  0
APPID
  5
51A
330
9
100
AcDbSymbolTableRecord
100
AcDbRegAppTableRecord
  2
GEVID1210721651
 70
     0
  0
APPID
  5
51B
330
9
100
AcDbSymbolTableRecord
100
AcDbRegAppTableRecord
  2
GEVID1210721652
 70
     0
  0
APPID
  5
51C
330
9
100
AcDbSymbolTableRecord
100
AcDbRegAppTableRecord
  2
GEVID1210721653
 70
     0
  0
APPID
  5
51D
330
9
100
AcDbSymbolTableRecord
100
AcDbRegAppTableRecord
  2
PE_URL
 70
     0
  0
APPID
  5
51E
330
9
100
AcDbSymbolTableRecord
100
AcDbRegAppTableRecord
  2
GEVID1210825555
 70
     0
  0
APPID
  5
51F
330
9
100
AcDbSymbolTableRecord
100
AcDbRegAppTableRecord
  2
GEVID1210825556
 70
     0
  0
APPID
  5
520
330
9
100
AcDbSymbolTableRecord
100
AcDbRegAppTableRecord
  2
GEVID1210825557
 70
     0
  0
APPID
  5
521
330
9
100
AcDbSymbolTableRecord
100
AcDbRegAppTableRecord
  2
GEVID1210825558
 70
     0
  0
APPID
  5
522
330
9
100
AcDbSymbolTableRecord
100
AcDbRegAppTableRecord
  2
GEVID1210825559
 70
     0
  0
APPID
  5
523
330
9
100
AcDbSymbolTableRecord
100
AcDbRegAppTableRecord
  2
GEVID1210825560
 70
     0
  0
APPID
  5
524
330
9
100
AcDbSymbolTableRecord
100
AcDbRegAppTableRecord
  2
GEVID1210825561
 70
     0
  0
APPID
  5
525
330
9
100
AcDbSymbolTableRecord
100
AcDbRegAppTableRecord
  2
GEVID1210825562
 70
     0
  0
APPID
  5
526
330
9
100
AcDbSymbolTableRecord
100
AcDbRegAppTableRecord
  2
GEVID1210825563
 70
     0
  0
APPID
  5
527
330
9
100
AcDbSymbolTableRecord
100
AcDbRegAppTableRecord
  2
GEVID1210825564
 70
     0
  0
APPID
  5
528
330
9
100
AcDbSymbolTableRecord
100
AcDbRegAppTableRecord
  2
GEVID1210825565
 70
     0
  0
APPID
  5
529
330
9
100
AcDbSymbolTableRecord
100
AcDbRegAppTableRecord
  2
GEVID1210825566
 70
     0
  0
APPID
  5
52A
330
9
100
AcDbSymbolTableRecord
100
AcDbRegAppTableRecord
  2
GEVID1210825567
 70
     0
  0
APPID
  5
52B
330
9
100
AcDbSymbolTableRecord
100
AcDbRegAppTableRecord
  2
GENIUS_GENOBJ-N-ZOO_13
 70
     0
  0
APPID
  5
52C
330
9
100
AcDbSymbolTableRecord
100
AcDbRegAppTableRecord
  2
GENIUS_GENZOO_17
 70
     0
  0
APPID
  5
52D
330
9
100
AcDbSymbolTableRecord
100
AcDbRegAppTableRecord
  2
ACADANNOTATIVEDECOMPOSITION
 70
     0
  0
APPID
  5
52E
330
9
100
AcDbSymbolTableRecord
100
AcDbRegAppTableRecord
  2
GENIUS_GENOBJ-N-HTC_13
 70
     0
  0
APPID
  5
52F
330
9
100
AcDbSymbolTableRecord
100
AcDbRegAppTableRecord
  2
GENIUS_GENHATCH_13
 70
     0
  0
APPID
  5
530
330
9
100
AcDbSymbolTableRecord
100
AcDbRegAppTableRecord
  2
GEVID1210896020
 70
     0
  0
APPID
  5
531
330
9
100
AcDbSymbolTableRecord
100
AcDbRegAppTableRecord
  2
GEVID1210896021
 70
     0
  0
APPID
  5
532
330
9
100
AcDbSymbolTableRecord
100
AcDbRegAppTableRecord
  2
GEVID1209083540
 70
     0
  0
APPID
  5
533
330
9
100
AcDbSymbolTableRecord
100
AcDbRegAppTableRecord
  2
GEVMK
 70
     0
  0
APPID
  5
534
330
9
100
AcDbSymbolTableRecord
100
AcDbRegAppTableRecord
  2
GEVID1209083542
 70
     0
  0
APPID
  5
535
330
9
100
AcDbSymbolTableRecord
100
AcDbRegAppTableRecord
  2
GEVID1209083543
 70
     0
  0
APPID
  5
536
330
9
100
AcDbSymbolTableRecord
100
AcDbRegAppTableRecord
  2
GEVID1209083544
 70
     0
  0
APPID
  5
537
330
9
100
AcDbSymbolTableRecord
100
AcDbRegAppTableRecord
  2
GEVID1209083545
 70
     0
  0
APPID
  5
538
330
9
100
AcDbSymbolTableRecord
100
AcDbRegAppTableRecord
  2
GEVID1209083546
 70
     0
  0
APPID
  5
539
330
9
100
AcDbSymbolTableRecord
100
AcDbRegAppTableRecord
  2
GEVID1209083547
 70
     0
  0
APPID
  5
53A
330
9
100
AcDbSymbolTableRecord
100
AcDbRegAppTableRecord
  2
GEVID1209083548
 70
     0
  0
APPID
  5
53B
330
9
100
AcDbSymbolTableRecord
100
AcDbRegAppTableRecord
  2
GEVID1209083549
 70
     0
  0
APPID
  5
53C
330
9
100
AcDbSymbolTableRecord
100
AcDbRegAppTableRecord
  2
GEVID1209083550
 70
     0
  0
APPID
  5
53D
330
9
100
AcDbSymbolTableRecord
100
AcDbRegAppTableRecord
  2
GEVID1209083551
 70
     0
  0
APPID
  5
53E
330
9
100
AcDbSymbolTableRecord
100
AcDbRegAppTableRecord
  2
GEVID1209083552
 70
     0
  0
APPID
  5
53F
330
9
100
AcDbSymbolTableRecord
100
AcDbRegAppTableRecord
  2
GEVID1209083553
 70
     0
  0
APPID
  5
540
330
9
100
AcDbSymbolTableRecord
100
AcDbRegAppTableRecord
  2
GEVID1210896022
 70
     0
  0
APPID
  5
541
330
9
100
AcDbSymbolTableRecord
100
AcDbRegAppTableRecord
  2
GEVID1211508364
 70
     0
  0
APPID
  5
542
330
9
100
AcDbSymbolTableRecord
100
AcDbRegAppTableRecord
  2
GEVID1211414908
 70
     0
  0
APPID
  5
543
330
9
100
AcDbSymbolTableRecord
100
AcDbRegAppTableRecord
  2
GEVID1211414909
 70
     0
  0
APPID
  5
544
330
9
100
AcDbSymbolTableRecord
100
AcDbRegAppTableRecord
  2
GEVID1211508359
 70
     0
  0
APPID
  5
545
330
9
100
AcDbSymbolTableRecord
100
AcDbRegAppTableRecord
  2
GEVID1211508360
 70
     0
  0
APPID
  5
546
330
9
100
AcDbSymbolTableRecord
100
AcDbRegAppTableRecord
  2
GEVID1211508361
 70
     0
  0
APPID
  5
547
330
9
100
AcDbSymbolTableRecord
100
AcDbRegAppTableRecord
  2
GEVID1211508362
 70
     0
  0
APPID
  5
548
330
9
100
AcDbSymbolTableRecord
100
AcDbRegAppTableRecord
  2
GEVID1211508363
 70
     0
  0
APPID
  5
549
330
9
100
AcDbSymbolTableRecord
100
AcDbRegAppTableRecord
  2
GEVID1211878469
 70
     0
  0
APPID
  5
54A
330
9
100
AcDbSymbolTableRecord
100
AcDbRegAppTableRecord
  2
GEVID1212642819
 70
     0
  0
APPID
  5
54B
330
9
100
AcDbSymbolTableRecord
100
AcDbRegAppTableRecord
  2
GEVID1212642820
 70
     0
  0
APPID
  5
54C
330
9
100
AcDbSymbolTableRecord
100
AcDbRegAppTableRecord
  2
GEVID1212642821
 70
     0
  0
APPID
  5
54D
330
9
100
AcDbSymbolTableRecord
100
AcDbRegAppTableRecord
  2
GEVID1212642822
 70
     0
  0
APPID
  5
54E
330
9
100
AcDbSymbolTableRecord
100
AcDbRegAppTableRecord
  2
GEVID1212642823
 70
     0
  0
APPID
  5
54F
330
9
100
AcDbSymbolTableRecord
100
AcDbRegAppTableRecord
  2
GEVID1212642825
 70
     0
  0
APPID
  5
550
330
9
100
AcDbSymbolTableRecord
100
AcDbRegAppTableRecord
  2
GEVID1212642826
 70
     0
  0
APPID
  5
551
330
9
100
AcDbSymbolTableRecord
100
AcDbRegAppTableRecord
  2
GEVID1212642827
 70
     0
  0
APPID
  5
552
330
9
100
AcDbSymbolTableRecord
100
AcDbRegAppTableRecord
  2
GEVID1212642828
 70
     0
  0
APPID
  5
553
330
9
100
AcDbSymbolTableRecord
100
AcDbRegAppTableRecord
  2
GEVID1212642831
 70
     0
  0
APPID
  5
554
330
9
100
AcDbSymbolTableRecord
100
AcDbRegAppTableRecord
  2
GEVID1212642834
 70
     0
  0
APPID
  5
555
330
9
100
AcDbSymbolTableRecord
100
AcDbRegAppTableRecord
  2
GEVID1212642835
 70
     0
  0
APPID
  5
556
330
9
100
AcDbSymbolTableRecord
100
AcDbRegAppTableRecord
  2
GEVID1212642836
 70
     0
  0
APPID
  5
557
330
9
100
AcDbSymbolTableRecord
100
AcDbRegAppTableRecord
  2
GEVID1212642837
 70
     0
  0
APPID
  5
558
330
9
100
AcDbSymbolTableRecord
100
AcDbRegAppTableRecord
  2
GEVID1212642839
 70
     0
  0
APPID
  5
559
330
9
100
AcDbSymbolTableRecord
100
AcDbRegAppTableRecord
  2
GEVID1212642840
 70
     0
  0
APPID
  5
55A
330
9
100
AcDbSymbolTableRecord
100
AcDbRegAppTableRecord
  2
GEVID1212642841
 70
     0
  0
APPID
  5
55B
330
9
100
AcDbSymbolTableRecord
100
AcDbRegAppTableRecord
  2
GEVID1212655312
 70
     0
  0
APPID
  5
55C
330
9
100
AcDbSymbolTableRecord
100
AcDbRegAppTableRecord
  2
GEVID1212655313
 70
     0
  0
APPID
  5
55D
330
9
100
AcDbSymbolTableRecord
100
AcDbRegAppTableRecord
  2
GEVID1212656533
 70
     0
  0
APPID
  5
55E
330
9
100
AcDbSymbolTableRecord
100
AcDbRegAppTableRecord
  2
GEVID1212656534
 70
     0
  0
APPID
  5
55F
330
9
100
AcDbSymbolTableRecord
100
AcDbRegAppTableRecord
  2
GEVID1212656535
 70
     0
  0
APPID
  5
560
330
9
100
AcDbSymbolTableRecord
100
AcDbRegAppTableRecord
  2
GEVID1212656536
 70
     0
  0
APPID
  5
561
330
9
100
AcDbSymbolTableRecord
100
AcDbRegAppTableRecord
  2
GEVID1212656538
 70
     0
  0
APPID
  5
562
330
9
100
AcDbSymbolTableRecord
100
AcDbRegAppTableRecord
  2
GEVID1212656541
 70
     0
  0
APPID
  5
563
330
9
100
AcDbSymbolTableRecord
100
AcDbRegAppTableRecord
  2
GEVID1212656543
 70
     0
  0
APPID
  5
564
330
9
100
AcDbSymbolTableRecord
100
AcDbRegAppTableRecord
  2
GENIUS_GENOBJ-F-PFASSM_13
 70
     0
  0
APPID
  5
565
330
9
100
AcDbSymbolTableRecord
100
AcDbRegAppTableRecord
  2
GEVID1212656544
 70
     0
  0
APPID
  5
566
330
9
100
AcDbSymbolTableRecord
100
AcDbRegAppTableRecord
  2
GEVID1212656545
 70
     0
  0
APPID
  5
567
330
9
100
AcDbSymbolTableRecord
100
AcDbRegAppTableRecord
  2
GEVID1212656546
 70
     0
  0
APPID
  5
568
330
9
100
AcDbSymbolTableRecord
100
AcDbRegAppTableRecord
  2
GEVID1212656547
 70
     0
  0
APPID
  5
569
330
9
100
AcDbSymbolTableRecord
100
AcDbRegAppTableRecord
  2
GEVID1212656548
 70
     0
  0
APPID
  5
56A
330
9
100
AcDbSymbolTableRecord
100
AcDbRegAppTableRecord
  2
GEVID1212656549
 70
     0
  0
APPID
  5
56B
330
9
100
AcDbSymbolTableRecord
100
AcDbRegAppTableRecord
  2
GEVID1212656550
 70
     0
  0
APPID
  5
56C
330
9
100
AcDbSymbolTableRecord
100
AcDbRegAppTableRecord
  2
GEVID1212656552
 70
     0
  0
APPID
  5
56D
330
9
100
AcDbSymbolTableRecord
100
AcDbRegAppTableRecord
  2
GEVID1212656553
 70
     0
  0
APPID
  5
56E
330
9
100
AcDbSymbolTableRecord
100
AcDbRegAppTableRecord
  2
GEVID1212656554
 70
     0
  0
APPID
  5
56F
330
9
100
AcDbSymbolTableRecord
100
AcDbRegAppTableRecord
  2
GEVID1212656555
 70
     0
  0
APPID
  5
570
330
9
100
AcDbSymbolTableRecord
100
AcDbRegAppTableRecord
  2
GEVID1212656556
 70
     0
  0
APPID
  5
571
330
9
100
AcDbSymbolTableRecord
100
AcDbRegAppTableRecord
  2
GEVID1212656557
 70
     0
  0
APPID
  5
572
330
9
100
AcDbSymbolTableRecord
100
AcDbRegAppTableRecord
  2
GEVID1212656559
 70
     0
  0
APPID
  5
573
330
9
100
AcDbSymbolTableRecord
100
AcDbRegAppTableRecord
  2
GEVID1212656560
 70
     0
  0
APPID
  5
574
330
9
100
AcDbSymbolTableRecord
100
AcDbRegAppTableRecord
  2
GEVID1212656561
 70
     0
  0
APPID
  5
575
330
9
100
AcDbSymbolTableRecord
100
AcDbRegAppTableRecord
  2
GEVID1212656562
 70
     0
  0
APPID
  5
576
330
9
100
AcDbSymbolTableRecord
100
AcDbRegAppTableRecord
  2
GEVID1212656563
 70
     0
  0
APPID
  5
577
330
9
100
AcDbSymbolTableRecord
100
AcDbRegAppTableRecord
  2
GEVID1212711781
 70
     0
  0
APPID
  5
578
330
9
100
AcDbSymbolTableRecord
100
AcDbRegAppTableRecord
  2
GEVID1212711782
 70
     0
  0
APPID
  5
579
330
9
100
AcDbSymbolTableRecord
100
AcDbRegAppTableRecord
  2
GEVID1212711783
 70
     0
  0
APPID
  5
57A
330
9
100
AcDbSymbolTableRecord
100
AcDbRegAppTableRecord
  2
GEVID1212711784
 70
     0
  0
APPID
  5
57B
330
9
100
AcDbSymbolTableRecord
100
AcDbRegAppTableRecord
  2
GEVID1212711788
 70
     0
  0
APPID
  5
57C
330
9
100
AcDbSymbolTableRecord
100
AcDbRegAppTableRecord
  2
GEVID1212711789
 70
     0
  0
APPID
  5
57D
330
9
100
AcDbSymbolTableRecord
100
AcDbRegAppTableRecord
  2
GEVID1212711790
 70
     0
  0
APPID
  5
57E
330
9
100
AcDbSymbolTableRecord
100
AcDbRegAppTableRecord
  2
GEVID1212711791
 70
     0
  0
APPID
  5
57F
330
9
100
AcDbSymbolTableRecord
100
AcDbRegAppTableRecord
  2
GEVID1212711792
 70
     0
  0
APPID
  5
580
330
9
100
AcDbSymbolTableRecord
100
AcDbRegAppTableRecord
  2
GEVID1212711793
 70
     0
  0
APPID
  5
581
330
9
100
AcDbSymbolTableRecord
100
AcDbRegAppTableRecord
  2
GEVID1212711794
 70
     0
  0
APPID
  5
582
330
9
100
AcDbSymbolTableRecord
100
AcDbRegAppTableRecord
  2
GEVID1212711795
 70
     0
  0
APPID
  5
583
330
9
100
AcDbSymbolTableRecord
100
AcDbRegAppTableRecord
  2
GEVID1212711797
 70
     0
  0
APPID
  5
584
330
9
100
AcDbSymbolTableRecord
100
AcDbRegAppTableRecord
  2
GEVID1212711798
 70
     0
  0
APPID
  5
585
330
9
100
AcDbSymbolTableRecord
100
AcDbRegAppTableRecord
  2
GEVID1212711799
 70
     0
  0
APPID
  5
586
330
9
100
AcDbSymbolTableRecord
100
AcDbRegAppTableRecord
  2
GEVID1212711800
 70
     0
  0
APPID
  5
587
330
9
100
AcDbSymbolTableRecord
100
AcDbRegAppTableRecord
  2
GEVID1212711801
 70
     0
  0
APPID
  5
588
330
9
100
AcDbSymbolTableRecord
100
AcDbRegAppTableRecord
  2
GEVID1212711802
 70
     0
  0
APPID
  5
589
330
9
100
AcDbSymbolTableRecord
100
AcDbRegAppTableRecord
  2
GEVID1212711803
 70
     0
  0
APPID
  5
58A
330
9
100
AcDbSymbolTableRecord
100
AcDbRegAppTableRecord
  2
GEVID1212711804
 70
     0
  0
APPID
  5
58B
330
9
100
AcDbSymbolTableRecord
100
AcDbRegAppTableRecord
  2
GEVID1212711805
 70
     0
  0
APPID
  5
58C
330
9
100
AcDbSymbolTableRecord
100
AcDbRegAppTableRecord
  2
GEVID1212711806
 70
     0
  0
APPID
  5
58D
330
9
100
AcDbSymbolTableRecord
100
AcDbRegAppTableRecord
  2
GEVID1212711807
 70
     0
  0
APPID
  5
58E
330
9
100
AcDbSymbolTableRecord
100
AcDbRegAppTableRecord
  2
GEVID1212711808
 70
     0
  0
APPID
  5
58F
330
9
100
AcDbSymbolTableRecord
100
AcDbRegAppTableRecord
  2
GEVID1212711809
 70
     0
  0
APPID
  5
590
330
9
100
AcDbSymbolTableRecord
100
AcDbRegAppTableRecord
  2
GEVID1212711810
 70
     0
  0
APPID
  5
591
330
9
100
AcDbSymbolTableRecord
100
AcDbRegAppTableRecord
  2
GEVID1212711811
 70
     0
  0
APPID
  5
90A
330
9
100
AcDbSymbolTableRecord
100
AcDbRegAppTableRecord
  2
GENIUS_GENTRA_14
 70
     0
  0
APPID
  5
919
330
9
100
AcDbSymbolTableRecord
100
AcDbRegAppTableRecord
  2
GENIUS_GENOBJ-N-TIT_13
 70
     0
  0
APPID
  5
91A
330
9
100
AcDbSymbolTableRecord
100
AcDbRegAppTableRecord
  2
GENIUS_GENTITLE_13
 70
     0
  0
APPID
  5
949
330
9
100
AcDbSymbolTableRecord
100
AcDbRegAppTableRecord
  2
GENIUS_GENBLLY_14
 70
     0
  0
APPID
  5
DDD
330
9
100
AcDbSymbolTableRecord
100
AcDbRegAppTableRecord
  2
GEVID1213165152
 70
     0
  0
APPID
  5
12F9
330
9
100
AcDbSymbolTableRecord
100
AcDbRegAppTableRecord
  2
AcDbDynamicBlockTrueName
 70
     0
  0
APPID
  5
12FA
330
9
100
AcDbSymbolTableRecord
100
AcDbRegAppTableRecord
  2
ACDBBLOCKREPETAG
 70
     0
  0
APPID
  5
1C15
330
9
100
AcDbSymbolTableRecord
100
AcDbRegAppTableRecord
  2
GEVID1214872427
 70
     0
  0
APPID
  5
1C2A
330
9
100
AcDbSymbolTableRecord
100
AcDbRegAppTableRecord
  2
GEVID1214872428
 70
     0
  0
APPID
  5
1C2F
330
9
100
AcDbSymbolTableRecord
100
AcDbRegAppTableRecord
  2
GEVID1214872429
 70
     0
  0
APPID
  5
1C33
330
9
100
AcDbSymbolTableRecord
100
AcDbRegAppTableRecord
  2
GEVID1214872430
 70
     0
  0
APPID
  5
1C3F
330
9
100
AcDbSymbolTableRecord
100
AcDbRegAppTableRecord
  2
GEVID1214872432
 70
     0
  0
APPID
  5
1C4E
330
9
100
AcDbSymbolTableRecord
100
AcDbRegAppTableRecord
  2
GEVID1214872433
 70
     0
  0
APPID
  5
20DC
330
9
100
AcDbSymbolTableRecord
100
AcDbRegAppTableRecord
  2
AcDbDynamicBlockGUID
 70
     0
  0
APPID
  5
20FD
330
9
100
AcDbSymbolTableRecord
100
AcDbRegAppTableRecord
  2
GENIUS_GENOBJ-N-REV_13
 70
     0
  0
APPID
  5
20FE
330
9
100
AcDbSymbolTableRecord
100
AcDbRegAppTableRecord
  2
GENIUS_GENOBJ-N-RSSYM_13
 70
     0
  0
APPID
  5
20FF
330
9
100
AcDbSymbolTableRecord
100
AcDbRegAppTableRecord
  2
GENIUS_GENSYMENT_13
 70
     0
  0
APPID
  5
2100
330
9
100
AcDbSymbolTableRecord
100
AcDbRegAppTableRecord
  2
GENIUS_GENSCSYM_13
 70
     0
  0
APPID
  5
588C
330
9
100
AcDbSymbolTableRecord
100
AcDbRegAppTableRecord
  2
GEVID1239931168
 70
     0
  0
APPID
  5
5891
330
9
100
AcDbSymbolTableRecord
100
AcDbRegAppTableRecord
  2
GEVID1239931169
 70
     0
  0
APPID
  5
5E9A
330
9
100
AcDbSymbolTableRecord
100
AcDbRegAppTableRecord
  2
GEVID1239931170
 70
     0
  0
APPID
  5
5E9E
330
9
100
AcDbSymbolTableRecord
100
AcDbRegAppTableRecord
  2
GEVID1239931171
 70
     0
  0
ENDTAB
  0
TABLE
  2
DIMSTYLE
  5
A
330
0
100
AcDbSymbolTable
 70
    29
100
AcDbDimStyleTable
 71
     1
340
5AB
  0
DIMSTYLE
105
5AB
330
A
100
AcDbSymbolTableRecord
100
AcDbDimStyleTableRecord
  2
SEISA
 70
     0
  4
"
 40
15.0
 41
2.5
 42
0.625
 43
10.0
 44
0.625
 47
0.1
 48
0.1
 73
     0
 74
     0
 77
     3
 78
     8
 79
     2
 90
     1
140
3.5
141
0.0
143
0.0393701
146
0.71
147
1.5
172
     1
176
     3
177
     3
178
     3
271
     2
272
     2
283
     0
286
     8
340
5D5
341
69
342
69
371
    -1
372
    -1
1001
ACAD_DSTYLE_DIMJAG
1070
   388
1040
1.5
1001
ACAD_DSTYLE_DIMTALN
1070
   392
1070
     1
  0
DIMSTYLE
105
5E9
102
{ACAD_REACTORS
330
58CA
330
5948
330
5960
330
597C
330
5A3F
330
5A57
330
5BE4
330
5C00
330
5C2E
330
5C9E
330
6D1A
330
7229
330
74FD
330
7500
102
}
330
A
100
AcDbSymbolTableRecord
100
AcDbDimStyleTableRecord
  2
SEISA$0
 70
     0
  4
"
 40
15.0
 41
2.5
 42
0.625
 43
10.0
 44
0.625
 47
0.1
 48
0.1
 73
     0
 74
     0
 77
     3
 78
     8
 79
     2
 90
     1
140
3.5
141
0.0
143
0.0393701
146
0.71
147
1.5
172
     1
176
     3
177
     3
178
     3
271
     2
272
     2
283
     0
286
     8
340
5D5
341
69
342
69
371
    -1
372
    -1
  0
DIMSTYLE
105
760A
330
A
100
AcDbSymbolTableRecord
100
AcDbDimStyleTableRecord
  2
AM_ISO
 70
     0
  4
"
 41
2.5
 42
1.0
 43
10.0
 44
1.0
 47
0.1
 48
0.1
 73
     0
 74
     0
 77
     1
 78
     8
 79
     2
 90
     1
140
3.5
141
0.0
143
0.0393701
146
0.71
147
1.5
172
     1
176
   256
177
   256
178
     2
271
     2
272
     3
274
     4
283
     0
284
     8
340
11
371
    -1
372
    -1
  0
DIMSTYLE
105
760B
330
A
100
AcDbSymbolTableRecord
100
AcDbDimStyleTableRecord
  2
AM_ISO$3
 70
     0
  4
"
 41
2.5
 42
1.0
 43
10.0
 44
1.0
 47
0.1
 48
0.1
 73
     0
 77
     1
 78
     8
 79
     2
 90
     1
140
3.5
141
0.0
143
0.0393701
146
0.71
147
1.5
176
   256
177
   256
178
     2
271
     2
272
     3
274
     4
283
     0
284
     8
288
     1
289
     0
340
11
371
    -1
372
    -1
  0
DIMSTYLE
105
760C
330
A
100
AcDbSymbolTableRecord
100
AcDbDimStyleTableRecord
  2
AM_ISO$4
 70
     0
  4
"
 41
2.5
 42
1.0
 43
10.0
 44
1.0
 47
0.1
 48
0.1
 73
     0
 77
     1
 78
     8
 79
     2
 90
     1
140
3.5
141
0.0
143
0.0393701
146
0.71
147
1.5
176
   256
177
   256
178
     2
271
     2
272
     3
274
     4
283
     0
284
     8
288
     1
289
     0
340
11
371
    -1
372
    -1
  0
DIMSTYLE
105
760D
330
A
100
AcDbSymbolTableRecord
100
AcDbDimStyleTableRecord
  2
AM_ISO$6
 70
     0
  4
"
 41
2.5
 42
1.0
 43
10.0
 44
1.0
 47
0.1
 48
0.1
 73
     0
 74
     0
 78
     8
 79
     2
 90
     1
140
3.5
141
0.0
143
0.0393701
146
0.71
147
1.5
172
     1
176
   256
177
   256
178
     2
271
     2
272
     3
274
     4
283
     0
284
     8
340
11
371
    -1
372
    -1
  0
DIMSTYLE
105
760E
330
A
100
AcDbSymbolTableRecord
100
AcDbDimStyleTableRecord
  2
AM_ISO$7
 70
     0
  4
"
 41
2.5
 42
1.0
 43
10.0
 44
1.0
 47
0.1
 48
0.1
 73
     0
 74
     0
 77
     1
 78
     8
 79
     2
 90
     1
140
5.0
141
0.0
143
0.0393701
146
0.71
147
1.5
172
     1
176
   256
177
   256
178
     2
271
     2
272
     3
274
     4
283
     0
284
     8
340
11
371
    -1
372
    -1
  0
DIMSTYLE
105
760F
330
A
100
AcDbSymbolTableRecord
100
AcDbDimStyleTableRecord
  2
AM_ISO$SF
 70
     0
  4
"
 41
2.5
 42
1.0
 43
10.0
 44
1.0
 47
0.1
 48
0.1
 73
     0
 74
     0
 75
     1
 76
     1
 77
     1
 78
     8
 79
     2
 90
     1
140
3.5
141
0.0
143
0.0393701
146
0.71
147
1.5
172
     1
176
   256
177
   256
178
     2
271
     2
272
     3
274
     4
283
     0
284
     8
340
11
371
    -1
372
    -1
  0
DIMSTYLE
105
7610
330
A
100
AcDbSymbolTableRecord
100
AcDbDimStyleTableRecord
  2
AM_ISO$SH
 70
     0
  4
"
 41
2.5
 42
1.0
 43
10.0
 44
1.0
 47
0.1
 48
0.1
 73
     0
 74
     0
 75
     1
 76
     1
 77
     1
 78
     8
 79
     2
 90
     1
140
3.5
141
0.0
143
0.0393701
144
2.0
146
0.71
147
1.5
172
     1
173
     1
176
   256
177
   256
178
     2
271
     2
272
     3
274
     4
283
     0
284
     8
340
11
343
74
371
    -1
372
    -1
  0
ENDTAB
  0
TABLE
  2
BLOCK_RECORD
  5
1
330
0
100
AcDbSymbolTable
 70
    31
  0
BLOCK_RECORD
  5
1F
102
{ACAD_XDICTIONARY
360
82
102
}
330
1
100
AcDbSymbolTableRecord
100
AcDbBlockTableRecord
  2
*Model_Space
340
22
 70
     0
280
     1
281
     0
  0
BLOCK_RECORD
  5
1B
330
1
100
AcDbSymbolTableRecord
100
AcDbBlockTableRecord
  2
*Paper_Space
340
1E
 70
     0
280
     1
281
     0
  0
BLOCK_RECORD
  5
23
330
1
100
AcDbSymbolTableRecord
100
AcDbBlockTableRecord
  2
*Paper_Space0
340
26
 70
     0
280
     1
281
     0
  0
BLOCK_RECORD
  5
69
330
1
100
AcDbSymbolTableRecord
100
AcDbBlockTableRecord
  2
_Open30
340
0
102
{BLKREFS
331
6874
331
6875
331
687C
331
687D
331
689E
331
689F
331
68AA
331
68B5
331
69DC
331
69DD
331
6D3E
331
6D3F
331
70D2
331
70D3
331
70DB
331
70DC
331
70EB
331
70EC
331
73E5
331
73E6
331
74D0
331
74D1
331
7517
331
7518
331
752F
331
7530
102
}
 70
     0
280
     1
281
     0
  0
BLOCK_RECORD
  5
74
330
1
100
AcDbSymbolTableRecord
100
AcDbBlockTableRecord
  2
GENAXEH
340
0
 70
     0
280
     1
281
     0
  0
BLOCK_RECORD
  5
39BC
330
1
100
AcDbSymbolTableRecord
100
AcDbBlockTableRecord
  2
GENDOT
340
0
102
{BLKREFS
331
68A9
331
68B4
102
}
 70
     0
280
     1
281
     0
  0
BLOCK_RECORD
  5
4B53
102
{ACAD_XDICTIONARY
360
4B81
102
}
330
1
100
AcDbSymbolTableRecord
100
AcDbBlockTableRecord
  2
ロッカクアナツキプラグA R1
340
0
310
2800000020000000200000000100080000000000000400000000000000000000000000000000000000000000000080000080000000808000800000008000800080800000C0C0C000C0DCC000F0CAA6000020400000206000002080000020A0000020C0000020E00000400000004020000040400000406000004080000040A0
310
000040C0000040E00000600000006020000060400000606000006080000060A0000060C0000060E00000800000008020000080400000806000008080000080A0000080C0000080E00000A0000000A0200000A0400000A0600000A0800000A0A00000A0C00000A0E00000C0000000C0200000C0400000C0600000C0800000C0
310
A00000C0C00000C0E00000E0000000E0200000E0400000E0600000E0800000E0A00000E0C00000E0E00040000000400020004000400040006000400080004000A0004000C0004000E00040200000402020004020400040206000402080004020A0004020C0004020E000404000004040200040404000404060004040800040
310
40A0004040C0004040E00040600000406020004060400040606000406080004060A0004060C0004060E00040800000408020004080400040806000408080004080A0004080C0004080E00040A0000040A0200040A0400040A0600040A0800040A0A00040A0C00040A0E00040C0000040C0200040C0400040C0600040C08000
310
40C0A00040C0C00040C0E00040E0000040E0200040E0400040E0600040E0800040E0A00040E0C00040E0E00080000000800020008000400080006000800080008000A0008000C0008000E00080200000802020008020400080206000802080008020A0008020C0008020E00080400000804020008040400080406000804080
310
008040A0008040C0008040E00080600000806020008060400080606000806080008060A0008060C0008060E00080800000808020008080400080806000808080008080A0008080C0008080E00080A0000080A0200080A0400080A0600080A0800080A0A00080A0C00080A0E00080C0000080C0200080C0400080C0600080C0
310
800080C0A00080C0C00080C0E00080E0000080E0200080E0400080E0600080E0800080E0A00080E0C00080E0E000C0000000C0002000C0004000C0006000C0008000C000A000C000C000C000E000C0200000C0202000C0204000C0206000C0208000C020A000C020C000C020E000C0400000C0402000C0404000C0406000C0
310
408000C040A000C040C000C040E000C0600000C0602000C0604000C0606000C0608000C060A000C060C000C060E000C0800000C0802000C0804000C0806000C0808000C080A000C080C000C080E000C0A00000C0A02000C0A04000C0A06000C0A08000C0A0A000C0A0C000C0A0E000C0C00000C0C02000C0C04000C0C06000
310
C0C08000C0C0A000F0FBFF00A4A0A000808080000000FF0000FF000000FFFF00FF000000FF00FF00FFFF0000FFFFFF000000000000000000000000000000000000000000000000000000000000000000000000000000000000000000000000F900000000000000000000000000000000000000000000000000000000000000
310
F900000000000000000000000000000000000000000000000000000000000000F900000000000000000000000000000000000000000000000000000000000000F900000000000000000000000000000000000000000000000000000000000000F9000000000000000000000000000000000000000000000000000000000000
310
00F900000000000000000000000000000000000000000000000000000000000000F900000000000000000000000000000000000000000000000000000000000000F900000000000000000000000000000000000000000000000000000000000000F90000000000000000000000000000000000000000000000000000000000
310
0000F900000000000000000000000000000000000000000000000000000000000000F900000000000000000000000000000000000000000000000000000000000000F9000000000000000000000000000000000000000000000000FFFFFFFFFFFFFFFFFFFFFFFFFFFFFFFF0000000000000000000000000000FFFF00000000
310
000000F90000000000000000FFFF00000000000000000000FFFFFFFFFFFFFFFFFFFFFFFFFFFFFFFFFFFFFFFFFFFFFFFF0000000000000000FFFE000000000000000000F900000000000000000000FEFF0000000000000000FFFE000000000000000000F900000000000000000000FEFF0000000000000000FFFE0000000000
310
00000000F900000000000000000000FEFF0000000000000000FFFE000000000000000000F900000000000000000000FEFF0000000000000000FFFE000000000000000000F900000000000000000000FEFF0000000000000000FFFE000000000000000000F900000000000000000000FEFF0000000000000000FFFE00000000
310
0000000000F900000000000000000000FEFF0000000000000000FFFE000000000000000000F900000000000000000000FEFF0000000000000000FFFFFFFFFFFFFFFFFFFFFFFFFFFFFFFFFFFFFFFFFFFFFFFF000000000000000000FF000000000000000000F900000000000000000000FF0000000000000000000000FF0000
310
000000000000F9000000000000000000FF000000000000000000000000000000000000000000F900000000000000000000000000000000000000000000000000000000000000F900000000000000000000000000000000000000000000000000000000000000F9000000000000000000000000000000000000000000000000
310
00000000000000F9000000000000000000000000000000000000000000000000000000000000000000000000000000000000000000000000
102
{BLKREFS
331
4C96
102
}
 70
     4
280
     1
281
     0
  0
BLOCK_RECORD
  5
4BA4
102
{ACAD_XDICTIONARY
360
4BD0
102
}
330
1
100
AcDbSymbolTableRecord
100
AcDbBlockTableRecord
  2
ロッカクアナツキプラグB R
340
0
310
2800000020000000200000000100080000000000000400000000000000000000000000000000000000000000000080000080000000808000800000008000800080800000C0C0C000C0DCC000F0CAA6000020400000206000002080000020A0000020C0000020E00000400000004020000040400000406000004080000040A0
310
000040C0000040E00000600000006020000060400000606000006080000060A0000060C0000060E00000800000008020000080400000806000008080000080A0000080C0000080E00000A0000000A0200000A0400000A0600000A0800000A0A00000A0C00000A0E00000C0000000C0200000C0400000C0600000C0800000C0
310
A00000C0C00000C0E00000E0000000E0200000E0400000E0600000E0800000E0A00000E0C00000E0E00040000000400020004000400040006000400080004000A0004000C0004000E00040200000402020004020400040206000402080004020A0004020C0004020E000404000004040200040404000404060004040800040
310
40A0004040C0004040E00040600000406020004060400040606000406080004060A0004060C0004060E00040800000408020004080400040806000408080004080A0004080C0004080E00040A0000040A0200040A0400040A0600040A0800040A0A00040A0C00040A0E00040C0000040C0200040C0400040C0600040C08000
310
40C0A00040C0C00040C0E00040E0000040E0200040E0400040E0600040E0800040E0A00040E0C00040E0E00080000000800020008000400080006000800080008000A0008000C0008000E00080200000802020008020400080206000802080008020A0008020C0008020E00080400000804020008040400080406000804080
310
008040A0008040C0008040E00080600000806020008060400080606000806080008060A0008060C0008060E00080800000808020008080400080806000808080008080A0008080C0008080E00080A0000080A0200080A0400080A0600080A0800080A0A00080A0C00080A0E00080C0000080C0200080C0400080C0600080C0
310
800080C0A00080C0C00080C0E00080E0000080E0200080E0400080E0600080E0800080E0A00080E0C00080E0E000C0000000C0002000C0004000C0006000C0008000C000A000C000C000C000E000C0200000C0202000C0204000C0206000C0208000C020A000C020C000C020E000C0400000C0402000C0404000C0406000C0
310
408000C040A000C040C000C040E000C0600000C0602000C0604000C0606000C0608000C060A000C060C000C060E000C0800000C0802000C0804000C0806000C0808000C080A000C080C000C080E000C0A00000C0A02000C0A04000C0A06000C0A08000C0A0A000C0A0C000C0A0E000C0C00000C0C02000C0C04000C0C06000
310
C0C08000C0C0A000F0FBFF00A4A0A000808080000000FF0000FF000000FFFF00FF000000FF00FF00FFFF0000FFFFFF0000000000000000000000000000000000000000000000000000000000000000000000000000000000000000000000000000000000000000000000000000000000000000000000000000000000000000
310
00000000000000000000000000000000000000000000000000000000000000000000000000000000000000000000000000000000000000000000000000000000000000000000000000000000000000000000000000000000000000000000000000000000000000000000000000000000000000000000000000000000000000
310
0000000000000000000000000000000000000000000000000000FFFFFFFFFFFFFFFFFFFFFFFFFFFFFFFF0000000000000000000000000000FFFF00000000000000000000000000000000FFFF0000000000000000000000FF0000000000000000000000000000000000000000FF0000000000000000FFFF0000000000000000
310
0000000000000000000000000000FFFF0000000000FFFFFFFFFFFFFFFFFFFFFFFFFFFFFFFFFFFFFFFFFFFFFFFFFFFFFFFF00000000FFFE000000000000000000000000000000000000000000000000FEFF00000000FFFE000000000000000000000000000000000000000000000000FEFF00000000FFFE0000000000000000
310
00000000000000000000000000000000FEFF00000000FFFE000000000000000000000000000000000000000000000000FEFF000000FF00FE000000000000000000000000000000000000000000000000FEFF000000FF00FE000000000000000000000000000000000000000000000000FE00FF0000FF00FE00000000000000
310
0000000000000000000000000000000000FE00FF0000FF00FE000000000000000000000000000000000000000000000000FE00FF0000FF00FE000000000000000000000000000000000000000000000000FE00FF0000FFFFFFFFFFFFFFFFFFFFFFFFFFFFFFFFFFFFFFFFFFFFFFFFFFFFFFFFFFFF000000FFFE000000000000
310
000000000000000000000000000000000000FEFF0000000000FF000000000000000000000000000000000000000000000000FF00000000000000FF00000000000000000000000000000000000000000000FF000000000000000000000000000000000000000000000000000000000000000000000000000000000000000000
310
00000000000000000000000000000000000000000000000000000000000000000000000000000000000000000000000000000000000000000000000000000000000000000000000000000000000000000000000000000000000000000000000000000000000000000000000000000000000000000000000000000000000000
310
0000000000000000000000000000000000000000000000000000000000000000000000000000000000000000000000000000000000000000
102
{BLKREFS
331
4DFA
102
}
 70
     4
280
     1
281
     0
  0
BLOCK_RECORD
  5
4C59
102
{ACAD_XDICTIONARY
360
4D46
102
}
330
1
100
AcDbSymbolTableRecord
100
AcDbBlockTableRecord
  2
ケースＡ CCMH1120
340
0
310
2800000020000000200000000100080000000000000400000000000000000000000000000000000000000000000080000080000000808000800000008000800080800000C0C0C000C0DCC000F0CAA6000020400000206000002080000020A0000020C0000020E00000400000004020000040400000406000004080000040A0
310
000040C0000040E00000600000006020000060400000606000006080000060A0000060C0000060E00000800000008020000080400000806000008080000080A0000080C0000080E00000A0000000A0200000A0400000A0600000A0800000A0A00000A0C00000A0E00000C0000000C0200000C0400000C0600000C0800000C0
310
A00000C0C00000C0E00000E0000000E0200000E0400000E0600000E0800000E0A00000E0C00000E0E00040000000400020004000400040006000400080004000A0004000C0004000E00040200000402020004020400040206000402080004020A0004020C0004020E000404000004040200040404000404060004040800040
310
40A0004040C0004040E00040600000406020004060400040606000406080004060A0004060C0004060E00040800000408020004080400040806000408080004080A0004080C0004080E00040A0000040A0200040A0400040A0600040A0800040A0A00040A0C00040A0E00040C0000040C0200040C0400040C0600040C08000
310
40C0A00040C0C00040C0E00040E0000040E0200040E0400040E0600040E0800040E0A00040E0C00040E0E00080000000800020008000400080006000800080008000A0008000C0008000E00080200000802020008020400080206000802080008020A0008020C0008020E00080400000804020008040400080406000804080
310
008040A0008040C0008040E00080600000806020008060400080606000806080008060A0008060C0008060E00080800000808020008080400080806000808080008080A0008080C0008080E00080A0000080A0200080A0400080A0600080A0800080A0A00080A0C00080A0E00080C0000080C0200080C0400080C0600080C0
310
800080C0A00080C0C00080C0E00080E0000080E0200080E0400080E0600080E0800080E0A00080E0C00080E0E000C0000000C0002000C0004000C0006000C0008000C000A000C000C000C000E000C0200000C0202000C0204000C0206000C0208000C020A000C020C000C020E000C0400000C0402000C0404000C0406000C0
310
408000C040A000C040C000C040E000C0600000C0602000C0604000C0606000C0608000C060A000C060C000C060E000C0800000C0802000C0804000C0806000C0808000C080A000C080C000C080E000C0A00000C0A02000C0A04000C0A06000C0A08000C0A0A000C0A0C000C0A0E000C0C00000C0C02000C0C04000C0C06000
310
C0C08000C0C0A000F0FBFF00A4A0A000808080000000FF0000FF000000FFFF00FF000000FF00FF00FFFF0000FFFFFF0000000000000000000000000000000000000000000000000000000000000000000000000000000000000000000000FA000000000000FA000000000000000000000000000000000000000000000000FA
310
FAFAFAFAFAFAFA000000000000000000000000000000000000000000000000FA0000FAFAFA00FA0000000000000000000000000000000000000000FAFAFAFAFAFAFA00000000FA0000000000000000000000000000000000000000FAFA00FAFA000000000000FA0000000000000000000000000000000000000000000000FA
310
FA000000000000FA0000000000000000000000000000000000000000000000FAFA000000000000FA0000000000000000000000000000000000000000000000FAFFFF0000000000FA000000000000000000000000000000000000000000000000FFFFFFFFFFFFFFFF0000000000000000000000000000000000000000000000
310
00FFFF00000000FFFF000000000000000000000000000000000000000000000000FFFF00000000FFFF000000000000000000000000000000000000000000000000FFFF00000000FFFF000000000000000000000000000000000000000000000000FFFF00000000FFFF00000000000000000000000000000000000000000000
310
0000FFFF00000000FFFF000000000000000000000000000000000000000000000000FFFF00000000FFFF000000000000000000000000000000000000000000000000FFFF00000000FFFF000000000000000000000000000000000000000000000000FFFF00000000FFFF000000000000000000000000000000000000000000
310
000000FFFF00000000FFFF000000000000000000000000000000000000000000000000FFFF00000000FFFF000000000000000000000000000000000000000000000000000000000000000000000000000000000000000000000000000000000000000000000000000000000000000000000000000000000000000000000000
310
00000000000000000000000000000000000000000000000000000000000000000000000000000000000000000000000000000000000000000000000000000000000000000000000000000000000000000000000000000000000000000000000000000000000000000000000000000000000000000000000000000000000000
310
00000000000000000000000000000000000000000000000000000000000000000000000000FFFFF9FFFFFFFFFF000000000000000000000000000000000000000000000000FFFFFFFFFFFFFFFF00000000000000000000000000000000000000000000F9FFFFFFF9F900000000000000000000000000000000000000000000
310
000000000000FFFF000000000000000000000000000000000000000000000000000000000000000000000000000000000000000000000000
102
{BLKREFS
331
5541
102
}
 70
     4
280
     1
281
     0
  0
BLOCK_RECORD
  5
4DC7
102
{ACAD_XDICTIONARY
360
4E71
102
}
330
1
100
AcDbSymbolTableRecord
100
AcDbBlockTableRecord
  2
ケースＢ CCMH1120
340
0
310
2800000020000000200000000100080000000000000400000000000000000000000000000000000000000000000080000080000000808000800000008000800080800000C0C0C000C0DCC000F0CAA6000020400000206000002080000020A0000020C0000020E00000400000004020000040400000406000004080000040A0
310
000040C0000040E00000600000006020000060400000606000006080000060A0000060C0000060E00000800000008020000080400000806000008080000080A0000080C0000080E00000A0000000A0200000A0400000A0600000A0800000A0A00000A0C00000A0E00000C0000000C0200000C0400000C0600000C0800000C0
310
A00000C0C00000C0E00000E0000000E0200000E0400000E0600000E0800000E0A00000E0C00000E0E00040000000400020004000400040006000400080004000A0004000C0004000E00040200000402020004020400040206000402080004020A0004020C0004020E000404000004040200040404000404060004040800040
310
40A0004040C0004040E00040600000406020004060400040606000406080004060A0004060C0004060E00040800000408020004080400040806000408080004080A0004080C0004080E00040A0000040A0200040A0400040A0600040A0800040A0A00040A0C00040A0E00040C0000040C0200040C0400040C0600040C08000
310
40C0A00040C0C00040C0E00040E0000040E0200040E0400040E0600040E0800040E0A00040E0C00040E0E00080000000800020008000400080006000800080008000A0008000C0008000E00080200000802020008020400080206000802080008020A0008020C0008020E00080400000804020008040400080406000804080
310
008040A0008040C0008040E00080600000806020008060400080606000806080008060A0008060C0008060E00080800000808020008080400080806000808080008080A0008080C0008080E00080A0000080A0200080A0400080A0600080A0800080A0A00080A0C00080A0E00080C0000080C0200080C0400080C0600080C0
310
800080C0A00080C0C00080C0E00080E0000080E0200080E0400080E0600080E0800080E0A00080E0C00080E0E000C0000000C0002000C0004000C0006000C0008000C000A000C000C000C000E000C0200000C0202000C0204000C0206000C0208000C020A000C020C000C020E000C0400000C0402000C0404000C0406000C0
310
408000C040A000C040C000C040E000C0600000C0602000C0604000C0606000C0608000C060A000C060C000C060E000C0800000C0802000C0804000C0806000C0808000C080A000C080C000C080E000C0A00000C0A02000C0A04000C0A06000C0A08000C0A0A000C0A0C000C0A0E000C0C00000C0C02000C0C04000C0C06000
310
C0C08000C0C0A000F0FBFF00A4A0A000808080000000FF0000FF000000FFFF00FF000000FF00FF00FFFF0000FFFFFF0000000000000000000000000000000000000000000000000000000000000000000000000000000000000000000000FFFFFFFF00000000000000000000000000000000000000000000000000000000FF
310
F9FFFF0000000000000000000000000000000000000000FFFFFFFFFFFFFFFFFF00FFFFFFFFFFFFFFFFFF0000000000000000000000000000FFFFFF00000000FF00FFFF00000000FFFFFF0000000000000000000000000000FFFFFF00000000FF00FFFF00000000FFFFFF0000000000000000000000000000FFFFFF00000000
310
FF00FFFF00000000FFFFFF0000000000000000000000000000FFFFFF00000000FF00FFFF00000000FFFFFF0000000000000000000000000000FFFFFF00000000FF00FFFF00000000FFFFFF0000000000000000000000000000FFFFFF00000000FF00FFFF00000000FFFFFF0000000000000000000000000000FFFFFF000000
310
00FF00FFFF00000000FFFFFF0000000000000000000000000000FFFFFF00000000FF00FFFF00000000FFFFFF0000000000000000000000000000FFFFFF00000000FF00FFFF00000000FFFFFF0000000000000000000000000000FFFFFF00000000FF00FFFF00000000FFFFFF0000000000000000000000000000FFFFFF0000
310
0000FF00FFFF00000000FFFFFF0000000000000000000000000000FFFFFF00000000FF00FFFF00000000FFFFFF0000000000000000000000000000FFFFFF00000000FF00FFFF00000000FFFFFF0000000000000000000000000000000000000000000000000000000000000000000000000000000000000000000000000000
310
00000000000000000000000000000000000000000000000000000000000000000000000000000000000000000000000000000000000000000000000000000000000000000000000000000000000000000000000000000000000000000000000000000000000000000000000000000000000000000000000000000000000000
310
0000000000000000000000000000000000000000000000000000000000000000000000000000000000000000000000000000000000000000000000000000000000000000000000000000000000000000000000000000000000000000000000000000000000000000000000000000000000000000000000000000000000FFFF
310
A4A4FFFF000000000000FFFFA4A4FFFF0000000000000000000000000000FFFFFFFFFFFFF9FFFFFFFFFFFFFFFFFFFFFF00000000000000000000000000FFFFFFFFFFFFFFF9FFFFFFFFFFFFFFFFFFFFFFFF00000000000000000000000000000000000000F9FFFFFFFFF9000000000000000000000000000000000000000000
310
000000000000FFFFFFFF00000000000000000000000000000000000000000000000000000000000000000000000000000000000000000000
102
{BLKREFS
331
4DFE
102
}
 70
     4
280
     1
281
     0
  0
BLOCK_RECORD
  5
4EE0
102
{ACAD_XDICTIONARY
360
6AB6
102
}
330
1
100
AcDbSymbolTableRecord
100
AcDbBlockTableRecord
  2
センタＡ CCMH1120
340
0
310
2800000020000000200000000100080000000000000400000000000000000000000000000000000000000000000080000080000000808000800000008000800080800000C0C0C000C0DCC000F0CAA6000020400000206000002080000020A0000020C0000020E00000400000004020000040400000406000004080000040A0
310
000040C0000040E00000600000006020000060400000606000006080000060A0000060C0000060E00000800000008020000080400000806000008080000080A0000080C0000080E00000A0000000A0200000A0400000A0600000A0800000A0A00000A0C00000A0E00000C0000000C0200000C0400000C0600000C0800000C0
310
A00000C0C00000C0E00000E0000000E0200000E0400000E0600000E0800000E0A00000E0C00000E0E00040000000400020004000400040006000400080004000A0004000C0004000E00040200000402020004020400040206000402080004020A0004020C0004020E000404000004040200040404000404060004040800040
310
40A0004040C0004040E00040600000406020004060400040606000406080004060A0004060C0004060E00040800000408020004080400040806000408080004080A0004080C0004080E00040A0000040A0200040A0400040A0600040A0800040A0A00040A0C00040A0E00040C0000040C0200040C0400040C0600040C08000
310
40C0A00040C0C00040C0E00040E0000040E0200040E0400040E0600040E0800040E0A00040E0C00040E0E00080000000800020008000400080006000800080008000A0008000C0008000E00080200000802020008020400080206000802080008020A0008020C0008020E00080400000804020008040400080406000804080
310
008040A0008040C0008040E00080600000806020008060400080606000806080008060A0008060C0008060E00080800000808020008080400080806000808080008080A0008080C0008080E00080A0000080A0200080A0400080A0600080A0800080A0A00080A0C00080A0E00080C0000080C0200080C0400080C0600080C0
310
800080C0A00080C0C00080C0E00080E0000080E0200080E0400080E0600080E0800080E0A00080E0C00080E0E000C0000000C0002000C0004000C0006000C0008000C000A000C000C000C000E000C0200000C0202000C0204000C0206000C0208000C020A000C020C000C020E000C0400000C0402000C0404000C0406000C0
310
408000C040A000C040C000C040E000C0600000C0602000C0604000C0606000C0608000C060A000C060C000C060E000C0800000C0802000C0804000C0806000C0808000C080A000C080C000C080E000C0A00000C0A02000C0A04000C0A06000C0A08000C0A0A000C0A0C000C0A0E000C0C00000C0C02000C0C04000C0C06000
310
C0C08000C0C0A000F0FBFF00A4A0A000808080000000FF0000FF000000FFFF00FF000000FF00FF00FFFF0000FFFFFF0000000000000000000000000000000000000000000000000000000000000000000000000000000000000000000000000000FFFFFFFFFFFFFFFF00000000000000000000000000000000000000000000
310
00000000FF0000000000FF00000000000000000000000000000000000000000000000000FF0000000000FF00000000000000000000000000000000000000000000000000FF0000000000FF00000000000000000000000000000000000000000000000000FF0000000000FF0000000000000000000000000000000000000000
310
0000000000FF0000000000FF00000000000000000000000000000000000000000000000000FF0000000000FF00000000000000000000000000000000000000000000000000FF0000000000FF00000000000000000000000000000000000000000000000000FF0000000000FF00000000000000000000000000000000000000
310
000000000000FF0000000000FF00000000000000000000000000000000000000000000000000FF0000000000FF00000000000000000000000000000000000000000000000000FF0000000000FF00000000000000000000000000000000000000000000000000FF0000000000FF000000000000000000000000000000000000
310
00000000000000FF0000000000FF000000000000000000000000A4A4A4A4000000000000000000FF0000A4A4FFA4000000000000000000000000A4A4A4A4000000000000000000000000A4A4FFA4000000000000000000000000FF0000000000000000000000000000000000FFFF000000000000000000000000FF00000000
310
00000000000000000000000000FFFF000000000000000000000000FF0000000000000000000000000000000000FFFF000000000000000000000000FF0000000000000000000000000000000000FFFF000000000000000000000000FF0000000000000000000000000000000000FFFF000000000000000000000000FF000000
310
0000000000000000000000000000FFFF000000000000000000000000FFFFFFFFFFFFFFFFFFFFFFFFFFFFFFFFFFFFFFFF000000000000000000000000FFFFFFFFFFFFFFFFFFFFFFFFFFFFFFFFFFFFFFFF000000000000000000000000FF000000000000000000000000000000000000FF000000000000000000000000FF0000
310
00000000000000000000000000000000FF000000000000000000000000FF000000000000000000000000000000000000FF000000000000000000000000FFFFFFFFFFFF00000000FFFFFFFFFFFFFFFFFFFF0000000000000000000000000000000000FFFFF9FFFFFF0000000000000000000000000000000000000000000000
310
0000000000F90000000000000000000000000000000000000000000000000000000000000000000000000000000000000000000000000000
102
{BLKREFS
331
4F0E
102
}
 70
     4
280
     1
281
     0
  0
BLOCK_RECORD
  5
53B2
102
{ACAD_XDICTIONARY
360
5446
102
}
330
1
100
AcDbSymbolTableRecord
100
AcDbBlockTableRecord
  2
リーマボルト CCMH1120 M36
340
0
310
2800000020000000200000000100080000000000000400000000000000000000000000000000000000000000000080000080000000808000800000008000800080800000C0C0C000C0DCC000F0CAA6000020400000206000002080000020A0000020C0000020E00000400000004020000040400000406000004080000040A0
310
000040C0000040E00000600000006020000060400000606000006080000060A0000060C0000060E00000800000008020000080400000806000008080000080A0000080C0000080E00000A0000000A0200000A0400000A0600000A0800000A0A00000A0C00000A0E00000C0000000C0200000C0400000C0600000C0800000C0
310
A00000C0C00000C0E00000E0000000E0200000E0400000E0600000E0800000E0A00000E0C00000E0E00040000000400020004000400040006000400080004000A0004000C0004000E00040200000402020004020400040206000402080004020A0004020C0004020E000404000004040200040404000404060004040800040
310
40A0004040C0004040E00040600000406020004060400040606000406080004060A0004060C0004060E00040800000408020004080400040806000408080004080A0004080C0004080E00040A0000040A0200040A0400040A0600040A0800040A0A00040A0C00040A0E00040C0000040C0200040C0400040C0600040C08000
310
40C0A00040C0C00040C0E00040E0000040E0200040E0400040E0600040E0800040E0A00040E0C00040E0E00080000000800020008000400080006000800080008000A0008000C0008000E00080200000802020008020400080206000802080008020A0008020C0008020E00080400000804020008040400080406000804080
310
008040A0008040C0008040E00080600000806020008060400080606000806080008060A0008060C0008060E00080800000808020008080400080806000808080008080A0008080C0008080E00080A0000080A0200080A0400080A0600080A0800080A0A00080A0C00080A0E00080C0000080C0200080C0400080C0600080C0
310
800080C0A00080C0C00080C0E00080E0000080E0200080E0400080E0600080E0800080E0A00080E0C00080E0E000C0000000C0002000C0004000C0006000C0008000C000A000C000C000C000E000C0200000C0202000C0204000C0206000C0208000C020A000C020C000C020E000C0400000C0402000C0404000C0406000C0
310
408000C040A000C040C000C040E000C0600000C0602000C0604000C0606000C0608000C060A000C060C000C060E000C0800000C0802000C0804000C0806000C0808000C080A000C080C000C080E000C0A00000C0A02000C0A04000C0A06000C0A08000C0A0A000C0A0C000C0A0E000C0C00000C0C02000C0C04000C0C06000
310
C0C08000C0C0A000F0FBFF00A4A0A000808080000000FF0000FF000000FFFF00FF000000FF00FF00FFFF0000FFFFFF0000000000000000000000000000000000000000000000000000000000000000000000000000000000000000000000000000000000000000000000000000000000000000000000000000000000000000
310
00000000000000000000000000000000000000000000000000000000000000000000000000000000000000000000000000000000000000000000000000000000000000000000000000000000000000000000000000000000000000000000000000000000000000000000000000000000000000000000000000000000000000
310
00000000000000000000000000000000000000000000000000000000000000000000000000000000000000000000000000000000000000000000000000000000000000000000000000000000000000000000000000000000000000000000000000000000000000000000000000000000000000000000000000000000000000
310
00000000000000000000000000000000000000000000FFFFFFFFFFFFFF00000000000000000000000000000000FFFFFFFFFF00000000FF000000FF000000000000000000000000000000000000000000FFFF0000FFFFFFFFFFFFFF00FF00000000000000000000000000000000FFFFFFFFFF0000FFFFFF000000FF00FF0000
310
0000000000000000000000000000FF0000FFFF0000FFFFFF000000FF00FF00000000000000000000000000000000FF0000FFFF0000FFFFFF000000FFFFFF00000000000000000000000000000000FF0000FFFF0000FFFFFF000000FF00FF00000000000000000000000000000000FF0000FFFF0000FFFFFFFFFFFFFF00FF00
310
000000000000000000000000000000FFFFFFFFFF00000000FF000000FF000000000000000000000000000000000000000000FFFF00000000FFFFFFFFFFFFFF00000000000000000000000000000000FFFFFFFFFF00000000000000000000000000000000000000000000000000000000000000000000000000000000000000
310
00000000000000000000000000000000000000000000000000000000000000000000000000000000000000000000000000000000000000000000000000000000000000000000000000000000000000000000000000000000000000000000000000000000000000000000000000000000000000000000000000000000000000
310
00000000000000000000000000000000000000000000000000000000000000000000000000000000000000000000000000000000000000000000000000000000000000000000000000000000000000000000000000000000000000000000000000000000000000000000000000000000000000000000000000000000000000
310
0000000000000000000000000000000000000000000000000000000000000000000000000000000000000000000000000000000000000000
102
{BLKREFS
331
53E1
102
}
 70
     4
280
     1
281
     0
  0
BLOCK_RECORD
  5
54D7
102
{ACAD_XDICTIONARY
360
55A0
102
}
330
1
100
AcDbSymbolTableRecord
100
AcDbBlockTableRecord
  2
ＧＣサイドカバ－A CCMH1120
340
0
310
2800000020000000200000000100080000000000000400000000000000000000000000000000000000000000000080000080000000808000800000008000800080800000C0C0C000C0DCC000F0CAA6000020400000206000002080000020A0000020C0000020E00000400000004020000040400000406000004080000040A0
310
000040C0000040E00000600000006020000060400000606000006080000060A0000060C0000060E00000800000008020000080400000806000008080000080A0000080C0000080E00000A0000000A0200000A0400000A0600000A0800000A0A00000A0C00000A0E00000C0000000C0200000C0400000C0600000C0800000C0
310
A00000C0C00000C0E00000E0000000E0200000E0400000E0600000E0800000E0A00000E0C00000E0E00040000000400020004000400040006000400080004000A0004000C0004000E00040200000402020004020400040206000402080004020A0004020C0004020E000404000004040200040404000404060004040800040
310
40A0004040C0004040E00040600000406020004060400040606000406080004060A0004060C0004060E00040800000408020004080400040806000408080004080A0004080C0004080E00040A0000040A0200040A0400040A0600040A0800040A0A00040A0C00040A0E00040C0000040C0200040C0400040C0600040C08000
310
40C0A00040C0C00040C0E00040E0000040E0200040E0400040E0600040E0800040E0A00040E0C00040E0E00080000000800020008000400080006000800080008000A0008000C0008000E00080200000802020008020400080206000802080008020A0008020C0008020E00080400000804020008040400080406000804080
310
008040A0008040C0008040E00080600000806020008060400080606000806080008060A0008060C0008060E00080800000808020008080400080806000808080008080A0008080C0008080E00080A0000080A0200080A0400080A0600080A0800080A0A00080A0C00080A0E00080C0000080C0200080C0400080C0600080C0
310
800080C0A00080C0C00080C0E00080E0000080E0200080E0400080E0600080E0800080E0A00080E0C00080E0E000C0000000C0002000C0004000C0006000C0008000C000A000C000C000C000E000C0200000C0202000C0204000C0206000C0208000C020A000C020C000C020E000C0400000C0402000C0404000C0406000C0
310
408000C040A000C040C000C040E000C0600000C0602000C0604000C0606000C0608000C060A000C060C000C060E000C0800000C0802000C0804000C0806000C0808000C080A000C080C000C080E000C0A00000C0A02000C0A04000C0A06000C0A08000C0A0A000C0A0C000C0A0E000C0C00000C0C02000C0C04000C0C06000
310
C0C08000C0C0A000F0FBFF00A4A0A000808080000000FF0000FF000000FFFF00FF000000FF00FF00FFFF0000FFFFFF000000000000000000000000000000000000000000000000000000000000000000000000000000000000000000000000000000FA000000FA000000000000000000000000000000000000000000000000
310
000000FAFAFAFAFA000000000000000000000000000000000000000000000000000000FAFAFAFAFA000000000000000000000000000000000000000000000000000000FA000000FA000000000000000000000000000000000000000000000000000000FA000000FA0000000000000000000000000000000000000000000000
310
00000000FA000000FA000000000000000000000000000000000000000000000000000000FA000000FA0000000000000000000000000000000000000000FFFF0000000000FA000000FA0000000000000000000000000000000000000000FFFFFFFFFFFFFFFF000000FA0000000000000000000000000000000000000000FFFF
310
000000FFFFF9000000FA0000000000000000000000000000000000000000FFFF000000FFFFFF000000FA0000000000000000000000000000000000000000FFFF000000FFFFFF000000000000000000000000000000000000000000000000FFFF000000FFFFFF000000000000000000000000000000000000000000000000FF
310
FF000000FFFFFF000000000000000000000000000000000000000000000000FFFF000000FFFFFF000000000000000000000000000000000000000000000000FFFF000000FFFFFF000000000000000000000000000000000000000000000000FFFF000000FFFFFF000000000000000000000000000000000000000000000000
310
FFFF000000FFFFFF000000000000000000000000000000000000000000000000FFFF000000FFFFFF000000000000000000000000000000000000000000000000000000000000000000000000000000000000000000000000000000000000000000000000000000000000000000000000000000000000000000000000000000
310
00000000000000000000000000000000000000000000000000000000000000000000000000000000000000000000000000000000000000000000000000000000000000000000000000000000000000000000000000000000000000000000000000000000000000000000000000000000000000000000000000000000000000
310
00000000000000000000000000000000000000000000000000000000000000000000FFFFF9FFFFFFFFFF000000000000000000000000000000000000000000000000FFFFFFFFFFFFFFFF00000000000000000000000000000000000000000000F9F9FFFFF90000000000000000000000000000000000000000000000000000
310
000000FFFF000000000000000000000000000000000000000000000000000000000000000000000000000000000000000000000000000000
102
{BLKREFS
331
550D
102
}
 70
     4
280
     1
281
     0
  0
BLOCK_RECORD
  5
562F
102
{ACAD_XDICTIONARY
360
56D1
102
}
330
1
100
AcDbSymbolTableRecord
100
AcDbBlockTableRecord
  2
ＧＣサイドカバ－Ｂ CCMH1120
340
0
310
2800000020000000200000000100080000000000000400000000000000000000000000000000000000000000000080000080000000808000800000008000800080800000C0C0C000C0DCC000F0CAA6000020400000206000002080000020A0000020C0000020E00000400000004020000040400000406000004080000040A0
310
000040C0000040E00000600000006020000060400000606000006080000060A0000060C0000060E00000800000008020000080400000806000008080000080A0000080C0000080E00000A0000000A0200000A0400000A0600000A0800000A0A00000A0C00000A0E00000C0000000C0200000C0400000C0600000C0800000C0
310
A00000C0C00000C0E00000E0000000E0200000E0400000E0600000E0800000E0A00000E0C00000E0E00040000000400020004000400040006000400080004000A0004000C0004000E00040200000402020004020400040206000402080004020A0004020C0004020E000404000004040200040404000404060004040800040
310
40A0004040C0004040E00040600000406020004060400040606000406080004060A0004060C0004060E00040800000408020004080400040806000408080004080A0004080C0004080E00040A0000040A0200040A0400040A0600040A0800040A0A00040A0C00040A0E00040C0000040C0200040C0400040C0600040C08000
310
40C0A00040C0C00040C0E00040E0000040E0200040E0400040E0600040E0800040E0A00040E0C00040E0E00080000000800020008000400080006000800080008000A0008000C0008000E00080200000802020008020400080206000802080008020A0008020C0008020E00080400000804020008040400080406000804080
310
008040A0008040C0008040E00080600000806020008060400080606000806080008060A0008060C0008060E00080800000808020008080400080806000808080008080A0008080C0008080E00080A0000080A0200080A0400080A0600080A0800080A0A00080A0C00080A0E00080C0000080C0200080C0400080C0600080C0
310
800080C0A00080C0C00080C0E00080E0000080E0200080E0400080E0600080E0800080E0A00080E0C00080E0E000C0000000C0002000C0004000C0006000C0008000C000A000C000C000C000E000C0200000C0202000C0204000C0206000C0208000C020A000C020C000C020E000C0400000C0402000C0404000C0406000C0
310
408000C040A000C040C000C040E000C0600000C0602000C0604000C0606000C0608000C060A000C060C000C060E000C0800000C0802000C0804000C0806000C0808000C080A000C080C000C080E000C0A00000C0A02000C0A04000C0A06000C0A08000C0A0A000C0A0C000C0A0E000C0C00000C0C02000C0C04000C0C06000
310
C0C08000C0C0A000F0FBFF00A4A0A000808080000000FF0000FF000000FFFF00FF000000FF00FF00FFFF0000FFFFFF000000000000000000000000000000000000000000000000000000000000000000000000000000000000000000000000FFFF0000000000000000000000000000000000000000000000000000000000F9
310
F9F9F90000000000000000000000000000000000000000000000000000000000FF00000000000000000000000000000000000000000000000000000000000000FF00000000000000000000000000000000000000000000000000000000000000FF000000000000000000000000000000000000000000000000000000000000
310
00FF00000000000000000000000000000000000000000000000000000000000000FF00000000000000000000000000000000000000000000000000000000000000FF00000000000000000000000000000000000000000000000000000000000000FF0000000000000000000000000000000000000000000000000000000000
310
0000FF00000000000000000000000000000000000000000000000000000000000000FF00000000000000000000000000000000000000000000000000000000000000FF00000000000000000000000000000000000000000000000000000000000000FF00000000000000000000000000000000000000000000000000000000
310
000000FF00000000000000000000000000000000000000000000000000000000000000FF00000000000000000000000000000000000000000000000000000000000000FF0000000000000000000000000000000000000000000000000000000000000000000000000000000000000000000000000000000000000000000000
310
00000000000000000000000000000000000000000000000000000000000000000000000000000000000000000000000000000000000000000000000000000000000000000000000000000000000000000000000000000000000000000000000000000000000000000000000000000000000000000000000000000000000000
310
00000000000000000000000000000000000000000000000000000000000000000000000000000000000000000000000000000000000000000000000000000000000000000000000000000000000000000000000000000000000000000000000000000000000000000000000000000000000000000000000000000000000000
310
0000000000000000000000000000000000000000000000000000000000000000000000000000FFFF000000000000000000000000000000000000000000000000000000000000FFFF0000000000000000000000000000000000000000000000000000000000FFFFFFFF00000000000000000000000000000000000000000000
310
00000000000000FFFF0000000000000000000000000000000000000000000000000000000000000000000000000000000000000000000000
102
{BLKREFS
331
5662
102
}
 70
     4
280
     1
281
     0
  0
BLOCK_RECORD
  5
58CB
330
1
100
AcDbSymbolTableRecord
100
AcDbBlockTableRecord
  2
*D15
340
0
 70
     0
280
     1
281
     0
  0
BLOCK_RECORD
  5
5949
330
1
100
AcDbSymbolTableRecord
100
AcDbBlockTableRecord
  2
*D16
340
0
 70
     0
280
     1
281
     0
  0
BLOCK_RECORD
  5
5961
330
1
100
AcDbSymbolTableRecord
100
AcDbBlockTableRecord
  2
*D17
340
0
 70
     0
280
     1
281
     0
  0
BLOCK_RECORD
  5
597D
330
1
100
AcDbSymbolTableRecord
100
AcDbBlockTableRecord
  2
*D18
340
0
 70
     0
280
     1
281
     0
  0
BLOCK_RECORD
  5
5A40
330
1
100
AcDbSymbolTableRecord
100
AcDbBlockTableRecord
  2
*D19
340
0
 70
     0
280
     1
281
     0
  0
BLOCK_RECORD
  5
5A58
330
1
100
AcDbSymbolTableRecord
100
AcDbBlockTableRecord
  2
*D20
340
0
 70
     0
280
     1
281
     0
  0
BLOCK_RECORD
  5
5BE5
330
1
100
AcDbSymbolTableRecord
100
AcDbBlockTableRecord
  2
*D21
340
0
 70
     0
280
     1
281
     0
  0
BLOCK_RECORD
  5
5C01
330
1
100
AcDbSymbolTableRecord
100
AcDbBlockTableRecord
  2
*D22
340
0
 70
     0
280
     1
281
     0
  0
BLOCK_RECORD
  5
5C2F
330
1
100
AcDbSymbolTableRecord
100
AcDbBlockTableRecord
  2
*D23
340
0
 70
     0
280
     1
281
     0
  0
BLOCK_RECORD
  5
5C9F
330
1
100
AcDbSymbolTableRecord
100
AcDbBlockTableRecord
  2
*D24
340
0
 70
     0
280
     1
281
     0
  0
BLOCK_RECORD
  5
6D1B
330
1
100
AcDbSymbolTableRecord
100
AcDbBlockTableRecord
  2
*D25
340
0
 70
     0
280
     1
281
     0
  0
BLOCK_RECORD
  5
722A
330
1
100
AcDbSymbolTableRecord
100
AcDbBlockTableRecord
  2
*D26
340
0
 70
     0
280
     1
281
     0
  0
BLOCK_RECORD
  5
749C
102
{ACAD_XDICTIONARY
360
755B
102
}
330
1
100
AcDbSymbolTableRecord
100
AcDbBlockTableRecord
  2
センタB CCMH1120
340
0
310
2800000020000000200000000100080000000000000400000000000000000000000000000000000000000000000080000080000000808000800000008000800080800000C0C0C000C0DCC000F0CAA6000020400000206000002080000020A0000020C0000020E00000400000004020000040400000406000004080000040A0
310
000040C0000040E00000600000006020000060400000606000006080000060A0000060C0000060E00000800000008020000080400000806000008080000080A0000080C0000080E00000A0000000A0200000A0400000A0600000A0800000A0A00000A0C00000A0E00000C0000000C0200000C0400000C0600000C0800000C0
310
A00000C0C00000C0E00000E0000000E0200000E0400000E0600000E0800000E0A00000E0C00000E0E00040000000400020004000400040006000400080004000A0004000C0004000E00040200000402020004020400040206000402080004020A0004020C0004020E000404000004040200040404000404060004040800040
310
40A0004040C0004040E00040600000406020004060400040606000406080004060A0004060C0004060E00040800000408020004080400040806000408080004080A0004080C0004080E00040A0000040A0200040A0400040A0600040A0800040A0A00040A0C00040A0E00040C0000040C0200040C0400040C0600040C08000
310
40C0A00040C0C00040C0E00040E0000040E0200040E0400040E0600040E0800040E0A00040E0C00040E0E00080000000800020008000400080006000800080008000A0008000C0008000E00080200000802020008020400080206000802080008020A0008020C0008020E00080400000804020008040400080406000804080
310
008040A0008040C0008040E00080600000806020008060400080606000806080008060A0008060C0008060E00080800000808020008080400080806000808080008080A0008080C0008080E00080A0000080A0200080A0400080A0600080A0800080A0A00080A0C00080A0E00080C0000080C0200080C0400080C0600080C0
310
800080C0A00080C0C00080C0E00080E0000080E0200080E0400080E0600080E0800080E0A00080E0C00080E0E000C0000000C0002000C0004000C0006000C0008000C000A000C000C000C000E000C0200000C0202000C0204000C0206000C0208000C020A000C020C000C020E000C0400000C0402000C0404000C0406000C0
310
408000C040A000C040C000C040E000C0600000C0602000C0604000C0606000C0608000C060A000C060C000C060E000C0800000C0802000C0804000C0806000C0808000C080A000C080C000C080E000C0A00000C0A02000C0A04000C0A06000C0A08000C0A0A000C0A0C000C0A0E000C0C00000C0C02000C0C04000C0C06000
310
C0C08000C0C0A000F0FBFF00A4A0A000808080000000FF0000FF000000FFFF00FF000000FF00FF00FFFF0000FFFFFF00000000000000000000000000000000000000000000000000000000000000000000000000000000FFFFFFFFFFFFFFFF0000000000000000000000000000000000000000000000FF0000000000FF0000
310
0000000000000000000000000000000000000000000000FF0000000000FF00000000000000000000000000000000000000000000000000FF0000000000FF00000000000000000000000000000000000000000000000000FF0000000000FF00000000000000000000000000000000000000000000000000FF0000000000FF00
310
000000000000000000000000000000000000000000000000FF0000000000FF00000000000000000000000000000000000000000000000000FF0000000000FF00000000000000000000000000000000000000000000000000FF0000000000FF00000000000000000000000000000000000000000000000000FF0000000000FF
310
00000000000000000000000000000000000000000000000000FF0000000000FF00000000000000000000000000000000000000000000000000FF0000000000FF00000000000000000000000000000000000000000000000000FF0000000000FF00000000000000000000000000000000000000000000000000FF0000000000
310
FF00000000000000000000000000000000000000000000000000FFA4A4A40000FF000000000000000000A4A4A4A4000000000000000000000000FFA4A4A4000000000000000000000000A4A4A4A4000000000000000000000000FF000000000000000000000000000000000000FF000000000000000000000000FF00000000
310
0000000000000000000000000000FF000000000000000000000000FF000000000000000000000000000000000000FF000000000000000000000000FF000000000000000000000000000000000000FF000000000000000000000000FF000000000000000000000000000000000000FF000000000000000000000000FF000000
310
000000000000000000000000000000FF000000000000000000000000FFFFFFFFFFFFFFFFFFFFFFFFFFFFFFFFFFFFFFFF000000000000000000000000FF000000000000FA00FAFA0000FAFA00000000FF000000000000000000000000FF0000FAFAFAFAFAFAFAFAFAFAFAFA00000000FF000000000000000000000000FF0000
310
00FAFAFA0000FAFAFAFAFAFA00000000FF000000000000000000000000FF0000FAFAFA000000FAFAFAFAFAFA00000000FF000000000000000000000000FFFFFFFFFFFFFFFFFFFA00000000FAFFFFFFFFFF000000000000000000000000000000000000000000FAF9F9F9F9FA00000000000000000000000000000000000000
310
00000000000000000000F9000000000000000000000000000000000000000000000000000000000000000000000000000000000000000000
102
{BLKREFS
331
74D6
102
}
 70
     4
280
     1
281
     1
  0
BLOCK_RECORD
  5
7503
330
1
100
AcDbSymbolTableRecord
100
AcDbBlockTableRecord
  2
*D28
340
0
 70
     0
280
     1
281
     0
  0
BLOCK_RECORD
  5
751D
330
1
100
AcDbSymbolTableRecord
100
AcDbBlockTableRecord
  2
*D29
340
0
 70
     0
280
     1
281
     0
  0
ENDTAB
  0
ENDSEC
  0
SECTION
  2
BLOCKS
  0
BLOCK
  5
20
330
1F
100
AcDbEntity
  8
0
100
AcDbBlockBegin
  2
*Model_Space
 70
     0
 10
0.0
 20
0.0
 30
0.0
  3
*Model_Space
  1

  0
ENDBLK
  5
21
330
1F
100
AcDbEntity
  8
0
100
AcDbBlockEnd
  0
BLOCK
  5
1C
330
1B
100
AcDbEntity
 67
     1
  8
0
100
AcDbBlockBegin
  2
*Paper_Space
 70
     0
 10
0.0
 20
0.0
 30
0.0
  3
*Paper_Space
  1

  0
ENDBLK
  5
1D
330
1B
100
AcDbEntity
 67
     1
  8
0
100
AcDbBlockEnd
  0
BLOCK
  5
24
330
23
100
AcDbEntity
 67
     1
  8
0
100
AcDbBlockBegin
  2
*Paper_Space0
 70
     0
 10
0.0
 20
0.0
 30
0.0
  3
*Paper_Space0
  1

  0
ENDBLK
  5
25
330
23
100
AcDbEntity
 67
     1
  8
0
100
AcDbBlockEnd
  0
BLOCK
  5
6D
330
69
100
AcDbEntity
  8
0
100
AcDbBlockBegin
  2
_Open30
 70
     0
 10
0.0
 20
0.0
 30
0.0
  3
_Open30
  1

  0
LINE
  5
6A
330
69
100
AcDbEntity
  8
0
  6
ByBlock
 62
     0
370
    -2
100
AcDbLine
 10
-1.0
 20
0.26794919
 30
0.0
 11
0.0
 21
0.0
 31
0.0
  0
LINE
  5
6B
330
69
100
AcDbEntity
  8
0
  6
ByBlock
 62
     0
370
    -2
100
AcDbLine
 10
0.0
 20
0.0
 30
0.0
 11
-1.0
 21
-0.26794919
 31
0.0
  0
LINE
  5
6C
330
69
100
AcDbEntity
  8
0
  6
ByBlock
 62
     0
370
    -2
100
AcDbLine
 10
0.0
 20
0.0
 30
0.0
 11
-1.0
 21
0.0
 31
0.0
  0
ENDBLK
  5
6E
330
69
100
AcDbEntity
  8
0
100
AcDbBlockEnd
  0
BLOCK
  5
76
330
74
100
AcDbEntity
  8
0
100
AcDbBlockBegin
  2
GENAXEH
 70
     0
 10
0.0
 20
0.0
 30
0.0
  3
GENAXEH
  1

  0
LINE
  5
75
330
74
100
AcDbEntity
  8
0
100
AcDbLine
 10
-1.0
 20
0.0
 30
0.0
 11
1.0
 21
0.0
 31
0.0
  0
ENDBLK
  5
77
330
74
100
AcDbEntity
  8
0
100
AcDbBlockEnd
  0
BLOCK
  5
39BD
330
39BC
100
AcDbEntity
  8
0
100
AcDbBlockBegin
  2
GENDOT
 70
     0
 10
0.0
 20
0.0
 30
0.0
  3
GENDOT
  1

  0
LINE
  5
39BE
330
39BC
100
AcDbEntity
  8
0
100
AcDbLine
 10
0.0
 20
0.0
 30
0.0
 11
-1.0
 21
0.0
 31
0.0
  0
LWPOLYLINE
  5
39BF
330
39BC
100
AcDbEntity
  8
0
100
AcDbPolyline
 90
        2
 70
     1
 43
0.25
 10
-0.125
 20
0.0
 42
1.0
 10
0.125
 20
0.0
 42
1.0
  0
ENDBLK
  5
39C0
330
39BC
100
AcDbEntity
  8
0
100
AcDbBlockEnd
  0
BLOCK
  5
4B54
330
4B53
100
AcDbEntity
  8
0
100
AcDbBlockBegin
  2
ロッカクアナツキプラグA R1
 70
     0
 10
0.0
 20
0.0
 30
0.0
  3
ロッカクアナツキプラグA R1
  1

  0
LINE
  5
4B56
330
4B53
100
AcDbEntity
  8
AM_4 細線
100
AcDbLine
 10
15.19540500000039
 20
-1.070905000000037
 30
0.0
 11
14.67855799999961
 21
-15.87147099999947
 31
0.0
  0
LINE
  5
4B57
330
4B53
100
AcDbEntity
  8
AM_4 細線
100
AcDbLine
 10
-15.19540500000039
 20
-1.070905000000037
 30
0.0
 11
-14.67855799999961
 21
-15.87147099999947
 31
0.0
  0
LINE
  5
4B58
330
4B53
100
AcDbEntity
  8
AM_7 中心線
100
AcDbLine
 10
0.0
 20
5.609929000000645
 30
0.0
 11
0.0
 21
-35.24113499999976
 31
0.0
  0
LINE
  5
4B59
330
4B53
100
AcDbEntity
  8
AM_0 外形線1
100
AcDbLine
 10
16.18799000000035
 20
-15.0
 30
0.0
 11
16.6244999999999
 21
-2.5
 31
0.0
  0
LINE
  5
4B5A
330
4B53
100
AcDbEntity
  8
AM_0 外形線1
100
AcDbLine
 10
-16.6244999999999
 20
-2.5
 30
0.0
 11
-16.18799099999978
 21
-15.0
 31
0.0
  0
LINE
  5
4B5B
330
4B53
100
AcDbEntity
  8
AM_0 外形線1
100
AcDbLine
 10
-16.18799099999978
 20
-15.0
 30
0.0
 11
16.18799000000035
 21
-15.0
 31
0.0
  0
LINE
  5
4B5C
330
4B53
100
AcDbEntity
  8
AM_0 外形線1
100
AcDbLine
 10
9.259787000000866
 20
-19.0
 30
0.0
 11
16.18799000000035
 21
-15.0
 31
0.0
  0
LINE
  5
4B5D
330
4B53
100
AcDbEntity
  8
AM_0 外形線1
100
AcDbLine
 10
-9.25978699999996
 20
-19.0
 30
0.0
 11
9.259787000000866
 21
-19.0
 31
0.0
  0
LINE
  5
4B5E
330
4B53
100
AcDbEntity
  8
AM_0 外形線1
100
AcDbLine
 10
-16.18799099999978
 20
-15.0
 30
0.0
 11
-9.25978699999996
 21
-19.0
 31
0.0
  0
LINE
  5
4B5F
330
4B53
100
AcDbEntity
  8
AM_0 外形線1
100
AcDbLine
 10
16.6244999999999
 20
-2.5
 30
0.0
 11
-16.6244999999999
 21
-2.5
 31
0.0
  0
LINE
  5
4B60
330
4B53
100
AcDbEntity
  8
AM_0 外形線1
100
AcDbLine
 10
16.6244999999999
 20
-2.5
 30
0.0
 11
14.1244999999999
 21
0.0
 31
0.0
  0
LINE
  5
4B61
330
4B53
100
AcDbEntity
  8
AM_0 外形線1
100
AcDbLine
 10
-14.1244999999999
 20
0.0
 30
0.0
 11
-16.6244999999999
 21
-2.5
 31
0.0
  0
LINE
  5
4B80
330
4B53
100
AcDbEntity
  8
AM_0 外形線1
100
AcDbLine
 10
-14.1244999999999
 20
0.0
 30
0.0
 11
14.1244999999999
 21
0.0
 31
0.0
  0
ENDBLK
  5
4B55
330
4B53
100
AcDbEntity
  8
0
100
AcDbBlockEnd
  0
BLOCK
  5
4BA5
330
4BA4
100
AcDbEntity
  8
0
100
AcDbBlockBegin
  2
ロッカクアナツキプラグB R
 70
     0
 10
0.0
 20
0.0
 30
0.0
  3
ロッカクアナツキプラグB R
  1

  0
LINE
  5
4BA7
330
4BA4
100
AcDbEntity
  8
AM_4 細線
100
AcDbLine
 10
15.19540500000039
 20
-1.070905000000037
 30
0.0
 11
14.67855799999961
 21
-15.87147099999947
 31
0.0
  0
LINE
  5
4BA8
330
4BA4
100
AcDbEntity
  8
AM_4 細線
100
AcDbLine
 10
-15.19540499999948
 20
-1.070905000000037
 30
0.0
 11
-14.67855799999961
 21
-15.87147099999947
 31
0.0
  0
LINE
  5
4BA9
330
4BA4
100
AcDbEntity
  8
AM_0 外形線1
100
AcDbLine
 10
16.18799000000035
 20
-15.0
 30
0.0
 11
16.6244999999999
 21
-2.5
 31
0.0
  0
LINE
  5
4BAA
330
4BA4
100
AcDbEntity
  8
AM_0 外形線1
100
AcDbLine
 10
-16.6244999999999
 20
-2.5
 30
0.0
 11
-16.18799099999887
 21
-15.0
 31
0.0
  0
LINE
  5
4BAB
330
4BA4
100
AcDbEntity
  8
AM_0 外形線1
100
AcDbLine
 10
-16.18799099999887
 20
-15.0
 30
0.0
 11
16.18799000000035
 21
-15.0
 31
0.0
  0
LINE
  5
4BAC
330
4BA4
100
AcDbEntity
  8
AM_0 外形線1
100
AcDbLine
 10
9.25978699999996
 20
-19.0
 30
0.0
 11
16.18799000000035
 21
-15.0
 31
0.0
  0
LINE
  5
4BAD
330
4BA4
100
AcDbEntity
  8
AM_0 外形線1
100
AcDbLine
 10
-9.25978699999905
 20
-19.0
 30
0.0
 11
9.25978699999996
 21
-19.0
 31
0.0
  0
LINE
  5
4BAE
330
4BA4
100
AcDbEntity
  8
AM_0 外形線1
100
AcDbLine
 10
-16.18799099999887
 20
-15.0
 30
0.0
 11
-9.25978699999905
 21
-19.0
 31
0.0
  0
LINE
  5
4BAF
330
4BA4
100
AcDbEntity
  8
AM_0 外形線1
100
AcDbLine
 10
16.6244999999999
 20
-2.5
 30
0.0
 11
-16.6244999999999
 21
-2.5
 31
0.0
  0
LINE
  5
4BB0
330
4BA4
100
AcDbEntity
  8
AM_0 外形線1
100
AcDbLine
 10
16.6244999999999
 20
-2.5
 30
0.0
 11
14.1244999999999
 21
0.0
 31
0.0
  0
LINE
  5
4BB1
330
4BA4
100
AcDbEntity
  8
AM_0 外形線1
100
AcDbLine
 10
-14.1244999999999
 20
0.0
 30
0.0
 11
-16.6244999999999
 21
-2.5
 31
0.0
  0
LINE
  5
4BCE
330
4BA4
100
AcDbEntity
  8
AM_0 外形線1
100
AcDbLine
 10
-14.1244999999999
 20
0.0
 30
0.0
 11
14.1244999999999
 21
0.0
 31
0.0
  0
LINE
  5
4BCF
330
4BA4
100
AcDbEntity
  8
AM_7 中心線
100
AcDbLine
 10
0.0
 20
5.609929000000645
 30
0.0
 11
0.0
 21
-35.24113499999976
 31
0.0
  0
ENDBLK
  5
4BA6
330
4BA4
100
AcDbEntity
  8
0
100
AcDbBlockEnd
  0
BLOCK
  5
4C5A
330
4C59
100
AcDbEntity
  8
0
100
AcDbBlockBegin
  2
ケースＡ CCMH1120
 70
     0
 10
0.0
 20
0.0
 30
0.0
  3
ケースＡ CCMH1120
  1

  0
LINE
  5
4C5E
330
4C59
100
AcDbEntity
  8
AM_0 外形線1
100
AcDbLine
 10
282.0
 20
-495.0
 30
0.0
 11
282.0
 21
0.0
 31
0.0
  0
LINE
  5
4C5F
330
4C59
100
AcDbEntity
  8
AM_0 外形線1
100
AcDbLine
 10
267.0
 20
-480.0
 30
0.0
 11
267.0
 21
0.0
 31
0.0
  0
LINE
  5
4C60
330
4C59
100
AcDbEntity
  8
AM_0 外形線1
100
AcDbLine
 10
332.0
 20
0.0
 30
0.0
 11
332.0
 21
-495.0
 31
0.0
  0
LINE
  5
4C61
330
4C59
100
AcDbEntity
  8
AM_0 外形線1
100
AcDbLine
 10
0.0
 20
0.0
 30
0.0
 11
0.0
 21
-558.0
 31
0.0
  0
LINE
  5
4C62
330
4C59
100
AcDbEntity
  8
AM_0 外形線1
100
AcDbLine
 10
60.0
 20
-558.0
 30
0.0
 11
60.0
 21
0.0
 31
0.0
  0
LINE
  5
4C63
330
4C59
100
AcDbEntity
  8
AM_0 外形線1
100
AcDbLine
 10
68.0
 20
-480.0
 30
0.0
 11
267.0
 21
-480.0
 31
0.0
  0
ARC
  5
4C64
330
4C59
100
AcDbEntity
  8
AM_0 外形線1
100
AcDbCircle
 10
68.0
 20
-488.0
 30
0.0
 40
8.0
100
AcDbArc
 50
90.0
 51
180.0
  0
LINE
  5
4C65
330
4C59
100
AcDbEntity
  8
AM_0 外形線1
100
AcDbLine
 10
2.0
 20
-560.0
 30
0.0
 11
58.0
 21
-560.0
 31
0.0
  0
LINE
  5
4C66
330
4C59
100
AcDbEntity
  8
AM_0 外形線1
100
AcDbLine
 10
0.0
 20
-558.0
 30
0.0
 11
2.0
 21
-560.0
 31
0.0
  0
LINE
  5
4C67
330
4C59
100
AcDbEntity
  8
AM_0 外形線1
100
AcDbLine
 10
58.0
 20
-560.0
 30
0.0
 11
60.0
 21
-558.0
 31
0.0
  0
LINE
  5
4C68
330
4C59
100
AcDbEntity
  8
AM_0 外形線1
100
AcDbLine
 10
332.0
 20
-495.0
 30
0.0
 11
282.0
 21
-495.0
 31
0.0
  0
LINE
  5
4C69
330
4C59
100
AcDbEntity
  8
AM_0 外形線1
100
AcDbLine
 10
282.0
 20
-495.0
 30
0.0
 11
267.0
 21
-480.0
 31
0.0
  0
LINE
  5
4C6A
330
4C59
100
AcDbEntity
  8
AM_7 中心線
100
AcDbLine
 10
-117.2116069999993
 20
526.0
 30
0.0
 11
114.0
 21
526.0
 31
0.0
  0
LWPOLYLINE
  5
4C6C
330
4C59
100
AcDbEntity
  8
AM_0 外形線1
100
AcDbPolyline
 90
       73
 70
     0
 43
0.0
 10
3.350000000000362
 20
472.5
 10
3.641971000000921
 20
472.5199780000003
 10
3.931721000000834
 20
472.5797590000001
 10
4.217044000000896
 20
472.6788890000001
 10
4.49576700000034
 20
472.8166140000003
 10
4.765771000000313
 20
472.9918839999999
 10
5.025000000000544
 20
473.2033670000005
 10
5.271480999999766
 20
473.4494520000001
 10
5.503338000000439
 20
473.7282670000003
 10
5.718807000000196
 20
474.0376890000002
 10
5.916248999999877
 20
474.3753650000003
 10
6.094159000000217
 20
474.7387240000001
 10
6.251185000000987
 20
475.1249999999997
 10
6.386131000000204
 20
475.5312540000003
 10
6.497970000000349
 20
475.9543940000003
 10
6.585851000000728
 20
476.3912
 10
6.649106000000755
 20
476.8383470000002
 10
6.687251999999716
 20
477.2924320000001
 10
6.700000000000727
 20
477.7499999999998
 10
6.687251999999716
 20
478.2075680000001
 10
6.649106000000755
 20
478.6616530000001
 10
6.585851000000728
 20
479.1088
 10
6.497970000000349
 20
479.5456060000005
 10
6.386131000000204
 20
479.9687460000003
 10
6.251185000000987
 20
480.3749999999998
 10
6.094159000000217
 20
480.7612760000002
 10
5.916248999999877
 20
481.1246350000001
 10
5.718807000000196
 20
481.4623100000003
 10
5.503338000000439
 20
481.7717330000006
 10
5.271480999999766
 20
482.0505480000001
 10
5.025000000000544
 20
482.2966330000004
 10
4.765771000000313
 20
482.5081159999998
 10
4.49576700000034
 20
482.6833860000001
 10
4.217044000000896
 20
482.8211100000003
 10
3.931721000000834
 20
482.9202410000001
 10
3.641971000000921
 20
482.9800220000006
 10
3.350000000000362
 20
483.0
 10
3.058028000000376
 20
482.9800220000006
 10
2.768278000000463
 20
482.9202410000001
 10
2.48295599999983
 20
482.8211100000003
 10
2.204232000000046
 20
482.6833860000001
 10
1.934229000000413
 20
482.5081159999998
 10
1.675000000000181
 20
482.2966330000004
 10
1.428519000000959
 20
482.0505480000001
 10
1.196660999999949
 20
481.7717330000006
 10
0.9811920000011014
 20
481.4623100000003
 10
0.7837510000008479
 20
481.1246350000001
 10
0.6058400000001713
 20
480.7612760000002
 10
0.4488149999997404
 20
480.3749999999998
 10
0.3138690000005226
 20
479.9687460000003
 10
0.2020290000000386
 20
479.5456060000005
 10
0.1141480000005686
 20
479.1088
 10
0.0508939999999711
 20
478.6616530000001
 10
0.0127470000006724
 20
478.2075680000001
 10
0.0
 20
477.7499999999998
 10
0.0127470000006724
 20
477.2924320000001
 10
0.0508939999999711
 20
476.8383470000002
 10
0.1141480000005686
 20
476.3912
 10
0.2020290000000386
 20
475.9543940000003
 10
0.3138690000005226
 20
475.5312540000003
 10
0.4488149999997404
 20
475.1249999999997
 10
0.6058400000001713
 20
474.7387240000001
 10
0.7837510000008479
 20
474.3753650000003
 10
0.9811920000011014
 20
474.0376890000002
 10
1.196660999999949
 20
473.7282670000003
 10
1.428519000000959
 20
473.4494520000001
 10
1.675000000000181
 20
473.2033670000005
 10
1.934229000000413
 20
472.9918839999999
 10
2.204232000000046
 20
472.8166140000003
 10
2.48295599999983
 20
472.6788890000001
 10
2.768278000000463
 20
472.5797590000001
 10
3.058028000000376
 20
472.5199780000003
 10
3.350000000000362
 20
472.5
  0
LINE
  5
4C6D
330
4C59
100
AcDbEntity
  8
AM_0 外形線1
100
AcDbLine
 10
6.700000000000727
 20
473.0
 30
0.0
 11
6.700000000000727
 21
482.5
 31
0.0
  0
LINE
  5
4C6E
330
4C59
100
AcDbEntity
  8
AM_3 隠れ線
100
AcDbLine
 10
312.0
 20
432.0
 30
0.0
 11
160.0
 21
432.0
 31
0.0
  0
LINE
  5
4C6F
330
4C59
100
AcDbEntity
  8
AM_7 中心線
100
AcDbLine
 10
145.0
 20
440.0
 30
0.0
 11
326.0
 21
440.0
 31
0.0
  0
LINE
  5
4C70
330
4C59
100
AcDbEntity
  8
AM_0 外形線1
100
AcDbLine
 10
147.0
 20
450.0
 30
0.0
 11
324.0
 21
450.0
 31
0.0
  0
LINE
  5
4C71
330
4C59
100
AcDbEntity
  8
AM_0 外形線1
100
AcDbLine
 10
146.0
 20
451.4999999999998
 30
0.0
 11
-12.0
 21
451.4999999999998
 31
0.0
  0
ARC
  5
4C72
330
4C59
100
AcDbEntity
  8
AM_0 外形線1
100
AcDbCircle
 10
6.200000000000727
 20
473.0
 30
0.0
 40
0.5
100
AcDbArc
 50
270.0
 51
0.0
  0
LINE
  5
4C73
330
4C59
100
AcDbEntity
  8
AM_0 外形線1
100
AcDbLine
 10
-8.999999999999545
 20
472.5000000000004
 30
0.0
 11
6.200000000000727
 21
472.5
 31
0.0
  0
LINE
  5
4C74
330
4C59
100
AcDbEntity
  8
AM_0 外形線1
100
AcDbLine
 10
-12.0
 20
469.5
 30
0.0
 11
-9.0
 21
472.5
 31
0.0
  0
LINE
  5
4C75
330
4C59
100
AcDbEntity
  8
AM_0 外形線1
100
AcDbLine
 10
-12.0
 20
451.4999999999998
 30
0.0
 11
-12.0
 21
469.5
 31
0.0
  0
LINE
  5
4C76
330
4C59
100
AcDbEntity
  8
AM_0 外形線1
100
AcDbLine
 10
111.1879900000003
 20
465.0
 30
0.0
 11
110.7165592000015
 21
451.4999999999998
 31
0.0
  0
LINE
  5
4C77
330
4C59
100
AcDbEntity
  8
AM_0 外形線1
100
AcDbLine
 10
78.8120090000002
 20
465.0
 30
0.0
 11
79.28343980000045
 21
451.4999999999998
 31
0.0
  0
LINE
  5
4C78
330
4C59
100
AcDbEntity
  8
AM_0 外形線1
100
AcDbLine
 10
80.32144200000038
 20
464.1285290000005
 30
0.0
 11
80.76243975394891
 21
451.4999999999998
 31
0.0
  0
LINE
  5
4C79
330
4C59
100
AcDbEntity
  8
AM_0 外形線1
100
AcDbLine
 10
109.6785579999996
 20
464.1285290000005
 30
0.0
 11
109.2375591600562
 21
451.4999999999998
 31
0.0
  0
LINE
  5
4C7A
330
4C59
100
AcDbEntity
  8
AM_0 外形線1
100
AcDbLine
 10
160.0
 20
432.0
 30
0.0
 11
148.0
 21
432.0
 31
0.0
  0
ARC
  5
4C7B
330
4C59
100
AcDbEntity
  8
AM_0 外形線1
100
AcDbCircle
 10
146.0
 20
450.4999999999998
 30
0.0
 40
1.0
100
AcDbArc
 50
0.0
 51
90.0
  0
LINE
  5
4C7C
330
4C59
100
AcDbEntity
  8
AM_0 外形線1
100
AcDbLine
 10
147.0
 20
433.0
 30
0.0
 11
147.0
 21
450.4999999999998
 31
0.0
  0
LINE
  5
4C7D
330
4C59
100
AcDbEntity
  8
AM_0 外形線1
100
AcDbLine
 10
148.0
 20
432.0
 30
0.0
 11
147.0
 21
433.0
 31
0.0
  0
LINE
  5
4C7E
330
4C59
100
AcDbEntity
  8
AM_0 外形線1
100
AcDbLine
 10
312.0
 20
432.0
 30
0.0
 11
323.0
 21
432.0
 31
0.0
  0
LINE
  5
4C7F
330
4C59
100
AcDbEntity
  8
AM_0 外形線1
100
AcDbLine
 10
332.0
 20
451.4999999999998
 30
0.0
 11
325.0
 21
451.4999999999998
 31
0.0
  0
LINE
  5
4C80
330
4C59
100
AcDbEntity
  8
AM_0 外形線1
100
AcDbLine
 10
332.0000000000005
 20
464.0000000000005
 30
0.0
 11
332.0
 21
451.4999999999998
 31
0.0
  0
LINE
  5
4C82
330
4C59
100
AcDbEntity
  8
AM_0 外形線1
100
AcDbLine
 10
324.0
 20
433.0
 30
0.0
 11
323.0
 21
432.0
 31
0.0
  0
LINE
  5
4C83
330
4C59
100
AcDbEntity
  8
AM_0 外形線1
100
AcDbLine
 10
324.0
 20
450.4999999999998
 30
0.0
 11
324.0
 21
433.0
 31
0.0
  0
ARC
  5
4C84
330
4C59
100
AcDbEntity
  8
AM_0 外形線1
100
AcDbCircle
 10
325.0
 20
450.4999999999998
 30
0.0
 40
1.0
100
AcDbArc
 50
90.0
 51
180.0
  0
LINE
  5
4C85
330
4C59
100
AcDbEntity
  8
AM_0 外形線1
100
AcDbLine
 10
68.0
 20
480.0
 30
0.0
 11
267.0
 21
480.0
 31
0.0
  0
LINE
  5
4C86
330
4C59
100
AcDbEntity
  8
AM_0 外形線1
100
AcDbLine
 10
2.0
 20
560.0
 30
0.0
 11
58.0
 21
560.0
 31
0.0
  0
LINE
  5
4C87
330
4C59
100
AcDbEntity
  8
AM_0 外形線1
100
AcDbLine
 10
6.200000000000727
 20
483.0
 30
0.0
 11
0.0
 21
483.0
 31
0.0
  0
ARC
  5
4C88
330
4C59
100
AcDbEntity
  8
AM_0 外形線1
100
AcDbCircle
 10
6.200000000000727
 20
482.5
 30
0.0
 40
0.5
100
AcDbArc
 50
0.0
 51
90.0
  0
LINE
  5
4C89
330
4C59
100
AcDbEntity
  8
AM_0 外形線1
100
AcDbLine
 10
0.0
 20
545.0
 30
0.0
 11
0.0
 21
558.0
 31
0.0
  0
LINE
  5
4C8A
330
4C59
100
AcDbEntity
  8
AM_0 外形線1
100
AcDbLine
 10
0.0
 20
558.0
 30
0.0
 11
2.0
 21
560.0
 31
0.0
  0
ARC
  5
4C8B
330
4C59
100
AcDbEntity
  8
AM_0 外形線1
100
AcDbCircle
 10
68.0
 20
488.0
 30
0.0
 40
8.0
100
AcDbArc
 50
180.0
 51
270.0
  0
LINE
  5
4C8C
330
4C59
100
AcDbEntity
  8
AM_0 外形線1
100
AcDbLine
 10
58.0
 20
560.0
 30
0.0
 11
60.0
 21
558.0
 31
0.0
  0
LINE
  5
4C8D
330
4C59
100
AcDbEntity
  8
AM_0 外形線1
100
AcDbLine
 10
60.0
 20
488.0
 30
0.0
 11
60.0
 21
558.0
 31
0.0
  0
LINE
  5
4C8E
330
4C59
100
AcDbEntity
  8
AM_0 外形線1
100
AcDbLine
 10
111.6244999999999
 20
477.5
 30
0.0
 11
111.7118019999998
 21
480.0
 31
0.0
  0
LINE
  5
4C8F
330
4C59
100
AcDbEntity
  8
AM_0 外形線1
100
AcDbLine
 10
78.28819800000019
 20
480.0
 30
0.0
 11
78.3755000000001
 21
477.5
 31
0.0
  0
LINE
  5
4C90
330
4C59
100
AcDbEntity
  8
AM_0 外形線1
100
AcDbLine
 10
331.9999999999995
 20
495.0
 30
0.0
 11
282.0
 21
495.0
 31
0.0
  0
LINE
  5
4C91
330
4C59
100
AcDbEntity
  8
AM_0 外形線1
100
AcDbLine
 10
282.0
 20
495.0
 30
0.0
 11
267.0
 21
480.0
 31
0.0
  0
LINE
  5
4C92
330
4C59
100
AcDbEntity
  8
AM_0 外形線1
100
AcDbLine
 10
332.0
 20
495.0
 30
0.0
 11
332.0
 21
484.0
 31
0.0
  0
LINE
  5
4C94
330
4C59
100
AcDbEntity
  8
AM_0 外形線1
100
AcDbLine
 10
79.76719814067564
 20
480.0
 30
0.0
 11
79.80459499999961
 21
478.9290949999994
 31
0.0
  0
LINE
  5
4C95
330
4C59
100
AcDbEntity
  8
AM_0 外形線1
100
AcDbLine
 10
110.2328018593243
 20
480.0
 30
0.0
 11
110.1954050000004
 21
478.9290949999994
 31
0.0
  0
INSERT
  5
4C96
330
4C59
100
AcDbEntity
  8
AM_0 外形線1
100
AcDbBlockReference
  2
ロッカクアナツキプラグA R1
 10
95.0
 20
480.0
 30
0.0
  0
LINE
  5
4D44
330
4C59
100
AcDbEntity
  8
AM_0 外形線1
100
AcDbLine
 10
0.0
 20
545.0
 30
0.0
 11
60.0
 21
545.0
 31
0.0
  0
LINE
  5
4D45
330
4C59
100
AcDbEntity
  8
AM_0 外形線1
100
AcDbLine
 10
0.0
 20
507.0
 30
0.0
 11
60.0
 21
507.0
 31
0.0
  0
LINE
  5
69D7
330
4C59
100
AcDbEntity
  8
AM_0 外形線1
100
AcDbLine
 10
0.0
 20
483.0
 30
0.0
 11
0.0
 21
507.0
 31
0.0
  0
ENDBLK
  5
4C5B
330
4C59
100
AcDbEntity
  8
0
100
AcDbBlockEnd
  0
BLOCK
  5
4DC8
330
4DC7
100
AcDbEntity
  8
0
100
AcDbBlockBegin
  2
ケースＢ CCMH1120
 70
     0
 10
0.0
 20
0.0
 30
0.0
  3
ケースＢ CCMH1120
  1

  0
LINE
  5
4DCA
330
4DC7
100
AcDbEntity
  8
AM_7 中心線
100
AcDbLine
 10
75.98667997607936
 20
-526.0
 30
0.0
 11
-75.98667997607936
 21
-526.0
 31
0.0
  0
LINE
  5
4DCB
330
4DC7
100
AcDbEntity
  8
AM_0 外形線1
100
AcDbLine
 10
-2.0
 20
-560.0
 30
0.0
 11
-58.0
 21
-560.0
 31
0.0
  0
LINE
  5
4DCC
330
4DC7
100
AcDbEntity
  8
AM_0 外形線1
100
AcDbLine
 10
-267.0
 20
-480.0
 30
0.0
 11
-267.0
 21
0.0
 31
0.0
  0
LINE
  5
4DCD
330
4DC7
100
AcDbEntity
  8
AM_0 外形線1
100
AcDbLine
 10
-282.0
 20
-495.0
 30
0.0
 11
-282.0
 21
0.0
 31
0.0
  0
LINE
  5
4DCE
330
4DC7
100
AcDbEntity
  8
AM_0 外形線1
100
AcDbLine
 10
-332.0
 20
-495.0
 30
0.0
 11
-332.0
 21
0.0
 31
0.0
  0
LINE
  5
4DCF
330
4DC7
100
AcDbEntity
  8
AM_0 外形線1
100
AcDbLine
 10
-60.0
 20
-558.0
 30
0.0
 11
-60.0
 21
0.0
 31
0.0
  0
LINE
  5
4DD1
330
4DC7
100
AcDbEntity
  8
AM_0 外形線1
100
AcDbLine
 10
-68.0
 20
-480.0
 30
0.0
 11
-267.0
 21
-480.0
 31
0.0
  0
LINE
  5
4DD2
330
4DC7
100
AcDbEntity
  8
AM_0 外形線1
100
AcDbLine
 10
-282.0
 20
-495.0
 30
0.0
 11
-267.0
 21
-480.0
 31
0.0
  0
ARC
  5
4DD3
330
4DC7
100
AcDbEntity
  8
AM_0 外形線1
100
AcDbCircle
 10
-68.0
 20
-488.0
 30
0.0
 40
8.0
100
AcDbArc
 50
0.0
 51
90.0
  0
LINE
  5
4DD4
330
4DC7
100
AcDbEntity
  8
AM_0 外形線1
100
AcDbLine
 10
-58.0
 20
-560.0
 30
0.0
 11
-60.0
 21
-558.0
 31
0.0
  0
LINE
  5
4DD5
330
4DC7
100
AcDbEntity
  8
AM_0 外形線1
100
AcDbLine
 10
0.0
 20
-558.0
 30
0.0
 11
-2.0
 21
-560.0
 31
0.0
  0
LINE
  5
4DD6
330
4DC7
100
AcDbEntity
  8
AM_0 外形線1
100
AcDbLine
 10
-146.0
 20
451.4999999999998
 30
0.0
 11
-14.0
 21
451.4999999999998
 31
0.0
  0
LINE
  5
4DD7
330
4DC7
100
AcDbEntity
  8
AM_0 外形線1
100
AcDbLine
 10
-2.0
 20
560.0
 30
0.0
 11
-58.0
 21
560.0
 31
0.0
  0
LINE
  5
4DD8
330
4DC7
100
AcDbEntity
  8
AM_3 隠れ線
100
AcDbLine
 10
-312.0
 20
432.0
 30
0.0
 11
-160.0
 21
432.0
 31
0.0
  0
LINE
  5
4DD9
330
4DC7
100
AcDbEntity
  8
AM_7 中心線
100
AcDbLine
 10
-145.0
 20
440.0
 30
0.0
 11
-326.0
 21
440.0
 31
0.0
  0
LINE
  5
4DDA
330
4DC7
100
AcDbEntity
  8
AM_0 外形線1
100
AcDbLine
 10
-147.0
 20
450.0
 30
0.0
 11
-324.0
 21
450.0
 31
0.0
  0
LINE
  5
4DDB
330
4DC7
100
AcDbEntity
  8
AM_0 外形線1
100
AcDbLine
 10
-312.0
 20
432.0
 30
0.0
 11
-323.0
 21
432.0
 31
0.0
  0
LINE
  5
4DDC
330
4DC7
100
AcDbEntity
  8
AM_0 外形線1
100
AcDbLine
 10
-332.0
 20
451.4999999999998
 30
0.0
 11
-325.0
 21
451.4999999999998
 31
0.0
  0
LINE
  5
4DDE
330
4DC7
100
AcDbEntity
  8
AM_0 外形線1
100
AcDbLine
 10
-332.0
 20
464.0000000000005
 30
0.0
 11
-332.0
 21
451.4999999999998
 31
0.0
  0
LINE
  5
4DDF
330
4DC7
100
AcDbEntity
  8
AM_0 外形線1
100
AcDbLine
 10
-324.0
 20
433.0
 30
0.0
 11
-323.0
 21
432.0
 31
0.0
  0
LINE
  5
4DE0
330
4DC7
100
AcDbEntity
  8
AM_0 外形線1
100
AcDbLine
 10
-324.0
 20
450.4999999999998
 30
0.0
 11
-324.0
 21
433.0
 31
0.0
  0
ARC
  5
4DE1
330
4DC7
100
AcDbEntity
  8
AM_0 外形線1
100
AcDbCircle
 10
-325.0
 20
450.4999999999998
 30
0.0
 40
1.0
100
AcDbArc
 50
0.0
 51
90.0
  0
LINE
  5
4DE3
330
4DC7
100
AcDbEntity
  8
AM_0 外形線1
100
AcDbLine
 10
-160.0
 20
432.0
 30
0.0
 11
-148.0
 21
432.0
 31
0.0
  0
ARC
  5
4DE4
330
4DC7
100
AcDbEntity
  8
AM_0 外形線1
100
AcDbCircle
 10
-146.0
 20
450.4999999999998
 30
0.0
 40
1.0
100
AcDbArc
 50
90.0
 51
180.0
  0
LINE
  5
4DE5
330
4DC7
100
AcDbEntity
  8
AM_0 外形線1
100
AcDbLine
 10
-147.0
 20
433.0
 30
0.0
 11
-147.0
 21
450.4999999999998
 31
0.0
  0
LINE
  5
4DE6
330
4DC7
100
AcDbEntity
  8
AM_0 外形線1
100
AcDbLine
 10
-148.0
 20
432.0
 30
0.0
 11
-147.0
 21
433.0
 31
0.0
  0
LINE
  5
4DE7
330
4DC7
100
AcDbEntity
  8
AM_0 外形線1
100
AcDbLine
 10
-78.81200999999966
 20
465.0
 30
0.0
 11
-79.28344080000035
 21
451.4999999999998
 31
0.0
  0
LINE
  5
4DE8
330
4DC7
100
AcDbEntity
  8
AM_0 外形線1
100
AcDbLine
 10
-111.1879909999988
 20
465.0
 30
0.0
 11
-110.7165601999995
 21
451.4999999999998
 31
0.0
  0
LINE
  5
4DE9
330
4DC7
100
AcDbEntity
  8
AM_0 外形線1
100
AcDbLine
 10
-109.6785579999996
 20
464.1285290000005
 30
0.0
 11
-109.2375602460506
 21
451.5000000000005
 31
0.0
  0
LINE
  5
4DEA
330
4DC7
100
AcDbEntity
  8
AM_0 外形線1
100
AcDbLine
 10
-80.32144200000038
 20
464.1285290000005
 30
0.0
 11
-80.7624408399447
 21
451.5000000000005
 31
0.0
  0
LINE
  5
4DEC
330
4DC7
100
AcDbEntity
  8
AM_0 外形線1
100
AcDbLine
 10
-332.0
 20
495.0
 30
0.0
 11
-332.0
 21
484.0000000000004
 31
0.0
  0
LINE
  5
4DED
330
4DC7
100
AcDbEntity
  8
AM_0 外形線1
100
AcDbLine
 10
-68.0
 20
480.0
 30
0.0
 11
-267.0
 21
480.0
 31
0.0
  0
LINE
  5
4DEE
330
4DC7
100
AcDbEntity
  8
AM_0 外形線1
100
AcDbLine
 10
-282.0
 20
495.0
 30
0.0
 11
-267.0
 21
480.0
 31
0.0
  0
LINE
  5
4DEF
330
4DC7
100
AcDbEntity
  8
AM_0 外形線1
100
AcDbLine
 10
-78.3755000000001
 20
477.5
 30
0.0
 11
-78.28819799999928
 21
480.0
 31
0.0
  0
LINE
  5
4DF0
330
4DC7
100
AcDbEntity
  8
AM_0 外形線1
100
AcDbLine
 10
-111.7118019999998
 20
480.0
 30
0.0
 11
-111.6244999999999
 21
477.5
 31
0.0
  0
ARC
  5
4DF1
330
4DC7
100
AcDbEntity
  8
AM_0 外形線1
100
AcDbCircle
 10
-68.0
 20
488.0
 30
0.0
 40
8.0
100
AcDbArc
 50
270.0
 51
0.0
  0
LINE
  5
4DF2
330
4DC7
100
AcDbEntity
  8
AM_0 外形線1
100
AcDbLine
 10
-58.0
 20
560.0
 30
0.0
 11
-60.0
 21
558.0
 31
0.0
  0
LINE
  5
4DF3
330
4DC7
100
AcDbEntity
  8
AM_0 外形線1
100
AcDbLine
 10
-60.0
 20
488.0
 30
0.0
 11
-60.0
 21
558.0
 31
0.0
  0
LINE
  5
4DF4
330
4DC7
100
AcDbEntity
  8
AM_0 外形線1
100
AcDbLine
 10
-3.0
 20
472.5
 30
0.0
 11
0.0
 21
475.4999999999998
 31
0.0
  0
LINE
  5
4DF5
330
4DC7
100
AcDbEntity
  8
AM_0 外形線1
100
AcDbLine
 10
-14.0
 20
451.4999999999998
 30
0.0
 11
-14.0
 21
472.5
 31
0.0
  0
LINE
  5
4DF6
330
4DC7
100
AcDbEntity
  8
AM_0 外形線1
100
AcDbLine
 10
0.0
 20
475.4999999999998
 30
0.0
 11
0.0
 21
507.0
 31
0.0
  0
LINE
  5
4DF7
330
4DC7
100
AcDbEntity
  8
AM_0 外形線1
100
AcDbLine
 10
0.0
 20
558.0
 30
0.0
 11
-2.0
 21
560.0
 31
0.0
  0
LINE
  5
4DF8
330
4DC7
100
AcDbEntity
  8
AM_0 外形線1
100
AcDbLine
 10
-110.2328018593234
 20
480.0
 30
0.0
 11
-110.1954049999995
 21
478.9290950000003
 31
0.0
  0
LINE
  5
4DF9
330
4DC7
100
AcDbEntity
  8
AM_0 外形線1
100
AcDbLine
 10
-79.76719814067656
 20
480.0
 30
0.0
 11
-79.80459500000051
 21
478.9290950000003
 31
0.0
  0
INSERT
  5
4DFA
330
4DC7
100
AcDbEntity
  8
AM_0 外形線1
100
AcDbBlockReference
  2
ロッカクアナツキプラグB R
 10
-95.0
 20
480.0
 30
0.0
  0
LINE
  5
4DFC
330
4DC7
100
AcDbEntity
  8
AM_0 外形線1
100
AcDbLine
 10
-60.0
 20
507.0
 30
0.0
 11
0.0
 21
507.0
 31
0.0
  0
LINE
  5
4DFD
330
4DC7
100
AcDbEntity
  8
AM_0 外形線1
100
AcDbLine
 10
-60.0
 20
545.0
 30
0.0
 11
-0.0000000000004547
 21
545.0000000000003
 31
0.0
  0
LINE
  5
4E6C
330
4DC7
100
AcDbEntity
  8
AM_0 外形線1
100
AcDbLine
 10
-332.0
 20
495.0
 30
0.0
 11
-282.0
 21
495.0
 31
0.0
  0
LINE
  5
4E6D
330
4DC7
100
AcDbEntity
  8
AM_0 外形線1
100
AcDbLine
 10
-3.0
 20
472.5
 30
0.0
 11
-14.0
 21
472.5
 31
0.0
  0
LINE
  5
4E6E
330
4DC7
100
AcDbEntity
  8
AM_0 外形線1
100
AcDbLine
 10
0.0
 20
558.0
 30
0.0
 11
0.0
 21
545.0
 31
0.0
  0
LINE
  5
4E6F
330
4DC7
100
AcDbEntity
  8
AM_0 外形線1
100
AcDbLine
 10
0.0
 20
-558.0
 30
0.0
 11
0.0000000000004547
 21
0.0
 31
0.0
  0
LINE
  5
4E70
330
4DC7
100
AcDbEntity
  8
AM_0 外形線1
100
AcDbLine
 10
-332.0
 20
-495.0
 30
0.0
 11
-282.0
 21
-495.0
 31
0.0
  0
ENDBLK
  5
4DC9
330
4DC7
100
AcDbEntity
  8
0
100
AcDbBlockEnd
  0
BLOCK
  5
4EE1
330
4EE0
100
AcDbEntity
  8
0
100
AcDbBlockBegin
  2
センタＡ CCMH1120
 70
     0
 10
0.0
 20
0.0
 30
0.0
  3
センタＡ CCMH1120
  1

  0
LINE
  5
4EE3
330
4EE0
100
AcDbEntity
  8
AM_0 外形線1
100
AcDbLine
 10
540.0
 20
418.0
 30
0.0
 11
386.0
 21
418.0
 31
0.0
  0
LINE
  5
4EE4
330
4EE0
100
AcDbEntity
  8
AM_0 外形線1
100
AcDbLine
 10
386.0
 20
-418.0
 30
0.0
 11
540.0
 21
-418.0
 31
0.0
  0
LINE
  5
4EE5
330
4EE0
100
AcDbEntity
  8
AM_0 外形線1
100
AcDbLine
 10
0.0
 20
348.0
 30
0.0
 11
0.0
 21
0.0
 31
0.0
  0
LINE
  5
4EE6
330
4EE0
100
AcDbEntity
  8
AM_0 外形線1
100
AcDbLine
 10
386.0
 20
-418.0
 30
0.0
 11
386.0
 21
0.0
 31
0.0
  0
LINE
  5
4EE7
330
4EE0
100
AcDbEntity
  8
AM_0 外形線1
100
AcDbLine
 10
380.0
 20
-420.0
 30
0.0
 11
380.0
 21
0.0
 31
0.0
  0
LINE
  5
4EE8
330
4EE0
100
AcDbEntity
  8
AM_0 外形線1
100
AcDbLine
 10
340.0
 20
-420.0
 30
0.0
 11
380.0
 21
-420.0
 31
0.0
  0
LINE
  5
4EE9
330
4EE0
100
AcDbEntity
  8
AM_0 外形線1
100
AcDbLine
 10
380.0
 20
-420.0
 30
0.0
 11
386.0
 21
-418.0
 31
0.0
  0
LINE
  5
4EEA
330
4EE0
100
AcDbEntity
  8
AM_3 隠れ線
100
AcDbLine
 10
0.0
 20
16.0
 30
0.0
 11
80.0
 21
16.0
 31
0.0
  0
LINE
  5
4EEB
330
4EE0
100
AcDbEntity
  8
AM_3 隠れ線
100
AcDbLine
 10
0.0
 20
18.0
 30
0.0
 11
66.0
 21
18.0
 31
0.0
  0
LINE
  5
4EEC
330
4EE0
100
AcDbEntity
  8
AM_3 隠れ線
100
AcDbLine
 10
80.0
 20
16.0
 30
0.0
 11
89.2376039999999
 21
0.0
 31
0.0
  0
LINE
  5
4EED
330
4EE0
100
AcDbEntity
  8
AM_3 隠れ線
100
AcDbLine
 10
80.0
 20
16.0
 30
0.0
 11
80.0
 21
0.0
 31
0.0
  0
LINE
  5
4EEE
330
4EE0
100
AcDbEntity
  8
AM_3 隠れ線
100
AcDbLine
 10
66.0
 20
18.0
 30
0.0
 11
67.15470000000095
 21
16.0
 31
0.0
  0
LINE
  5
4EEF
330
4EE0
100
AcDbEntity
  8
AM_3 隠れ線
100
AcDbLine
 10
66.0
 20
0.0
 30
0.0
 11
66.0
 21
18.0
 31
0.0
  0
LINE
  5
4EF0
330
4EE0
100
AcDbEntity
  8
AM_3 隠れ線
100
AcDbLine
 10
67.15470000000095
 20
16.0
 30
0.0
 11
67.15470000000095
 21
0.0
 31
0.0
  0
ARC
  5
4EF2
330
4EE0
100
AcDbEntity
  8
AM_0 外形線1
100
AcDbCircle
 10
216.0
 20
0.0
 30
0.0
 40
449.6
100
AcDbArc
 50
80.39731499999737
 51
99.60268500000264
  0
LINE
  5
4EF4
330
4EE0
100
AcDbEntity
  8
AM_0 外形線1
100
AcDbLine
 10
139.5
 20
420.0
 30
0.0
 11
5.0
 21
420.0
 31
0.0
  0
LINE
  5
4EF5
330
4EE0
100
AcDbEntity
  8
AM_0 外形線1
100
AcDbLine
 10
0.0
 20
415.0
 30
0.0
 11
0.0
 21
348.0
 31
0.0
  0
LINE
  5
4EF6
330
4EE0
100
AcDbEntity
  8
AM_0 外形線1
100
AcDbLine
 10
5.0
 20
420.0
 30
0.0
 11
0.0
 21
415.0
 31
0.0
  0
ARC
  5
4EF7
330
4EE0
100
AcDbEntity
  8
AM_0 外形線1
100
AcDbCircle
 10
139.5
 20
420.5
 30
0.0
 40
0.5
100
AcDbArc
 50
270.0
 51
0.0
  0
LINE
  5
4EF8
330
4EE0
100
AcDbEntity
  8
AM_0 外形線1
100
AcDbLine
 10
140.0
 20
442.1299580000003
 30
0.0
 11
140.0
 21
420.5
 31
0.0
  0
LINE
  5
4EF9
330
4EE0
100
AcDbEntity
  8
AM_0 外形線1
100
AcDbLine
 10
141.0
 20
443.3003040000003
 30
0.0
 11
140.0
 21
442.1299580000003
 31
0.0
  0
LINE
  5
4EFA
330
4EE0
100
AcDbEntity
  8
AM_0 外形線1
100
AcDbLine
 10
380.0
 20
420.0
 30
0.0
 11
292.5
 21
420.0
 31
0.0
  0
LINE
  5
4EFB
330
4EE0
100
AcDbEntity
  8
AM_7 中心線
100
AcDbLine
 10
216.0
 20
454.6000000000002
 30
0.0
 11
216.0
 21
425.0
 31
0.0
  0
LINE
  5
4EFC
330
4EE0
100
AcDbEntity
  8
AM_0 外形線1
100
AcDbLine
 10
292.0
 20
442.1299580000003
 30
0.0
 11
291.0
 21
443.3003040000003
 31
0.0
  0
LINE
  5
4EFD
330
4EE0
100
AcDbEntity
  8
AM_0 外形線1
100
AcDbLine
 10
292.0
 20
420.5
 30
0.0
 11
292.0
 21
442.1299580000003
 31
0.0
  0
ARC
  5
4EFE
330
4EE0
100
AcDbEntity
  8
AM_0 外形線1
100
AcDbCircle
 10
292.5
 20
420.5
 30
0.0
 40
0.5
100
AcDbArc
 50
180.0
 51
270.0
  0
LINE
  5
4EFF
330
4EE0
100
AcDbEntity
  8
AM_0 外形線1
100
AcDbLine
 10
386.0
 20
418.0
 30
0.0
 11
380.0
 21
420.0
 31
0.0
  0
LINE
  5
4F00
330
4EE0
100
AcDbEntity
  8
AM_0 外形線1
100
AcDbLine
 10
560.0
 20
-398.0
 30
0.0
 11
560.0
 21
398.0
 31
0.0
  0
ARC
  5
4F01
330
4EE0
100
AcDbEntity
  8
AM_0 外形線1
100
AcDbCircle
 10
540.0
 20
-398.0
 30
0.0
 40
20.0
100
AcDbArc
 50
270.0
 51
0.0
  0
LINE
  5
4F02
330
4EE0
100
AcDbEntity
  8
AM_3 隠れ線
100
AcDbLine
 10
560.0
 20
16.0
 30
0.0
 11
480.0
 21
16.0
 31
0.0
  0
LINE
  5
4F03
330
4EE0
100
AcDbEntity
  8
AM_3 隠れ線
100
AcDbLine
 10
560.0
 20
18.0
 30
0.0
 11
494.0
 21
18.0
 31
0.0
  0
LINE
  5
4F04
330
4EE0
100
AcDbEntity
  8
AM_3 隠れ線
100
AcDbLine
 10
480.0
 20
16.0
 30
0.0
 11
480.0
 21
0.0
 31
0.0
  0
LINE
  5
4F05
330
4EE0
100
AcDbEntity
  8
AM_3 隠れ線
100
AcDbLine
 10
480.0
 20
16.0
 30
0.0
 11
470.7623949999996
 21
0.0
 31
0.0
  0
LINE
  5
4F06
330
4EE0
100
AcDbEntity
  8
AM_3 隠れ線
100
AcDbLine
 10
494.0
 20
18.0
 30
0.0
 11
492.8452990000005
 21
16.0
 31
0.0
  0
LINE
  5
4F07
330
4EE0
100
AcDbEntity
  8
AM_3 隠れ線
100
AcDbLine
 10
494.0
 20
0.0
 30
0.0
 11
494.0
 21
18.0
 31
0.0
  0
LINE
  5
4F08
330
4EE0
100
AcDbEntity
  8
AM_3 隠れ線
100
AcDbLine
 10
492.8452990000005
 20
16.0
 30
0.0
 11
492.8452990000005
 21
0.0
 31
0.0
  0
ARC
  5
4F09
330
4EE0
100
AcDbEntity
  8
AM_0 外形線1
100
AcDbCircle
 10
540.0
 20
398.0
 30
0.0
 40
20.0
100
AcDbArc
 50
0.0
 51
90.0
  0
LINE
  5
4F0C
330
4EE0
100
AcDbEntity
  8
AM_0 外形線1
100
AcDbLine
 10
0.0
 20
249.9999999999996
 30
0.0
 11
560.0
 21
249.9999999999991
 31
0.0
  0
ARC
  5
7195
330
4EE0
100
AcDbEntity
  8
AM_0 外形線1
100
AcDbCircle
 10
216.0000000000009
 20
0.0
 30
0.0
 40
430.0
100
AcDbArc
 50
79.8198250382289
 51
100.1801749617711
  0
ARC
  5
7372
330
4EE0
100
AcDbEntity
  8
AM_7 中心線
100
AcDbCircle
 10
217.0
 20
0.0
 30
0.0
 40
439.9999999999995
100
AcDbArc
 50
79.40184332110304
 51
101.1185092734085
  0
ENDBLK
  5
4EE2
330
4EE0
100
AcDbEntity
  8
0
100
AcDbBlockEnd
  0
BLOCK
  5
53B3
330
53B2
100
AcDbEntity
  8
0
100
AcDbBlockBegin
  2
リーマボルト CCMH1120 M36
 70
     0
 10
0.0
 20
0.0
 30
0.0
  3
リーマボルト CCMH1120 M36
  1

  0
LINE
  5
53B5
330
53B2
100
AcDbEntity
  8
AM_4 細線
100
AcDbLine
 10
-158.0
 20
-16.0
 30
0.0
 11
-168.0
 21
-16.0
 31
0.0
  0
LINE
  5
53B6
330
53B2
100
AcDbEntity
  8
AM_4 細線
100
AcDbLine
 10
-158.0
 20
16.0
 30
0.0
 11
-168.0
 21
16.0
 31
0.0
  0
LINE
  5
53B7
330
53B2
100
AcDbEntity
  8
AM_0 外形線1
100
AcDbLine
 10
-120.0
 20
-18.0
 30
0.0
 11
-117.7320509999999
 21
-18.0
 31
0.0
  0
LINE
  5
53B8
330
53B2
100
AcDbEntity
  8
AM_0 外形線1
100
AcDbLine
 10
-120.0
 20
18.0
 30
0.0
 11
-117.7320509999999
 21
18.0
 31
0.0
  0
LINE
  5
53B9
330
53B2
100
AcDbEntity
  8
AM_0 外形線1
100
AcDbLine
 10
-120.0
 20
3.0
 30
0.0
 11
-129.0
 21
-6.0
 31
0.0
  0
LINE
  5
53BA
330
53B2
100
AcDbEntity
  8
AM_0 外形線1
100
AcDbLine
 10
-120.0
 20
6.0
 30
0.0
 11
-129.0
 21
-3.0
 31
0.0
  0
LINE
  5
53BB
330
53B2
100
AcDbEntity
  8
AM_0 外形線1
100
AcDbLine
 10
-166.0
 20
18.0
 30
0.0
 11
-166.0
 21
-18.0
 31
0.0
  0
LINE
  5
53BC
330
53B2
100
AcDbEntity
  8
AM_0 外形線1
100
AcDbLine
 10
-166.0
 20
-18.0
 30
0.0
 11
-158.0
 21
-18.0
 31
0.0
  0
LINE
  5
53BD
330
53B2
100
AcDbEntity
  8
AM_0 外形線1
100
AcDbLine
 10
-169.0
 20
-15.0
 30
0.0
 11
-166.0
 21
-18.0
 31
0.0
  0
LINE
  5
53BE
330
53B2
100
AcDbEntity
  8
AM_0 外形線1
100
AcDbLine
 10
-169.0
 20
15.0
 30
0.0
 11
-169.0
 21
-15.0
 31
0.0
  0
LINE
  5
53BF
330
53B2
100
AcDbEntity
  8
AM_0 外形線1
100
AcDbLine
 10
-166.0
 20
18.0
 30
0.0
 11
-169.0
 21
15.0
 31
0.0
  0
LINE
  5
53C0
330
53B2
100
AcDbEntity
  8
AM_0 外形線1
100
AcDbLine
 10
-158.0
 20
18.0
 30
0.0
 11
-166.0
 21
18.0
 31
0.0
  0
LINE
  5
53C1
330
53B2
100
AcDbEntity
  8
AM_0 外形線1
100
AcDbLine
 10
-129.0
 20
-15.8771329999995
 30
0.0
 11
-155.5462619999998
 21
-15.8771329999995
 31
0.0
  0
LINE
  5
53C2
330
53B2
100
AcDbEntity
  8
AM_0 外形線1
100
AcDbLine
 10
-129.0
 20
15.87713200000007
 30
0.0
 11
-155.5462619999998
 21
15.87713200000007
 31
0.0
  0
ARC
  5
53C3
330
53B2
100
AcDbEntity
  8
AM_0 外形線1
100
AcDbCircle
 10
-143.9382310000001
 20
-23.81356599999981
 30
0.0
 40
14.06177
100
AcDbArc
 50
145.6395059999856
 51
214.3604940000144
  0
ARC
  5
53C4
330
53B2
100
AcDbEntity
  8
AM_0 外形線1
100
AcDbCircle
 10
-105.4059379999999
 20
0.0
 30
0.0
 40
52.594062
100
AcDbArc
 50
162.4294029999824
 51
197.5705970000175
  0
ARC
  5
53C5
330
53B2
100
AcDbEntity
  8
AM_0 外形線1
100
AcDbCircle
 10
-143.9382310000001
 20
23.81356600000026
 30
0.0
 40
14.06177
100
AcDbArc
 50
145.6395059999856
 51
214.3604940000144
  0
LINE
  5
53C6
330
53B2
100
AcDbEntity
  8
AM_0 外形線1
100
AcDbLine
 10
-129.0
 20
-31.75
 30
0.0
 11
-129.0
 21
31.75
 31
0.0
  0
LINE
  5
53C7
330
53B2
100
AcDbEntity
  8
AM_0 外形線1
100
AcDbLine
 10
-155.5462619999998
 20
-31.75
 30
0.0
 11
-129.0
 21
-31.75
 31
0.0
  0
LINE
  5
53C8
330
53B2
100
AcDbEntity
  8
AM_0 外形線1
100
AcDbLine
 10
-158.0
 20
-27.5
 30
0.0
 11
-155.5462619999998
 21
-31.75
 31
0.0
  0
LINE
  5
53C9
330
53B2
100
AcDbEntity
  8
AM_0 外形線1
100
AcDbLine
 10
-158.0
 20
27.5
 30
0.0
 11
-158.0
 21
-27.5
 31
0.0
  0
LINE
  5
53CA
330
53B2
100
AcDbEntity
  8
AM_0 外形線1
100
AcDbLine
 10
-155.5462619999998
 20
31.75
 30
0.0
 11
-158.0
 21
27.5
 31
0.0
  0
LINE
  5
53CB
330
53B2
100
AcDbEntity
  8
AM_0 外形線1
100
AcDbLine
 10
-129.0
 20
31.75
 30
0.0
 11
-155.5462619999998
 21
31.75
 31
0.0
  0
LINE
  5
53CC
330
53B2
100
AcDbEntity
  8
AM_0 外形線1
100
AcDbLine
 10
-129.0
 20
29.75
 30
0.0
 11
-120.0
 21
29.75
 31
0.0
  0
LINE
  5
53CD
330
53B2
100
AcDbEntity
  8
AM_0 外形線1
100
AcDbLine
 10
-116.0
 20
19.0
 30
0.0
 11
-116.0
 21
-19.0
 31
0.0
  0
LINE
  5
53CE
330
53B2
100
AcDbEntity
  8
AM_0 外形線1
100
AcDbLine
 10
-118.0
 20
-17.84529999999995
 30
0.0
 11
-116.0
 21
-19.0
 31
0.0
  0
LINE
  5
53CF
330
53B2
100
AcDbEntity
  8
AM_0 外形線1
100
AcDbLine
 10
-118.0
 20
17.84529900000052
 30
0.0
 11
-118.0
 21
-17.84529999999995
 31
0.0
  0
LINE
  5
53D0
330
53B2
100
AcDbEntity
  8
AM_0 外形線1
100
AcDbLine
 10
-116.0
 20
19.0
 30
0.0
 11
-118.0
 21
17.84529900000052
 31
0.0
  0
LINE
  5
53D1
330
53B2
100
AcDbEntity
  8
AM_0 外形線1
100
AcDbLine
 10
0.0
 20
-15.8771329999995
 30
0.0
 11
20.54626100000041
 21
-15.8771329999995
 31
0.0
  0
LINE
  5
53D2
330
53B2
100
AcDbEntity
  8
AM_0 外形線1
100
AcDbLine
 10
0.0
 20
15.87713200000007
 30
0.0
 11
20.54626100000041
 21
15.87713200000007
 31
0.0
  0
LINE
  5
53D3
330
53B2
100
AcDbEntity
  8
AM_0 外形線1
100
AcDbLine
 10
20.54626100000041
 20
-31.75
 30
0.0
 11
0.0
 21
-31.75
 31
0.0
  0
LINE
  5
53D4
330
53B2
100
AcDbEntity
  8
AM_0 外形線1
100
AcDbLine
 10
0.0
 20
31.75
 30
0.0
 11
20.54626100000041
 21
31.75
 31
0.0
  0
ARC
  5
53D5
330
53B2
100
AcDbEntity
  8
AM_0 外形線1
100
AcDbCircle
 10
-2.0
 20
-19.5
 30
0.0
 40
2.0
100
AcDbArc
 50
14.03624300000194
 51
75.52248800001485
  0
ARC
  5
53D6
330
53B2
100
AcDbEntity
  8
AM_0 外形線1
100
AcDbCircle
 10
-1.0
 20
-19.5
 30
0.0
 40
2.0
100
AcDbArc
 50
104.4775119999851
 51
165.963756999998
  0
ARC
  5
53D7
330
53B2
100
AcDbEntity
  8
AM_0 外形線1
100
AcDbCircle
 10
-1.0
 20
19.5
 30
0.0
 40
2.0
100
AcDbArc
 50
194.0362430000019
 51
255.5224880000149
  0
ARC
  5
53D8
330
53B2
100
AcDbEntity
  8
AM_0 外形線1
100
AcDbCircle
 10
-2.0
 20
19.5
 30
0.0
 40
2.0
100
AcDbArc
 50
284.4775119999852
 51
345.963756999998
  0
LINE
  5
53D9
330
53B2
100
AcDbEntity
  8
AM_0 外形線1
100
AcDbLine
 10
-3.0
 20
-19.0
 30
0.0
 11
-3.0
 21
19.0
 31
0.0
  0
ARC
  5
53DA
330
53B2
100
AcDbEntity
  8
AM_0 外形線1
100
AcDbCircle
 10
8.938229999999748
 20
-23.81356599999981
 30
0.0
 40
14.06177
100
AcDbArc
 50
325.6395059999856
 51
34.3604940000144
  0
ARC
  5
53DB
330
53B2
100
AcDbEntity
  8
AM_0 外形線1
100
AcDbCircle
 10
-29.59406299999955
 20
0.0
 30
0.0
 40
52.594062
100
AcDbArc
 50
342.4294029999825
 51
17.57059700001753
  0
ARC
  5
53DC
330
53B2
100
AcDbEntity
  8
AM_0 外形線1
100
AcDbCircle
 10
8.938229999999748
 20
23.81356600000026
 30
0.0
 40
14.06177
100
AcDbArc
 50
325.6395059999856
 51
34.3604940000144
  0
LINE
  5
53DD
330
53B2
100
AcDbEntity
  8
AM_0 外形線1
100
AcDbLine
 10
23.0
 20
-27.5
 30
0.0
 11
20.54626100000041
 21
-31.75
 31
0.0
  0
LINE
  5
53DE
330
53B2
100
AcDbEntity
  8
AM_0 外形線1
100
AcDbLine
 10
23.0
 20
27.5
 30
0.0
 11
23.0
 21
-27.5
 31
0.0
  0
LINE
  5
53DF
330
53B2
100
AcDbEntity
  8
AM_0 外形線1
100
AcDbLine
 10
20.54626100000041
 20
31.75
 30
0.0
 11
23.0
 21
27.5
 31
0.0
  0
LINE
  5
53E0
330
53B2
100
AcDbEntity
  8
AM_0 外形線1
100
AcDbLine
 10
-120.0
 20
-29.75
 30
0.0
 11
-129.0
 21
-29.75
 31
0.0
  0
LINE
  5
5442
330
53B2
100
AcDbEntity
  8
AM_0 外形線1
100
AcDbLine
 10
-120.0
 20
29.75
 30
0.0
 11
-120.0
 21
-29.75
 31
0.0
  0
LINE
  5
5443
330
53B2
100
AcDbEntity
  8
AM_0 外形線1
100
AcDbLine
 10
-116.0
 20
19.0
 30
0.0
 11
-3.0
 21
19.0
 31
0.0
  0
LINE
  5
5444
330
53B2
100
AcDbEntity
  8
AM_0 外形線1
100
AcDbLine
 10
-116.0
 20
-19.0
 30
0.0
 11
-3.0
 21
-19.0
 31
0.0
  0
LINE
  5
5445
330
53B2
100
AcDbEntity
  8
AM_0 外形線1
100
AcDbLine
 10
0.0
 20
31.75
 30
0.0
 11
0.0
 21
-31.75
 31
0.0
  0
ENDBLK
  5
53B4
330
53B2
100
AcDbEntity
  8
0
100
AcDbBlockEnd
  0
BLOCK
  5
54D8
330
54D7
100
AcDbEntity
  8
0
100
AcDbBlockBegin
  2
ＧＣサイドカバ－A CCMH1120
 70
     0
 10
0.0
 20
0.0
 30
0.0
  3
ＧＣサイドカバ－A CCMH1120
  1

  0
LINE
  5
54DB
330
54D7
100
AcDbEntity
  8
AM_0 外形線1
100
AcDbLine
 10
28.0
 20
-495.0
 30
0.0
 11
28.0
 21
0.0
 31
0.0
  0
LINE
  5
54DC
330
54D7
100
AcDbEntity
  8
AM_7 中心線
100
AcDbLine
 10
-45.16501299999982
 20
-474.0
 30
0.0
 11
49.94232100000044
 21
-474.0
 31
0.0
  0
LINE
  5
54DE
330
54D7
100
AcDbEntity
  8
AM_0 外形線1
100
AcDbLine
 10
33.10000000000036
 20
477.0
 30
0.0
 11
28.0
 21
469.0
 31
0.0
  0
LINE
  5
54DF
330
54D7
100
AcDbEntity
  8
AM_0 外形線1
100
AcDbLine
 10
28.0
 20
471.0
 30
0.0
 11
33.10000000000036
 21
479.0
 31
0.0
  0
LINE
  5
54E0
330
54D7
100
AcDbEntity
  8
AM_0 外形線1
100
AcDbLine
 10
46.10000000000036
 20
487.3398630000005
 30
0.0
 11
46.10000000000036
 21
461.4001170000001
 31
0.0
  0
ARC
  5
54E1
330
54D7
100
AcDbEntity
  8
AM_0 外形線1
100
AcDbCircle
 10
20.10000000000037
 20
474.0
 30
0.0
 40
26.0
100
AcDbArc
 50
340.591690999988
 51
19.40830900001197
  0
LINE
  5
54E2
330
54D7
100
AcDbEntity
  8
AM_0 外形線1
100
AcDbLine
 10
33.10000000000036
 20
491.0500000000001
 30
0.0
 11
33.10000000000036
 21
456.9500000000003
 31
0.0
  0
LINE
  5
54E3
330
54D7
100
AcDbEntity
  8
AM_0 外形線1
100
AcDbLine
 10
-31.89999999999964
 20
484.0
 30
0.0
 11
-31.89999999999964
 21
464.0
 31
0.0
  0
LINE
  5
54E4
330
54D7
100
AcDbEntity
  8
AM_0 外形線1
100
AcDbLine
 10
-42.05181499999889
 20
474.0
 30
0.0
 11
-37.0
 21
465.2499999999998
 31
0.0
  0
LINE
  5
54E5
330
54D7
100
AcDbEntity
  8
AM_0 外形線1
100
AcDbLine
 10
-37.0
 20
482.7499999999998
 30
0.0
 11
-37.0
 21
465.2499999999998
 31
0.0
  0
LINE
  5
54E6
330
54D7
100
AcDbEntity
  8
AM_0 外形線1
100
AcDbLine
 10
-28.89999999999965
 20
484.0
 30
0.0
 11
-28.89999999999965
 21
464.0
 31
0.0
  0
LINE
  5
54E7
330
54D7
100
AcDbEntity
  8
AM_0 外形線1
100
AcDbLine
 10
28.0
 20
458.7000000000001
 30
0.0
 11
28.0
 21
495.0
 31
0.0
  0
LINE
  5
54E8
330
54D7
100
AcDbEntity
  8
AM_0 外形線1
100
AcDbLine
 10
-28.89999999999965
 20
465.2499999999998
 30
0.0
 11
28.0
 21
465.2499999999998
 31
0.0
  0
LINE
  5
54E9
330
54D7
100
AcDbEntity
  8
AM_4 細線
100
AcDbLine
 10
-28.89999999999965
 20
464.0
 30
0.0
 11
28.0
 21
464.0
 31
0.0
  0
LINE
  5
54EA
330
54D7
100
AcDbEntity
  8
AM_0 外形線1
100
AcDbLine
 10
-31.89999999999964
 20
464.0
 30
0.0
 11
-28.89999999999965
 21
464.0
 31
0.0
  0
LINE
  5
54EB
330
54D7
100
AcDbEntity
  8
AM_0 外形線1
100
AcDbLine
 10
-37.0
 20
465.2499999999998
 30
0.0
 11
-28.89999999999965
 21
465.2499999999998
 31
0.0
  0
LWPOLYLINE
  5
54EC
330
54D7
100
AcDbEntity
  8
AM_0 外形線1
100
AcDbPolyline
 90
       73
 70
     0
 43
0.0
 10
0.0
 20
426.125
 10
0.0399550000001909
 20
425.5911709999999
 10
0.1595180000003893
 20
425.0614050000002
 10
0.3577789999999368
 20
424.5397330000005
 10
0.6332270000002609
 20
424.0301269999998
 10
0.9837680000000544
 20
423.5364630000002
 10
1.406732999999803
 20
423.0624999999998
 10
1.898903000000244
 20
422.6118440000004
 10
2.45653300000049
 20
422.1879260000005
 10
3.075378999999883
 20
421.793971
 10
3.750729999999747
 20
421.4329780000001
 10
4.477447000000211
 20
421.1076940000001
 10
5.25
 20
420.8205940000001
 10
6.062507999999978
 20
420.5738650000003
 10
6.908788000000639
 20
420.3693830000001
 10
7.782400000000052
 20
420.2087040000005
 10
8.676694000000678
 20
420.0930520000001
 10
9.584864000000379
 20
420.0233070000003
 10
10.5
 20
420.0
 10
11.4151350000011
 20
420.0233070000003
 10
12.32330600000023
 20
420.0930520000001
 10
13.21759999999995
 20
420.2087040000005
 10
14.09121100000084
 20
420.3693830000001
 10
14.93749100000059
 20
420.5738650000003
 10
15.75
 20
420.8205940000001
 10
16.52255200000036
 20
421.1076940000001
 10
17.24927000000025
 20
421.4329780000001
 10
17.92462100000011
 20
421.793971
 10
18.54346600000099
 20
422.1879260000005
 10
19.10109600000032
 20
422.6118440000004
 10
19.59326599999986
 20
423.0624999999998
 10
20.01623099999961
 20
423.5364630000002
 10
20.36677200000031
 20
424.0301269999998
 10
20.64222100000006
 20
424.5397330000005
 10
20.84048100000018
 20
425.0614050000002
 10
20.96004400000038
 20
425.5911709999999
 10
21.0
 20
426.125
 10
20.96004400000038
 20
426.6588290000004
 10
20.84048100000018
 20
427.188595
 10
20.64222100000006
 20
427.7102670000004
 10
20.36677200000031
 20
428.2198730000001
 10
20.01623099999961
 20
428.713537
 10
19.59326599999986
 20
429.1875
 10
19.10109600000032
 20
429.6381560000003
 10
18.54346600000099
 20
430.0620740000002
 10
17.92462100000011
 20
430.4560290000003
 10
17.24927000000025
 20
430.8170220000006
 10
16.52255200000036
 20
431.1423060000001
 10
15.75
 20
431.4294050000003
 10
14.93749100000059
 20
431.6761350000001
 10
14.09121100000084
 20
431.8806170000001
 10
13.21759999999995
 20
432.0412960000003
 10
12.32330600000023
 20
432.1569470000004
 10
11.4151350000011
 20
432.2266920000001
 10
10.5
 20
432.2499999999998
 10
9.584864000000379
 20
432.2266920000001
 10
8.676694000000678
 20
432.1569470000004
 10
7.782400000000052
 20
432.0412960000003
 10
6.908788000000639
 20
431.8806170000001
 10
6.062507999999978
 20
431.6761350000001
 10
5.25
 20
431.4294050000003
 10
4.477447000000211
 20
431.1423060000001
 10
3.750729999999747
 20
430.8170220000006
 10
3.075378999999883
 20
430.4560290000003
 10
2.45653300000049
 20
430.0620740000002
 10
1.898903000000244
 20
429.6381560000003
 10
1.406732999999803
 20
429.1875
 10
0.9837680000000544
 20
428.713537
 10
0.6332270000002609
 20
428.2198730000001
 10
0.3577789999999368
 20
427.7102670000004
 10
0.1595180000003893
 20
427.188595
 10
0.0399550000001909
 20
426.6588290000004
 10
0.0
 20
426.125
  0
LINE
  5
54ED
330
54D7
100
AcDbEntity
  8
AM_0 外形線1
100
AcDbLine
 10
33.10000000000036
 20
465.3602540000006
 30
0.0
 11
44.62253600000075
 21
465.3602540000006
 31
0.0
  0
LINE
  5
54EE
330
54D7
100
AcDbEntity
  8
AM_0 外形線1
100
AcDbLine
 10
33.10000000000036
 20
456.7000000000001
 30
0.0
 11
33.10000000000036
 21
456.9500000000003
 31
0.0
  0
LINE
  5
54EF
330
54D7
100
AcDbEntity
  8
AM_0 外形線1
100
AcDbLine
 10
44.62253600000075
 20
456.7000000000001
 30
0.0
 11
33.10000000000036
 21
456.7000000000001
 31
0.0
  0
ARC
  5
54F0
330
54D7
100
AcDbEntity
  8
AM_0 外形線1
100
AcDbCircle
 10
39.06226100000095
 20
461.0301269999998
 30
0.0
 40
7.047457999999998
100
AcDbArc
 50
322.0899220000364
 51
37.91007799996356
  0
LINE
  5
54F1
330
54D7
100
AcDbEntity
  8
AM_0 外形線1
100
AcDbLine
 10
33.10000000000036
 20
456.9500000000003
 30
0.0
 11
28.0
 21
456.9500000000003
 31
0.0
  0
LINE
  5
54F3
330
54D7
100
AcDbEntity
  8
AM_0 外形線1
100
AcDbLine
 10
4.5
 20
451.4999999999998
 30
0.0
 11
-6.999999999999544
 21
451.4999999999998
 31
0.0
  0
LINE
  5
54F4
330
54D7
100
AcDbEntity
  8
AM_0 外形線1
100
AcDbLine
 10
4.5
 20
458.7000000000001
 30
0.0
 11
4.5
 21
451.4999999999998
 31
0.0
  0
LINE
  5
54F5
330
54D7
100
AcDbEntity
  8
AM_0 外形線1
100
AcDbLine
 10
0.0
 20
458.7000000000001
 30
0.0
 11
4.5
 21
458.7000000000001
 31
0.0
  0
LINE
  5
54F6
330
54D7
100
AcDbEntity
  8
AM_0 外形線1
100
AcDbLine
 10
-7.0
 20
422.4999999999998
 30
0.0
 11
-7.0
 21
451.4999999999998
 31
0.0
  0
LINE
  5
54F7
330
54D7
100
AcDbEntity
  8
AM_0 外形線1
100
AcDbLine
 10
0.0
 20
422.4999999999998
 30
0.0
 11
-7.0
 21
422.4999999999998
 31
0.0
  0
LINE
  5
54F8
330
54D7
100
AcDbEntity
  8
AM_0 外形線1
100
AcDbLine
 10
0.0
 20
432.3000000000001
 30
0.0
 11
0.0
 21
422.4999999999998
 31
0.0
  0
LINE
  5
54F9
330
54D7
100
AcDbEntity
  8
AM_0 外形線1
100
AcDbLine
 10
21.0
 20
432.3000000000001
 30
0.0
 11
0.0
 21
432.3000000000001
 31
0.0
  0
LINE
  5
54FA
330
54D7
100
AcDbEntity
  8
AM_0 外形線1
100
AcDbLine
 10
21.0
 20
422.4999999999998
 30
0.0
 11
21.0
 21
432.3000000000001
 31
0.0
  0
LINE
  5
54FB
330
54D7
100
AcDbEntity
  8
AM_0 外形線1
100
AcDbLine
 10
28.0
 20
422.4999999999998
 30
0.0
 11
21.0
 21
422.4999999999998
 31
0.0
  0
LINE
  5
54FC
330
54D7
100
AcDbEntity
  8
AM_0 外形線1
100
AcDbLine
 10
28.0
 20
458.7000000000001
 30
0.0
 11
28.0
 21
422.4999999999998
 31
0.0
  0
LINE
  5
54FD
330
54D7
100
AcDbEntity
  8
AM_0 外形線1
100
AcDbLine
 10
-7.0
 20
422.4999999999998
 30
0.0
 11
-7.0
 21
420.0
 31
0.0
  0
LINE
  5
54FE
330
54D7
100
AcDbEntity
  8
AM_0 外形線1
100
AcDbLine
 10
0.0
 20
422.4999999999998
 30
0.0
 11
0.0
 21
420.0
 31
0.0
  0
LINE
  5
54FF
330
54D7
100
AcDbEntity
  8
AM_0 外形線1
100
AcDbLine
 10
21.0
 20
422.4999999999998
 30
0.0
 11
21.0
 21
420.0
 31
0.0
  0
LINE
  5
5500
330
54D7
100
AcDbEntity
  8
AM_0 外形線1
100
AcDbLine
 10
28.0
 20
422.4999999999998
 30
0.0
 11
28.0
 21
420.0
 31
0.0
  0
LINE
  5
5501
330
54D7
100
AcDbEntity
  8
AM_0 外形線1
100
AcDbLine
 10
28.0
 20
482.7499999999998
 30
0.0
 11
-28.89999999999965
 21
482.7499999999998
 31
0.0
  0
LINE
  5
5502
330
54D7
100
AcDbEntity
  8
AM_7 中心線
100
AcDbLine
 10
-45.16501299999982
 20
474.0
 30
0.0
 11
49.94232100000044
 21
474.0
 31
0.0
  0
LINE
  5
5503
330
54D7
100
AcDbEntity
  8
AM_4 細線
100
AcDbLine
 10
28.0
 20
484.0
 30
0.0
 11
-28.89999999999965
 21
484.0
 31
0.0
  0
LINE
  5
5504
330
54D7
100
AcDbEntity
  8
AM_0 外形線1
100
AcDbLine
 10
-28.89999999999965
 20
484.0
 30
0.0
 11
-31.89999999999964
 21
484.0
 31
0.0
  0
LINE
  5
5505
330
54D7
100
AcDbEntity
  8
AM_0 外形線1
100
AcDbLine
 10
-37.0
 20
482.7499999999998
 30
0.0
 11
-42.05181499999889
 21
474.0
 31
0.0
  0
LINE
  5
5506
330
54D7
100
AcDbEntity
  8
AM_0 外形線1
100
AcDbLine
 10
-28.89999999999965
 20
482.7499999999998
 30
0.0
 11
-37.0
 21
482.7499999999998
 31
0.0
  0
LINE
  5
5507
330
54D7
100
AcDbEntity
  8
AM_0 外形線1
100
AcDbLine
 10
44.62253600000075
 20
482.6397460000001
 30
0.0
 11
33.10000000000036
 21
482.6397460000001
 31
0.0
  0
ARC
  5
5508
330
54D7
100
AcDbEntity
  8
AM_0 外形線1
100
AcDbCircle
 10
39.06226100000095
 20
486.969873
 30
0.0
 40
7.047457999999998
100
AcDbArc
 50
322.0899220000364
 51
37.91007799996356
  0
LINE
  5
5509
330
54D7
100
AcDbEntity
  8
AM_0 外形線1
100
AcDbLine
 10
33.10000000000036
 20
491.3000000000001
 30
0.0
 11
44.62253600000075
 21
491.3000000000001
 31
0.0
  0
LINE
  5
550A
330
54D7
100
AcDbEntity
  8
AM_0 外形線1
100
AcDbLine
 10
33.10000000000036
 20
491.0500000000001
 30
0.0
 11
33.10000000000036
 21
491.3000000000001
 31
0.0
  0
LINE
  5
550B
330
54D7
100
AcDbEntity
  8
AM_0 外形線1
100
AcDbLine
 10
28.0
 20
491.0500000000001
 30
0.0
 11
33.10000000000036
 21
491.0500000000001
 31
0.0
  0
LINE
  5
559A
330
54D7
100
AcDbEntity
  8
AM_0 外形線1
100
AcDbLine
 10
0.0
 20
458.7000000000001
 30
0.0
 11
0.0
 21
464.0
 31
0.0
  0
LINE
  5
559B
330
54D7
100
AcDbEntity
  8
AM_0 外形線1
100
AcDbLine
 10
0.0
 20
484.0
 30
0.0
 11
0.0
 21
495.0
 31
0.0
  0
LINE
  5
559C
330
54D7
100
AcDbEntity
  8
AM_0 外形線1
100
AcDbLine
 10
0.0
 20
495.0
 30
0.0
 11
28.0
 21
495.0
 31
0.0
  0
LINE
  5
559D
330
54D7
100
AcDbEntity
  8
AM_0 外形線1
100
AcDbLine
 10
0.0
 20
-495.0
 30
0.0
 11
0.0
 21
0.0
 31
0.0
  0
ELLIPSE
  5
559E
330
54D7
100
AcDbEntity
  8
AM_0 外形線1
100
AcDbEllipse
 10
2.25
 20
455.0999999999998
 30
0.0
 11
0.0
 21
3.600000000000362
 31
0.0
210
0.0
220
0.0
230
0.9999999999999998
 40
0.6249999999996843
 41
0.0
 42
6.283185307179585
  0
LINE
  5
559F
330
54D7
100
AcDbEntity
  8
AM_0 外形線1
100
AcDbLine
 10
28.0
 20
-495.0
 30
0.0
 11
0.0
 21
-495.0
 31
0.0
  0
ENDBLK
  5
54D9
330
54D7
100
AcDbEntity
  8
0
100
AcDbBlockEnd
  0
BLOCK
  5
5630
330
562F
100
AcDbEntity
  8
0
100
AcDbBlockBegin
  2
ＧＣサイドカバ－Ｂ CCMH1120
 70
     0
 10
0.0
 20
0.0
 30
0.0
  3
ＧＣサイドカバ－Ｂ CCMH1120
  1

  0
LINE
  5
5632
330
562F
100
AcDbEntity
  8
AM_0 外形線1
100
AcDbLine
 10
-28.0
 20
-495.0
 30
0.0
 11
-28.0
 21
0.0
 31
0.0
  0
LINE
  5
5633
330
562F
100
AcDbEntity
  8
AM_7 中心線
100
AcDbLine
 10
45.16501199999948
 20
-474.0
 30
0.0
 11
-49.94232199999895
 21
-474.0
 31
0.0
  0
LINE
  5
5634
330
562F
100
AcDbEntity
  8
AM_0 外形線1
100
AcDbLine
 10
-28.0
 20
477.0
 30
0.0
 11
-33.09999999999945
 21
469.0
 31
0.0
  0
LINE
  5
5635
330
562F
100
AcDbEntity
  8
AM_0 外形線1
100
AcDbLine
 10
-33.09999999999945
 20
471.0
 30
0.0
 11
-28.0
 21
479.0
 31
0.0
  0
LINE
  5
5636
330
562F
100
AcDbEntity
  8
AM_0 外形線1
100
AcDbLine
 10
-46.09999999999945
 20
487.3398630000005
 30
0.0
 11
-46.09999999999945
 21
461.4001170000001
 31
0.0
  0
ARC
  5
5637
330
562F
100
AcDbEntity
  8
AM_0 外形線1
100
AcDbCircle
 10
-20.09999999999946
 20
474.0
 30
0.0
 40
26.0
100
AcDbArc
 50
160.591690999988
 51
199.4083090000119
  0
LINE
  5
5638
330
562F
100
AcDbEntity
  8
AM_0 外形線1
100
AcDbLine
 10
-33.09999999999945
 20
491.0500000000001
 30
0.0
 11
-33.09999999999945
 21
456.9500000000003
 31
0.0
  0
LINE
  5
5639
330
562F
100
AcDbEntity
  8
AM_0 外形線1
100
AcDbLine
 10
31.90000000000055
 20
484.0
 30
0.0
 11
31.90000000000055
 21
464.0
 31
0.0
  0
LINE
  5
563A
330
562F
100
AcDbEntity
  8
AM_0 外形線1
100
AcDbLine
 10
42.05181500000072
 20
474.0
 30
0.0
 11
37.0
 21
465.2499999999998
 31
0.0
  0
LINE
  5
563B
330
562F
100
AcDbEntity
  8
AM_0 外形線1
100
AcDbLine
 10
37.0
 20
482.7499999999998
 30
0.0
 11
37.0
 21
465.2499999999998
 31
0.0
  0
LINE
  5
563C
330
562F
100
AcDbEntity
  8
AM_0 外形線1
100
AcDbLine
 10
28.90000000000055
 20
484.0
 30
0.0
 11
28.90000000000055
 21
464.0
 31
0.0
  0
LINE
  5
563D
330
562F
100
AcDbEntity
  8
AM_0 外形線1
100
AcDbLine
 10
-28.0
 20
422.4999999999998
 30
0.0
 11
-28.0
 21
495.0
 31
0.0
  0
LINE
  5
563E
330
562F
100
AcDbEntity
  8
AM_0 外形線1
100
AcDbLine
 10
37.0
 20
465.2499999999998
 30
0.0
 11
28.90000000000055
 21
465.2499999999998
 31
0.0
  0
LINE
  5
563F
330
562F
100
AcDbEntity
  8
AM_0 外形線1
100
AcDbLine
 10
28.90000000000055
 20
465.2499999999998
 30
0.0
 11
-28.0
 21
465.2499999999998
 31
0.0
  0
LINE
  5
5640
330
562F
100
AcDbEntity
  8
AM_4 細線
100
AcDbLine
 10
28.90000000000055
 20
464.0
 30
0.0
 11
-28.0
 21
464.0
 31
0.0
  0
LINE
  5
5641
330
562F
100
AcDbEntity
  8
AM_0 外形線1
100
AcDbLine
 10
-28.0
 20
422.4999999999998
 30
0.0
 11
-21.0
 21
422.4999999999998
 31
0.0
  0
LINE
  5
5642
330
562F
100
AcDbEntity
  8
AM_0 外形線1
100
AcDbLine
 10
-33.09999999999945
 20
465.3602540000006
 30
0.0
 11
-44.62253699999928
 21
465.3602540000006
 31
0.0
  0
LINE
  5
5643
330
562F
100
AcDbEntity
  8
AM_0 外形線1
100
AcDbLine
 10
-33.09999999999945
 20
456.7000000000001
 30
0.0
 11
-33.09999999999945
 21
456.9500000000003
 31
0.0
  0
LINE
  5
5644
330
562F
100
AcDbEntity
  8
AM_0 外形線1
100
AcDbLine
 10
-44.62253699999928
 20
456.7000000000001
 30
0.0
 11
-33.09999999999945
 21
456.7000000000001
 31
0.0
  0
ARC
  5
5645
330
562F
100
AcDbEntity
  8
AM_0 外形線1
100
AcDbCircle
 10
-39.06226199999947
 20
461.0301269999998
 30
0.0
 40
7.047457999999998
100
AcDbArc
 50
142.0899220000364
 51
217.9100779999636
  0
LINE
  5
5646
330
562F
100
AcDbEntity
  8
AM_0 外形線1
100
AcDbLine
 10
-33.09999999999945
 20
456.9500000000003
 30
0.0
 11
-28.0
 21
456.9500000000003
 31
0.0
  0
LINE
  5
5647
330
562F
100
AcDbEntity
  8
AM_0 外形線1
100
AcDbLine
 10
-28.0
 20
422.4999999999998
 30
0.0
 11
-28.0
 21
420.0
 31
0.0
  0
LWPOLYLINE
  5
5648
330
562F
100
AcDbEntity
  8
AM_0 外形線1
100
AcDbPolyline
 90
       73
 70
     0
 43
0.0
 10
0.0
 20
426.125
 10
-0.0399560000005295
 20
426.6588290000004
 10
-0.1595189999989088
 20
427.188595
 10
-0.3577789999999368
 20
427.7102670000004
 10
-0.63322799999969
 20
428.2198730000001
 10
-0.9837689999994836
 20
428.713537
 10
-1.406734000000142
 20
429.1875
 10
-1.898903999999673
 20
429.6381560000003
 10
-2.456533999999918
 20
430.0620740000002
 10
-3.075378999999883
 20
430.4560290000003
 10
-3.750729999999747
 20
430.8170220000006
 10
-4.477447999999639
 20
431.1423060000001
 10
-5.25
 20
431.4294050000003
 10
-6.062508999999407
 20
431.6761350000001
 10
-6.908788999999159
 20
431.8806170000001
 10
-7.782400000000052
 20
432.0412960000003
 10
-8.67669399999977
 20
432.1569470000004
 10
-9.584864999998901
 20
432.2266920000001
 10
-10.5
 20
432.2499999999998
 10
-11.41513599999962
 20
432.2266920000001
 10
-12.32330600000023
 20
432.1569470000004
 10
-13.21759999999995
 20
432.0412960000003
 10
-14.09121199999936
 20
431.8806170000001
 10
-14.93749200000002
 20
431.6761350000001
 10
-15.75
 20
431.4294050000003
 10
-16.52255299999979
 20
431.1423060000001
 10
-17.24927000000025
 20
430.8170220000006
 10
-17.92462100000011
 20
430.4560290000003
 10
-18.54346699999951
 20
430.0620740000002
 10
-19.10109699999975
 20
429.6381560000003
 10
-19.59326700000019
 20
429.1875
 10
-20.01623199999995
 20
428.713537
 10
-20.36677299999974
 20
428.2198730000001
 10
-20.64222100000006
 20
427.7102670000004
 10
-20.84048199999961
 20
427.188595
 10
-20.96004499999981
 20
426.6588290000004
 10
-21.0
 20
426.125
 10
-20.96004499999981
 20
425.5911709999999
 10
-20.84048199999961
 20
425.0614050000002
 10
-20.64222100000006
 20
424.5397330000005
 10
-20.36677299999974
 20
424.0301269999998
 10
-20.01623199999995
 20
423.5364630000002
 10
-19.59326700000019
 20
423.0624999999998
 10
-19.10109699999975
 20
422.6118440000004
 10
-18.54346699999951
 20
422.1879260000005
 10
-17.92462100000011
 20
421.793971
 10
-17.24927000000025
 20
421.4329780000001
 10
-16.52255299999979
 20
421.1076940000001
 10
-15.75
 20
420.8205940000001
 10
-14.93749200000002
 20
420.5738650000003
 10
-14.09121199999936
 20
420.3693830000001
 10
-13.21759999999995
 20
420.2087040000005
 10
-12.32330600000023
 20
420.0930520000001
 10
-11.41513599999962
 20
420.0233070000003
 10
-10.5
 20
420.0
 10
-9.584864999998901
 20
420.0233070000003
 10
-8.67669399999977
 20
420.0930520000001
 10
-7.782400000000052
 20
420.2087040000005
 10
-6.908788999999159
 20
420.3693830000001
 10
-6.062508999999407
 20
420.5738650000003
 10
-5.25
 20
420.8205940000001
 10
-4.477447999999639
 20
421.1076940000001
 10
-3.750729999999747
 20
421.4329780000001
 10
-3.075378999999883
 20
421.793971
 10
-2.456533999999918
 20
422.1879260000005
 10
-1.898903999999673
 20
422.6118440000004
 10
-1.406734000000142
 20
423.0624999999998
 10
-0.9837689999994836
 20
423.5364630000002
 10
-0.63322799999969
 20
424.0301269999998
 10
-0.3577789999999368
 20
424.5397330000005
 10
-0.1595189999989088
 20
425.0614050000002
 10
-0.0399560000005295
 20
425.5911709999999
 10
0.0
 20
426.125
  0
LINE
  5
5649
330
562F
100
AcDbEntity
  8
AM_0 外形線1
100
AcDbLine
 10
31.90000000000055
 20
464.0
 30
0.0
 11
28.90000000000055
 21
464.0
 31
0.0
  0
LINE
  5
564A
330
562F
100
AcDbEntity
  8
AM_0 外形線1
100
AcDbLine
 10
-4.5
 20
451.4999999999998
 30
0.0
 11
7.000000000000453
 21
451.4999999999998
 31
0.0
  0
LINE
  5
564B
330
562F
100
AcDbEntity
  8
AM_0 外形線1
100
AcDbLine
 10
-4.5
 20
458.7000000000001
 30
0.0
 11
-4.5
 21
451.4999999999998
 31
0.0
  0
LINE
  5
564C
330
562F
100
AcDbEntity
  8
AM_0 外形線1
100
AcDbLine
 10
0.0
 20
458.7000000000001
 30
0.0
 11
-4.5
 21
458.7000000000001
 31
0.0
  0
LINE
  5
564D
330
562F
100
AcDbEntity
  8
AM_0 外形線1
100
AcDbLine
 10
7.0
 20
422.4999999999998
 30
0.0
 11
7.0
 21
451.4999999999998
 31
0.0
  0
LINE
  5
564E
330
562F
100
AcDbEntity
  8
AM_0 外形線1
100
AcDbLine
 10
0.0
 20
422.4999999999998
 30
0.0
 11
7.0
 21
422.4999999999998
 31
0.0
  0
LINE
  5
564F
330
562F
100
AcDbEntity
  8
AM_0 外形線1
100
AcDbLine
 10
0.0
 20
432.2499999999998
 30
0.0
 11
0.0
 21
422.4999999999998
 31
0.0
  0
LINE
  5
5650
330
562F
100
AcDbEntity
  8
AM_0 外形線1
100
AcDbLine
 10
-21.0
 20
432.2499999999998
 30
0.0
 11
0.0
 21
432.2499999999998
 31
0.0
  0
LINE
  5
5651
330
562F
100
AcDbEntity
  8
AM_0 外形線1
100
AcDbLine
 10
-21.0
 20
422.4999999999998
 30
0.0
 11
-21.0
 21
432.2499999999998
 31
0.0
  0
LINE
  5
5652
330
562F
100
AcDbEntity
  8
AM_0 外形線1
100
AcDbLine
 10
7.0
 20
422.4999999999998
 30
0.0
 11
7.0
 21
420.0
 31
0.0
  0
LINE
  5
5653
330
562F
100
AcDbEntity
  8
AM_0 外形線1
100
AcDbLine
 10
0.0
 20
422.4999999999998
 30
0.0
 11
0.0
 21
420.0
 31
0.0
  0
LINE
  5
5654
330
562F
100
AcDbEntity
  8
AM_0 外形線1
100
AcDbLine
 10
-21.0
 20
422.4999999999998
 30
0.0
 11
-21.0
 21
420.0
 31
0.0
  0
LINE
  5
5655
330
562F
100
AcDbEntity
  8
AM_7 中心線
100
AcDbLine
 10
45.16501199999948
 20
474.0
 30
0.0
 11
-49.94232199999895
 21
474.0
 31
0.0
  0
LINE
  5
5656
330
562F
100
AcDbEntity
  8
AM_0 外形線1
100
AcDbLine
 10
28.90000000000055
 20
482.7499999999998
 30
0.0
 11
37.0
 21
482.7499999999998
 31
0.0
  0
LINE
  5
5657
330
562F
100
AcDbEntity
  8
AM_0 外形線1
100
AcDbLine
 10
-28.0
 20
482.7499999999998
 30
0.0
 11
28.90000000000055
 21
482.7499999999998
 31
0.0
  0
LINE
  5
5658
330
562F
100
AcDbEntity
  8
AM_4 細線
100
AcDbLine
 10
-28.0
 20
484.0
 30
0.0
 11
28.90000000000055
 21
484.0
 31
0.0
  0
LINE
  5
5659
330
562F
100
AcDbEntity
  8
AM_0 外形線1
100
AcDbLine
 10
-44.62253699999928
 20
482.6397460000001
 30
0.0
 11
-33.09999999999945
 21
482.6397460000001
 31
0.0
  0
ARC
  5
565A
330
562F
100
AcDbEntity
  8
AM_0 外形線1
100
AcDbCircle
 10
-39.06226199999947
 20
486.969873
 30
0.0
 40
7.047457999999998
100
AcDbArc
 50
142.0899220000364
 51
217.9100779999636
  0
LINE
  5
565B
330
562F
100
AcDbEntity
  8
AM_0 外形線1
100
AcDbLine
 10
-33.09999999999945
 20
491.3000000000001
 30
0.0
 11
-44.62253699999928
 21
491.3000000000001
 31
0.0
  0
LINE
  5
565C
330
562F
100
AcDbEntity
  8
AM_0 外形線1
100
AcDbLine
 10
-33.09999999999945
 20
491.0500000000001
 30
0.0
 11
-33.09999999999945
 21
491.3000000000001
 31
0.0
  0
LINE
  5
565D
330
562F
100
AcDbEntity
  8
AM_0 外形線1
100
AcDbLine
 10
-28.0
 20
491.0500000000001
 30
0.0
 11
-33.09999999999945
 21
491.0500000000001
 31
0.0
  0
LINE
  5
565E
330
562F
100
AcDbEntity
  8
AM_0 外形線1
100
AcDbLine
 10
28.90000000000055
 20
484.0
 30
0.0
 11
31.90000000000055
 21
484.0
 31
0.0
  0
LINE
  5
565F
330
562F
100
AcDbEntity
  8
AM_0 外形線1
100
AcDbLine
 10
37.0
 20
482.7499999999998
 30
0.0
 11
42.05181500000072
 21
474.0
 31
0.0
  0
LINE
  5
5660
330
562F
100
AcDbEntity
  8
AM_0 外形線1
100
AcDbLine
 10
-28.0
 20
-495.0
 30
0.0
 11
0.0
 21
-495.0
 31
0.0
  0
LINE
  5
5661
330
562F
100
AcDbEntity
  8
AM_0 外形線1
100
AcDbLine
 10
-28.0
 20
495.0
 30
0.0
 11
0.0
 21
495.0
 31
0.0
  0
LINE
  5
56CD
330
562F
100
AcDbEntity
  8
AM_0 外形線1
100
AcDbLine
 10
0.0
 20
0.0
 30
0.0
 11
0.0
 21
-495.0
 31
0.0
  0
LINE
  5
56CE
330
562F
100
AcDbEntity
  8
AM_0 外形線1
100
AcDbLine
 10
0.0
 20
464.0
 30
0.0
 11
0.0
 21
458.7000000000001
 31
0.0
  0
LINE
  5
56CF
330
562F
100
AcDbEntity
  8
AM_0 外形線1
100
AcDbLine
 10
0.0
 20
484.0
 30
0.0
 11
0.0
 21
495.0
 31
0.0
  0
ELLIPSE
  5
56D0
330
562F
100
AcDbEntity
  8
AM_0 外形線1
100
AcDbEllipse
 10
-2.25
 20
455.0999999999998
 30
0.0
 11
0.0
 21
3.600000000000362
 31
0.0
210
0.0
220
0.0
230
0.9999999999999998
 40
0.6249999999998105
 41
0.0
 42
6.283185307179585
  0
ENDBLK
  5
5631
330
562F
100
AcDbEntity
  8
0
100
AcDbBlockEnd
  0
BLOCK
  5
58CC
330
58CB
100
AcDbEntity
  8
0
100
AcDbBlockBegin
  2
*D15
 70
     1
 10
0.0
 20
0.0
 30
0.0
  3
*D15
  1

  0
LINE
  5
70CF
330
58CB
100
AcDbEntity
  8
AM_5 寸法線
 62
     3
100
AcDbLine
 10
2694.608211733644
 20
3589.142875215991
 30
0.0
 11
2214.608211733645
 21
3589.142875215991
 31
0.0
  0
LINE
  5
70D0
330
58CB
100
AcDbEntity
  8
AM_5 寸法線
 62
     3
100
AcDbLine
 10
2694.608211733645
 20
2749.142875215989
 30
0.0
 11
2214.608211733644
 21
2749.142875215989
 31
0.0
  0
LINE
  5
70D1
330
58CB
100
AcDbEntity
  8
AM_5 寸法線
 62
     3
100
AcDbLine
 10
2223.983211733645
 20
3551.64287521599
 30
0.0
 11
2223.983211733644
 21
2786.642875215989
 31
0.0
  0
INSERT
  5
70D2
330
58CB
100
AcDbEntity
  8
AM_5 寸法線
 62
     3
100
AcDbBlockReference
  2
_Open30
 10
2223.983211733645
 20
3589.142875215991
 30
0.0
 41
37.5
 42
37.5
 43
37.5
 50
90.0
  0
INSERT
  5
70D3
330
58CB
100
AcDbEntity
  8
AM_5 寸法線
 62
     3
100
AcDbBlockReference
  2
_Open30
 10
2223.983211733644
 20
2749.142875215989
 30
0.0
 41
37.5
 42
37.5
 43
37.5
 50
270.0
  0
MTEXT
  5
70D4
330
58CB
100
AcDbEntity
  8
AM_5 寸法線
 62
     3
100
AcDbMText
 10
2175.233211733644
 20
3169.14287521599
 30
0.0
 40
52.5
 41
0.0
 46
0.0
 71
     5
 72
     1
  1
%%c840
  7
SEISA
 11
0.0000000000000001
 21
1.0
 31
0.0
 73
     1
 44
1.0
  0
POINT
  5
70D5
330
58CB
100
AcDbEntity
  8
Defpoints
 62
     0
100
AcDbPoint
 10
2703.983211733645
 20
3589.142875215991
 30
0.0
  0
POINT
  5
70D6
330
58CB
100
AcDbEntity
  8
Defpoints
 62
     0
100
AcDbPoint
 10
2703.983211733645
 20
2749.142875215989
 30
0.0
  0
POINT
  5
70D7
330
58CB
100
AcDbEntity
  8
Defpoints
 62
     0
100
AcDbPoint
 10
2223.983211733644
 20
2749.142875215989
 30
0.0
  0
ENDBLK
  5
58CD
330
58CB
100
AcDbEntity
  8
0
100
AcDbBlockEnd
  0
BLOCK
  5
594A
330
5949
100
AcDbEntity
  8
0
100
AcDbBlockBegin
  2
*D16
 70
     1
 10
0.0
 20
0.0
 30
0.0
  3
*D16
  1

  0
LINE
  5
70D8
330
5949
100
AcDbEntity
  8
AM_5 寸法線
 62
     3
100
AcDbLine
 10
3083.983211733645
 20
3178.51787521599
 30
0.0
 11
3083.983211733645
 21
3264.14191121599
 31
0.0
  0
LINE
  5
70D9
330
5949
100
AcDbEntity
  8
AM_5 寸法線
 62
     3
100
AcDbLine
 10
2523.983211733645
 20
3178.51787521599
 30
0.0
 11
2523.983211733645
 21
3264.14191121599
 31
0.0
  0
LINE
  5
70DA
330
5949
100
AcDbEntity
  8
AM_5 寸法線
 62
     3
100
AcDbLine
 10
3046.483211733645
 20
3254.76691121599
 30
0.0
 11
2561.483211733645
 21
3254.76691121599
 31
0.0
  0
INSERT
  5
70DB
330
5949
100
AcDbEntity
  8
AM_5 寸法線
 62
     3
100
AcDbBlockReference
  2
_Open30
 10
3083.983211733645
 20
3254.76691121599
 30
0.0
 41
37.5
 42
37.5
 43
37.5
  0
INSERT
  5
70DC
330
5949
100
AcDbEntity
  8
AM_5 寸法線
 62
     3
100
AcDbBlockReference
  2
_Open30
 10
2523.983211733645
 20
3254.76691121599
 30
0.0
 41
37.5
 42
37.5
 43
37.5
 50
180.0
  0
MTEXT
  5
70DD
330
5949
100
AcDbEntity
  8
AM_5 寸法線
 62
     3
100
AcDbMText
 10
2803.983211733644
 20
3303.51691121599
 30
0.0
 40
52.5
 41
0.0
 46
0.0
 71
     5
 72
     1
  1
560
  7
SEISA
 73
     1
 44
1.0
  0
POINT
  5
70DE
330
5949
100
AcDbEntity
  8
Defpoints
 62
     0
100
AcDbPoint
 10
3083.983211733645
 20
3169.14287521599
 30
0.0
  0
POINT
  5
70DF
330
5949
100
AcDbEntity
  8
Defpoints
 62
     0
100
AcDbPoint
 10
2523.983211733645
 20
3169.14287521599
 30
0.0
  0
POINT
  5
70E0
330
5949
100
AcDbEntity
  8
Defpoints
 62
     0
100
AcDbPoint
 10
2523.983211733645
 20
3254.76691121599
 30
0.0
  0
ENDBLK
  5
594B
330
5949
100
AcDbEntity
  8
0
100
AcDbBlockEnd
  0
BLOCK
  5
5962
330
5961
100
AcDbEntity
  8
0
100
AcDbBlockBegin
  2
*D17
 70
     1
 10
0.0
 20
0.0
 30
0.0
  3
*D17
  1

  0
LINE
  5
686E
330
5961
100
AcDbEntity
  8
AM_5 寸法線
 62
     3
100
AcDbLine
 10
3123.983211733645
 20
3178.51787521599
 30
0.0
 11
3123.983211733645
 21
3264.14191121599
 31
0.0
  0
LINE
  5
686F
330
5961
100
AcDbEntity
  8
AM_5 寸法線
 62
     3
100
AcDbLine
 10
3083.983211733645
 20
3178.51787521599
 30
0.0
 11
3083.983211733645
 21
3264.14191121599
 31
0.0
  0
LINE
  5
6870
330
5961
100
AcDbEntity
  8
AM_5 寸法線
 62
     3
100
AcDbLine
 10
3161.483211733645
 20
3254.76691121599
 30
0.0
 11
3198.983211733645
 21
3254.76691121599
 31
0.0
  0
LINE
  5
6871
330
5961
100
AcDbEntity
  8
AM_5 寸法線
 62
     3
100
AcDbLine
 10
3046.483211733645
 20
3254.76691121599
 30
0.0
 11
3008.983211733645
 21
3254.76691121599
 31
0.0
  0
MTEXT
  5
6872
330
5961
100
AcDbEntity
  8
AM_5 寸法線
 62
     3
100
AcDbMText
 10
3199.936583683954
 20
3303.712754283326
 30
0.0
 40
52.5
 41
0.0
 46
0.0
 71
     5
 72
     1
  1
40
  7
SEISA
 73
     1
 44
1.0
  0
LINE
  5
6873
330
5961
100
AcDbEntity
  8
AM_5 寸法線
 62
     3
100
AcDbLine
 10
3123.983211733645
 20
3254.76691121599
 30
0.0
 11
3083.983211733645
 21
3254.76691121599
 31
0.0
  0
INSERT
  5
6874
330
5961
100
AcDbEntity
  8
AM_5 寸法線
 62
     3
100
AcDbBlockReference
  2
_Open30
 10
3123.983211733645
 20
3254.76691121599
 30
0.0
 41
37.5
 42
37.5
 43
37.5
 50
180.0
  0
INSERT
  5
6875
330
5961
100
AcDbEntity
  8
AM_5 寸法線
 62
     3
100
AcDbBlockReference
  2
_Open30
 10
3083.983211733645
 20
3254.76691121599
 30
0.0
 41
37.5
 42
37.5
 43
37.5
  0
POINT
  5
6876
330
5961
100
AcDbEntity
  8
Defpoints
 62
     0
100
AcDbPoint
 10
3123.983211733645
 20
3169.14287521599
 30
0.0
  0
POINT
  5
6877
330
5961
100
AcDbEntity
  8
Defpoints
 62
     0
100
AcDbPoint
 10
3083.983211733645
 20
3169.14287521599
 30
0.0
  0
POINT
  5
6878
330
5961
100
AcDbEntity
  8
Defpoints
 62
     0
100
AcDbPoint
 10
3083.983211733645
 20
3254.76691121599
 30
0.0
  0
ENDBLK
  5
5963
330
5961
100
AcDbEntity
  8
0
100
AcDbBlockEnd
  0
BLOCK
  5
597E
330
597D
100
AcDbEntity
  8
0
100
AcDbBlockBegin
  2
*D18
 70
     1
 10
0.0
 20
0.0
 30
0.0
  3
*D18
  1

  0
LINE
  5
6879
330
597D
100
AcDbEntity
  8
AM_5 寸法線
 62
     3
100
AcDbLine
 10
3123.983211733645
 20
3178.51787521599
 30
0.0
 11
3123.983211733645
 21
3264.14191121599
 31
0.0
  0
LINE
  5
687A
330
597D
100
AcDbEntity
  8
AM_5 寸法線
 62
     3
100
AcDbLine
 10
3683.983211733645
 20
3178.51787521599
 30
0.0
 11
3683.983211733645
 21
3264.14191121599
 31
0.0
  0
LINE
  5
687B
330
597D
100
AcDbEntity
  8
AM_5 寸法線
 62
     3
100
AcDbLine
 10
3161.483211733645
 20
3254.76691121599
 30
0.0
 11
3646.483211733645
 21
3254.76691121599
 31
0.0
  0
INSERT
  5
687C
330
597D
100
AcDbEntity
  8
AM_5 寸法線
 62
     3
100
AcDbBlockReference
  2
_Open30
 10
3123.983211733645
 20
3254.76691121599
 30
0.0
 41
37.5
 42
37.5
 43
37.5
 50
180.0
  0
INSERT
  5
687D
330
597D
100
AcDbEntity
  8
AM_5 寸法線
 62
     3
100
AcDbBlockReference
  2
_Open30
 10
3683.983211733645
 20
3254.76691121599
 30
0.0
 41
37.5
 42
37.5
 43
37.5
  0
MTEXT
  5
687E
330
597D
100
AcDbEntity
  8
AM_5 寸法線
 62
     3
100
AcDbMText
 10
3403.983211733645
 20
3303.51691121599
 30
0.0
 40
52.5
 41
0.0
 46
0.0
 71
     5
 72
     1
  1
560
  7
SEISA
 73
     1
 44
1.0
  0
POINT
  5
687F
330
597D
100
AcDbEntity
  8
Defpoints
 62
     0
100
AcDbPoint
 10
3123.983211733645
 20
3169.14287521599
 30
0.0
  0
POINT
  5
6880
330
597D
100
AcDbEntity
  8
Defpoints
 62
     0
100
AcDbPoint
 10
3683.983211733645
 20
3169.14287521599
 30
0.0
  0
POINT
  5
6881
330
597D
100
AcDbEntity
  8
Defpoints
 62
     0
100
AcDbPoint
 10
3683.983211733645
 20
3254.76691121599
 30
0.0
  0
ENDBLK
  5
597F
330
597D
100
AcDbEntity
  8
0
100
AcDbBlockEnd
  0
BLOCK
  5
5A41
330
5A40
100
AcDbEntity
  8
0
100
AcDbBlockBegin
  2
*D19
 70
     1
 10
0.0
 20
0.0
 30
0.0
  3
*D19
  1

  0
LINE
  5
69D9
330
5A40
100
AcDbEntity
  8
AM_5 寸法線
 62
     3
100
AcDbLine
 10
3445.358211733644
 20
3664.14287521599
 30
0.0
 11
4113.358211733644
 21
3664.14287521599
 31
0.0
  0
LINE
  5
69DA
330
5A40
100
AcDbEntity
  8
AM_5 寸法線
 62
     3
100
AcDbLine
 10
3473.358211733645
 20
2674.14287521599
 30
0.0
 11
4113.358211733644
 21
2674.14287521599
 31
0.0
  0
LINE
  5
69DB
330
5A40
100
AcDbEntity
  8
AM_5 寸法線
 62
     3
100
AcDbLine
 10
4103.983211733644
 20
3626.642875215991
 30
0.0
 11
4103.983211733644
 21
2711.64287521599
 31
0.0
  0
INSERT
  5
69DC
330
5A40
100
AcDbEntity
  8
AM_5 寸法線
 62
     3
100
AcDbBlockReference
  2
_Open30
 10
4103.983211733644
 20
3664.14287521599
 30
0.0
 41
37.5
 42
37.5
 43
37.5
 50
90.0
  0
INSERT
  5
69DD
330
5A40
100
AcDbEntity
  8
AM_5 寸法線
 62
     3
100
AcDbBlockReference
  2
_Open30
 10
4103.983211733644
 20
2674.14287521599
 30
0.0
 41
37.5
 42
37.5
 43
37.5
 50
270.0
  0
MTEXT
  5
69DE
330
5A40
100
AcDbEntity
  8
AM_5 寸法線
 62
     3
100
AcDbMText
 10
4055.233211733645
 20
3169.14287521599
 30
0.0
 40
52.5
 41
0.0
 46
0.0
 71
     5
 72
     1
  1
%%c990
  7
SEISA
 11
0.0000000000000001
 21
1.0
 31
0.0
 73
     1
 44
1.0
  0
POINT
  5
69DF
330
5A40
100
AcDbEntity
  8
Defpoints
 62
     0
100
AcDbPoint
 10
3435.983211733645
 20
3664.14287521599
 30
0.0
  0
POINT
  5
69E0
330
5A40
100
AcDbEntity
  8
Defpoints
 62
     0
100
AcDbPoint
 10
3463.983211733645
 20
2674.14287521599
 30
0.0
  0
POINT
  5
69E1
330
5A40
100
AcDbEntity
  8
Defpoints
 62
     0
100
AcDbPoint
 10
4103.983211733644
 20
2674.14287521599
 30
0.0
  0
ENDBLK
  5
5A42
330
5A40
100
AcDbEntity
  8
0
100
AcDbBlockEnd
  0
BLOCK
  5
5A59
330
5A58
100
AcDbEntity
  8
0
100
AcDbBlockBegin
  2
*D20
 70
     1
 10
0.0
 20
0.0
 30
0.0
  3
*D20
  1

  0
LINE
  5
689B
330
5A58
100
AcDbEntity
  8
AM_5 寸法線
 62
     3
100
AcDbLine
 10
3171.358211733645
 20
3729.14287521599
 30
0.0
 11
4233.358211733644
 21
3729.14287521599
 31
0.0
  0
LINE
  5
689C
330
5A58
100
AcDbEntity
  8
AM_5 寸法線
 62
     3
100
AcDbLine
 10
3171.358211733645
 20
2609.14287521599
 30
0.0
 11
4233.358211733644
 21
2609.14287521599
 31
0.0
  0
LINE
  5
689D
330
5A58
100
AcDbEntity
  8
AM_5 寸法線
 62
     3
100
AcDbLine
 10
4223.983211733645
 20
3691.64287521599
 30
0.0
 11
4223.983211733645
 21
2646.64287521599
 31
0.0
  0
INSERT
  5
689E
330
5A58
100
AcDbEntity
  8
AM_5 寸法線
 62
     3
100
AcDbBlockReference
  2
_Open30
 10
4223.983211733645
 20
3729.14287521599
 30
0.0
 41
37.5
 42
37.5
 43
37.5
 50
90.0
  0
INSERT
  5
689F
330
5A58
100
AcDbEntity
  8
AM_5 寸法線
 62
     3
100
AcDbBlockReference
  2
_Open30
 10
4223.983211733645
 20
2609.14287521599
 30
0.0
 41
37.5
 42
37.5
 43
37.5
 50
270.0
  0
MTEXT
  5
68A0
330
5A58
100
AcDbEntity
  8
AM_5 寸法線
 62
     3
100
AcDbMText
 10
4175.233211733643
 20
3169.14287521599
 30
0.0
 40
52.5
 41
0.0
 46
0.0
 71
     5
 72
     1
  1
%%c1120
  7
SEISA
 11
0.0000000000000001
 21
1.0
 31
0.0
 73
     1
 44
1.0
  0
POINT
  5
68A1
330
5A58
100
AcDbEntity
  8
Defpoints
 62
     0
100
AcDbPoint
 10
3161.983211733645
 20
3729.14287521599
 30
0.0
  0
POINT
  5
68A2
330
5A58
100
AcDbEntity
  8
Defpoints
 62
     0
100
AcDbPoint
 10
3161.983211733645
 20
2609.14287521599
 30
0.0
  0
POINT
  5
68A3
330
5A58
100
AcDbEntity
  8
Defpoints
 62
     0
100
AcDbPoint
 10
4223.983211733645
 20
2609.14287521599
 30
0.0
  0
ENDBLK
  5
5A5A
330
5A58
100
AcDbEntity
  8
0
100
AcDbBlockEnd
  0
BLOCK
  5
5BE6
330
5BE5
100
AcDbEntity
  8
0
100
AcDbBlockBegin
  2
*D21
 70
     1
 10
0.0
 20
0.0
 30
0.0
  3
*D21
  1

  0
LINE
  5
68A4
330
5BE5
100
AcDbEntity
  8
AM_5 寸法線
 62
     3
100
AcDbLine
 10
3103.983211733645
 20
2601.76787521599
 30
0.0
 11
3103.983211733645
 21
2374.76787521599
 31
0.0
  0
LINE
  5
68A5
330
5BE5
100
AcDbEntity
  8
AM_5 寸法線
 62
     3
100
AcDbLine
 10
3043.983211733645
 20
2601.76787521599
 30
0.0
 11
3043.983211733645
 21
2374.76787521599
 31
0.0
  0
LINE
  5
68A6
330
5BE5
100
AcDbEntity
  8
AM_5 寸法線
 62
     3
100
AcDbLine
 10
3141.483211733645
 20
2384.14287521599
 30
0.0
 11
3178.983211733644
 21
2384.14287521599
 31
0.0
  0
LINE
  5
68A7
330
5BE5
100
AcDbEntity
  8
AM_5 寸法線
 62
     3
100
AcDbLine
 10
3006.483211733645
 20
2384.14287521599
 30
0.0
 11
2849.733211733644
 21
2384.14287521599
 31
0.0
  0
LINE
  5
68A8
330
5BE5
100
AcDbEntity
  8
AM_5 寸法線
 62
     3
100
AcDbLine
 10
3103.983211733645
 20
2384.14287521599
 30
0.0
 11
3043.983211733645
 21
2384.14287521599
 31
0.0
  0
INSERT
  5
68A9
330
5BE5
100
AcDbEntity
  8
AM_5 寸法線
 62
     3
100
AcDbBlockReference
  2
GENDOT
 10
3103.983211733645
 20
2384.14287521599
 30
0.0
 41
37.5
 42
37.5
 43
37.5
 50
180.0
  0
INSERT
  5
68AA
330
5BE5
100
AcDbEntity
  8
AM_5 寸法線
 62
     3
100
AcDbBlockReference
  2
_Open30
 10
3043.983211733645
 20
2384.14287521599
 30
0.0
 41
37.5
 42
37.5
 43
37.5
  0
MTEXT
  5
68AB
330
5BE5
100
AcDbEntity
  8
AM_5 寸法線
 62
     3
100
AcDbMText
 10
2909.358211733645
 20
2432.89287521599
 30
0.0
 40
52.5
 41
0.0
 46
0.0
 71
     5
 72
     1
  1
60
  7
SEISA
 73
     1
 44
1.0
  0
POINT
  5
68AC
330
5BE5
100
AcDbEntity
  8
Defpoints
 62
     0
100
AcDbPoint
 10
3103.983211733645
 20
2611.142875215989
 30
0.0
  0
POINT
  5
68AD
330
5BE5
100
AcDbEntity
  8
Defpoints
 62
     0
100
AcDbPoint
 10
3043.983211733645
 20
2611.142875215989
 30
0.0
  0
POINT
  5
68AE
330
5BE5
100
AcDbEntity
  8
Defpoints
 62
     0
100
AcDbPoint
 10
3043.983211733645
 20
2384.14287521599
 30
0.0
  0
ENDBLK
  5
5BE7
330
5BE5
100
AcDbEntity
  8
0
100
AcDbBlockEnd
  0
BLOCK
  5
5C02
330
5C01
100
AcDbEntity
  8
0
100
AcDbBlockBegin
  2
*D22
 70
     1
 10
0.0
 20
0.0
 30
0.0
  3
*D22
  1

  0
LINE
  5
68AF
330
5C01
100
AcDbEntity
  8
AM_5 寸法線
 62
     3
100
AcDbLine
 10
3103.983211733645
 20
2601.76787521599
 30
0.0
 11
3103.983211733645
 21
2374.76787521599
 31
0.0
  0
LINE
  5
68B0
330
5C01
100
AcDbEntity
  8
AM_5 寸法線
 62
     3
100
AcDbLine
 10
3163.983211733645
 20
2601.76787521599
 30
0.0
 11
3163.983211733645
 21
2374.76787521599
 31
0.0
  0
LINE
  5
68B1
330
5C01
100
AcDbEntity
  8
AM_5 寸法線
 62
     3
100
AcDbLine
 10
3066.483211733646
 20
2384.14287521599
 30
0.0
 11
3028.983211733645
 21
2384.14287521599
 31
0.0
  0
LINE
  5
68B2
330
5C01
100
AcDbEntity
  8
AM_5 寸法線
 62
     3
100
AcDbLine
 10
3201.483211733645
 20
2384.14287521599
 30
0.0
 11
3358.233211733645
 21
2384.14287521599
 31
0.0
  0
LINE
  5
68B3
330
5C01
100
AcDbEntity
  8
AM_5 寸法線
 62
     3
100
AcDbLine
 10
3103.983211733645
 20
2384.14287521599
 30
0.0
 11
3163.983211733645
 21
2384.14287521599
 31
0.0
  0
INSERT
  5
68B4
330
5C01
100
AcDbEntity
  8
AM_5 寸法線
 62
     3
100
AcDbBlockReference
  2
GENDOT
 10
3103.983211733645
 20
2384.14287521599
 30
0.0
 41
37.5
 42
37.5
 43
37.5
  0
INSERT
  5
68B5
330
5C01
100
AcDbEntity
  8
AM_5 寸法線
 62
     3
100
AcDbBlockReference
  2
_Open30
 10
3163.983211733645
 20
2384.14287521599
 30
0.0
 41
37.5
 42
37.5
 43
37.5
 50
180.0
  0
MTEXT
  5
68B6
330
5C01
100
AcDbEntity
  8
AM_5 寸法線
 62
     3
100
AcDbMText
 10
3298.608211733645
 20
2432.89287521599
 30
0.0
 40
52.5
 41
0.0
 46
0.0
 71
     5
 72
     1
  1
60
  7
SEISA
 73
     1
 44
1.0
  0
POINT
  5
68B7
330
5C01
100
AcDbEntity
  8
Defpoints
 62
     0
100
AcDbPoint
 10
3103.983211733645
 20
2611.142875215989
 30
0.0
  0
POINT
  5
68B8
330
5C01
100
AcDbEntity
  8
Defpoints
 62
     0
100
AcDbPoint
 10
3163.983211733645
 20
2611.142875215989
 30
0.0
  0
POINT
  5
68B9
330
5C01
100
AcDbEntity
  8
Defpoints
 62
     0
100
AcDbPoint
 10
3163.983211733645
 20
2384.14287521599
 30
0.0
  0
ENDBLK
  5
5C03
330
5C01
100
AcDbEntity
  8
0
100
AcDbBlockEnd
  0
BLOCK
  5
5C30
330
5C2F
100
AcDbEntity
  8
0
100
AcDbBlockBegin
  2
*D23
 70
     1
 10
0.0
 20
0.0
 30
0.0
  3
*D23
  1

  0
LINE
  5
73E2
330
5C2F
100
AcDbEntity
  8
AM_5 寸法線
 62
     3
100
AcDbLine
 10
3463.983211733645
 20
2664.76787521599
 30
0.0
 11
3463.983211733645
 21
2254.76787521599
 31
0.0
  0
LINE
  5
73E3
330
5C2F
100
AcDbEntity
  8
AM_5 寸法線
 62
     3
100
AcDbLine
 10
2743.983211733645
 20
2664.76787521599
 30
0.0
 11
2743.983211733645
 21
2254.76787521599
 31
0.0
  0
LINE
  5
73E4
330
5C2F
100
AcDbEntity
  8
AM_5 寸法線
 62
     3
100
AcDbLine
 10
3426.483211733645
 20
2264.14287521599
 30
0.0
 11
2781.483211733645
 21
2264.14287521599
 31
0.0
  0
INSERT
  5
73E5
330
5C2F
100
AcDbEntity
  8
AM_5 寸法線
 62
     3
100
AcDbBlockReference
  2
_Open30
 10
3463.983211733645
 20
2264.14287521599
 30
0.0
 41
37.5
 42
37.5
 43
37.5
  0
INSERT
  5
73E6
330
5C2F
100
AcDbEntity
  8
AM_5 寸法線
 62
     3
100
AcDbBlockReference
  2
_Open30
 10
2743.983211733645
 20
2264.14287521599
 30
0.0
 41
37.5
 42
37.5
 43
37.5
 50
180.0
  0
MTEXT
  5
73E7
330
5C2F
100
AcDbEntity
  8
AM_5 寸法線
 62
     3
100
AcDbMText
 10
3103.983211733645
 20
2312.89287521599
 30
0.0
 40
52.5
 41
0.0
 46
0.0
 71
     5
 72
     1
  1
720
  7
SEISA
 73
     1
 44
1.0
  0
POINT
  5
73E8
330
5C2F
100
AcDbEntity
  8
Defpoints
 62
     0
100
AcDbPoint
 10
3463.983211733645
 20
2674.14287521599
 30
0.0
  0
POINT
  5
73E9
330
5C2F
100
AcDbEntity
  8
Defpoints
 62
     0
100
AcDbPoint
 10
2743.983211733645
 20
2674.14287521599
 30
0.0
  0
POINT
  5
73EA
330
5C2F
100
AcDbEntity
  8
Defpoints
 62
     0
100
AcDbPoint
 10
2743.983211733645
 20
2264.14287521599
 30
0.0
  0
ENDBLK
  5
5C31
330
5C2F
100
AcDbEntity
  8
0
100
AcDbBlockEnd
  0
BLOCK
  5
5CA0
330
5C9F
100
AcDbEntity
  8
0
100
AcDbBlockBegin
  2
*D24
 70
     1
 10
0.0
 20
0.0
 30
0.0
  3
*D24
  1

  0
LINE
  5
70E8
330
5C9F
100
AcDbEntity
  8
AM_5 寸法線
 62
     3
100
AcDbLine
 10
2523.983211733645
 20
2761.76787521599
 30
0.0
 11
2523.983211733645
 21
2134.76787521599
 31
0.0
  0
LINE
  5
70E9
330
5C9F
100
AcDbEntity
  8
AM_5 寸法線
 62
     3
100
AcDbLine
 10
3683.983211733645
 20
2761.76787521599
 30
0.0
 11
3683.983211733645
 21
2134.76787521599
 31
0.0
  0
LINE
  5
70EA
330
5C9F
100
AcDbEntity
  8
AM_5 寸法線
 62
     3
100
AcDbLine
 10
2561.483211733645
 20
2144.14287521599
 30
0.0
 11
3646.483211733645
 21
2144.14287521599
 31
0.0
  0
INSERT
  5
70EB
330
5C9F
100
AcDbEntity
  8
AM_5 寸法線
 62
     3
100
AcDbBlockReference
  2
_Open30
 10
2523.983211733645
 20
2144.14287521599
 30
0.0
 41
37.5
 42
37.5
 43
37.5
 50
180.0
  0
INSERT
  5
70EC
330
5C9F
100
AcDbEntity
  8
AM_5 寸法線
 62
     3
100
AcDbBlockReference
  2
_Open30
 10
3683.983211733645
 20
2144.14287521599
 30
0.0
 41
37.5
 42
37.5
 43
37.5
  0
MTEXT
  5
70ED
330
5C9F
100
AcDbEntity
  8
AM_5 寸法線
 62
     3
100
AcDbMText
 10
3103.983211733645
 20
2192.892875215989
 30
0.0
 40
52.5
 41
0.0
 46
0.0
 71
     5
 72
     1
  1
1160
  7
SEISA
 73
     1
 44
1.0
  0
POINT
  5
70EE
330
5C9F
100
AcDbEntity
  8
Defpoints
 62
     0
100
AcDbPoint
 10
2523.983211733645
 20
2771.14287521599
 30
0.0
  0
POINT
  5
70EF
330
5C9F
100
AcDbEntity
  8
Defpoints
 62
     0
100
AcDbPoint
 10
3683.983211733645
 20
2771.14287521599
 30
0.0
  0
POINT
  5
70F0
330
5C9F
100
AcDbEntity
  8
Defpoints
 62
     0
100
AcDbPoint
 10
3683.983211733645
 20
2144.14287521599
 30
0.0
  0
ENDBLK
  5
5CA1
330
5C9F
100
AcDbEntity
  8
0
100
AcDbBlockEnd
  0
BLOCK
  5
6D1C
330
6D1B
100
AcDbEntity
  8
0
100
AcDbBlockBegin
  2
*D25
 70
     1
 10
0.0
 20
0.0
 30
0.0
  3
*D25
  1

  0
LINE
  5
6D3B
330
6D1B
100
AcDbEntity
  8
AM_5 寸法線
 62
     3
100
AcDbLine
 10
3513.358211733645
 20
3589.142875215991
 30
0.0
 11
3993.358211733646
 21
3589.142875215991
 31
0.0
  0
LINE
  5
6D3C
330
6D1B
100
AcDbEntity
  8
AM_5 寸法線
 62
     3
100
AcDbLine
 10
3513.358211733645
 20
2749.142875215989
 30
0.0
 11
3993.358211733645
 21
2749.142875215989
 31
0.0
  0
LINE
  5
6D3D
330
6D1B
100
AcDbEntity
  8
AM_5 寸法線
 62
     3
100
AcDbLine
 10
3983.983211733646
 20
3551.64287521599
 30
0.0
 11
3983.983211733645
 21
2786.642875215989
 31
0.0
  0
INSERT
  5
6D3E
330
6D1B
100
AcDbEntity
  8
AM_5 寸法線
 62
     3
100
AcDbBlockReference
  2
_Open30
 10
3983.983211733646
 20
3589.142875215991
 30
0.0
 41
37.5
 42
37.5
 43
37.5
 50
90.0
  0
INSERT
  5
6D3F
330
6D1B
100
AcDbEntity
  8
AM_5 寸法線
 62
     3
100
AcDbBlockReference
  2
_Open30
 10
3983.983211733645
 20
2749.142875215989
 30
0.0
 41
37.5
 42
37.5
 43
37.5
 50
270.0
  0
MTEXT
  5
6D40
330
6D1B
100
AcDbEntity
  8
AM_5 寸法線
 62
     3
100
AcDbMText
 10
3935.233211733645
 20
3169.14287521599
 30
0.0
 40
52.5
 41
0.0
 46
0.0
 71
     5
 72
     1
  1
%%c840
  7
SEISA
 11
0.0000000000000001
 21
1.0
 31
0.0
 73
     1
 44
1.0
  0
POINT
  5
6D41
330
6D1B
100
AcDbEntity
  8
Defpoints
 62
     0
100
AcDbPoint
 10
3503.983211733646
 20
3589.142875215991
 30
0.0
  0
POINT
  5
6D42
330
6D1B
100
AcDbEntity
  8
Defpoints
 62
     0
100
AcDbPoint
 10
3503.983211733646
 20
2749.142875215989
 30
0.0
  0
POINT
  5
6D43
330
6D1B
100
AcDbEntity
  8
Defpoints
 62
     0
100
AcDbPoint
 10
3983.983211733645
 20
2749.142875215989
 30
0.0
  0
ENDBLK
  5
6D1D
330
6D1B
100
AcDbEntity
  8
0
100
AcDbBlockEnd
  0
BLOCK
  5
722B
330
722A
100
AcDbEntity
  8
0
100
AcDbBlockBegin
  2
*D26
 70
     1
 10
0.0
 20
0.0
 30
0.0
  3
*D26
  1

  0
LINE
  5
74CC
330
722A
100
AcDbEntity
  8
AM_5 寸法線
 62
     3
100
AcDbLine
 10
2943.983211733645
 20
3581.247645099445
 30
0.0
 11
2943.983211733645
 21
3465.275493887833
 31
0.0
  0
LINE
  5
74CD
330
722A
100
AcDbEntity
  8
AM_5 寸法線
 62
     3
100
AcDbLine
 10
3083.983211733645
 20
3574.76787521599
 30
0.0
 11
3083.983211733645
 21
3465.275493887833
 31
0.0
  0
LINE
  5
74CE
330
722A
100
AcDbEntity
  8
AM_5 寸法線
 62
     3
100
AcDbLine
 10
2981.483211733645
 20
3474.650493887833
 30
0.0
 11
3046.483211733645
 21
3474.650493887833
 31
0.0
  0
LINE
  5
74CF
330
722A
100
AcDbEntity
  8
AM_5 寸法線
 62
     3
100
AcDbLine
 10
3083.983211733645
 20
3474.650493887833
 30
0.0
 11
3281.233211733646
 21
3474.650493887833
 31
0.0
  0
INSERT
  5
74D0
330
722A
100
AcDbEntity
  8
AM_5 寸法線
 62
     3
100
AcDbBlockReference
  2
_Open30
 10
2943.983211733645
 20
3474.650493887833
 30
0.0
 41
37.5
 42
37.5
 43
37.5
 50
180.0
  0
INSERT
  5
74D1
330
722A
100
AcDbEntity
  8
AM_5 寸法線
 62
     3
100
AcDbBlockReference
  2
_Open30
 10
3083.983211733645
 20
3474.650493887833
 30
0.0
 41
37.5
 42
37.5
 43
37.5
  0
MTEXT
  5
74D2
330
722A
100
AcDbEntity
  8
AM_5 寸法線
 62
     3
100
AcDbMText
 10
3201.358211733645
 20
3523.400493887834
 30
0.0
 40
52.5
 41
0.0
 46
0.0
 71
     5
 72
     1
  1
140
  7
SEISA
 73
     1
 44
1.0
  0
POINT
  5
74D3
330
722A
100
AcDbEntity
  8
Defpoints
 62
     0
100
AcDbPoint
 10
2943.983211733645
 20
3590.622645099446
 30
0.0
  0
POINT
  5
74D4
330
722A
100
AcDbEntity
  8
Defpoints
 62
     0
100
AcDbPoint
 10
3083.983211733645
 20
3584.14287521599
 30
0.0
  0
POINT
  5
74D5
330
722A
100
AcDbEntity
  8
Defpoints
 62
     0
100
AcDbPoint
 10
3083.983211733645
 20
3474.650493887833
 30
0.0
  0
ENDBLK
  5
722C
330
722A
100
AcDbEntity
  8
0
100
AcDbBlockEnd
  0
BLOCK
  5
749D
330
749C
100
AcDbEntity
  8
0
100
AcDbBlockBegin
  2
センタB CCMH1120
 70
     0
 10
0.0
 20
0.0
 30
0.0
  3
センタB CCMH1120
  1

  0
LINE
  5
749F
330
749C
100
AcDbEntity
  8
AM_3 隠れ線
100
AcDbLine
 10
-560.0
 20
-231.9999999999995
 30
0.0
 11
-494.0
 21
-231.9999999999995
 31
0.0
  0
LINE
  5
74A0
330
749C
100
AcDbEntity
  8
AM_3 隠れ線
100
AcDbLine
 10
-560.0
 20
-233.9999999999995
 30
0.0
 11
-480.0
 21
-233.9999999999995
 31
0.0
  0
LINE
  5
74A1
330
749C
100
AcDbEntity
  8
AM_0 外形線1
100
AcDbLine
 10
-540.0
 20
168.0000000000004
 30
0.0
 11
-386.0
 21
168.0000000000004
 31
0.0
  0
LINE
  5
74A2
330
749C
100
AcDbEntity
  8
AM_0 外形線1
100
AcDbLine
 10
-386.0
 20
-667.9999999999994
 30
0.0
 11
-540.0
 21
-667.9999999999994
 31
0.0
  0
LINE
  5
74A3
330
749C
100
AcDbEntity
  8
AM_0 外形線1
100
AcDbLine
 10
-560.0
 20
-647.9999999999994
 30
0.0
 11
-560.0
 21
148.0000000000004
 31
0.0
  0
ARC
  5
74A4
330
749C
100
AcDbEntity
  8
AM_0 外形線1
100
AcDbCircle
 10
-540.0
 20
-647.9999999999994
 30
0.0
 40
20.0
100
AcDbArc
 50
180.0
 51
270.0
  0
ARC
  5
74A5
330
749C
100
AcDbEntity
  8
AM_0 外形線1
100
AcDbCircle
 10
-540.0
 20
148.0000000000004
 30
0.0
 40
20.0
100
AcDbArc
 50
90.0
 51
180.0
  0
LINE
  5
74A6
330
749C
100
AcDbEntity
  8
AM_0 外形線1
100
AcDbLine
 10
0.0
 20
165.0000000000004
 30
0.0
 11
0.0
 21
-249.9999999999996
 31
0.0
  0
LINE
  5
74A7
330
749C
100
AcDbEntity
  8
AM_3 隠れ線
100
AcDbLine
 10
0.0
 20
-233.9999999999995
 30
0.0
 11
-80.0
 21
-233.9999999999995
 31
0.0
  0
LINE
  5
74A8
330
749C
100
AcDbEntity
  8
AM_3 隠れ線
100
AcDbLine
 10
0.0
 20
-231.9999999999995
 30
0.0
 11
-66.0
 21
-231.9999999999995
 31
0.0
  0
LINE
  5
74A9
330
749C
100
AcDbEntity
  8
AM_0 外形線1
100
AcDbLine
 10
-386.0
 20
-667.9999999999994
 30
0.0
 11
-386.0
 21
-249.9999999999996
 31
0.0
  0
LINE
  5
74AA
330
749C
100
AcDbEntity
  8
AM_0 外形線1
100
AcDbLine
 10
-380.0
 20
-669.9999999999994
 30
0.0
 11
-380.0
 21
-249.9999999999996
 31
0.0
  0
LINE
  5
74AB
330
749C
100
AcDbEntity
  8
AM_0 外形線1
100
AcDbLine
 10
-380.0
 20
-669.9999999999994
 30
0.0
 11
-386.0
 21
-667.9999999999994
 31
0.0
  0
LINE
  5
74AC
330
749C
100
AcDbEntity
  8
AM_0 外形線1
100
AcDbLine
 10
-340.0
 20
-669.9999999999994
 30
0.0
 11
-380.0
 21
-669.9999999999994
 31
0.0
  0
LINE
  5
74AD
330
749C
100
AcDbEntity
  8
AM_3 隠れ線
100
AcDbLine
 10
-494.0
 20
-231.9999999999995
 30
0.0
 11
-492.8452999999989
 21
-233.9999999999995
 31
0.0
  0
LINE
  5
74AE
330
749C
100
AcDbEntity
  8
AM_3 隠れ線
100
AcDbLine
 10
-494.0
 20
-249.9999999999996
 30
0.0
 11
-494.0
 21
-231.9999999999995
 31
0.0
  0
LINE
  5
74AF
330
749C
100
AcDbEntity
  8
AM_3 隠れ線
100
AcDbLine
 10
-492.8452999999989
 20
-233.9999999999995
 30
0.0
 11
-492.8452999999989
 21
-249.9999999999996
 31
0.0
  0
LINE
  5
74B0
330
749C
100
AcDbEntity
  8
AM_3 隠れ線
100
AcDbLine
 10
-480.0
 20
-233.9999999999995
 30
0.0
 11
-470.7623960000001
 21
-249.9999999999996
 31
0.0
  0
LINE
  5
74B1
330
749C
100
AcDbEntity
  8
AM_3 隠れ線
100
AcDbLine
 10
-480.0
 20
-233.9999999999995
 30
0.0
 11
-480.0
 21
-249.9999999999996
 31
0.0
  0
LINE
  5
74B2
330
749C
100
AcDbEntity
  8
AM_3 隠れ線
100
AcDbLine
 10
-80.0
 20
-233.9999999999995
 30
0.0
 11
-89.23760499999934
 21
-249.9999999999996
 31
0.0
  0
LINE
  5
74B3
330
749C
100
AcDbEntity
  8
AM_3 隠れ線
100
AcDbLine
 10
-80.0
 20
-233.9999999999995
 30
0.0
 11
-80.0
 21
-249.9999999999996
 31
0.0
  0
LINE
  5
74B4
330
749C
100
AcDbEntity
  8
AM_3 隠れ線
100
AcDbLine
 10
-66.0
 20
-231.9999999999995
 30
0.0
 11
-67.15470099999946
 21
-233.9999999999995
 31
0.0
  0
LINE
  5
74B5
330
749C
100
AcDbEntity
  8
AM_3 隠れ線
100
AcDbLine
 10
-66.0
 20
-249.9999999999996
 30
0.0
 11
-66.0
 21
-231.9999999999995
 31
0.0
  0
LINE
  5
74B6
330
749C
100
AcDbEntity
  8
AM_3 隠れ線
100
AcDbLine
 10
-67.15470099999946
 20
-233.9999999999995
 30
0.0
 11
-67.15470099999946
 21
-249.9999999999996
 31
0.0
  0
LINE
  5
74B7
330
749C
100
AcDbEntity
  8
AM_0 外形線1
100
AcDbLine
 10
-139.5
 20
170.0000000000004
 30
0.0
 11
-5.0
 21
170.0000000000004
 31
0.0
  0
ARC
  5
74B8
330
749C
100
AcDbEntity
  8
AM_0 外形線1
100
AcDbCircle
 10
-216.0
 20
-249.9999999999996
 30
0.0
 40
449.6
100
AcDbArc
 50
80.39731499999737
 51
99.60268500000264
  0
LINE
  5
74B9
330
749C
100
AcDbEntity
  8
AM_0 外形線1
100
AcDbLine
 10
-380.0
 20
170.0000000000004
 30
0.0
 11
-292.5
 21
170.0000000000004
 31
0.0
  0
LINE
  5
74BA
330
749C
100
AcDbEntity
  8
AM_0 外形線1
100
AcDbLine
 10
-386.0
 20
168.0000000000004
 30
0.0
 11
-380.0
 21
170.0000000000004
 31
0.0
  0
LINE
  5
74BB
330
749C
100
AcDbEntity
  8
AM_0 外形線1
100
AcDbLine
 10
-292.0
 20
192.1299580000009
 30
0.0
 11
-291.0
 21
193.3003040000007
 31
0.0
  0
LINE
  5
74BC
330
749C
100
AcDbEntity
  8
AM_0 外形線1
100
AcDbLine
 10
-292.0
 20
170.5000000000004
 30
0.0
 11
-292.0
 21
192.1299580000009
 31
0.0
  0
ARC
  5
74BD
330
749C
100
AcDbEntity
  8
AM_0 外形線1
100
AcDbCircle
 10
-292.5
 20
170.5000000000004
 30
0.0
 40
0.5
100
AcDbArc
 50
270.0
 51
0.0
  0
LINE
  5
74BE
330
749C
100
AcDbEntity
  8
AM_7 中心線
100
AcDbLine
 10
-216.0
 20
204.6000000000008
 30
0.0
 11
-216.0
 21
175.0000000000004
 31
0.0
  0
ARC
  5
74BF
330
749C
100
AcDbEntity
  8
AM_0 外形線1
100
AcDbCircle
 10
-139.5
 20
170.5000000000004
 30
0.0
 40
0.5
100
AcDbArc
 50
180.0
 51
270.0
  0
LINE
  5
74C0
330
749C
100
AcDbEntity
  8
AM_0 外形線1
100
AcDbLine
 10
-140.0
 20
192.1299580000009
 30
0.0
 11
-140.0
 21
170.5000000000004
 31
0.0
  0
LINE
  5
74C1
330
749C
100
AcDbEntity
  8
AM_0 外形線1
100
AcDbLine
 10
-141.0
 20
193.3003040000007
 30
0.0
 11
-140.0
 21
192.1299580000009
 31
0.0
  0
LINE
  5
74C2
330
749C
100
AcDbEntity
  8
AM_0 外形線1
100
AcDbLine
 10
-5.0
 20
170.0000000000004
 30
0.0
 11
0.0
 21
165.0000000000004
 31
0.0
  0
LINE
  5
74C3
330
749C
100
AcDbEntity
  8
AM_0 外形線1
100
AcDbLine
 10
-560.0
 20
0.0000000000009095
 30
0.0
 11
0.0
 21
0.0
 31
0.0
  0
ARC
  5
74C7
330
749C
100
AcDbEntity
  8
AM_0 外形線1
100
AcDbCircle
 10
-216.0
 20
-249.9999999999996
 30
0.0
 40
430.0
100
AcDbArc
 50
79.8198250382289
 51
100.1801749617711
  0
ARC
  5
74C8
330
749C
100
AcDbEntity
  8
AM_7 中心線
100
AcDbCircle
 10
-216.0
 20
-249.9999999999996
 30
0.0
 40
439.9999999999995
100
AcDbArc
 50
78.88149072656088
 51
100.5981566789225
  0
ENDBLK
  5
749E
330
749C
100
AcDbEntity
  8
0
100
AcDbBlockEnd
  0
BLOCK
  5
7504
330
7503
100
AcDbEntity
  8
0
100
AcDbBlockBegin
  2
*D28
 70
     1
 10
0.0
 20
0.0
 30
0.0
  3
*D28
  1

  0
LINE
  5
7512
330
7503
100
AcDbEntity
  8
AM_5 寸法線
 62
     3
100
AcDbLine
 10
2791.983211733645
 20
3580.26787521599
 30
0.0
 11
2791.983211733645
 21
3465.27549388783
 31
0.0
  0
LINE
  5
7513
330
7503
100
AcDbEntity
  8
AM_5 寸法線
 62
     3
100
AcDbLine
 10
2778.983211733645
 20
3579.767875215991
 30
0.0
 11
2778.983211733645
 21
3465.27549388783
 31
0.0
  0
LINE
  5
7514
330
7503
100
AcDbEntity
  8
AM_5 寸法線
 62
     3
100
AcDbLine
 10
2829.483211733645
 20
3474.650493887831
 30
0.0
 11
2866.983211733645
 21
3474.650493887831
 31
0.0
  0
LINE
  5
7515
330
7503
100
AcDbEntity
  8
AM_5 寸法線
 62
     3
100
AcDbLine
 10
2741.483211733644
 20
3474.650493887831
 30
0.0
 11
2589.233211733645
 21
3474.650493887831
 31
0.0
  0
LINE
  5
7516
330
7503
100
AcDbEntity
  8
AM_5 寸法線
 62
     3
100
AcDbLine
 10
2791.983211733645
 20
3474.650493887831
 30
0.0
 11
2778.983211733645
 21
3474.650493887831
 31
0.0
  0
INSERT
  5
7517
330
7503
100
AcDbEntity
  8
AM_5 寸法線
 62
     3
100
AcDbBlockReference
  2
_Open30
 10
2791.983211733645
 20
3474.650493887831
 30
0.0
 41
37.5
 42
37.5
 43
37.5
 50
180.0
  0
INSERT
  5
7518
330
7503
100
AcDbEntity
  8
AM_5 寸法線
 62
     3
100
AcDbBlockReference
  2
_Open30
 10
2778.983211733645
 20
3474.650493887831
 30
0.0
 41
37.5
 42
37.5
 43
37.5
  0
MTEXT
  5
7519
330
7503
100
AcDbEntity
  8
AM_5 寸法線
 62
     3
100
AcDbMText
 10
2646.608211733644
 20
3523.400493887829
 30
0.0
 40
52.5
 41
0.0
 46
0.0
 71
     5
 72
     1
  1
13
  7
SEISA
 73
     1
 44
1.0
  0
POINT
  5
751A
330
7503
100
AcDbEntity
  8
Defpoints
 62
     0
100
AcDbPoint
 10
2791.983211733645
 20
3589.64287521599
 30
0.0
  0
POINT
  5
751B
330
7503
100
AcDbEntity
  8
Defpoints
 62
     0
100
AcDbPoint
 10
2778.983211733645
 20
3589.142875215991
 30
0.0
  0
POINT
  5
751C
330
7503
100
AcDbEntity
  8
Defpoints
 62
     0
100
AcDbPoint
 10
2778.983211733645
 20
3474.650493887831
 30
0.0
  0
ENDBLK
  5
7505
330
7503
100
AcDbEntity
  8
0
100
AcDbBlockEnd
  0
BLOCK
  5
751E
330
751D
100
AcDbEntity
  8
0
100
AcDbBlockBegin
  2
*D29
 70
     1
 10
0.0
 20
0.0
 30
0.0
  3
*D29
  1

  0
LINE
  5
752B
330
751D
100
AcDbEntity
  8
AM_5 寸法線
 62
     3
100
AcDbLine
 10
2791.983211733645
 20
3581.247645099445
 30
0.0
 11
2791.983211733645
 21
3465.275493887833
 31
0.0
  0
LINE
  5
752C
330
751D
100
AcDbEntity
  8
AM_5 寸法線
 62
     3
100
AcDbLine
 10
2943.983211733645
 20
3581.247645099445
 30
0.0
 11
2943.983211733645
 21
3465.275493887833
 31
0.0
  0
LINE
  5
752D
330
751D
100
AcDbEntity
  8
AM_5 寸法線
 62
     3
100
AcDbLine
 10
2829.483211733645
 20
3474.650493887833
 30
0.0
 11
2906.483211733645
 21
3474.650493887833
 31
0.0
  0
MTEXT
  5
752E
330
751D
100
AcDbEntity
  8
AM_5 寸法線
 62
     3
100
AcDbMText
 10
2864.923545588597
 20
3526.023268876263
 30
0.0
 40
52.5
 41
0.0
 46
0.0
 71
     5
 72
     1
  1
152
  7
SEISA
 73
     1
 44
1.0
  0
INSERT
  5
752F
330
751D
100
AcDbEntity
  8
AM_5 寸法線
 62
     3
100
AcDbBlockReference
  2
_Open30
 10
2791.983211733645
 20
3474.650493887833
 30
0.0
 41
37.5
 42
37.5
 43
37.5
 50
180.0
  0
INSERT
  5
7530
330
751D
100
AcDbEntity
  8
AM_5 寸法線
 62
     3
100
AcDbBlockReference
  2
_Open30
 10
2943.983211733645
 20
3474.650493887833
 30
0.0
 41
37.5
 42
37.5
 43
37.5
  0
POINT
  5
7531
330
751D
100
AcDbEntity
  8
Defpoints
 62
     0
100
AcDbPoint
 10
2791.983211733645
 20
3590.622645099446
 30
0.0
  0
POINT
  5
7532
330
751D
100
AcDbEntity
  8
Defpoints
 62
     0
100
AcDbPoint
 10
2943.983211733645
 20
3590.622645099446
 30
0.0
  0
POINT
  5
7533
330
751D
100
AcDbEntity
  8
Defpoints
 62
     0
100
AcDbPoint
 10
2943.983211733645
 20
3474.650493887833
 30
0.0
  0
ENDBLK
  5
751F
330
751D
100
AcDbEntity
  8
0
100
AcDbBlockEnd
  0
ENDSEC
  0
SECTION
  2
ENTITIES
  0
LINE
  5
43EC
330
1F
100
AcDbEntity
  8
AM_7 中心線
100
AcDbLine
 10
2467.989983374219
 20
3169.14287521599
 30
0.0
 11
3731.918716954182
 21
3169.14287521599
 31
0.0
  0
LINE
  5
44DD
330
1F
100
AcDbEntity
  8
AM_0 外形線1
100
AcDbLine
 10
3043.983211733645
 20
3714.142875215991
 30
0.0
 11
3047.983211733645
 21
3714.142875215991
 31
0.0
  0
INSERT
  5
4DFE
102
{ACAD_REACTORS
330
5BFF
102
}
330
1F
100
AcDbEntity
  8
AM_0 外形線1
100
AcDbBlockReference
  2
ケースＢ CCMH1120
 10
3103.983211733645
 20
3169.14287521599
 30
0.0
  0
INSERT
  5
4F0E
102
{ACAD_REACTORS
330
597B
330
5993
330
6D31
102
}
330
1F
100
AcDbEntity
  8
AM_0 外形線1
100
AcDbBlockReference
  2
センタＡ CCMH1120
 10
3123.983211733645
 20
3169.14287521599
 30
0.0
  0
INSERT
  5
53E1
330
1F
100
AcDbEntity
  8
AM_0 外形線1
100
AcDbBlockReference
  2
リーマボルト CCMH1120 M36
 10
3163.983211733645
 20
3695.14287521599
 30
0.0
  0
INSERT
  5
550D
102
{ACAD_REACTORS
330
5A56
102
}
330
1F
100
AcDbEntity
  8
AM_0 外形線1
100
AcDbBlockReference
  2
ＧＣサイドカバ－A CCMH1120
 10
3435.983211733645
 20
3169.14287521599
 30
0.0
  0
INSERT
  5
5541
102
{ACAD_REACTORS
330
5A56
330
5A6E
330
5BFF
330
5C1B
102
}
330
1F
100
AcDbEntity
  8
AM_0 外形線1
100
AcDbBlockReference
  2
ケースＡ CCMH1120
 10
3103.983211733645
 20
3169.14287521599
 30
0.0
  0
INSERT
  5
5662
102
{ACAD_REACTORS
330
5C45
102
}
330
1F
100
AcDbEntity
  8
AM_0 外形線1
100
AcDbBlockReference
  2
ＧＣサイドカバ－Ｂ CCMH1120
 10
2771.983211733644
 20
3169.14287521599
 30
0.0
  0
DIMENSION
  5
58CA
330
1F
100
AcDbEntity
  8
AM_5 寸法線
100
AcDbDimension
  2
*D15
 10
2223.983211733644
 20
2749.142875215989
 30
0.0
 11
2175.233211733644
 21
3169.14287521599
 31
0.0
 70
    32
  1
%%c<>
 71
     5
 42
840.0
 73
     0
 74
     0
 75
     0
  3
SEISA$0
100
AcDbAlignedDimension
 13
2703.983211733645
 23
3589.142875215991
 33
0.0
 14
2703.983211733645
 24
2749.142875215989
 34
0.0
 50
90.0
100
AcDbRotatedDimension
1001
ACAD_DSTYLE_DIMINSPECT
1070
   396
1000
100%
1070
   395
1000

1070
   394
1070
    33
1070
   393
1070
     0
  0
DIMENSION
  5
5948
330
1F
100
AcDbEntity
  8
AM_5 寸法線
100
AcDbDimension
  2
*D16
 10
2523.983211733645
 20
3254.76691121599
 30
0.0
 11
2803.983211733644
 21
3303.51691121599
 31
0.0
 70
    32
 71
     5
 42
560.0
 73
     0
 74
     0
 75
     0
  3
SEISA$0
100
AcDbAlignedDimension
 13
3083.983211733645
 23
3169.14287521599
 33
0.0
 14
2523.983211733645
 24
3169.14287521599
 34
0.0
100
AcDbRotatedDimension
  0
DIMENSION
  5
5960
102
{ACAD_XDICTIONARY
360
596F
102
}
102
{ACAD_REACTORS
330
597B
102
}
330
1F
100
AcDbEntity
  8
AM_5 寸法線
100
AcDbDimension
  2
*D17
 10
3083.983211733645
 20
3254.76691121599
 30
0.0
 11
3199.936583683954
 21
3303.712754283326
 31
0.0
 70
   160
 71
     5
 42
40.0
 73
     0
 74
     0
 75
     0
  3
SEISA$0
100
AcDbAlignedDimension
 13
3123.983211733645
 23
3169.14287521599
 33
0.0
 14
3083.983211733645
 24
3169.14287521599
 34
0.0
100
AcDbRotatedDimension
1001
ACAD
1000
DSTYLE
1002
{
1070
   279
1070
     2
1002
}
  0
DIMENSION
  5
597C
102
{ACAD_XDICTIONARY
360
5989
102
}
102
{ACAD_REACTORS
330
5993
102
}
330
1F
100
AcDbEntity
  8
AM_5 寸法線
100
AcDbDimension
  2
*D18
 10
3683.983211733645
 20
3254.76691121599
 30
0.0
 11
3403.983211733645
 21
3303.51691121599
 31
0.0
 70
    32
 71
     5
 42
560.0
 73
     0
 74
     0
 75
     0
  3
SEISA$0
100
AcDbAlignedDimension
 13
3123.983211733645
 23
3169.14287521599
 33
0.0
 14
3683.983211733645
 24
3169.14287521599
 34
0.0
100
AcDbRotatedDimension
  0
DIMENSION
  5
5A3F
102
{ACAD_XDICTIONARY
360
5A4C
102
}
102
{ACAD_REACTORS
330
5A56
102
}
330
1F
100
AcDbEntity
  8
AM_5 寸法線
100
AcDbDimension
  2
*D19
 10
4103.983211733644
 20
2674.14287521599
 30
0.0
 11
4103.983211733644
 21
3169.14287521599
 31
0.0
 70
   160
  1
%%c<>
 71
     5
 42
990.0
 73
     0
 74
     0
 75
     0
  3
SEISA$0
100
AcDbAlignedDimension
 13
3435.983211733645
 23
3664.14287521599
 33
0.0
 14
3463.983211733645
 24
2674.14287521599
 34
0.0
 50
90.0
100
AcDbRotatedDimension
1001
ACAD_DSTYLE_DIMINSPECT
1070
   396
1000
100%
1070
   395
1000

1070
   394
1070
    33
1070
   393
1070
     0
1001
ACAD
1000
DSTYLE
1002
{
1070
   279
1070
     0
1002
}
  0
DIMENSION
  5
5A57
102
{ACAD_XDICTIONARY
360
5A64
102
}
102
{ACAD_REACTORS
330
5A6E
102
}
330
1F
100
AcDbEntity
  8
AM_5 寸法線
100
AcDbDimension
  2
*D20
 10
4223.983211733645
 20
2609.14287521599
 30
0.0
 11
4223.983211733645
 21
3169.14287521599
 31
0.0
 70
   160
  1
%%c<>
 71
     5
 42
1120.0
 73
     0
 74
     0
 75
     0
  3
SEISA$0
100
AcDbAlignedDimension
 13
3161.983211733645
 23
3729.14287521599
 33
0.0
 14
3161.983211733645
 24
2609.14287521599
 34
0.0
 50
90.0
100
AcDbRotatedDimension
1001
ACAD_DSTYLE_DIMINSPECT
1070
   396
1000
100%
1070
   395
1000

1070
   394
1070
    33
1070
   393
1070
     0
1001
ACAD
1000
DSTYLE
1002
{
1070
   279
1070
     0
1002
}
  0
DIMENSION
  5
5BE4
102
{ACAD_XDICTIONARY
360
5BF3
102
}
102
{ACAD_REACTORS
330
5BFF
102
}
330
1F
100
AcDbEntity
  8
AM_5 寸法線
100
AcDbDimension
  2
*D21
 10
3043.983211733645
 20
2384.14287521599
 30
0.0
 11
2909.358211733645
 21
2432.89287521599
 31
0.0
 70
    32
 71
     5
 42
60.0
 73
     0
 74
     0
 75
     0
  3
SEISA$0
100
AcDbAlignedDimension
 13
3103.983211733645
 23
2611.142875215989
 33
0.0
 14
3043.983211733645
 24
2611.142875215989
 34
0.0
100
AcDbRotatedDimension
1001
ACAD_DSTYLE_DIMINSPECT
1070
   396
1000
100%
1070
   395
1000

1070
   394
1070
    33
1070
   393
1070
     0
1001
ACAD
1000
DSTYLE
1002
{
1070
   173
1070
     1
1070
   342
1005
0
1070
   343
1005
39BC
1070
   344
1005
69
1002
}
  0
DIMENSION
  5
5C00
102
{ACAD_XDICTIONARY
360
5C0F
102
}
102
{ACAD_REACTORS
330
5C1B
102
}
330
1F
100
AcDbEntity
  8
AM_5 寸法線
100
AcDbDimension
  2
*D22
 10
3163.983211733645
 20
2384.14287521599
 30
0.0
 11
3298.608211733645
 21
2432.89287521599
 31
0.0
 70
    32
 71
     5
 42
60.0
 73
     0
 74
     0
 75
     0
  3
SEISA$0
100
AcDbAlignedDimension
 13
3103.983211733645
 23
2611.142875215989
 33
0.0
 14
3163.983211733645
 24
2611.142875215989
 34
0.0
100
AcDbRotatedDimension
1001
ACAD_DSTYLE_DIMINSPECT
1070
   396
1000
100%
1070
   395
1000

1070
   394
1070
    33
1070
   393
1070
     0
1001
ACAD
1000
DSTYLE
1002
{
1070
   173
1070
     1
1070
   342
1005
0
1070
   343
1005
39BC
1070
   344
1005
69
1002
}
  0
DIMENSION
  5
5C2E
102
{ACAD_XDICTIONARY
360
5C3B
102
}
102
{ACAD_REACTORS
330
5C45
102
}
330
1F
100
AcDbEntity
  8
AM_5 寸法線
100
AcDbDimension
  2
*D23
 10
2743.983211733645
 20
2264.14287521599
 30
0.0
 11
3103.983211733645
 21
2312.89287521599
 31
0.0
 70
    32
 71
     5
 42
720.0
 73
     0
 74
     0
 75
     0
  3
SEISA$0
100
AcDbAlignedDimension
 13
3463.983211733645
 23
2674.14287521599
 33
0.0
 14
2743.983211733645
 24
2674.14287521599
 34
0.0
100
AcDbRotatedDimension
  0
DIMENSION
  5
5C9E
330
1F
100
AcDbEntity
  8
AM_5 寸法線
100
AcDbDimension
  2
*D24
 10
3683.983211733645
 20
2144.14287521599
 30
0.0
 11
3103.983211733645
 21
2192.892875215989
 31
0.0
 70
    32
 71
     5
 42
1160.0
 73
     0
 74
     0
 75
     0
  3
SEISA$0
100
AcDbAlignedDimension
 13
2523.983211733645
 23
2771.14287521599
 33
0.0
 14
3683.983211733645
 24
2771.14287521599
 34
0.0
100
AcDbRotatedDimension
  0
DIMENSION
  5
6D1A
102
{ACAD_XDICTIONARY
360
6D27
102
}
102
{ACAD_REACTORS
330
6D31
102
}
330
1F
100
AcDbEntity
  8
AM_5 寸法線
100
AcDbDimension
  2
*D25
 10
3983.983211733645
 20
2749.142875215989
 30
0.0
 11
3935.233211733645
 21
3169.14287521599
 31
0.0
 70
    32
  1
%%c<>
 71
     5
 42
840.0
 73
     0
 74
     0
 75
     0
  3
SEISA$0
100
AcDbAlignedDimension
 13
3503.983211733646
 23
3589.142875215991
 33
0.0
 14
3503.983211733646
 24
2749.142875215989
 34
0.0
 50
90.0
100
AcDbRotatedDimension
1001
ACAD_DSTYLE_DIMINSPECT
1070
   396
1000
100%
1070
   395
1000

1070
   394
1070
    33
1070
   393
1070
     0
  0
MTEXT
  5
7152
330
1F
100
AcDbEntity
  8
AM_6 文字
100
AcDbMText
 10
3770.68609262013
 20
2510.460819512058
 30
0.0
 40
52.5
 41
1106.38499069061
 46
173.8485251668311
 71
     1
 72
     5
  1
{\W0.6;TYPE:CCM1120/CCMH1120\PSHAFT DIA:MAX/MIN φ600/φ400}
  7
SEISA
 73
     1
 44
1.0
  0
DIMENSION
  5
7229
330
1F
100
AcDbEntity
  8
AM_5 寸法線
100
AcDbDimension
  2
*D26
 10
3083.983211733645
 20
3474.650493887833
 30
0.0
 11
3201.358211733645
 21
3523.400493887834
 31
0.0
 70
    32
 71
     5
 42
140.0
 73
     0
 74
     0
 75
     0
  3
SEISA$0
100
AcDbAlignedDimension
 13
2943.983211733645
 23
3590.622645099446
 33
0.0
 14
3083.983211733645
 24
3584.14287521599
 34
0.0
 50
0.0000000000001132
100
AcDbRotatedDimension
1001
ACAD_DSTYLE_DIMINSPECT
1070
   396
1000
100%
1070
   395
1000

1070
   394
1070
    33
1070
   393
1070
     0
  0
INSERT
  5
74D6
330
1F
100
AcDbEntity
  8
AM_0 外形線1
100
AcDbBlockReference
  2
センタB CCMH1120
 10
3083.983211733645
 20
3419.142875215989
 30
0.0
  0
DIMENSION
  5
74FD
330
1F
100
AcDbEntity
  8
AM_5 寸法線
100
AcDbDimension
  2
*D28
 10
2778.983211733645
 20
3474.650493887831
 30
0.0
 11
2646.608211733644
 21
3523.400493887829
 31
0.0
 70
    32
 71
     5
 42
13.0
 73
     0
 74
     0
 75
     0
  3
SEISA$0
100
AcDbAlignedDimension
 13
2791.983211733645
 23
3589.64287521599
 33
0.0
 14
2778.983211733645
 24
3589.142875215991
 34
0.0
100
AcDbRotatedDimension
  0
DIMENSION
  5
7500
330
1F
100
AcDbEntity
  8
AM_5 寸法線
100
AcDbDimension
  2
*D29
 10
2943.983211733645
 20
3474.650493887833
 30
0.0
 11
2864.923545588597
 21
3526.023268876263
 31
0.0
 70
   160
 71
     5
 42
152.0
 73
     0
 74
     0
 75
     0
  3
SEISA$0
100
AcDbAlignedDimension
 13
2791.983211733645
 23
3590.622645099446
 33
0.0
 14
2943.983211733645
 24
3590.622645099446
 34
0.0
100
AcDbRotatedDimension
1001
ACAD_DSTYLE_DIMINSPECT
1070
   396
1000
100%
1070
   395
1000

1070
   394
1070
    33
1070
   393
1070
     0
1001
ACAD
1000
DSTYLE
1002
{
1070
   279
1070
     2
1002
}
  0
ENDSEC
  0
SECTION
  2
OBJECTS
  0
DICTIONARY
  5
C
330
0
100
AcDbDictionary
281
     1
  3
ACAD_COLOR
350
C5
  3
ACAD_GROUP
350
D
  3
ACAD_LAYOUT
350
1A
  3
ACAD_MATERIAL
350
C4
  3
ACAD_MLEADERSTYLE
350
2D5
  3
ACAD_MLINESTYLE
350
17
  3
ACAD_PLOTSETTINGS
350
19
  3
ACAD_PLOTSTYLENAME
350
E
  3
ACAD_SCALELIST
350
2B3
  3
ACAD_TABLESTYLE
350
121
  3
ACAD_VISUALSTYLE
350
27F
  3
ACDB_RECOMPOSE_DATA
350
2F7
  3
AcDbVariableDictionary
350
34
  3
AcmDictionary
350
49
  3
AMG
350
2B
  3
AMGSNAPSETTINGS
350
1DE
  0
DICTIONARY
  5
BF
330
2
100
AcDbDictionary
280
     1
281
     1
  3
ACAD_LAYERSTATES
360
3AA2
  3
AMLAYER_GROUPCOLORS
360
C0
  0
DICTIONARY
  5
29F7
330
10
100
AcDbDictionary
280
     1
281
     1
  3
ADSK_XREC_LAYER_RECONCILED
360
29F8
  0
DICTIONARY
  5
29F9
330
81
100
AcDbDictionary
280
     1
281
     1
  3
ADSK_XREC_LAYER_RECONCILED
360
29FA
  0
DICTIONARY
  5
82
330
1F
100
AcDbDictionary
280
     1
281
     1
  3
ACAD_SORTENTS
360
A41
  0
DICTIONARY
  5
4B81
330
4B53
100
AcDbDictionary
280
     1
281
     1
  3
ACAD_SORTENTS
360
4B82
  0
DICTIONARY
  5
4BD0
330
4BA4
100
AcDbDictionary
280
     1
281
     1
  3
ACAD_SORTENTS
360
4BD1
  0
DICTIONARY
  5
4D46
330
4C59
100
AcDbDictionary
280
     1
281
     1
  3
ACAD_SORTENTS
360
69D8
  0
DICTIONARY
  5
4E71
330
4DC7
100
AcDbDictionary
280
     1
281
     1
  3
ACAD_SORTENTS
360
6A55
  0
DICTIONARY
  5
6AB6
330
4EE0
100
AcDbDictionary
280
     1
281
     1
  3
ACAD_SORTENTS
360
749B
  0
DICTIONARY
  5
5446
330
53B2
100
AcDbDictionary
280
     1
281
     1
  3
ACAD_SORTENTS
360
6C0C
  0
DICTIONARY
  5
55A0
330
54D7
100
AcDbDictionary
280
     1
281
     1
  3
ACAD_SORTENTS
360
6C81
  0
DICTIONARY
  5
56D1
330
562F
100
AcDbDictionary
280
     1
281
     1
  3
ACAD_SORTENTS
360
6CEE
  0
DICTIONARY
  5
755B
330
749C
100
AcDbDictionary
280
     1
281
     1
  3
ACAD_SORTENTS
360
755C
  0
DICTIONARY
  5
596F
330
5960
100
AcDbDictionary
280
     1
281
     1
  3
ACAD_DIMASSOC
360
597B
  0
DICTIONARY
  5
5989
330
597C
100
AcDbDictionary
280
     1
281
     1
  3
ACAD_DIMASSOC
360
5993
  0
DICTIONARY
  5
5A4C
330
5A3F
100
AcDbDictionary
280
     1
281
     1
  3
ACAD_DIMASSOC
360
5A56
  0
DICTIONARY
  5
5A64
330
5A57
100
AcDbDictionary
280
     1
281
     1
  3
ACAD_DIMASSOC
360
5A6E
  0
DICTIONARY
  5
5BF3
330
5BE4
100
AcDbDictionary
280
     1
281
     1
  3
ACAD_DIMASSOC
360
5BFF
  0
DICTIONARY
  5
5C0F
330
5C00
100
AcDbDictionary
280
     1
281
     1
  3
ACAD_DIMASSOC
360
5C1B
  0
DICTIONARY
  5
5C3B
330
5C2E
100
AcDbDictionary
280
     1
281
     1
  3
ACAD_DIMASSOC
360
5C45
  0
DICTIONARY
  5
6D27
330
6D1A
100
AcDbDictionary
280
     1
281
     1
  3
ACAD_DIMASSOC
360
6D31
  0
DICTIONARY
  5
C5
102
{ACAD_REACTORS
330
C
102
}
330
C
100
AcDbDictionary
281
     1
  0
DICTIONARY
  5
D
102
{ACAD_REACTORS
330
C
102
}
330
C
100
AcDbDictionary
281
     1
  0
DICTIONARY
  5
1A
102
{ACAD_REACTORS
330
C
102
}
330
C
100
AcDbDictionary
281
     1
  3
Model
350
22
  3
レイアウト1
350
1E
  3
レイアウト2
350
26
  0
DICTIONARY
  5
C4
102
{ACAD_REACTORS
330
C
102
}
330
C
100
AcDbDictionary
281
     1
  3
ByBlock
350
27D
  3
ByLayer
350
27C
  3
Global
350
27E
  0
DICTIONARY
  5
2D5
102
{ACAD_REACTORS
330
C
102
}
330
C
100
AcDbDictionary
281
     1
  3
Standard
350
2D6
  0
DICTIONARY
  5
17
102
{ACAD_REACTORS
330
C
102
}
330
C
100
AcDbDictionary
281
     1
  3
Standard
350
18
  0
DICTIONARY
  5
19
102
{ACAD_REACTORS
330
C
102
}
330
C
100
AcDbDictionary
281
     1
  3
SEISA基本
350
1C7E
  0
ACDBDICTIONARYWDFLT
  5
E
102
{ACAD_REACTORS
330
C
102
}
330
C
100
AcDbDictionary
281
     1
  3
Normal
350
F
100
AcDbDictionaryWithDefault
340
F
  0
DICTIONARY
  5
2B3
102
{ACAD_REACTORS
330
C
102
}
330
C
100
AcDbDictionary
281
     1
  3
*A1
350
2A04
  3
*A2
350
7146
  3
*A3
350
7147
  3
*A4
350
7148
  3
*A5
350
7149
  3
A0
350
2B4
  3
A1
350
2B5
  3
A2
350
2B6
  3
A3
350
2B7
  3
A4
350
2B8
  3
A5
350
2B9
  3
A6
350
2BA
  3
A7
350
2BB
  3
A8
350
2BC
  3
A9
350
2BD
  3
B0
350
2BE
  3
B1
350
2BF
  3
B2
350
2C0
  3
B3
350
2C1
  3
B4
350
2C2
  3
B5
350
2C3
  3
B6
350
2C4
  3
B7
350
2C5
  3
B8
350
2C6
  3
B9
350
2C7
  3
C0
350
2C8
  3
C1
350
2C9
  3
C2
350
2CA
  3
C3
350
2CB
  3
C4
350
2CC
  3
C5
350
2CD
  3
C6
350
2CE
  3
C7
350
2CF
  3
C8
350
2D0
  3
C9
350
2D1
  3
D0
350
2D2
  3
D1
350
2D3
  3
D2
350
2D4
  0
DICTIONARY
  5
121
102
{ACAD_REACTORS
330
C
102
}
330
C
100
AcDbDictionary
281
     1
  3
Standard
350
122
  0
DICTIONARY
  5
27F
102
{ACAD_REACTORS
330
C
102
}
330
C
100
AcDbDictionary
281
     1
  3
2dWireframe
350
285
  3
3D Hidden
350
287
  3
3dWireframe
350
286
  3
Basic
350
284
  3
Brighten
350
28B
  3
ColorChange
350
28F
  3
Conceptual
350
288
  3
Dim
350
28A
  3
Facepattern
350
28E
  3
Flat
350
280
  3
FlatWithEdges
350
281
  3
Gouraud
350
282
  3
GouraudWithEdges
350
283
  3
Linepattern
350
28D
  3
Realistic
350
289
  3
Thicken
350
28C
  0
XRECORD
  5
2F7
102
{ACAD_REACTORS
330
C
102
}
330
C
100
AcDbXrecord
280
     1
 90
        1
330
122
  0
DICTIONARY
  5
34
102
{ACAD_REACTORS
330
C
102
}
330
C
100
AcDbDictionary
281
     1
  3
CANNOSCALE
350
2FA
  3
CMLEADERSTYLE
350
2F8
  3
CTABLESTYLE
350
140
  3
DIMASSOC
350
AC
  3
INDEXCTL
350
35
  3
LAYEREVAL
350
614B
  3
LAYERNOTIFY
350
614C
  3
LIGHTINGUNITS
350
2FB
  3
MSLTSCALE
350
2F9
  0
DICTIONARY
  5
49
102
{ACAD_REACTORS
330
C
102
}
330
C
100
AcDbDictionary
281
     1
  3
AcmBOM
350
161B
  3
AcmStdDictionary
350
4A
  3
AMDTSECTSYM_ARROWCOLOR
350
12B
  0
DICTIONARY
  5
2B
102
{ACAD_REACTORS
330
C
102
}
330
C
100
AcDbDictionary
281
     1
  0
DICTIONARY
  5
1DE
102
{ACAD_REACTORS
330
C
102
}
330
C
100
AcDbDictionary
281
     1
  0
DICTIONARY
  5
3AA2
102
{ACAD_REACTORS
330
BF
102
}
330
BF
100
AcDbDictionary
281
     1
  0
DICTIONARY
  5
C0
102
{ACAD_REACTORS
330
BF
102
}
330
BF
100
AcDbDictionary
280
     1
281
     1
  0
XRECORD
  5
29F8
102
{ACAD_REACTORS
330
29F7
102
}
330
29F7
100
AcDbXrecord
280
     1
290
     1
  0
XRECORD
  5
29FA
102
{ACAD_REACTORS
330
29F9
102
}
330
29F9
100
AcDbXrecord
280
     1
290
     1
  0
SORTENTSTABLE
  5
A41
102
{ACAD_REACTORS
330
82
102
}
330
82
100
AcDbSortentsTable
330
1F
331
5C2E
  5
6308
331
4DFE
  5
5541
331
7152
  5
7152
331
5C9E
  5
6417
331
597C
  5
6300
331
53E1
  5
5F4A
331
5948
  5
626A
331
44DD
  5
44E6
331
5960
  5
626D
331
5C00
  5
6305
331
550D
  5
5F15
331
5A3F
  5
6302
331
4F0E
  5
5753
331
5541
  5
5F6B
331
5662
  5
5F98
331
43EC
  5
43EC
331
6D1A
  5
70F7
331
5BE4
  5
6304
331
5A57
  5
6303
331
58CA
  5
6259
  0
SORTENTSTABLE
  5
4B82
102
{ACAD_REACTORS
330
4B81
102
}
330
4B81
100
AcDbSortentsTable
330
4B53
  0
SORTENTSTABLE
  5
4BD1
102
{ACAD_REACTORS
330
4BD0
102
}
330
4BD0
100
AcDbSortentsTable
330
4BA4
331
4BAC
  5
4BAD
331
4BAA
  5
4BAB
331
4BA8
  5
4BA9
331
4BB1
  5
4BCE
331
4BAF
  5
4BB0
331
4BAD
  5
4BAE
331
4BCE
  5
4BCF
331
4BAB
  5
4BAC
331
4BA9
  5
4BAA
331
4BA7
  5
4BA8
331
4BB0
  5
4BB1
331
4BAE
  5
4BAF
331
4BCF
  5
4BA7
  0
SORTENTSTABLE
  5
69D8
102
{ACAD_REACTORS
330
4D46
102
}
330
4D46
100
AcDbSortentsTable
330
4C59
331
4D44
  5
4C95
331
4C71
  5
4C72
331
4C73
  5
4C74
331
4C75
  5
4C76
331
4C77
  5
4C78
331
4C79
  5
4C7A
331
4C7B
  5
4C7C
331
4C7D
  5
4C7E
331
4C6D
  5
4C6E
331
4C7F
  5
4C80
331
4C6F
  5
4C70
331
4C83
  5
4C84
331
4C91
  5
4C92
331
4C85
  5
4C86
331
4C87
  5
4C88
331
4C95
  5
4D44
331
4C89
  5
4C8A
331
4C8B
  5
4C8C
331
4C8D
  5
4C8E
331
4C8F
  5
4C90
331
4D45
  5
4C6C
331
4C70
  5
4C71
331
4C72
  5
4C73
331
4C74
  5
4C75
331
4C76
  5
4C77
331
4C78
  5
4C79
331
4C7A
  5
4C7B
331
4C7C
  5
4C7D
331
4C6C
  5
4C6D
331
4C7E
  5
4C7F
331
4C6E
  5
4C6F
331
4C80
  5
4C82
331
4C82
  5
4C83
331
4C90
  5
4C91
331
4C84
  5
4C85
331
4C92
  5
4C94
331
4C86
  5
4C87
331
4C94
  5
4C96
331
4C88
  5
4C89
331
4C8A
  5
4C8B
331
4C96
  5
4D45
331
4C8C
  5
4C8D
331
4C8E
  5
4C8F
  0
SORTENTSTABLE
  5
6A55
102
{ACAD_REACTORS
330
4E71
102
}
330
4E71
100
AcDbSortentsTable
330
4DC7
331
4DEA
  5
4DEC
331
4DE0
  5
4DE1
331
4DF7
  5
4DF9
331
4DD8
  5
4DD9
331
4DED
  5
4DEF
331
4DDB
  5
4DDC
331
4DE3
  5
4DE4
331
4DD1
  5
4DD2
331
4DF0
  5
4DF2
331
4DE6
  5
4DE7
331
4DDE
  5
4DDF
331
4E6D
  5
4E6E
331
4DF3
  5
4DF5
331
4DFA
  5
4DFD
331
4DD4
  5
4DD5
331
4DE9
  5
4DEA
331
4DFD
  5
4E6D
331
4DD7
  5
4DD8
331
4DF6
  5
4DF8
331
4DEC
  5
4DEE
331
4DDA
  5
4DDB
331
4DEF
  5
4DF1
331
4E70
  5
4DD1
331
4DE5
  5
4DE6
331
4E6C
  5
4DED
331
4DD3
  5
4DD4
331
4DF2
  5
4DF4
331
4DF9
  5
4DFC
331
4DE8
  5
4DE9
331
4E6F
  5
4E70
331
4DF5
  5
4DF7
331
4DFC
  5
4E6C
331
4DD6
  5
4DD7
331
4DD9
  5
4DDA
331
4DE1
  5
4DE3
331
4DEE
  5
4DF0
331
4DDC
  5
4DDE
331
4DE4
  5
4DE5
331
4DF1
  5
4DF3
331
4DF8
  5
4DFA
331
4DD2
  5
4DD3
331
4E6E
  5
4E6F
331
4DDF
  5
4DE0
331
4DE7
  5
4DE8
331
4DD5
  5
4DD6
331
4DF4
  5
4DF6
  0
SORTENTSTABLE
  5
749B
102
{ACAD_REACTORS
330
6AB6
102
}
330
6AB6
100
AcDbSortentsTable
330
4EE0
331
4F02
  5
4F04
331
4EEC
  5
4EEE
331
4EE7
  5
4EE9
331
4EFB
  5
4EFD
331
4F08
  5
4F0C
331
4EF6
  5
4EF8
331
4F07
  5
4F09
331
4EE8
  5
4EEA
331
4EE3
  5
4EE5
331
4F03
  5
4F05
331
4EF2
  5
4EF5
331
4EED
  5
4EEF
331
4EF7
  5
4EF9
331
7372
  5
4EE3
331
4EFC
  5
4EFE
331
4F09
  5
7195
331
7195
  5
4EE4
331
4F04
  5
4F06
331
4EE9
  5
4EEB
331
4EEE
  5
4EF0
331
4EFD
  5
4EFF
331
4EF8
  5
4EFA
331
4EE4
  5
4EE6
331
4F00
  5
4F02
331
4EEA
  5
4EEC
331
4EE5
  5
4EE7
331
4F05
  5
4F07
331
4EF9
  5
4EFB
331
4EF4
  5
4EF6
331
4EFE
  5
4F00
331
4EEF
  5
4EF2
331
4F01
  5
4F03
331
4F06
  5
4F08
331
4EEB
  5
4EED
331
4EF0
  5
4EF4
331
4EE6
  5
4EE8
331
4EFF
  5
4F01
331
4F0C
  5
7372
331
4EFA
  5
4EFC
331
4EF5
  5
4EF7
  0
SORTENTSTABLE
  5
6C0C
102
{ACAD_REACTORS
330
5446
102
}
330
5446
100
AcDbSortentsTable
330
53B2
  0
SORTENTSTABLE
  5
6C81
102
{ACAD_REACTORS
330
55A0
102
}
330
55A0
100
AcDbSortentsTable
330
54D7
331
5507
  5
5508
331
54F3
  5
54F4
331
5506
  5
5507
331
5505
  5
5506
331
54F1
  5
54F3
331
5504
  5
5505
331
54F0
  5
54F1
331
5503
  5
5504
331
54EF
  5
54F0
331
5502
  5
5503
331
54EE
  5
54EF
331
5501
  5
5502
331
54ED
  5
54EE
331
5500
  5
5501
331
54EC
  5
54ED
331
54FF
  5
5500
331
54EB
  5
54EC
331
54FE
  5
54FF
331
54EA
  5
54EB
331
54FD
  5
54FE
331
54E9
  5
54EA
331
54FC
  5
54FD
331
54E8
  5
54E9
331
54FB
  5
54FC
331
54E7
  5
54E8
331
54FA
  5
54FB
331
54E6
  5
54E7
331
54F9
  5
54FA
331
54E5
  5
54E6
331
54F8
  5
54F9
331
54E4
  5
54E5
331
54E3
  5
54E4
331
54E2
  5
54E3
331
559F
  5
54DB
331
54E1
  5
54E2
331
54E0
  5
54E1
331
559E
  5
559F
331
54DF
  5
54E0
331
550B
  5
559A
331
559D
  5
559E
331
54DE
  5
54DF
331
550A
  5
550B
331
559C
  5
559D
331
5509
  5
550A
331
559B
  5
559C
331
54F7
  5
54F8
331
54DC
  5
54DE
331
5508
  5
5509
331
559A
  5
559B
331
54F6
  5
54F7
331
54DB
  5
54DC
331
54F5
  5
54F6
331
54F4
  5
54F5
  0
SORTENTSTABLE
  5
6CEE
102
{ACAD_REACTORS
330
56D1
102
}
330
56D1
100
AcDbSortentsTable
330
562F
  0
SORTENTSTABLE
  5
755C
102
{ACAD_REACTORS
330
755B
102
}
330
755B
100
AcDbSortentsTable
330
749C
  0
DIMASSOC
  5
597B
102
{ACAD_REACTORS
330
596F
102
}
330
596F
100
AcDbDimAssoc
330
5960
 90
        1
 70
     0
 71
     0
  1
AcDbOsnapPointRef
 72
     1
331
4F0E
331
4EE5
 73
     2
 91
        0
 40
1.0
 10
0.0
 20
0.0
 30
2.000000000000000E+50
 75
     0
  0
DIMASSOC
  5
5993
102
{ACAD_REACTORS
330
5989
102
}
330
5989
100
AcDbDimAssoc
330
597C
 90
        3
 70
     0
 71
     0
  1
AcDbOsnapPointRef
 72
     1
331
4F0E
331
4EE5
 73
     2
 91
        0
 40
1.0
 10
0.0
 20
0.0
 30
2.000000000000000E+50
 75
     0
  1
AcDbOsnapPointRef
 72
     2
331
4F0E
331
4F00
 73
     2
 91
        0
 40
0.5
 10
0.0
 20
0.0
 30
0.0
 75
     0
  0
DIMASSOC
  5
5A56
102
{ACAD_REACTORS
330
5A4C
102
}
330
5A4C
100
AcDbDimAssoc
330
5A3F
 90
        3
 70
     0
 71
     0
  1
AcDbOsnapPointRef
 72
    13
331
5541
331
4C90
 73
     2
 91
        0
 40
0.0
 10
0.0
 20
0.0
 30
2.000000000000000E+50
 75
     0
  1
AcDbOsnapPointRef
 72
    13
331
550D
331
559F
 73
     2
 91
        0
 40
0.0
 10
0.0
 20
0.0
 30
2.000000000000000E+50
 75
     0
  0
DIMASSOC
  5
5A6E
102
{ACAD_REACTORS
330
5A64
102
}
330
5A64
100
AcDbDimAssoc
330
5A57
 90
        3
 70
     0
 71
     0
  1
AcDbOsnapPointRef
 72
     1
331
5541
331
4C86
 73
     2
 91
        0
 40
1.0
 10
0.0
 20
0.0
 30
2.000000000000000E+50
 75
     0
  1
AcDbOsnapPointRef
 72
     1
331
5541
331
4C65
 73
     2
 91
        0
 40
1.0
 10
0.0
 20
0.0
 30
2.000000000000000E+50
 75
     0
  0
DIMASSOC
  5
5BFF
102
{ACAD_REACTORS
330
5BF3
102
}
330
5BF3
100
AcDbDimAssoc
330
5BE4
 90
        3
 70
     0
 71
     0
  1
AcDbOsnapPointRef
 72
     1
331
5541
331
4C61
 73
     2
 91
        0
 40
1.0
 10
0.0
 20
0.0
 30
2.000000000000000E+50
 75
     0
  1
AcDbOsnapPointRef
 72
    13
331
4DFE
331
4DCF
 73
     2
 91
        0
 40
0.0
 10
0.0
 20
0.0
 30
2.000000000000000E+50
 75
     0
  0
DIMASSOC
  5
5C1B
102
{ACAD_REACTORS
330
5C0F
102
}
330
5C0F
100
AcDbDimAssoc
330
5C00
 90
        3
 70
     0
 71
     0
  1
AcDbOsnapPointRef
 72
     1
331
5541
331
4C61
 73
     2
 91
        0
 40
1.0
 10
0.0
 20
0.0
 30
2.000000000000000E+50
 75
     0
  1
AcDbOsnapPointRef
 72
    13
331
5541
331
4C62
 73
     2
 91
        0
 40
0.0
 10
0.0
 20
0.0
 30
2.000000000000000E+50
 75
     0
  0
DIMASSOC
  5
5C45
102
{ACAD_REACTORS
330
5C3B
102
}
330
5C3B
100
AcDbDimAssoc
330
5C2E
 90
        2
 70
     0
 71
     0
  1
AcDbOsnapPointRef
 72
    13
331
5662
331
5632
 73
     2
 91
        0
 40
0.0
 10
0.0
 20
0.0
 30
2.000000000000000E+50
 75
     0
  0
DIMASSOC
  5
6D31
102
{ACAD_REACTORS
330
6D27
102
}
330
6D27
100
AcDbDimAssoc
330
6D1A
 90
        3
 70
     0
 71
     0
  1
AcDbOsnapPointRef
 72
    13
331
4F0E
331
4EFA
 73
     2
 91
        0
 40
0.0
 10
0.0
 20
0.0
 30
2.000000000000000E+50
 75
     0
  1
AcDbOsnapPointRef
 72
    13
331
4F0E
331
4EE7
 73
     2
 91
        0
 40
0.0
 10
0.0
 20
0.0
 30
2.000000000000000E+50
 75
     0
  0
LAYOUT
  5
22
102
{ACAD_REACTORS
330
1A
102
}
330
1A
100
AcDbPlotSettings
  1

  2
KONICA MINOLTA 501 PCL
  4
A4
  6

 40
5.027082920074462
 41
5.027085781097412
 42
5.027069091796875
 43
5.027069091796875
 44
209.9733276367186
 45
296.9259948730469
 46
4.546572314710445
 47
0.0
 48
0.0
 49
0.0
140
0.0
141
0.0
142
1.0
143
8.360711717977576
 70
 11956
 72
     1
 73
     1
 74
     1
  7
SEISA.ctb
 75
     0
147
0.1196070422868134
 76
     0
 77
     2
 78
   300
148
-2148.802205099968
149
-2134.030398646699
100
AcDbLayout
  1
Model
 70
     1
 71
     0
 10
0.0
 20
0.0
 11
12.0
 21
9.0
 12
0.0
 22
0.0
 32
0.0
 14
0.0
 24
0.0
 34
0.0
 15
0.0
 25
0.0
 35
0.0
146
0.0
 13
0.0
 23
0.0
 33
0.0
 16
1.0
 26
0.0
 36
0.0
 17
0.0
 27
1.0
 37
0.0
 76
     0
330
1F
331
27A
1001
ACAD_PSEXT
1000
KONICA MINOLTA 501 PCL
1000
KONICA MINOLTA 501/421/361PCL
1000
IP_192.168.20.231_(1)
1000

1070
     0
  0
LAYOUT
  5
1E
102
{ACAD_REACTORS
330
1A
102
}
330
1A
100
AcDbPlotSettings
  1

  2
none_device
  4
Letter_(8.50_x_11.00_Inches)
  6

 40
6.349999904632567
 41
6.349999904632567
 42
6.350006103515625
 43
6.350006103515625
 44
215.8999938964844
 45
279.3999938964844
 46
0.0
 47
0.0
 48
0.0
 49
0.0
140
0.0
141
0.0
142
1.0
143
1.0
 70
 15024
 72
     1
 73
     1
 74
     5
  7
SEISA.ctb
 75
    16
147
1.0
 76
     0
 77
     2
 78
   300
148
0.0
149
0.0
100
AcDbLayout
  1
レイアウト1
 70
     1
 71
     1
 10
0.0
 20
0.0
 11
420.0
 21
297.0
 12
0.0
 22
0.0
 32
0.0
 14
1.000000000000000E+20
 24
1.000000000000000E+20
 34
1.000000000000000E+20
 15
-1.000000000000000E+20
 25
-1.000000000000000E+20
 35
-1.000000000000000E+20
146
0.0
 13
0.0
 23
0.0
 33
0.0
 16
1.0
 26
0.0
 36
0.0
 17
0.0
 27
1.0
 37
0.0
 76
     0
330
1B
  0
LAYOUT
  5
26
102
{ACAD_REACTORS
330
1A
102
}
330
1A
100
AcDbPlotSettings
  1

  2
none_device
  4
Letter_(8.50_x_11.00_Inches)
  6

 40
6.349999904632567
 41
6.349999904632567
 42
6.350006103515625
 43
6.350006103515625
 44
215.8999938964844
 45
279.3999938964844
 46
0.0
 47
0.0
 48
0.0
 49
0.0
140
0.0
141
0.0
142
1.0
143
1.0
 70
 15024
 72
     1
 73
     1
 74
     5
  7
SEISA.ctb
 75
    16
147
1.0
 76
     0
 77
     2
 78
   300
148
0.0
149
0.0
100
AcDbLayout
  1
レイアウト2
 70
     1
 71
     2
 10
0.0
 20
0.0
 11
12.0
 21
9.0
 12
0.0
 22
0.0
 32
0.0
 14
0.0
 24
0.0
 34
0.0
 15
0.0
 25
0.0
 35
0.0
146
0.0
 13
0.0
 23
0.0
 33
0.0
 16
1.0
 26
0.0
 36
0.0
 17
0.0
 27
1.0
 37
0.0
 76
     0
330
23
  0
MATERIAL
  5
27D
102
{ACAD_REACTORS
330
C4
102
}
330
C4
100
AcDbMaterial
  1
ByBlock
 73
     1
 78
     1
172
     1
176
     1
270
     1
274
     1
 94
       63
  0
MATERIAL
  5
27C
102
{ACAD_REACTORS
330
C4
102
}
330
C4
100
AcDbMaterial
  1
ByLayer
 73
     1
 78
     1
172
     1
176
     1
270
     1
274
     1
 94
       63
  0
MATERIAL
  5
27E
102
{ACAD_REACTORS
330
C4
102
}
330
C4
100
AcDbMaterial
  1
Global
 73
     1
 78
     1
172
     1
176
     1
270
     1
274
     1
 94
       63
  0
MLEADERSTYLE
  5
2D6
102
{ACAD_REACTORS
330
2D5
102
}
330
2D5
100
AcDbMLeaderStyle
170
     2
171
     1
172
     0
 90
        2
 40
0.0
 41
0.0
173
     1
 91
-1056964608
340
14
 92
       -2
290
     1
 42
2.0
291
     1
 43
0.36
  3
Standard
 44
4.0
300

342
11
174
     1
178
     6
175
     1
176
     0
 93
-1056964608
 45
4.0
292
     0
297
     0
 46
4.0
 94
-1056964608
 47
1.0
 49
1.0
140
1.0
293
     1
141
0.0
294
     1
177
     0
142
1.0
295
     0
296
     0
143
0.125
1001
ACAD_MLEADERVER
1070
     2
  0
MLINESTYLE
  5
18
102
{ACAD_REACTORS
330
17
102
}
330
17
100
AcDbMlineStyle
  2
STANDARD
 70
     0
  3

 62
   256
 51
90.0
 52
90.0
 71
     2
 49
0.5
 62
   256
  6
BYLAYER
 49
-0.5
 62
   256
  6
BYLAYER
  0
PLOTSETTINGS
  5
1C7E
102
{ACAD_REACTORS
330
19
102
}
330
19
100
AcDbPlotSettings
  1
SEISA基本
  2
none_device
  4
Letter_(8.50_x_11.00_Inches)
  6

 40
6.349999904632567
 41
6.349999904632567
 42
6.350006103515625
 43
6.350006103515625
 44
215.8999938964844
 45
279.3999938964844
 46
7.302498226506357
 47
0.0
 48
0.0
 49
0.0
140
0.0
141
0.0
142
1.0
143
1.574803221122935
 70
 11956
 72
     1
 73
     1
 74
     2
  7
SEISA.ctb
 75
     0
147
0.6349999711627054
 76
     0
 77
     2
 78
   300
148
0.0
149
0.0
1001
ACAD_PSEXT
1000
なし
1000
なし
1000
適切ではありません
1000
新しいプロッタ環境設定名を選択しない限り、レイアウトは印刷されません。
1070
     0
  0
ACDBPLACEHOLDER
  5
F
102
{ACAD_REACTORS
330
E
102
}
330
E
  0
SCALE
  5
2A04
102
{ACAD_REACTORS
330
2B3
102
}
330
2B3
100
AcDbScale
 70
     0
300
1:15
140
1.0
141
15.0
290
     0
  0
SCALE
  5
7146
102
{ACAD_REACTORS
330
2B3
102
}
330
2B3
100
AcDbScale
 70
     0
300
1:6
140
1.0
141
6.0
290
     0
  0
SCALE
  5
7147
102
{ACAD_REACTORS
330
2B3
102
}
330
2B3
100
AcDbScale
 70
     0
300
1:3
140
1.0
141
3.0
290
     0
  0
SCALE
  5
7148
102
{ACAD_REACTORS
330
2B3
102
}
330
2B3
100
AcDbScale
 70
     0
300
1:2.5
140
1.0
141
2.5
290
     0
  0
SCALE
  5
7149
102
{ACAD_REACTORS
330
2B3
102
}
330
2B3
100
AcDbScale
 70
     0
300
1:1.5
140
1.0
141
1.5
290
     0
  0
SCALE
  5
2B4
102
{ACAD_REACTORS
330
2B3
102
}
330
2B3
100
AcDbScale
 70
     0
300
1:1
140
1.0
141
1.0
290
     1
  0
SCALE
  5
2B5
102
{ACAD_REACTORS
330
2B3
102
}
330
2B3
100
AcDbScale
 70
     0
300
1:2
140
1.0
141
2.0
290
     0
  0
SCALE
  5
2B6
102
{ACAD_REACTORS
330
2B3
102
}
330
2B3
100
AcDbScale
 70
     0
300
1:4
140
1.0
141
4.0
290
     0
  0
SCALE
  5
2B7
102
{ACAD_REACTORS
330
2B3
102
}
330
2B3
100
AcDbScale
 70
     0
300
1:5
140
1.0
141
5.0
290
     0
  0
SCALE
  5
2B8
102
{ACAD_REACTORS
330
2B3
102
}
330
2B3
100
AcDbScale
 70
     0
300
1:8
140
1.0
141
8.0
290
     0
  0
SCALE
  5
2B9
102
{ACAD_REACTORS
330
2B3
102
}
330
2B3
100
AcDbScale
 70
     0
300
1:10
140
1.0
141
10.0
290
     0
  0
SCALE
  5
2BA
102
{ACAD_REACTORS
330
2B3
102
}
330
2B3
100
AcDbScale
 70
     0
300
1:16
140
1.0
141
16.0
290
     0
  0
SCALE
  5
2BB
102
{ACAD_REACTORS
330
2B3
102
}
330
2B3
100
AcDbScale
 70
     0
300
1:20
140
1.0
141
20.0
290
     0
  0
SCALE
  5
2BC
102
{ACAD_REACTORS
330
2B3
102
}
330
2B3
100
AcDbScale
 70
     0
300
1:30
140
1.0
141
30.0
290
     0
  0
SCALE
  5
2BD
102
{ACAD_REACTORS
330
2B3
102
}
330
2B3
100
AcDbScale
 70
     0
300
1:40
140
1.0
141
40.0
290
     0
  0
SCALE
  5
2BE
102
{ACAD_REACTORS
330
2B3
102
}
330
2B3
100
AcDbScale
 70
     0
300
1:50
140
1.0
141
50.0
290
     0
  0
SCALE
  5
2BF
102
{ACAD_REACTORS
330
2B3
102
}
330
2B3
100
AcDbScale
 70
     0
300
1:100
140
1.0
141
100.0
290
     0
  0
SCALE
  5
2C0
102
{ACAD_REACTORS
330
2B3
102
}
330
2B3
100
AcDbScale
 70
     0
300
2:1
140
2.0
141
1.0
290
     0
  0
SCALE
  5
2C1
102
{ACAD_REACTORS
330
2B3
102
}
330
2B3
100
AcDbScale
 70
     0
300
4:1
140
4.0
141
1.0
290
     0
  0
SCALE
  5
2C2
102
{ACAD_REACTORS
330
2B3
102
}
330
2B3
100
AcDbScale
 70
     0
300
8:1
140
8.0
141
1.0
290
     0
  0
SCALE
  5
2C3
102
{ACAD_REACTORS
330
2B3
102
}
330
2B3
100
AcDbScale
 70
     0
300
10:1
140
10.0
141
1.0
290
     0
  0
SCALE
  5
2C4
102
{ACAD_REACTORS
330
2B3
102
}
330
2B3
100
AcDbScale
 70
     0
300
100:1
140
100.0
141
1.0
290
     0
  0
SCALE
  5
2C5
102
{ACAD_REACTORS
330
2B3
102
}
330
2B3
100
AcDbScale
 70
     0
300
1/128" = 1'-0"
140
0.0078125
141
12.0
290
     0
  0
SCALE
  5
2C6
102
{ACAD_REACTORS
330
2B3
102
}
330
2B3
100
AcDbScale
 70
     0
300
1/64" = 1'-0"
140
0.015625
141
12.0
290
     0
  0
SCALE
  5
2C7
102
{ACAD_REACTORS
330
2B3
102
}
330
2B3
100
AcDbScale
 70
     0
300
1/32" = 1'-0"
140
0.03125
141
12.0
290
     0
  0
SCALE
  5
2C8
102
{ACAD_REACTORS
330
2B3
102
}
330
2B3
100
AcDbScale
 70
     0
300
1/16" = 1'-0"
140
0.0625
141
12.0
290
     0
  0
SCALE
  5
2C9
102
{ACAD_REACTORS
330
2B3
102
}
330
2B3
100
AcDbScale
 70
     0
300
3/32" = 1'-0"
140
0.09375
141
12.0
290
     0
  0
SCALE
  5
2CA
102
{ACAD_REACTORS
330
2B3
102
}
330
2B3
100
AcDbScale
 70
     0
300
1/8" = 1'-0"
140
0.125
141
12.0
290
     0
  0
SCALE
  5
2CB
102
{ACAD_REACTORS
330
2B3
102
}
330
2B3
100
AcDbScale
 70
     0
300
3/16" = 1'-0"
140
0.1875
141
12.0
290
     0
  0
SCALE
  5
2CC
102
{ACAD_REACTORS
330
2B3
102
}
330
2B3
100
AcDbScale
 70
     0
300
1/4" = 1'-0"
140
0.25
141
12.0
290
     0
  0
SCALE
  5
2CD
102
{ACAD_REACTORS
330
2B3
102
}
330
2B3
100
AcDbScale
 70
     0
300
3/8" = 1'-0"
140
0.375
141
12.0
290
     0
  0
SCALE
  5
2CE
102
{ACAD_REACTORS
330
2B3
102
}
330
2B3
100
AcDbScale
 70
     0
300
1/2" = 1'-0"
140
0.5
141
12.0
290
     0
  0
SCALE
  5
2CF
102
{ACAD_REACTORS
330
2B3
102
}
330
2B3
100
AcDbScale
 70
     0
300
3/4" = 1'-0"
140
0.75
141
12.0
290
     0
  0
SCALE
  5
2D0
102
{ACAD_REACTORS
330
2B3
102
}
330
2B3
100
AcDbScale
 70
     0
300
1" = 1'-0"
140
1.0
141
12.0
290
     0
  0
SCALE
  5
2D1
102
{ACAD_REACTORS
330
2B3
102
}
330
2B3
100
AcDbScale
 70
     0
300
1-1/2" = 1'-0"
140
1.5
141
12.0
290
     0
  0
SCALE
  5
2D2
102
{ACAD_REACTORS
330
2B3
102
}
330
2B3
100
AcDbScale
 70
     0
300
3" = 1'-0"
140
3.0
141
12.0
290
     0
  0
SCALE
  5
2D3
102
{ACAD_REACTORS
330
2B3
102
}
330
2B3
100
AcDbScale
 70
     0
300
6" = 1'-0"
140
6.0
141
12.0
290
     0
  0
SCALE
  5
2D4
102
{ACAD_REACTORS
330
2B3
102
}
330
2B3
100
AcDbScale
 70
     0
300
1'-0" = 1'-0"
140
12.0
141
12.0
290
     0
  0
TABLESTYLE
  5
122
102
{ACAD_XDICTIONARY
360
2F5
102
}
102
{ACAD_REACTORS
330
121
102
}
330
121
100
AcDbTableStyle
  3
Standard
 70
     0
 71
     0
 40
1.5
 41
1.5
280
     0
281
     0
  7
STANDARD
140
4.5
170
     2
 62
     0
 63
     7
283
     0
 90
      512
 91
        0
  1

274
    -2
284
     1
 64
     0
275
    -2
285
     1
 65
     0
276
    -2
286
     1
 66
     0
277
    -2
287
     1
 67
     0
278
    -2
288
     1
 68
     0
279
    -2
289
     1
 69
     0
  7
STANDARD
140
6.0
170
     5
 62
     0
 63
     7
283
     0
 90
      512
 91
        0
  1

274
    -2
284
     1
 64
     0
275
    -2
285
     1
 65
     0
276
    -2
286
     1
 66
     0
277
    -2
287
     1
 67
     0
278
    -2
288
     1
 68
     0
279
    -2
289
     1
 69
     0
  7
STANDARD
140
4.5
170
     5
 62
     0
 63
     7
283
     0
 90
      512
 91
        0
  1

274
    -2
284
     1
 64
     0
275
    -2
285
     1
 65
     0
276
    -2
286
     1
 66
     0
277
    -2
287
     1
 67
     0
278
    -2
288
     1
 68
     0
279
    -2
289
     1
 69
     0
  0
VISUALSTYLE
  5
285
102
{ACAD_REACTORS
330
27F
102
}
330
27F
100
AcDbVisualStyle
  2
2dWireframe
 70
     4
 71
     0
 72
     2
 73
     0
 90
        0
 40
-0.6
 41
-30.0
 62
     5
 63
     7
421
 16777215
 74
     1
 91
        4
 64
     7
 65
   257
 75
     1
175
     1
 42
1.0
 92
        0
 66
   257
 43
1.0
 76
     1
 77
     6
 78
     2
 67
     7
 79
     5
170
     0
171
     0
290
     0
174
     0
 93
        1
 44
0.0
173
     0
291
     0
 45
0.0
  0
VISUALSTYLE
  5
287
102
{ACAD_REACTORS
330
27F
102
}
330
27F
100
AcDbVisualStyle
  2
3D Hidden
 70
     6
 71
     1
 72
     2
 73
     2
 90
        0
 40
-0.6
 41
-30.0
 62
     5
 63
     7
421
 16777215
 74
     2
 91
        2
 64
     7
 65
   257
 75
     2
175
     1
 42
40.0
 92
        0
 66
   257
 43
1.0
 76
     1
 77
     6
 78
     2
 67
     7
 79
     3
170
     0
171
     0
290
     0
174
     0
 93
        1
 44
0.0
173
     0
291
     0
 45
0.0
  0
VISUALSTYLE
  5
286
102
{ACAD_REACTORS
330
27F
102
}
330
27F
100
AcDbVisualStyle
  2
3dWireframe
 70
     5
 71
     0
 72
     2
 73
     0
 90
        0
 40
-0.6
 41
-30.0
 62
     5
 63
     7
421
 16777215
 74
     1
 91
        4
 64
     7
 65
   257
 75
     1
175
     1
 42
1.0
 92
        0
 66
   257
 43
1.0
 76
     1
 77
     6
 78
     2
 67
     7
 79
     5
170
     0
171
     0
290
     0
174
     0
 93
        1
 44
0.0
173
     0
291
     0
 45
0.0
  0
VISUALSTYLE
  5
284
102
{ACAD_REACTORS
330
27F
102
}
330
27F
100
AcDbVisualStyle
  2
Basic
 70
     7
 71
     1
 72
     0
 73
     1
 90
        0
 40
-0.6
 41
-30.0
 62
     5
 63
     7
421
 16777215
 74
     0
 91
        4
 64
     7
 65
   257
 75
     1
175
     1
 42
1.0
 92
        8
 66
     7
 43
1.0
 76
     1
 77
     6
 78
     2
 67
     7
 79
     5
170
     0
171
     0
290
     0
174
     0
 93
        1
 44
0.0
173
     0
291
     1
 45
0.0
  0
VISUALSTYLE
  5
28B
102
{ACAD_REACTORS
330
27F
102
}
330
27F
100
AcDbVisualStyle
  2
Brighten
 70
    12
 71
     2
 72
     2
 73
     0
 90
        0
 40
-0.6
 41
-30.0
 62
     5
 63
     7
421
 16777215
 74
     1
 91
        4
 64
     7
 65
   257
 75
     1
175
     1
 42
1.0
 92
        8
 66
     7
 43
1.0
 76
     1
 77
     6
 78
     2
 67
     7
 79
     5
170
     0
171
     0
290
     0
174
     0
 93
        1
 44
50.0
173
     0
291
     1
 45
0.0
  0
VISUALSTYLE
  5
28F
102
{ACAD_REACTORS
330
27F
102
}
330
27F
100
AcDbVisualStyle
  2
ColorChange
 70
    16
 71
     2
 72
     2
 73
     3
 90
        0
 40
-0.6
 41
-30.0
 62
     5
 63
     8
421
  8421504
 74
     1
 91
        4
 64
     7
 65
   257
 75
     1
175
     1
 42
1.0
 92
        8
 66
     8
424
  8421504
 43
1.0
 76
     1
 77
     6
 78
     2
 67
     7
 79
     5
170
     0
171
     0
290
     0
174
     0
 93
        1
 44
0.0
173
     0
291
     1
 45
0.0
  0
VISUALSTYLE
  5
288
102
{ACAD_REACTORS
330
27F
102
}
330
27F
100
AcDbVisualStyle
  2
Conceptual
 70
     9
 71
     3
 72
     2
 73
     0
 90
        0
 40
-0.6
 41
-30.0
 62
     5
 63
     7
421
 16777215
 74
     2
 91
        2
 64
     7
 65
   257
 75
     1
175
     1
 42
40.0
 92
        8
 66
     7
 43
1.0
 76
     1
 77
     6
 78
     2
 67
     7
 79
     3
170
     0
171
     0
290
     0
174
     0
 93
        1
 44
0.0
173
     0
291
     0
 45
0.0
  0
VISUALSTYLE
  5
28A
102
{ACAD_REACTORS
330
27F
102
}
330
27F
100
AcDbVisualStyle
  2
Dim
 70
    11
 71
     2
 72
     2
 73
     0
 90
        0
 40
-0.6
 41
-30.0
 62
     5
 63
     7
421
 16777215
 74
     1
 91
        4
 64
     7
 65
   257
 75
     1
175
     1
 42
1.0
 92
        8
 66
     7
 43
1.0
 76
     1
 77
     6
 78
     2
 67
     7
 79
     5
170
     0
171
     0
290
     0
174
     0
 93
        1
 44
-50.0
173
     0
291
     1
 45
0.0
  0
VISUALSTYLE
  5
28E
102
{ACAD_REACTORS
330
27F
102
}
330
27F
100
AcDbVisualStyle
  2
Facepattern
 70
    15
 71
     2
 72
     2
 73
     0
 90
        0
 40
-0.6
 41
-30.0
 62
     5
 63
     7
421
 16777215
 74
     1
 91
        4
 64
     7
 65
   257
 75
     1
175
     1
 42
1.0
 92
        8
 66
     7
 43
1.0
 76
     1
 77
     6
 78
     2
 67
     7
 79
     5
170
     0
171
     0
290
     0
174
     0
 93
        1
 44
0.0
173
     0
291
     1
 45
0.0
  0
VISUALSTYLE
  5
280
102
{ACAD_REACTORS
330
27F
102
}
330
27F
100
AcDbVisualStyle
  2
Flat
 70
     0
 71
     2
 72
     1
 73
     1
 90
        2
 40
-0.6
 41
30.0
 62
     5
 63
     7
421
 16777215
 74
     0
 91
        4
 64
     7
 65
   257
 75
     1
175
     1
 42
1.0
 92
        8
 66
     7
 43
1.0
 76
     1
 77
     6
 78
     2
 67
     7
 79
     5
170
     0
171
     0
290
     0
174
     0
 93
       13
 44
0.0
173
     0
291
     1
 45
0.0
  0
VISUALSTYLE
  5
281
102
{ACAD_REACTORS
330
27F
102
}
330
27F
100
AcDbVisualStyle
  2
FlatWithEdges
 70
     1
 71
     2
 72
     1
 73
     1
 90
        2
 40
-0.6
 41
30.0
 62
     5
 63
     7
421
 16777215
 74
     1
 91
        4
 64
     7
 65
   257
 75
     1
175
     1
 42
1.0
 92
        0
 66
   257
 43
1.0
 76
     1
 77
     6
 78
     2
 67
     7
 79
     5
170
     0
171
     0
290
     0
174
     0
 93
       13
 44
0.0
173
     0
291
     1
 45
0.0
  0
VISUALSTYLE
  5
282
102
{ACAD_REACTORS
330
27F
102
}
330
27F
100
AcDbVisualStyle
  2
Gouraud
 70
     2
 71
     2
 72
     2
 73
     1
 90
        2
 40
-0.6
 41
30.0
 62
     5
 63
     7
421
 16777215
 74
     0
 91
        4
 64
     7
 65
   257
 75
     1
175
     1
 42
1.0
 92
        0
 66
     7
 43
1.0
 76
     1
 77
     6
 78
     2
 67
     7
 79
     5
170
     0
171
     0
290
     0
174
     0
 93
       13
 44
0.0
173
     0
291
     1
 45
0.0
  0
VISUALSTYLE
  5
283
102
{ACAD_REACTORS
330
27F
102
}
330
27F
100
AcDbVisualStyle
  2
GouraudWithEdges
 70
     3
 71
     2
 72
     2
 73
     1
 90
        2
 40
-0.6
 41
30.0
 62
     5
 63
     7
421
 16777215
 74
     1
 91
        4
 64
     7
 65
   257
 75
     1
175
     1
 42
1.0
 92
        0
 66
   257
 43
1.0
 76
     1
 77
     6
 78
     2
 67
     7
 79
     5
170
     0
171
     0
290
     0
174
     0
 93
       13
 44
0.0
173
     0
291
     1
 45
0.0
  0
VISUALSTYLE
  5
28D
102
{ACAD_REACTORS
330
27F
102
}
330
27F
100
AcDbVisualStyle
  2
Linepattern
 70
    14
 71
     2
 72
     2
 73
     0
 90
        0
 40
-0.6
 41
-30.0
 62
     5
 63
     7
421
 16777215
 74
     1
 91
        4
 64
     7
 65
   257
 75
     7
175
     7
 42
1.0
 92
        8
 66
     7
 43
1.0
 76
     1
 77
     6
 78
     2
 67
     7
 79
     5
170
     0
171
     0
290
     0
174
     0
 93
        1
 44
0.0
173
     0
291
     1
 45
0.0
  0
VISUALSTYLE
  5
289
102
{ACAD_REACTORS
330
27F
102
}
330
27F
100
AcDbVisualStyle
  2
Realistic
 70
     8
 71
     2
 72
     2
 73
     0
 90
        0
 40
-0.6
 41
-30.0
 62
     5
 63
     7
421
 16777215
 74
     1
 91
        0
 64
     7
 65
   257
 75
     1
175
     1
 42
1.0
 92
        8
 66
     8
424
  7895160
 43
1.0
 76
     1
 77
     6
 78
     2
 67
     7
 79
     5
170
     0
171
     0
290
     0
174
     0
 93
       13
 44
0.0
173
     0
291
     0
 45
0.0
  0
VISUALSTYLE
  5
28C
102
{ACAD_REACTORS
330
27F
102
}
330
27F
100
AcDbVisualStyle
  2
Thicken
 70
    13
 71
     2
 72
     2
 73
     0
 90
        0
 40
-0.6
 41
-30.0
 62
     5
 63
     7
421
 16777215
 74
     1
 91
        4
 64
     7
 65
   257
 75
     1
175
     1
 42
1.0
 92
       12
 66
     7
 43
1.0
 76
     1
 77
     6
 78
     2
 67
     7
 79
     5
170
     0
171
     0
290
     0
174
     0
 93
        1
 44
0.0
173
     0
291
     1
 45
0.0
  0
DICTIONARYVAR
  5
2FA
102
{ACAD_REACTORS
330
34
102
}
330
34
100
DictionaryVariables
280
     0
  1
1:15
  0
DICTIONARYVAR
  5
2F8
102
{ACAD_REACTORS
330
34
102
}
330
34
100
DictionaryVariables
280
     0
  1
STANDARD
  0
DICTIONARYVAR
  5
140
102
{ACAD_REACTORS
330
34
102
}
330
34
100
DictionaryVariables
280
     0
  1
STANDARD
  0
DICTIONARYVAR
  5
AC
102
{ACAD_REACTORS
330
34
102
}
330
34
100
DictionaryVariables
280
     0
  1
1
  0
DICTIONARYVAR
  5
35
102
{ACAD_REACTORS
330
34
102
}
330
34
100
DictionaryVariables
280
     0
  1
1
  0
DICTIONARYVAR
  5
614B
102
{ACAD_REACTORS
330
34
102
}
330
34
100
DictionaryVariables
280
     0
  1
1
  0
DICTIONARYVAR
  5
614C
102
{ACAD_REACTORS
330
34
102
}
330
34
100
DictionaryVariables
280
     0
  1
15
  0
DICTIONARYVAR
  5
2FB
102
{ACAD_REACTORS
330
34
102
}
330
34
100
DictionaryVariables
280
     0
  1
0
  0
DICTIONARYVAR
  5
2F9
102
{ACAD_REACTORS
330
34
102
}
330
34
100
DictionaryVariables
280
     0
  1
0
  0
DICTIONARY
  5
161B
102
{ACAD_REACTORS
330
49
102
}
330
49
100
AcDbDictionary
281
     1
  0
DICTIONARY
  5
4A
102
{ACAD_REACTORS
330
49
102
}
330
49
100
AcDbDictionary
281
     1
  0
XRECORD
  5
12B
102
{ACAD_REACTORS
330
49
102
}
330
49
100
AcDbXrecord
280
     1
 90
-1023410169
  0
DICTIONARY
  5
2F5
330
122
100
AcDbDictionary
280
     1
281
     1
  3
ACAD_ROUNDTRIP_2008_TABLESTYLE_CELLSTYLEMAP
360
7613
  0
CELLSTYLEMAP
  5
7613
102
{ACAD_REACTORS
330
2F5
102
}
330
2F5
100
AcDbCellStyleMap
 90
        3
300
CELLSTYLE
  1
TABLEFORMAT_BEGIN
 90
        5
170
     1
 91
        0
 92
    32768
 62
   257
 93
        1
300
CONTENTFORMAT
  1
CONTENTFORMAT_BEGIN
 90
        0
 91
        0
 92
      512
 93
        0
300

 40
0.0
140
1.0
 94
        5
 62
     0
340
11
144
6.0
309
CONTENTFORMAT_END
171
     1
301
MARGIN
  1
CELLMARGIN_BEGIN
 40
1.5
 40
1.5
 40
1.5
 40
1.5
 40
0.18
 40
0.18
309
CELLMARGIN_END
 94
        6
 95
        1
302
GRIDFORMAT
  1
GRIDFORMAT_BEGIN
 90
        0
 91
        1
 62
     0
 92
       -2
340
0
 93
        0
 40
0.045
309
GRIDFORMAT_END
 95
        2
302
GRIDFORMAT
  1
GRIDFORMAT_BEGIN
 90
        0
 91
        1
 62
     0
 92
       -2
340
0
 93
        0
 40
0.045
309
GRIDFORMAT_END
 95
        4
302
GRIDFORMAT
  1
GRIDFORMAT_BEGIN
 90
        0
 91
        1
 62
     0
 92
       -2
340
0
 93
        0
 40
0.045
309
GRIDFORMAT_END
 95
        8
302
GRIDFORMAT
  1
GRIDFORMAT_BEGIN
 90
        0
 91
        1
 62
     0
 92
       -2
340
0
 93
        0
 40
0.045
309
GRIDFORMAT_END
 95
       16
302
GRIDFORMAT
  1
GRIDFORMAT_BEGIN
 90
        0
 91
        1
 62
     0
 92
       -2
340
0
 93
        0
 40
0.045
309
GRIDFORMAT_END
 95
       32
302
GRIDFORMAT
  1
GRIDFORMAT_BEGIN
 90
        0
 91
        1
 62
     0
 92
       -2
340
0
 93
        0
 40
0.045
309
GRIDFORMAT_END
309
TABLEFORMAT_END
  1
CELLSTYLE_BEGIN
 90
        1
 91
        1
300
_TITLE
309
CELLSTYLE_END
300
CELLSTYLE
  1
TABLEFORMAT_BEGIN
 90
        5
170
     1
 91
        0
 92
        0
 62
   257
 93
        1
300
CONTENTFORMAT
  1
CONTENTFORMAT_BEGIN
 90
        0
 91
        0
 92
      512
 93
        0
300

 40
0.0
140
1.0
 94
        5
 62
     0
340
11
144
4.5
309
CONTENTFORMAT_END
171
     1
301
MARGIN
  1
CELLMARGIN_BEGIN
 40
1.5
 40
1.5
 40
1.5
 40
1.5
 40
0.18
 40
0.18
309
CELLMARGIN_END
 94
        6
 95
        1
302
GRIDFORMAT
  1
GRIDFORMAT_BEGIN
 90
        0
 91
        1
 62
     0
 92
       -2
340
0
 93
        0
 40
0.045
309
GRIDFORMAT_END
 95
        2
302
GRIDFORMAT
  1
GRIDFORMAT_BEGIN
 90
        0
 91
        1
 62
     0
 92
       -2
340
0
 93
        0
 40
0.045
309
GRIDFORMAT_END
 95
        4
302
GRIDFORMAT
  1
GRIDFORMAT_BEGIN
 90
        0
 91
        1
 62
     0
 92
       -2
340
0
 93
        0
 40
0.045
309
GRIDFORMAT_END
 95
        8
302
GRIDFORMAT
  1
GRIDFORMAT_BEGIN
 90
        0
 91
        1
 62
     0
 92
       -2
340
0
 93
        0
 40
0.045
309
GRIDFORMAT_END
 95
       16
302
GRIDFORMAT
  1
GRIDFORMAT_BEGIN
 90
        0
 91
        1
 62
     0
 92
       -2
340
0
 93
        0
 40
0.045
309
GRIDFORMAT_END
 95
       32
302
GRIDFORMAT
  1
GRIDFORMAT_BEGIN
 90
        0
 91
        1
 62
     0
 92
       -2
340
0
 93
        0
 40
0.045
309
GRIDFORMAT_END
309
TABLEFORMAT_END
  1
CELLSTYLE_BEGIN
 90
        2
 91
        1
300
_HEADER
309
CELLSTYLE_END
300
CELLSTYLE
  1
TABLEFORMAT_BEGIN
 90
        5
170
     1
 91
        0
 92
        0
 62
   257
 93
        1
300
CONTENTFORMAT
  1
CONTENTFORMAT_BEGIN
 90
        0
 91
        0
 92
      512
 93
        0
300

 40
0.0
140
1.0
 94
        2
 62
     0
340
11
144
4.5
309
CONTENTFORMAT_END
171
     1
301
MARGIN
  1
CELLMARGIN_BEGIN
 40
1.5
 40
1.5
 40
1.5
 40
1.5
 40
0.18
 40
0.18
309
CELLMARGIN_END
 94
        6
 95
        1
302
GRIDFORMAT
  1
GRIDFORMAT_BEGIN
 90
        0
 91
        1
 62
     0
 92
       -2
340
0
 93
        0
 40
0.045
309
GRIDFORMAT_END
 95
        2
302
GRIDFORMAT
  1
GRIDFORMAT_BEGIN
 90
        0
 91
        1
 62
     0
 92
       -2
340
0
 93
        0
 40
0.045
309
GRIDFORMAT_END
 95
        4
302
GRIDFORMAT
  1
GRIDFORMAT_BEGIN
 90
        0
 91
        1
 62
     0
 92
       -2
340
0
 93
        0
 40
0.045
309
GRIDFORMAT_END
 95
        8
302
GRIDFORMAT
  1
GRIDFORMAT_BEGIN
 90
        0
 91
        1
 62
     0
 92
       -2
340
0
 93
        0
 40
0.045
309
GRIDFORMAT_END
 95
       16
302
GRIDFORMAT
  1
GRIDFORMAT_BEGIN
 90
        0
 91
        1
 62
     0
 92
       -2
340
0
 93
        0
 40
0.045
309
GRIDFORMAT_END
 95
       32
302
GRIDFORMAT
  1
GRIDFORMAT_BEGIN
 90
        0
 91
        1
 62
     0
 92
       -2
340
0
 93
        0
 40
0.045
309
GRIDFORMAT_END
309
TABLEFORMAT_END
  1
CELLSTYLE_BEGIN
 90
        3
 91
        2
300
_DATA
309
CELLSTYLE_END
  0
ENDSEC
  0
EOF
