  0
SECTION
  2
HEADER
  9
$ACADVER
  1
AC1021
  9
$ACADMAINTVER
 70
    26
  9
$DWGCODEPAGE
  3
ANSI_932
  9
$LASTSAVEDBY
  1
Htm_Terada
  9
$CUSTOMPROPERTYTAG
  1
AmdtFileType
  9
$CUSTOMPROPERTY
  1
84
  9
$INSBASE
 10
0.0
 20
0.0
 30
0.0
  9
$EXTMIN
 10
2241.150767173522
 20
2158.801845617244
 30
0.0
  9
$EXTMAX
 10
4541.402694325772
 20
3633.849940242245
 30
0.0
  9
$LIMMIN
 10
0.0000028715078315
 20
0.0000055407309674
  9
$LIMMAX
 10
6300.000002871508
 20
4455.000005540731
  9
$ORTHOMODE
 70
     1
  9
$REGENMODE
 70
     1
  9
$FILLMODE
 70
     1
  9
$QTEXTMODE
 70
     0
  9
$MIRRTEXT
 70
     1
  9
$LTSCALE
 40
15.0
  9
$ATTMODE
 70
     1
  9
$TEXTSIZE
 40
25.0
  9
$TRACEWID
 40
1.0
  9
$TEXTSTYLE
  7
SEISA
  9
$CLAYER
  8
AM_0 外形線1
  9
$CELTYPE
  6
ByLayer
  9
$CECOLOR
 62
   256
  9
$CELTSCALE
 40
1.0
  9
$DISPSILH
 70
     0
  9
$DIMSCALE
 40
15.0
  9
$DIMASZ
 40
2.5
  9
$DIMEXO
 40
0.625
  9
$DIMDLI
 40
10.0
  9
$DIMRND
 40
0.0
  9
$DIMDLE
 40
0.0
  9
$DIMEXE
 40
0.625
  9
$DIMTP
 40
0.1
  9
$DIMTM
 40
0.1
  9
$DIMTXT
 40
3.5
  9
$DIMCEN
 40
0.0
  9
$DIMTSZ
 40
0.0
  9
$DIMTOL
 70
     0
  9
$DIMLIM
 70
     0
  9
$DIMTIH
 70
     0
  9
$DIMTOH
 70
     0
  9
$DIMSE1
 70
     0
  9
$DIMSE2
 70
     0
  9
$DIMTAD
 70
     3
  9
$DIMZIN
 70
     8
  9
$DIMBLK
  1
Open30
  9
$DIMASO
 70
     1
  9
$DIMSHO
 70
     1
  9
$DIMPOST
  1

  9
$DIMAPOST
  1
"
  9
$DIMALT
 70
     0
  9
$DIMALTD
 70
     2
  9
$DIMALTF
 40
0.0393701
  9
$DIMLFAC
 40
1.0
  9
$DIMTOFL
 70
     1
  9
$DIMTVP
 40
0.0
  9
$DIMTIX
 70
     0
  9
$DIMSOXD
 70
     0
  9
$DIMSAH
 70
     0
  9
$DIMBLK1
  1

  9
$DIMBLK2
  1

  9
$DIMSTYLE
  2
SEISA
  9
$DIMCLRD
 70
     3
  9
$DIMCLRE
 70
     3
  9
$DIMCLRT
 70
     3
  9
$DIMTFAC
 40
0.71
  9
$DIMGAP
 40
1.5
  9
$DIMJUST
 70
     0
  9
$DIMSD1
 70
     0
  9
$DIMSD2
 70
     0
  9
$DIMTOLJ
 70
     0
  9
$DIMTZIN
 70
     0
  9
$DIMALTZ
 70
     0
  9
$DIMALTTZ
 70
     8
  9
$DIMUPT
 70
     0
  9
$DIMDEC
 70
     2
  9
$DIMTDEC
 70
     2
  9
$DIMALTU
 70
     2
  9
$DIMALTTD
 70
     2
  9
$DIMTXSTY
  7
SEISA
  9
$DIMAUNIT
 70
     0
  9
$DIMADEC
 70
     0
  9
$DIMALTRND
 40
0.0
  9
$DIMAZIN
 70
     2
  9
$DIMDSEP
 70
    46
  9
$DIMATFIT
 70
     3
  9
$DIMFRAC
 70
     0
  9
$DIMLDRBLK
  1
Open30
  9
$DIMLUNIT
 70
     2
  9
$DIMLWD
 70
    -1
  9
$DIMLWE
 70
    -1
  9
$DIMTMOVE
 70
     0
  9
$DIMFXL
 40
1.0
  9
$DIMFXLON
 70
     0
  9
$DIMJOGANG
 40
0.7853981633974483
  9
$DIMTFILL
 70
     0
  9
$DIMTFILLCLR
 70
     0
  9
$DIMARCSYM
 70
     1
  9
$DIMLTYPE
  6

  9
$DIMLTEX1
  6

  9
$DIMLTEX2
  6

  9
$LUNITS
 70
     2
  9
$LUPREC
 70
     2
  9
$SKETCHINC
 40
1.0
  9
$FILLETRAD
 40
2.5
  9
$AUNITS
 70
     0
  9
$AUPREC
 70
     0
  9
$MENU
  1
.
  9
$ELEVATION
 40
0.0
  9
$PELEVATION
 40
0.0
  9
$THICKNESS
 40
0.0
  9
$LIMCHECK
 70
     0
  9
$CHAMFERA
 40
14.99999999999954
  9
$CHAMFERB
 40
15.0
  9
$CHAMFERC
 40
14.99999999999954
  9
$CHAMFERD
 40
0.7853981633974483
  9
$SKPOLY
 70
     0
  9
$TDCREATE
 40
2454939.513503356
  9
$TDUCREATE
 40
2454939.138503356
  9
$TDUPDATE
 40
2456479.694735602
  9
$TDUUPDATE
 40
2456479.319735602
  9
$TDINDWG
 40
0.2649456366
  9
$TDUSRTIMER
 40
0.2649442014
  9
$USRTIMER
 70
     1
  9
$ANGBASE
 50
0.0
  9
$ANGDIR
 70
     0
  9
$PDMODE
 70
     0
  9
$PDSIZE
 40
0.0
  9
$PLINEWID
 40
0.0
  9
$SPLFRAME
 70
     0
  9
$SPLINETYPE
 70
     6
  9
$SPLINESEGS
 70
     8
  9
$HANDSEED
  5
80C2
  9
$SURFTAB1
 70
     6
  9
$SURFTAB2
 70
     6
  9
$SURFTYPE
 70
     6
  9
$SURFU
 70
     6
  9
$SURFV
 70
     6
  9
$UCSBASE
  2

  9
$UCSNAME
  2

  9
$UCSORG
 10
0.0
 20
0.0
 30
0.0
  9
$UCSXDIR
 10
1.0
 20
0.0
 30
0.0
  9
$UCSYDIR
 10
0.0
 20
1.0
 30
0.0
  9
$UCSORTHOREF
  2

  9
$UCSORTHOVIEW
 70
     0
  9
$UCSORGTOP
 10
0.0
 20
0.0
 30
0.0
  9
$UCSORGBOTTOM
 10
0.0
 20
0.0
 30
0.0
  9
$UCSORGLEFT
 10
0.0
 20
0.0
 30
0.0
  9
$UCSORGRIGHT
 10
0.0
 20
0.0
 30
0.0
  9
$UCSORGFRONT
 10
0.0
 20
0.0
 30
0.0
  9
$UCSORGBACK
 10
0.0
 20
0.0
 30
0.0
  9
$PUCSBASE
  2

  9
$PUCSNAME
  2

  9
$PUCSORG
 10
0.0
 20
0.0
 30
0.0
  9
$PUCSXDIR
 10
1.0
 20
0.0
 30
0.0
  9
$PUCSYDIR
 10
0.0
 20
1.0
 30
0.0
  9
$PUCSORTHOREF
  2

  9
$PUCSORTHOVIEW
 70
     0
  9
$PUCSORGTOP
 10
0.0
 20
0.0
 30
0.0
  9
$PUCSORGBOTTOM
 10
0.0
 20
0.0
 30
0.0
  9
$PUCSORGLEFT
 10
0.0
 20
0.0
 30
0.0
  9
$PUCSORGRIGHT
 10
0.0
 20
0.0
 30
0.0
  9
$PUCSORGFRONT
 10
0.0
 20
0.0
 30
0.0
  9
$PUCSORGBACK
 10
0.0
 20
0.0
 30
0.0
  9
$USERI1
 70
     0
  9
$USERI2
 70
     0
  9
$USERI3
 70
     0
  9
$USERI4
 70
     0
  9
$USERI5
 70
     0
  9
$USERR1
 40
0.0
  9
$USERR2
 40
0.0
  9
$USERR3
 40
0.0
  9
$USERR4
 40
0.0
  9
$USERR5
 40
0.0
  9
$WORLDVIEW
 70
     1
  9
$SHADEDGE
 70
     3
  9
$SHADEDIF
 70
    70
  9
$TILEMODE
 70
     1
  9
$MAXACTVP
 70
    64
  9
$PINSBASE
 10
0.0
 20
0.0
 30
0.0
  9
$PLIMCHECK
 70
     0
  9
$PEXTMIN
 10
1.000000000000000E+20
 20
1.000000000000000E+20
 30
1.000000000000000E+20
  9
$PEXTMAX
 10
-1.000000000000000E+20
 20
-1.000000000000000E+20
 30
-1.000000000000000E+20
  9
$PLIMMIN
 10
0.0
 20
0.0
  9
$PLIMMAX
 10
420.0
 20
297.0
  9
$UNITMODE
 70
     0
  9
$VISRETAIN
 70
     1
  9
$PLINEGEN
 70
     0
  9
$PSLTSCALE
 70
     1
  9
$TREEDEPTH
 70
  3020
  9
$CMLSTYLE
  2
Standard
  9
$CMLJUST
 70
     0
  9
$CMLSCALE
 40
20.0
  9
$PROXYGRAPHICS
 70
     1
  9
$MEASUREMENT
 70
     1
  9
$CELWEIGHT
370
    -1
  9
$ENDCAPS
280
     0
  9
$JOINSTYLE
280
     0
  9
$LWDISPLAY
290
     0
  9
$INSUNITS
 70
     4
  9
$HYPERLINKBASE
  1

  9
$STYLESHEET
  1
SEISA.CTB
  9
$XEDIT
290
     1
  9
$CEPSNTYPE
380
     0
  9
$PSTYLEMODE
290
     1
  9
$FINGERPRINTGUID
  2
{13C37D2B-4128-4C92-BE44-9216D58AF5E7}
  9
$VERSIONGUID
  2
{D6AAD2E9-7D8E-4E7F-9769-6B8FE801EC70}
  9
$EXTNAMES
290
     1
  9
$PSVPSCALE
 40
0.0
  9
$OLESTARTUP
290
     0
  9
$SORTENTS
280
   127
  9
$INDEXCTL
280
     0
  9
$HIDETEXT
280
     0
  9
$XCLIPFRAME
290
     0
  9
$HALOGAP
280
     0
  9
$OBSCOLOR
 70
   257
  9
$OBSLTYPE
280
     0
  9
$INTERSECTIONDISPLAY
280
     0
  9
$INTERSECTIONCOLOR
 70
   257
  9
$DIMASSOC
280
     2
  9
$PROJECTNAME
  1

  9
$CAMERADISPLAY
290
     0
  9
$LENSLENGTH
 40
50.0
  9
$CAMERAHEIGHT
 40
0.0
  9
$STEPSPERSEC
 40
2.0
  9
$STEPSIZE
 40
6.0
  9
$3DDWFPREC
 40
2.0
  9
$PSOLWIDTH
 40
0.25
  9
$PSOLHEIGHT
 40
4.0
  9
$LOFTANG1
 40
1.570796326794896
  9
$LOFTANG2
 40
1.570796326794896
  9
$LOFTMAG1
 40
0.0
  9
$LOFTMAG2
 40
0.0
  9
$LOFTPARAM
 70
     7
  9
$LOFTNORMALS
280
     1
  9
$LATITUDE
 40
37.795
  9
$LONGITUDE
 40
-122.394
  9
$NORTHDIRECTION
 40
0.0
  9
$TIMEZONE
 70
 -8000
  9
$LIGHTGLYPHDISPLAY
280
     1
  9
$TILEMODELIGHTSYNCH
280
     1
  9
$CMATERIAL
347
27C
  9
$SOLIDHIST
280
     1
  9
$SHOWHIST
280
     1
  9
$DWFFRAME
280
     2
  9
$DGNFRAME
280
     0
  9
$REALWORLDSCALE
290
     1
  9
$INTERFERECOLOR
 62
     1
  9
$INTERFEREOBJVS
345
289
  9
$INTERFEREVPVS
346
286
  9
$CSHADOW
280
     0
  9
$SHADOWPLANELOCATION
 40
0.0
  0
ENDSEC
  0
SECTION
  2
CLASSES
  0
CLASS
  1
ACDBDICTIONARYWDFLT
  2
AcDbDictionaryWithDefault
  3
ObjectDBX Classes
 90
        0
 91
        1
280
     0
281
     0
  0
CLASS
  1
AMGSETTINGSOBJ
  2
AmgSettingsObj
  3
"AcadM|Product Description: AutoCAD Mechanical|Company: Autodesk, Inc."
 90
     1024
 91
        2
280
     0
281
     0
  0
CLASS
  1
ACME_DOCUMENT
  2
AcMeDbDoc
  3
AcMeServices
 90
     1024
 91
        1
280
     0
281
     0
  0
CLASS
  1
ACMESCOPE
  2
AcMeScope
  3
AcMeServices
 90
     1024
 91
        1
280
     0
281
     0
  0
CLASS
  1
ACMECOMMANDHISTORY
  2
AcMeCommandHistory
  3
AcMeServices
 90
     1024
 91
        1
280
     0
281
     0
  0
CLASS
  1
DICTIONARYVAR
  2
AcDbDictionaryVar
  3
ObjectDBX Classes
 90
        0
 91
        9
280
     0
281
     0
  0
CLASS
  1
ACIMSYSVARMAN
  2
AcImSysVarManager
  3
AcMeServices
 90
     1024
 91
        5
280
     0
281
     0
  0
CLASS
  1
ACIMREALSYSVAR
  2
AcImRealSysVar
  3
AcMeServices
 90
     1024
 91
        1
280
     0
281
     0
  0
CLASS
  1
ACIMINTSYSVAR
  2
AcImIntSysVar
  3
AcMeServices
 90
     1024
 91
       27
280
     0
281
     0
  0
CLASS
  1
ACMEDRAWINGMAN
  2
AcMeDrawingMan
  3
AcMeServices
 90
     1024
 91
        1
280
     0
281
     0
  0
CLASS
  1
ACMEVIEW
  2
AcMeView
  3
AcMeServices
 90
     1024
 91
        1
280
     0
281
     0
  0
CLASS
  1
ACDBENTITYCACHE
  2
AcMeEntityCache
  3
AcMeServices
 90
     1024
 91
        1
280
     0
281
     0
  0
CLASS
  1
GSMANAGER
  2
AcMeGSManager
  3
AcMeServices
 90
     1024
 91
        1
280
     0
281
     0
  0
CLASS
  1
AMDTINTERNALREACTOR
  2
AmdtInternalReactor
  3
AcMeServices
 90
     1024
 91
        2
280
     0
281
     0
  0
CLASS
  1
ACMESTATEMGR
  2
AcMeStateMgr
  3
AcMeServices
 90
     1024
 91
        1
280
     0
281
     0
  0
CLASS
  1
ACGREFMASTER
  2
AcGrefMaster
  3
AcAttribServices
 90
     1024
 91
        1
280
     0
281
     0
  0
CLASS
  1
ACME_DATABASE
  2
AcMeDbDatabase
  3
AcMeServices
 90
     1024
 91
        1
280
     0
281
     0
  0
CLASS
  1
ACRFINSADJUSTERMGR
  2
AcRfInsAdjusterMgr
  3
AcMeServices
 90
     1024
 91
        1
280
     0
281
     0
  0
CLASS
  1
ACGREFACADMASTER
  2
AcGrefacadMaster
  3
AcGrefServices
 90
     1024
 91
        1
280
     0
281
     0
  0
CLASS
  1
AMIMASTER
  2
AmiMaster
  3
AmiServices
 90
     1024
 91
        1
280
     0
281
     0
  0
CLASS
  1
ACIMSTRSYSVAR
  2
AcImStrSysVar
  3
AcMeServices
 90
     1024
 91
        5
280
     0
281
     0
  0
CLASS
  1
ACMSTANDARDJIS
  2
AcmStandardJIS
  3
"Amdt_StdImp|Product Description: AutoCAD Mechanical|Company: Autodesk, Inc."
 90
     1024
 91
        0
280
     0
281
     0
  0
CLASS
  1
AMGOBJPROPCFG
  2
AmgObjPropCfg
  3
"AmgLay|Product Description: AutoCAD Mechanical|Company: Autodesk, Inc."
 90
     1025
 91
        1
280
     0
281
     0
  0
CLASS
  1
ACMSURFSTANDARDJIS
  2
AcmSurfTextStdJIS
  3
"Amdt_StdImp|Product Description: AutoCAD Mechanical|Company: Autodesk, Inc."
 90
     1024
 91
        0
280
     0
281
     0
  0
CLASS
  1
ACMFCFSTANDARDJIS
  2
AcmFCFStdJIS
  3
"Amdt_StdImp|Product Description: AutoCAD Mechanical|Company: Autodesk, Inc."
 90
     1024
 91
        0
280
     0
281
     0
  0
CLASS
  1
ACMWELDSTANDARDJIS
  2
AcmWeldingStdJIS
  3
"Amdt_StdImp|Product Description: AutoCAD Mechanical|Company: Autodesk, Inc."
 90
     1024
 91
        0
280
     0
281
     0
  0
CLASS
  1
ACMIDSTANDARDJIS
  2
AcmIdStdJIS
  3
"Amdt_StdImp|Product Description: AutoCAD Mechanical|Company: Autodesk, Inc."
 90
     1024
 91
        0
280
     0
281
     0
  0
CLASS
  1
ACMDATUMSTANDARDJIS
  2
AcmDatumStdJIS
  3
"Amdt_StdImp|Product Description: AutoCAD Mechanical|Company: Autodesk, Inc."
 90
     1024
 91
        0
280
     0
281
     0
  0
CLASS
  1
ACMBOMSTANDARDJIS
  2
AcmBOMStdJIS
  3
"Amdt_StdImp|Product Description: AutoCAD Mechanical|Company: Autodesk, Inc."
 90
     1024
 91
        0
280
     0
281
     0
  0
CLASS
  1
ACMDETAILSTANDARDJIS
  2
AmdtDetailSymStdJIS
  3
"Amdt_StdImp|Product Description: AutoCAD Mechanical|Company: Autodesk, Inc."
 90
     1024
 91
        0
280
     0
281
     0
  0
CLASS
  1
ACMSECTIONSTANDARDJIS
  2
AmdtSectionSymStdJIS
  3
"Amdt_StdImp|Product Description: AutoCAD Mechanical|Company: Autodesk, Inc."
 90
     1024
 91
        0
280
     0
281
     0
  0
CLASS
  1
ACMCENTERLINESTANDARDJIS
  2
AmdtCenterLineStdJIS
  3
"Amdt_StdImp|Product Description: AutoCAD Mechanical|Company: Autodesk, Inc."
 90
     1024
 91
        0
280
     0
281
     0
  0
CLASS
  1
ACMTHREADLINESTANDARDJIS
  2
AmdtThreadLineStdJIS
  3
"Amdt_StdImp|Product Description: AutoCAD Mechanical|Company: Autodesk, Inc."
 90
     1024
 91
        0
280
     0
281
     0
  0
CLASS
  1
ACAMGLAYSTD
  2
AcAmgLayStd
  3
"AmgLay|Product Description: AutoCAD Mechanical|Company: Autodesk, Inc."
 90
     1024
 91
        1
280
     0
281
     0
  0
CLASS
  1
ACAMGDIMSTD
  2
AcAmgDimStd
  3
"AmgDim|Product Description: AutoCAD Mechanical|Company: Autodesk, Inc."
 90
     1024
 91
        1
280
     0
281
     0
  0
CLASS
  1
ACAMGTITLESTD
  2
AcAmgTitleStd
  3
"AmgTitle|Product Description: AutoCAD Mechanical|Company: Autodesk, Inc."
 90
     4095
 91
        1
280
     0
281
     0
  0
CLASS
  1
ACMDATADICTIONARY
  2
AcmDataDictionary
  3
"AcmSymBB|Product Description: AutoCAD Mechanical|Company: Autodesk, Inc."
 90
     1024
 91
        1
280
     0
281
     0
  0
CLASS
  1
ACMDATAENTRYBLOCK
  2
AcmDataEntryBlock
  3
AcmSymBB|Product Description: AutoCAD Mechanical|Company: Autodesk, Inc.
 90
     1024
 91
        0
280
     0
281
     0
  0
CLASS
  1
LAYER_INDEX
  2
AcDbLayerIndex
  3
ObjectDBX Classes
 90
        0
 91
        0
280
     0
281
     0
  0
CLASS
  1
IDBUFFER
  2
AcDbIdBuffer
  3
ObjectDBX Classes
 90
        0
 91
        0
280
     0
281
     0
  0
CLASS
  1
ACMNOTESTANDARDJIS
  2
AmdtNoteStdJIS
  3
"Amdt_StdImp|Product Description: AutoCAD Mechanical|Company: Autodesk, Inc."
 90
     1024
 91
        0
280
     0
281
     0
  0
CLASS
  1
ACAMGHOLECHARTSTDJIS
  2
AcAmgHoleChartStdJIS
  3
AmgDim|Product Description: AutoCAD Mechanical|Company: Autodesk, Inc.
 90
     1024
 91
        0
280
     0
281
     0
  0
CLASS
  1
AM_DRAWING_MGR
  2
AcDmDwgMgr
  3
AcMechDwgViewMgmt
 90
     1024
 91
        1
280
     0
281
     0
  0
CLASS
  1
AM_DWG_DOCUMENT
  2
AcDmDwgDocument
  3
AcMechDwgViewMgmt
 90
     1024
 91
        1
280
     0
281
     0
  0
CLASS
  1
AM_DWG_SHEET
  2
AcDmSheet
  3
AcMechDwgViewMgmt
 90
     1024
 91
        2
280
     0
281
     0
  0
CLASS
  1
AM_VIEWDIMPARMAP
  2
AcDmViewDimParMap
  3
AcMechDwgViewMgmt
 90
     1024
 91
        2
280
     0
281
     0
  0
CLASS
  1
AM_DWGMGR_NAME
  2
AcDmDwgMgrName
  3
AcMechDwgViewMgmt
 90
     1024
 91
        1
280
     0
281
     0
  0
CLASS
  1
AMDTMENUSTATEMGR
  2
AmdtMenuStateMgr
  3
McadcomServices
 90
     1024
 91
        1
280
     0
281
     0
  0
CLASS
  1
AMDTMCOMMENUSTATE
  2
AmdtMcomMenuState
  3
McadcomServices
 90
     1024
 91
        1
280
     0
281
     0
  0
CLASS
  1
MAPIAMMOUDLE
  2
MApiAmModule
  3
MApiAmServices
 90
     1024
 91
        1
280
     0
281
     0
  0
CLASS
  1
AMDTADMENUSTATE
  2
AmdtAdMenuState
  3
DesignerServices
 90
     1024
 91
        1
280
     0
281
     0
  0
CLASS
  1
ADAPPL
  2
AcAdAppl
  3
DesignerServices
 90
     1024
 91
        1
280
     0
281
     0
  0
CLASS
  1
DEPMGR
  2
AcAdDepMgr
  3
DesignerServices
 90
     1024
 91
        1
280
     0
281
     0
  0
CLASS
  1
PARAMMGR
  2
AcAdParamMgr
  3
DesignerServices
 90
     1024
 91
        1
280
     0
281
     0
  0
CLASS
  1
PARAMSCOPE
  2
AcAdParamScope
  3
DesignerServices
 90
     1024
 91
        1
280
     0
281
     0
  0
CLASS
  1
NAMEDAPPL
  2
AcAdNamedAppl
  3
DesignerServices
 90
     1024
 91
        1
280
     0
281
     0
  0
CLASS
  1
AMDTDMMENUSTATE
  2
AmdtDmMenuState
  3
AcMechDwgViewMgmt
 90
     1024
 91
        1
280
     0
281
     0
  0
CLASS
  1
AMDTAMMENUSTATE
  2
AmdtAmMenuState
  3
DesignerAssemblies
 90
     1024
 91
        1
280
     0
281
     0
  0
CLASS
  1
ACAMPROJECT
  2
AcAmProject
  3
DesignerAssemblies
 90
     1024
 91
        1
280
     0
281
     0
  0
CLASS
  1
ACAMGRCOMPDEF
  2
AcAmGrCompDef
  3
DesignerAssemblies
 90
     1024
 91
        1
280
     0
281
     0
  0
CLASS
  1
ACCMCONTEXT
  2
AcCmContext
  3
DesignerAssemblies
 90
     1024
 91
        1
280
     0
281
     0
  0
CLASS
  1
ACAMCOMPDEF
  2
AcAmCompDef
  3
DesignerAssemblies
 90
     1024
 91
        1
280
     0
281
     0
  0
CLASS
  1
ACAMCOMPDEFMGR
  2
AcAmCompDefMgr
  3
DesignerAssemblies
 90
     1024
 91
        1
280
     0
281
     0
  0
CLASS
  1
AMCONTEXTMGR
  2
AcAmContextMgr
  3
DesignerAssemblies
 90
     1024
 91
        1
280
     0
281
     0
  0
CLASS
  1
ACAMCONTEXTMODELER
  2
AcAmContextModeler
  3
DesignerAssemblies
 90
     1024
 91
        1
280
     0
281
     0
  0
CLASS
  1
CATALOGSTATE
  2
AcAmCatalogState
  3
DesignerAssemblies
 90
     1024
 91
        1
280
     0
281
     0
  0
CLASS
  1
ACAMGRCOMPDEFSET
  2
AcAmGrCompDefSet
  3
DesignerAssemblies
 90
     1024
 91
        1
280
     0
281
     0
  0
CLASS
  1
AMDTBROWSERDBTAB
  2
AmdtBrowserDbTab
  3
McadcomServices
 90
     1024
 91
        1
280
     0
281
     0
  0
CLASS
  1
CBROWSERAPPOBJECT
  2
CBrowserAppObject
  3
McadcomServices
 90
     1024
 91
        3
280
     0
281
     0
  0
CLASS
  1
DM_PLACEHOLDER
  2
AcDmSelsetPlaceholder
  3
AcMechDwgViewMgmt
 90
     1024
 91
        1
280
     0
281
     0
  0
CLASS
  1
TABLESTYLE
  2
AcDbTableStyle
  3
ObjectDBX Classes
 90
     4095
 91
        1
280
     0
281
     0
  0
CLASS
  1
VAACXREFPANELOBJECT
  2
VaAcXREFPanelObject
  3
VAAC_ADDIN
 90
        0
 91
        0
280
     0
281
     0
  0
CLASS
  1
VAACIMAGEINVENTORY
  2
VaAcImageInventory
  3
VAAC_ADDIN
 90
        0
 91
        0
280
     0
281
     0
  0
CLASS
  1
AMDTNOTETEMPLATEDB
  2
AmdtNoteTemplateDB
  3
AcmSymBB|Product Description: AutoCAD Mechanical|Company: Autodesk, Inc.
 90
     1024
 91
        6
280
     0
281
     0
  0
CLASS
  1
ACAMGFILTERDAT
  2
AcAmgFilterDat
  3
"AcadM|Product Description: AutoCAD Mechanical|Company: Autodesk, Inc."
 90
     1024
 91
        0
280
     0
281
     0
  0
CLASS
  1
MATERIAL
  2
AcDbMaterial
  3
ObjectDBX Classes
 90
     1153
 91
        3
280
     0
281
     0
  0
CLASS
  1
VISUALSTYLE
  2
AcDbVisualStyle
  3
ObjectDBX Classes
 90
     4095
 91
       16
280
     0
281
     0
  0
CLASS
  1
ACRFATTGENMGR
  2
AcRfAttGeneralMgr
  3
AcAttribServices
 90
     1024
 91
        0
280
     0
281
     0
  0
CLASS
  1
ACRFOBJATTMGR
  2
AcRfObjAttGroupMgr
  3
AcAttribServices
 90
     1024
 91
        0
280
     0
281
     0
  0
CLASS
  1
ACRFMCADAPIATTHOLDER
  2
AcRfMCADAPIAttHolder
  3
AcAttribServices
 90
     1024
 91
        0
280
     0
281
     0
  0
CLASS
  1
AMDTSYSATTR
  2
AmdtSystemAttribute
  3
AcAttribServices
 90
     1024
 91
        0
280
     0
281
     0
  0
CLASS
  1
ACMTAPERSTANDARDJIS
  2
AcmTaperStdJIS
  3
"Amdt_StdImp|Product Description: AutoCAD Mechanical|Company: Autodesk, Inc."
 90
     1024
 91
        0
280
     0
281
     0
  0
CLASS
  1
CAMSSTRUCTBTNSTATE
  2
StructBtnState
  3
DesignerAssemblies
 90
     1024
 91
        0
280
     0
281
     0
  0
CLASS
  1
SCALE
  2
AcDbScale
  3
ObjectDBX Classes
 90
     1153
 91
       38
280
     0
281
     0
  0
CLASS
  1
MLEADERSTYLE
  2
AcDbMLeaderStyle
  3
ACDB_MLEADERSTYLE_CLASS
 90
     4095
 91
        1
280
     0
281
     0
  0
CLASS
  1
ACMANOOTATIONVIEWSTANDARDJIS
  2
AmdtAnViewStdJIS
  3
"Amdt_StdImp|Product Description: AutoCAD Mechanical|Company: Autodesk, Inc."
 90
     1024
 91
        0
280
     0
281
     0
  0
CLASS
  1
ACMSURFSTANDARDJIS2003
  2
AcmSurfTextStdJIS2003
  3
"Amdt_StdImp|Product Description: AutoCAD Mechanical|Company: Autodesk, Inc."
 90
     1024
 91
        0
280
     0
281
     0
  0
CLASS
  1
CELLSTYLEMAP
  2
AcDbCellStyleMap
  3
ObjectDBX Classes
 90
     1152
 91
        2
280
     0
281
     0
  0
CLASS
  1
ACMFCFSTANDARDJIS98
  2
AcmFCFStdJIS98
  3
"Amdt_StdImp|Product Description: AutoCAD Mechanical|Company: Autodesk, Inc."
 90
     1024
 91
        0
280
     0
281
     0
  0
CLASS
  1
SORTENTSTABLE
  2
AcDbSortentsTable
  3
ObjectDBX Classes
 90
        0
 91
       13
280
     0
281
     0
  0
CLASS
  1
DIMASSOC
  2
AcDbDimAssoc
  3
"AcDbDimAssoc|Product Desc:     AcDim ARX App For Dimension|Company:          Autodesk, Inc.|WEB Address:      www.autodesk.com"
 90
        0
 91
       14
280
     0
281
     0
  0
CLASS
  1
STDPART2D
  2
AmgStdPart
  3
AmgStdPart|Product Description: AutoCAD Mechanical|Company: Autodesk, Inc.
 90
     4095
 91
        0
280
     0
281
     1
  0
CLASS
  1
ACMDATAENTRYPART
  2
AcmDataEntryPart
  3
AcmSymBB|Product Description: AutoCAD Mechanical|Company: Autodesk, Inc.
 90
     1024
 91
        0
280
     0
281
     0
  0
CLASS
  1
ACMPARTREF
  2
AcmPartRef
  3
"AcmSymBB|Product Description: AutoCAD Mechanical|Company: Autodesk, Inc."
 90
     4095
 91
        0
280
     0
281
     1
  0
CLASS
  1
ACDBSTDPARTRES_LINE
  2
AcDbStdPartRes_Line
  3
AmgStdPart|Product Description: AutoCAD Mechanical|Company: Autodesk, Inc.
 90
     1024
 91
        0
280
     0
281
     0
  0
CLASS
  1
ACMBOM
  2
AcmBom
  3
"AcmSymBB|Product Description: AutoCAD Mechanical|Company: Autodesk, Inc."
 90
     1024
 91
        0
280
     0
281
     0
  0
CLASS
  1
AMDTFORMULAUPDATEDISPATCHER
  2
AmdtFormulaUpdateDispatcher
  3
AcMeServices
 90
     1024
 91
        0
280
     0
281
     0
  0
CLASS
  1
ACMBOMROW
  2
AcmBomRow
  3
"AcmSymBB|Product Description: AutoCAD Mechanical|Company: Autodesk, Inc."
 90
     1024
 91
        0
280
     0
281
     0
  0
CLASS
  1
ACMPARTLIST
  2
AcmPartList
  3
"AcmSymBB|Product Description: AutoCAD Mechanical|Company: Autodesk, Inc."
 90
     4095
 91
        0
280
     0
281
     1
  0
CLASS
  1
ACDBLINERES
  2
AcDbLineRes
  3
AcGrefServices
 90
     1024
 91
        0
280
     0
281
     0
  0
CLASS
  1
ACRFINSADJ
  2
AcRfInsAdjuster
  3
AcMeServices
 90
     1024
 91
        0
280
     0
281
     0
  0
CLASS
  1
ACMSTANDARDISO
  2
AcmStandardISO
  3
"Amdt_StdImp|Product Description: AutoCAD Mechanical|Company: Autodesk, Inc."
 90
     1024
 91
        1
280
     0
281
     0
  0
CLASS
  1
AMDTEDGESTANDARDISO13715
  2
AmdtEdgeStdISO13715
  3
"Amdt_StdImp|Product Description: AutoCAD Mechanical|Company: Autodesk, Inc."
 90
     1024
 91
        1
280
     0
281
     0
  0
CLASS
  1
ACMSURFSTANDARDISO2002
  2
AcmSurfTextStdISO2002
  3
"Amdt_StdImp|Product Description: AutoCAD Mechanical|Company: Autodesk, Inc."
 90
     1024
 91
        1
280
     0
281
     0
  0
CLASS
  1
ACMFCFSTANDARDISO
  2
AcmFCFStdISO
  3
"Amdt_StdImp|Product Description: AutoCAD Mechanical|Company: Autodesk, Inc."
 90
     1024
 91
        1
280
     0
281
     0
  0
CLASS
  1
ACMWELDSTANDARDISO
  2
AcmWeldingStdISO
  3
"Amdt_StdImp|Product Description: AutoCAD Mechanical|Company: Autodesk, Inc."
 90
     1024
 91
        1
280
     0
281
     0
  0
CLASS
  1
ACMIDSTANDARDISO
  2
AcmIdStdISO
  3
"Amdt_StdImp|Product Description: AutoCAD Mechanical|Company: Autodesk, Inc."
 90
     1024
 91
        1
280
     0
281
     0
  0
CLASS
  1
ACMDATUMSTANDARDISO
  2
AcmDatumStdISO
  3
"Amdt_StdImp|Product Description: AutoCAD Mechanical|Company: Autodesk, Inc."
 90
     1024
 91
        1
280
     0
281
     0
  0
CLASS
  1
ACMBOMSTANDARDISO
  2
AcmBOMStdISO
  3
"Amdt_StdImp|Product Description: AutoCAD Mechanical|Company: Autodesk, Inc."
 90
     1024
 91
        1
280
     0
281
     0
  0
CLASS
  1
ACMDETAILSTANDARDISO
  2
AmdtDetailSymStdISO
  3
"Amdt_StdImp|Product Description: AutoCAD Mechanical|Company: Autodesk, Inc."
 90
     1024
 91
        1
280
     0
281
     0
  0
CLASS
  1
ACMSECTIONSTANDARDISO2001
  2
AmdtSectionSymStdISO2001
  3
"Amdt_StdImp|Product Description: AutoCAD Mechanical|Company: Autodesk, Inc."
 90
     1024
 91
        1
280
     0
281
     0
  0
CLASS
  1
ACMCENTERLINESTANDARDISO
  2
AmdtCenterLineStdISO
  3
"Amdt_StdImp|Product Description: AutoCAD Mechanical|Company: Autodesk, Inc."
 90
     1024
 91
        1
280
     0
281
     0
  0
CLASS
  1
ACMTHREADLINESTANDARDISO
  2
AmdtThreadLineStdISO
  3
"Amdt_StdImp|Product Description: AutoCAD Mechanical|Company: Autodesk, Inc."
 90
     1024
 91
        1
280
     0
281
     0
  0
CLASS
  1
ACMNOTESTANDARDISO
  2
AmdtNoteStdISO
  3
"Amdt_StdImp|Product Description: AutoCAD Mechanical|Company: Autodesk, Inc."
 90
     1024
 91
        1
280
     0
281
     0
  0
CLASS
  1
ACMTAPERSTANDARDISO
  2
AcmTaperStdISO
  3
"Amdt_StdImp|Product Description: AutoCAD Mechanical|Company: Autodesk, Inc."
 90
     1024
 91
        1
280
     0
281
     0
  0
CLASS
  1
ACMANOOTATIONVIEWSTANDARDISO
  2
AmdtAnViewStdISO
  3
"Amdt_StdImp|Product Description: AutoCAD Mechanical|Company: Autodesk, Inc."
 90
     1024
 91
        1
280
     0
281
     0
  0
CLASS
  1
ACAMGHOLECHARTSTDISO
  2
AcAmgHoleChartStdISO
  3
AmgDim|Product Description: AutoCAD Mechanical|Company: Autodesk, Inc.
 90
     1024
 91
        1
280
     0
281
     0
  0
CLASS
  1
EXACXREFPANELOBJECT
  2
ExAcXREFPanelObject
  3
EXAC_ESW
 90
     1025
 91
        0
280
     0
281
     0
  0
CLASS
  1
NPOCOLLECTION
  2
AcDbImpNonPersistentObjectsCollection
  3
ObjectDBX Classes
 90
     1153
 91
        0
280
     0
281
     0
  0
CLASS
  1
ACDBSTDPARTRES_ARC
  2
AcDbStdPartRes_Arc
  3
AmgStdPart|Product Description: AutoCAD Mechanical|Company: Autodesk, Inc.
 90
     1024
 91
        0
280
     0
281
     0
  0
CLASS
  1
AMDTNOTE
  2
AmdtNote
  3
"AcmSymBB|Product Description: AutoCAD Mechanical|Company: Autodesk, Inc."
 90
     4095
 91
        0
280
     0
281
     1
  0
CLASS
  1
PLOTSETTINGS
  2
AcDbPlotSettings
  3
ObjectDBX Classes
 90
        0
 91
        1
280
     0
281
     0
  0
CLASS
  1
ACMSTANDARDANSI
  2
AcmStandardANSI
  3
"Amdt_StdImp|Product Description: AutoCAD Mechanical|Company: Autodesk, Inc."
 90
     1024
 91
        0
280
     0
281
     0
  0
CLASS
  1
ACMSURFSTANDARDANSI
  2
AcmSurfTextStdANSI
  3
"Amdt_StdImp|Product Description: AutoCAD Mechanical|Company: Autodesk, Inc."
 90
     1024
 91
        0
280
     0
281
     0
  0
CLASS
  1
ACMFCFSTANDARDANSI
  2
AcmFCFStdANSI
  3
"Amdt_StdImp|Product Description: AutoCAD Mechanical|Company: Autodesk, Inc."
 90
     1024
 91
        0
280
     0
281
     0
  0
CLASS
  1
ACMWELDSTANDARDANSI
  2
AcmWeldingStdANSI
  3
"Amdt_StdImp|Product Description: AutoCAD Mechanical|Company: Autodesk, Inc."
 90
     1024
 91
        0
280
     0
281
     0
  0
CLASS
  1
ACMIDSTANDARDANSI
  2
AcmIdStdANSI
  3
"Amdt_StdImp|Product Description: AutoCAD Mechanical|Company: Autodesk, Inc."
 90
     1024
 91
        0
280
     0
281
     0
  0
CLASS
  1
ACMDATUMSTANDARDANSI
  2
AcmDatumStdANSI
  3
"Amdt_StdImp|Product Description: AutoCAD Mechanical|Company: Autodesk, Inc."
 90
     1024
 91
        0
280
     0
281
     0
  0
CLASS
  1
ACMBOMSTANDARDANSI
  2
AcmBOMStdANSI
  3
"Amdt_StdImp|Product Description: AutoCAD Mechanical|Company: Autodesk, Inc."
 90
     1024
 91
        0
280
     0
281
     0
  0
CLASS
  1
ACMDETAILSTANDARDANSI
  2
AmdtDetailSymStdANSI
  3
"Amdt_StdImp|Product Description: AutoCAD Mechanical|Company: Autodesk, Inc."
 90
     1024
 91
        0
280
     0
281
     0
  0
CLASS
  1
ACMSECTIONSTANDARDANSI
  2
AmdtSectionSymStdANSI
  3
"Amdt_StdImp|Product Description: AutoCAD Mechanical|Company: Autodesk, Inc."
 90
     1024
 91
        0
280
     0
281
     0
  0
CLASS
  1
ACMCENTERLINESTANDARDANSI
  2
AmdtCenterLineStdANSI
  3
"Amdt_StdImp|Product Description: AutoCAD Mechanical|Company: Autodesk, Inc."
 90
     1024
 91
        0
280
     0
281
     0
  0
CLASS
  1
ACMTHREADLINESTANDARDANSI
  2
AmdtThreadLineStdANSI
  3
"Amdt_StdImp|Product Description: AutoCAD Mechanical|Company: Autodesk, Inc."
 90
     1024
 91
        0
280
     0
281
     0
  0
CLASS
  1
ACMNOTESTANDARDANSI
  2
AmdtNoteStdANSI
  3
"Amdt_StdImp|Product Description: AutoCAD Mechanical|Company: Autodesk, Inc."
 90
     1024
 91
        0
280
     0
281
     0
  0
CLASS
  1
ACMTAPERSTANDARDANSI
  2
AcmTaperStdANSI
  3
"Amdt_StdImp|Product Description: AutoCAD Mechanical|Company: Autodesk, Inc."
 90
     1024
 91
        0
280
     0
281
     0
  0
CLASS
  1
ACMANOOTATIONVIEWSTANDARDANSI
  2
AmdtAnViewStdANSI
  3
"Amdt_StdImp|Product Description: AutoCAD Mechanical|Company: Autodesk, Inc."
 90
     1024
 91
        0
280
     0
281
     0
  0
CLASS
  1
ACAMGHOLECHARTSTDANSI
  2
AcAmgHoleChartStdANSI
  3
AmgDim|Product Description: AutoCAD Mechanical|Company: Autodesk, Inc.
 90
     1024
 91
        0
280
     0
281
     0
  0
CLASS
  1
ACMSTANDARDBSI
  2
AcmStandardBSI
  3
"Amdt_StdImp|Product Description: AutoCAD Mechanical|Company: Autodesk, Inc."
 90
     1024
 91
        0
280
     0
281
     0
  0
CLASS
  1
ACMSURFSTANDARDBSI2002
  2
AcmSurfTextStdBSI2002
  3
"Amdt_StdImp|Product Description: AutoCAD Mechanical|Company: Autodesk, Inc."
 90
     1024
 91
        0
280
     0
281
     0
  0
CLASS
  1
ACMFCFSTANDARDBSI
  2
AcmFCFStdBSI
  3
"Amdt_StdImp|Product Description: AutoCAD Mechanical|Company: Autodesk, Inc."
 90
     1024
 91
        0
280
     0
281
     0
  0
CLASS
  1
ACMWELDSTANDARDBSI
  2
AcmWeldingStdBSI
  3
"Amdt_StdImp|Product Description: AutoCAD Mechanical|Company: Autodesk, Inc."
 90
     1024
 91
        0
280
     0
281
     0
  0
CLASS
  1
ACMIDSTANDARDBSI
  2
AcmIdStdBSI
  3
"Amdt_StdImp|Product Description: AutoCAD Mechanical|Company: Autodesk, Inc."
 90
     1024
 91
        0
280
     0
281
     0
  0
CLASS
  1
ACMDATUMSTANDARDBSI
  2
AcmDatumStdBSI
  3
"Amdt_StdImp|Product Description: AutoCAD Mechanical|Company: Autodesk, Inc."
 90
     1024
 91
        0
280
     0
281
     0
  0
CLASS
  1
ACMBOMSTANDARDBSI
  2
AcmBOMStdBSI
  3
"Amdt_StdImp|Product Description: AutoCAD Mechanical|Company: Autodesk, Inc."
 90
     1024
 91
        0
280
     0
281
     0
  0
CLASS
  1
ACMDETAILSTANDARDBSI
  2
AmdtDetailSymStdBSI
  3
"Amdt_StdImp|Product Description: AutoCAD Mechanical|Company: Autodesk, Inc."
 90
     1024
 91
        0
280
     0
281
     0
  0
CLASS
  1
ACMSECTIONSTANDARDBSI2001
  2
AmdtSectionSymStdBSI2001
  3
"Amdt_StdImp|Product Description: AutoCAD Mechanical|Company: Autodesk, Inc."
 90
     1024
 91
        0
280
     0
281
     0
  0
CLASS
  1
ACMCENTERLINESTANDARDBSI
  2
AmdtCenterLineStdBSI
  3
"Amdt_StdImp|Product Description: AutoCAD Mechanical|Company: Autodesk, Inc."
 90
     1024
 91
        0
280
     0
281
     0
  0
CLASS
  1
ACMTHREADLINESTANDARDBSI
  2
AmdtThreadLineStdBSI
  3
"Amdt_StdImp|Product Description: AutoCAD Mechanical|Company: Autodesk, Inc."
 90
     1024
 91
        0
280
     0
281
     0
  0
CLASS
  1
ACMNOTESTANDARDBSI
  2
AmdtNoteStdBSI
  3
"Amdt_StdImp|Product Description: AutoCAD Mechanical|Company: Autodesk, Inc."
 90
     1024
 91
        0
280
     0
281
     0
  0
CLASS
  1
ACMTAPERSTANDARDBSI
  2
AcmTaperStdBSI
  3
"Amdt_StdImp|Product Description: AutoCAD Mechanical|Company: Autodesk, Inc."
 90
     1024
 91
        0
280
     0
281
     0
  0
CLASS
  1
ACMANOOTATIONVIEWSTANDARDBSI
  2
AmdtAnViewStdBSI
  3
"Amdt_StdImp|Product Description: AutoCAD Mechanical|Company: Autodesk, Inc."
 90
     1024
 91
        0
280
     0
281
     0
  0
CLASS
  1
ACAMGHOLECHARTSTDBSI
  2
AcAmgHoleChartStdBSI
  3
AmgDim|Product Description: AutoCAD Mechanical|Company: Autodesk, Inc.
 90
     1024
 91
        0
280
     0
281
     0
  0
CLASS
  1
AMDTEDGESTANDARDJIS
  2
AmdtEdgeStdJIS
  3
"Amdt_StdImp|Product Description: AutoCAD Mechanical|Company: Autodesk, Inc."
 90
     1024
 91
        0
280
     0
281
     0
  0
CLASS
  1
ACDB_BLKREFOBJECTCONTEXTDATA_CLASS
  2
AcDbBlkRefObjectContextData
  3
ObjectDBX Classes
 90
     1153
 91
        0
280
     0
281
     0
  0
CLASS
  1
ACMSURFSYM
  2
AcmSurfaceTexture
  3
"AcmSymBB|Product Description: AutoCAD Mechanical|Company: Autodesk, Inc."
 90
     4095
 91
        0
280
     0
281
     1
  0
CLASS
  1
ACDBDIMENSIONRES
  2
AcDbDimensionRes
  3
AcmSymBB|Product Description: AutoCAD Mechanical|Company: Autodesk, Inc.
 90
     1024
 91
        0
280
     0
281
     0
  0
CLASS
  1
ACDBCIRCARCRES
  2
AcDbCircArcRes
  3
AcGrefServices
 90
     1024
 91
        0
280
     0
281
     0
  0
CLASS
  1
AMDTACMWBLOCKBOMENTITY
  2
AmdtAcmWblockBomEntity
  3
"AcmSymBB|Product Description: AutoCAD Mechanical|Company: Autodesk, Inc."
 90
     4095
 91
        0
280
     0
281
     1
  0
CLASS
  1
ACDBOPPOLYLINERES
  2
AcDbOpPolylineRes
  3
AcGrefServices
 90
     1024
 91
        0
280
     0
281
     0
  0
CLASS
  1
ACMDIMBREAKPERSREACTOR
  2
AcmDimBreakPersReactor
  3
AmgDim|Product Description: AutoCAD Mechanical|Company: Autodesk, Inc.
 90
     4095
 91
        0
280
     0
281
     0
  0
CLASS
  1
ACMPICKOBJ
  2
AcmPickEnt
  3
"AcmSymBB|Product Description: AutoCAD Mechanical|Company: Autodesk, Inc."
 90
     1024
 91
        0
280
     0
281
     1
  0
CLASS
  1
ACMBALLOON
  2
AcmBalloon
  3
"AcmSymBB|Product Description: AutoCAD Mechanical|Company: Autodesk, Inc."
 90
     4095
 91
        0
280
     0
281
     1
  0
ENDSEC
  0
SECTION
  2
TABLES
  0
TABLE
  2
VPORT
  5
8
330
0
100
AcDbSymbolTable
 70
     1
  0
VPORT
  5
27A
330
8
100
AcDbSymbolTableRecord
100
AcDbViewportTableRecord
  2
*Active
 70
     0
 10
0.0
 20
0.0
 11
1.0
 21
1.0
 12
3648.406714632283
 22
2896.232659819286
 13
0.0
 23
0.0
 14
37.5
 24
37.5
 15
150.0
 25
150.0
 16
0.0
 26
0.0
 36
1.0
 17
0.0
 27
0.0
 37
0.0
 40
1799.836257563647
 41
1.571428571428571
 42
50.0
 43
0.0
 44
0.0
 50
0.0
 51
0.0
 71
    16
 72
 20000
 73
     1
 74
     3
 75
     0
 76
     0
 77
     0
 78
     0
281
     0
 65
     0
110
0.0
120
0.0
130
0.0
111
1.0
121
0.0
131
0.0
112
0.0
122
1.0
132
0.0
 79
     0
146
0.0
348
285
 60
     3
 61
     5
292
     1
282
     0
141
0.0
142
0.0
 63
   250
421
  3355443
  0
ENDTAB
  0
TABLE
  2
LTYPE
  5
5
330
0
100
AcDbSymbolTable
 70
    22
  0
LTYPE
  5
14
330
5
100
AcDbSymbolTableRecord
100
AcDbLinetypeTableRecord
  2
ByBlock
 70
     0
  3

 72
    65
 73
     0
 40
0.0
  0
LTYPE
  5
15
330
5
100
AcDbSymbolTableRecord
100
AcDbLinetypeTableRecord
  2
ByLayer
 70
     0
  3

 72
    65
 73
     0
 40
0.0
  0
LTYPE
  5
16
330
5
100
AcDbSymbolTableRecord
100
AcDbLinetypeTableRecord
  2
Continuous
 70
     0
  3
Solid line
 72
    65
 73
     0
 40
0.0
  0
LTYPE
  5
4D
330
5
100
AcDbSymbolTableRecord
100
AcDbLinetypeTableRecord
  2
AM_ISO02W050
 70
     0
  3
__ __ __ __ __ __ __ __ __ __ __ __ __ __ __
 72
    65
 73
     2
 40
7.5
 49
6.0
 74
     0
 49
-1.5
 74
     0
  0
LTYPE
  5
4E
330
5
100
AcDbSymbolTableRecord
100
AcDbLinetypeTableRecord
  2
AM_ISO08W050
 70
     0
  3
____ . ____ . ____ . ____ . ____ . ____ . ____
 72
    65
 73
     4
 40
18.0
 49
12.0
 74
     0
 49
-1.5
 74
     0
 49
3.0
 74
     0
 49
-1.5
 74
     0
  0
LTYPE
  5
4F
330
5
100
AcDbSymbolTableRecord
100
AcDbLinetypeTableRecord
  2
AM_ISO09W050
 70
     0
  3
_____ . . _____ . . _____ . . ____ .. ____
 72
    65
 73
     6
 40
22.5
 49
12.0
 74
     0
 49
-1.5
 74
     0
 49
3.0
 74
     0
 49
-1.5
 74
     0
 49
3.0
 74
     0
 49
-1.5
 74
     0
  0
LTYPE
  5
50
330
5
100
AcDbSymbolTableRecord
100
AcDbLinetypeTableRecord
  2
Amconstr
 70
     0
  3
_______________________
 72
    65
 73
     2
 40
9999.0
 49
9999.0
 74
     0
 49
0.0
 74
     0
  0
LTYPE
  5
51
330
5
100
AcDbSymbolTableRecord
100
AcDbLinetypeTableRecord
  2
AM_ISO08W050x2
 70
     0
  3
__ . __ . __ . __ . __ . __
 72
    65
 73
     4
 40
9.0
 49
6.0
 74
     0
 49
-0.75
 74
     0
 49
1.5
 74
     0
 49
-0.75
 74
     0
  0
LTYPE
  5
52
330
5
100
AcDbSymbolTableRecord
100
AcDbLinetypeTableRecord
  2
AM_ISO02W050x2
 70
     0
  3
 _ _ _ _ _ _ _ _ _ _ _ _
 72
    65
 73
     2
 40
3.75
 49
3.0
 74
     0
 49
-0.75
 74
     0
  0
LTYPE
  5
55
330
5
100
AcDbSymbolTableRecord
100
AcDbLinetypeTableRecord
  2
Amzigzag
 70
     0
  3
/\/-/\/-/\/-/\/-/\/-/\/
 72
    65
 73
     2
 40
11.0001
 49
0.0001
 74
     4
 75
   136
340
23D
 46
0.04
 50
0.0
 44
0.0
 45
0.0
 49
-11.0
 74
     0
  0
LTYPE
  5
65
330
5
100
AcDbSymbolTableRecord
100
AcDbLinetypeTableRecord
  2
CENTER
 70
     0
  3
__ . __
 72
    65
 73
     4
 40
7.0
 49
4.0
 74
     0
 49
-1.0
 74
     0
 49
1.0
 74
     0
 49
-1.0
 74
     0
  0
LTYPE
  5
E0
330
5
100
AcDbSymbolTableRecord
100
AcDbLinetypeTableRecord
  2
HIDDEN
 70
     0
  3
Hidden __ __ __ __ __ __ __ __ __ __ __ __ __ _
 72
    65
 73
     2
 40
9.524999999999996
 49
6.349999999999997
 74
     0
 49
-3.174999999999998
 74
     0
  0
LTYPE
  5
E1
330
5
100
AcDbSymbolTableRecord
100
AcDbLinetypeTableRecord
  2
PHANTOM2
 70
     0
  3
Phantom (.5x) ___ _ _ ___ _ _ ___ _ _ ___ _ _
 72
    65
 73
     6
 40
31.75
 49
15.875
 74
     0
 49
-3.174999999999998
 74
     0
 49
3.174999999999998
 74
     0
 49
-3.174999999999998
 74
     0
 49
3.174999999999998
 74
     0
 49
-3.174999999999998
 74
     0
  0
LTYPE
  5
5A2
330
5
100
AcDbSymbolTableRecord
100
AcDbLinetypeTableRecord
  2
ACJISWELD
 70
     0
  3
_ _ _ _ _
 72
    65
 73
     2
 40
2.0
 49
2.0
 74
     0
 49
-1.0
 74
     0
  0
LTYPE
  5
802B
330
5
100
AcDbSymbolTableRecord
100
AcDbLinetypeTableRecord
  2
ACISOWELD
 70
     0
  3
_ _ _ _ _
 72
    65
 73
     2
 40
2.0
 49
2.0
 74
     0
 49
-1.0
 74
     0
  0
LTYPE
  5
802C
330
5
100
AcDbSymbolTableRecord
100
AcDbLinetypeTableRecord
  2
ACISOTGB
 70
     0
  3
__ . . __ . .
 72
    65
 73
     6
 40
9.0
 49
4.0
 74
     0
 49
-1.0
 74
     0
 49
1.0
 74
     0
 49
-1.0
 74
     0
 49
1.0
 74
     0
 49
-1.0
 74
     0
  0
LTYPE
  5
802D
330
5
100
AcDbSymbolTableRecord
100
AcDbLinetypeTableRecord
  2
ACISOTGL
 70
     0
  3
_ _ _ _ _
 72
    65
 73
     2
 40
3.0
 49
2.0
 74
     0
 49
-1.0
 74
     0
  0
ENDTAB
  0
TABLE
  2
LAYER
  5
2
102
{ACAD_XDICTIONARY
360
BF
102
}
330
0
100
AcDbSymbolTable
 70
    12
  0
LAYER
  5
10
102
{ACAD_XDICTIONARY
360
29F7
102
}
330
2
100
AcDbSymbolTableRecord
100
AcDbLayerTableRecord
  2
0
 70
     0
 62
     7
  6
Continuous
370
    -3
390
F
347
27E
  0
LAYER
  5
81
102
{ACAD_XDICTIONARY
360
29F9
102
}
330
2
100
AcDbSymbolTableRecord
100
AcDbLayerTableRecord
  2
AM_0 外形線1
 70
     0
 62
     7
  6
Continuous
370
    25
390
F
347
27E
  0
LAYER
  5
427
330
2
100
AcDbSymbolTableRecord
100
AcDbLayerTableRecord
  2
Defpoints
 70
     0
 62
     7
  6
Continuous
290
     0
370
    -3
390
F
347
27E
  0
LAYER
  5
2DF6
102
{ACAD_XDICTIONARY
360
2DF7
102
}
330
2
100
AcDbSymbolTableRecord
100
AcDbLayerTableRecord
  2
002
 70
     0
 62
     7
  6
Continuous
370
    -3
390
F
347
27E
  0
LAYER
  5
3C65
330
2
100
AcDbSymbolTableRecord
100
AcDbLayerTableRecord
  2
AM_5 寸法線
 70
     0
 62
     3
  6
Continuous
370
    13
390
F
347
27E
1001
AcAecLayerStandard
1000

1000

  0
LAYER
  5
3C66
330
2
100
AcDbSymbolTableRecord
100
AcDbLayerTableRecord
  2
AM_4 細線
 70
     0
 62
     4
  6
Continuous
370
    13
390
F
347
27E
1001
AcAecLayerStandard
1000

1000

  0
LAYER
  5
3C67
330
2
100
AcDbSymbolTableRecord
100
AcDbLayerTableRecord
  2
AM_7 中心線
 70
     0
 62
     1
  6
AM_ISO08W050
370
    13
390
F
347
27E
1001
AcAecLayerStandard
1000

1000

  0
LAYER
  5
3C68
330
2
100
AcDbSymbolTableRecord
100
AcDbLayerTableRecord
  2
AM_3 隠れ線
 70
     0
 62
     8
  6
ACJISWELD
370
    13
390
F
347
27E
1001
AcAecLayerStandard
1000

1000

  0
LAYER
  5
3C6B
330
2
100
AcDbSymbolTableRecord
100
AcDbLayerTableRecord
  2
AM_6 文字
 70
     0
 62
     2
  6
Continuous
370
    13
390
F
347
27E
1001
AcAecLayerStandard
1000

1000

  0
ENDTAB
  0
TABLE
  2
STYLE
  5
3
330
0
100
AcDbSymbolTable
 70
    11
  0
STYLE
  5
11
330
3
100
AcDbSymbolTableRecord
100
AcDbTextStyleTableRecord
  2
STANDARD
 70
     0
 40
0.0
 41
1.0
 50
0.0
 71
     0
 42
25.0
  3
ISOCP.SHX
  4
EXTFONT.SHX
  0
STYLE
  5
23D
330
3
100
AcDbSymbolTableRecord
100
AcDbTextStyleTableRecord
  2

 70
     1
 40
0.0
 41
1.0
 50
0.0
 71
     0
 42
2.5
  3
genltshp.shx
  4

  0
STYLE
  5
5D5
330
3
100
AcDbSymbolTableRecord
100
AcDbTextStyleTableRecord
  2
SEISA
 70
     0
 40
0.0
 41
0.9
 50
0.0
 71
     0
 42
25.0
  3
romans.shx
  4
extfont2.shx
  0
STYLE
  5
801B
330
3
100
AcDbSymbolTableRecord
100
AcDbTextStyleTableRecord
  2
ACISOTS
 70
     0
 40
1.0
 41
1.0
 50
0.0
 71
     0
 42
25.0
  3
isocp.shx
  4
extfont.shx
  0
STYLE
  5
802A
330
3
100
AcDbSymbolTableRecord
100
AcDbTextStyleTableRecord
  2
ACISOGDT
 70
     0
 40
0.0
 41
1.0
 50
0.0
 71
     0
 42
25.0
  3
amgdt.shx
  4

  0
ENDTAB
  0
TABLE
  2
VIEW
  5
6
330
0
100
AcDbSymbolTable
 70
     6
  0
VIEW
  5
91B
330
6
100
AcDbSymbolTableRecord
100
AcDbViewTableRecord
  2
AM_VIEW1
 70
     0
 40
2227.5
 10
2153.432884644907
 20
3341.250005540732
 41
4306.865763546799
 11
0.0
 21
0.0
 31
1.0
 12
0.0
 22
0.0
 32
0.0
 42
50.0
 43
0.0
 44
0.0
 50
0.0
 71
    16
281
     0
 72
     0
 73
     0
  0
VIEW
  5
91C
330
6
100
AcDbSymbolTableRecord
100
AcDbViewTableRecord
  2
AM_VIEW2
 70
     0
 40
2227.5
 10
4146.567121098108
 20
3341.250005540732
 41
4306.865763546799
 11
0.0
 21
0.0
 31
1.0
 12
0.0
 22
0.0
 32
0.0
 42
50.0
 43
0.0
 44
0.0
 50
0.0
 71
    16
281
     0
 72
     0
 73
     0
  0
VIEW
  5
91D
330
6
100
AcDbSymbolTableRecord
100
AcDbViewTableRecord
  2
AM_VIEW3
 70
     0
 40
2227.5
 10
2153.432884644907
 20
1113.750005540731
 41
4306.865763546799
 11
0.0
 21
0.0
 31
1.0
 12
0.0
 22
0.0
 32
0.0
 42
50.0
 43
0.0
 44
0.0
 50
0.0
 71
    16
281
     0
 72
     0
 73
     0
  0
VIEW
  5
91E
330
6
100
AcDbSymbolTableRecord
100
AcDbViewTableRecord
  2
AM_VIEW4
 70
     0
 40
2227.5
 10
4146.567121098108
 20
1113.750005540731
 41
4306.865763546799
 11
0.0
 21
0.0
 31
1.0
 12
0.0
 22
0.0
 32
0.0
 42
50.0
 43
0.0
 44
0.0
 50
0.0
 71
    16
281
     0
 72
     0
 73
     0
  0
VIEW
  5
91F
330
6
100
AcDbSymbolTableRecord
100
AcDbViewTableRecord
  2
AM_VIEW5
 70
     0
 40
2227.500000000001
 10
3150.000002871508
 20
2227.500005540731
 41
4306.865763546799
 11
0.0
 21
0.0
 31
1.0
 12
0.0
 22
0.0
 32
0.0
 42
50.0
 43
0.0
 44
0.0
 50
0.0
 71
    16
281
     0
 72
     0
 73
     0
  0
VIEW
  5
920
330
6
100
AcDbSymbolTableRecord
100
AcDbViewTableRecord
  2
AM_VIEW6
 70
     0
 40
4454.955450000001
 10
3150.000002871508
 20
2227.500005540731
 41
8613.645389778326
 11
0.0
 21
0.0
 31
1.0
 12
0.0
 22
0.0
 32
0.0
 42
50.0
 43
0.0
 44
0.0
 50
0.0
 71
    16
281
     0
 72
     0
 73
     0
  0
ENDTAB
  0
TABLE
  2
UCS
  5
7
330
0
100
AcDbSymbolTable
 70
     0
  0
ENDTAB
  0
TABLE
  2
APPID
  5
9
330
0
100
AcDbSymbolTable
 70
   398
  0
APPID
  5
12
330
9
100
AcDbSymbolTableRecord
100
AcDbRegAppTableRecord
  2
ACAD
 70
     0
  0
APPID
  5
30
330
9
100
AcDbSymbolTableRecord
100
AcDbRegAppTableRecord
  2
MCAD_NO_VIS
 70
     0
  0
APPID
  5
31
330
9
100
AcDbSymbolTableRecord
100
AcDbRegAppTableRecord
  2
ACAD_TEMP_GRAPHIC
 70
     0
  0
APPID
  5
44
330
9
100
AcDbSymbolTableRecord
100
AcDbRegAppTableRecord
  2
ACATTRIBSERVICES
 70
     0
  0
APPID
  5
F6
330
9
100
AcDbSymbolTableRecord
100
AcDbRegAppTableRecord
  2
AD_DRAW
 70
     0
  0
APPID
  5
114
330
9
100
AcDbSymbolTableRecord
100
AcDbRegAppTableRecord
  2
DESIGNERASSEMBLIES
 70
     0
  0
APPID
  5
118
330
9
100
AcDbSymbolTableRecord
100
AcDbRegAppTableRecord
  2
ACADM_DIM_EDIT
 70
     0
  0
APPID
  5
119
330
9
100
AcDbSymbolTableRecord
100
AcDbRegAppTableRecord
  2
AMDT_DM_ADJ
 70
     0
  0
APPID
  5
1AF
330
9
100
AcDbSymbolTableRecord
100
AcDbRegAppTableRecord
  2
ACAD_DSTYLE_DIMARC_LENGTH_SYMBOL
 70
     0
  0
APPID
  5
1B0
330
9
100
AcDbSymbolTableRecord
100
AcDbRegAppTableRecord
  2
ACAD_DSTYLE_DIMJOGGED_JOGANGLE_SYMBOL
 70
     0
  0
APPID
  5
2D7
330
9
100
AcDbSymbolTableRecord
100
AcDbRegAppTableRecord
  2
ACAD_MLEADERVER
 70
     0
  0
APPID
  5
355
330
9
100
AcDbSymbolTableRecord
100
AcDbRegAppTableRecord
  2
AcadAnnoPO
 70
     0
  0
APPID
  5
428
330
9
100
AcDbSymbolTableRecord
100
AcDbRegAppTableRecord
  2
ACAD_DSTYLE_DIMTEXT_FILL
 70
     0
  0
APPID
  5
429
330
9
100
AcDbSymbolTableRecord
100
AcDbRegAppTableRecord
  2
GENIUS_GENSCREG_15
 70
     0
  0
APPID
  5
42A
330
9
100
AcDbSymbolTableRecord
100
AcDbRegAppTableRecord
  2
GENIUS_GENOBJ-N-SDF_13
 70
     0
  0
APPID
  5
42B
330
9
100
AcDbSymbolTableRecord
100
AcDbRegAppTableRecord
  2
GENIUS_GENODEF_13
 70
     0
  0
APPID
  5
42C
330
9
100
AcDbSymbolTableRecord
100
AcDbRegAppTableRecord
  2
ACAD_EXEMPT_FROM_CAD_STANDARDS
 70
     0
  0
APPID
  5
42D
330
9
100
AcDbSymbolTableRecord
100
AcDbRegAppTableRecord
  2
AcAecLayerStandard
 70
     0
  0
APPID
  5
42E
330
9
100
AcDbSymbolTableRecord
100
AcDbRegAppTableRecord
  2
GENIUS_GENOBJ-N-CEN_13
 70
     0
  0
APPID
  5
42F
330
9
100
AcDbSymbolTableRecord
100
AcDbRegAppTableRecord
  2
GENIUS_GENCEN_19
 70
     0
  0
APPID
  5
430
330
9
100
AcDbSymbolTableRecord
100
AcDbRegAppTableRecord
  2
ACAD_DSTYLE_DIMINSPECT
 70
     0
  0
APPID
  5
431
330
9
100
AcDbSymbolTableRecord
100
AcDbRegAppTableRecord
  2
GENIUS_AMGTXT_16
 70
     0
  0
APPID
  5
432
330
9
100
AcDbSymbolTableRecord
100
AcDbRegAppTableRecord
  2
GENIUS_GENFIL_13
 70
     0
  0
APPID
  5
433
330
9
100
AcDbSymbolTableRecord
100
AcDbRegAppTableRecord
  2
GENIUS_GENOLIS_13
 70
     0
  0
APPID
  5
434
330
9
100
AcDbSymbolTableRecord
100
AcDbRegAppTableRecord
  2
GENIUS_GENOBJ-N-CHA_13
 70
     0
  0
APPID
  5
435
330
9
100
AcDbSymbolTableRecord
100
AcDbRegAppTableRecord
  2
GENIUS_GENOENT_13
 70
     0
  0
APPID
  5
436
330
9
100
AcDbSymbolTableRecord
100
AcDbRegAppTableRecord
  2
GENIUS_GENOREF_13
 70
     0
  0
APPID
  5
437
330
9
100
AcDbSymbolTableRecord
100
AcDbRegAppTableRecord
  2
GENIUS_GENOBJ-N-FIL_13
 70
     0
  0
APPID
  5
438
330
9
100
AcDbSymbolTableRecord
100
AcDbRegAppTableRecord
  2
GEVID1208829536
 70
     0
  0
APPID
  5
439
330
9
100
AcDbSymbolTableRecord
100
AcDbRegAppTableRecord
  2
GEVDC
 70
     0
  0
APPID
  5
43A
330
9
100
AcDbSymbolTableRecord
100
AcDbRegAppTableRecord
  2
GEVRADREF
 70
     0
  0
APPID
  5
43B
330
9
100
AcDbSymbolTableRecord
100
AcDbRegAppTableRecord
  2
GENIUS_GENBH_13
 70
     0
  0
APPID
  5
43C
330
9
100
AcDbSymbolTableRecord
100
AcDbRegAppTableRecord
  2
GENIUS_GENOBJ-NBEHI-BHF_13
 70
     0
  0
APPID
  5
43D
330
9
100
AcDbSymbolTableRecord
100
AcDbRegAppTableRecord
  2
GENIUS_GENOBJ-NBEHI-BHB_13
 70
     0
  0
APPID
  5
43E
330
9
100
AcDbSymbolTableRecord
100
AcDbRegAppTableRecord
  2
GEVID1208829537
 70
     0
  0
APPID
  5
43F
330
9
100
AcDbSymbolTableRecord
100
AcDbRegAppTableRecord
  2
ACAD_DSTYLE_DIMJAG
 70
     0
  0
APPID
  5
440
330
9
100
AcDbSymbolTableRecord
100
AcDbRegAppTableRecord
  2
ACAD_DSTYLE_DIMTALN
 70
     0
  0
APPID
  5
441
330
9
100
AcDbSymbolTableRecord
100
AcDbRegAppTableRecord
  2
AMG_2DHIDE
 70
     0
  0
APPID
  5
442
330
9
100
AcDbSymbolTableRecord
100
AcDbRegAppTableRecord
  2
AMG_2DSTRUCT_BTR
 70
     0
  0
APPID
  5
443
330
9
100
AcDbSymbolTableRecord
100
AcDbRegAppTableRecord
  2
GEVID1208845772
 70
     0
  0
APPID
  5
444
330
9
100
AcDbSymbolTableRecord
100
AcDbRegAppTableRecord
  2
GEVID1208845773
 70
     0
  0
APPID
  5
445
330
9
100
AcDbSymbolTableRecord
100
AcDbRegAppTableRecord
  2
ACADM_2DVIEW_IGN_NOTIFY
 70
     0
  0
APPID
  5
446
330
9
100
AcDbSymbolTableRecord
100
AcDbRegAppTableRecord
  2
GEVID1208845774
 70
     0
  0
APPID
  5
447
330
9
100
AcDbSymbolTableRecord
100
AcDbRegAppTableRecord
  2
GEVID1208845775
 70
     0
  0
APPID
  5
448
330
9
100
AcDbSymbolTableRecord
100
AcDbRegAppTableRecord
  2
GEVID1208845776
 70
     0
  0
APPID
  5
449
330
9
100
AcDbSymbolTableRecord
100
AcDbRegAppTableRecord
  2
GEVID1208845777
 70
     0
  0
APPID
  5
44A
330
9
100
AcDbSymbolTableRecord
100
AcDbRegAppTableRecord
  2
GEVCON
 70
     0
  0
APPID
  5
44B
330
9
100
AcDbSymbolTableRecord
100
AcDbRegAppTableRecord
  2
GENIUS_GENOBJ-F-SCPASSM_13
 70
     0
  0
APPID
  5
44C
330
9
100
AcDbSymbolTableRecord
100
AcDbRegAppTableRecord
  2
GEVID1208845778
 70
     0
  0
APPID
  5
44D
330
9
100
AcDbSymbolTableRecord
100
AcDbRegAppTableRecord
  2
GEVID1208845779
 70
     0
  0
APPID
  5
44E
330
9
100
AcDbSymbolTableRecord
100
AcDbRegAppTableRecord
  2
GEVID1208845780
 70
     0
  0
APPID
  5
44F
330
9
100
AcDbSymbolTableRecord
100
AcDbRegAppTableRecord
  2
GEVID1208845781
 70
     0
  0
APPID
  5
450
330
9
100
AcDbSymbolTableRecord
100
AcDbRegAppTableRecord
  2
GEVID1208845782
 70
     0
  0
APPID
  5
451
330
9
100
AcDbSymbolTableRecord
100
AcDbRegAppTableRecord
  2
GEVID1208845783
 70
     0
  0
APPID
  5
452
330
9
100
AcDbSymbolTableRecord
100
AcDbRegAppTableRecord
  2
GEVID1208845784
 70
     0
  0
APPID
  5
453
330
9
100
AcDbSymbolTableRecord
100
AcDbRegAppTableRecord
  2
GEVID1208845785
 70
     0
  0
APPID
  5
454
330
9
100
AcDbSymbolTableRecord
100
AcDbRegAppTableRecord
  2
GEVID1208845787
 70
     0
  0
APPID
  5
455
330
9
100
AcDbSymbolTableRecord
100
AcDbRegAppTableRecord
  2
GEVID1208845788
 70
     0
  0
APPID
  5
456
330
9
100
AcDbSymbolTableRecord
100
AcDbRegAppTableRecord
  2
GEVID1208845789
 70
     0
  0
APPID
  5
457
330
9
100
AcDbSymbolTableRecord
100
AcDbRegAppTableRecord
  2
GEVID1208845790
 70
     0
  0
APPID
  5
458
330
9
100
AcDbSymbolTableRecord
100
AcDbRegAppTableRecord
  2
GEVID1208845791
 70
     0
  0
APPID
  5
459
330
9
100
AcDbSymbolTableRecord
100
AcDbRegAppTableRecord
  2
GEVID1208845792
 70
     0
  0
APPID
  5
45A
330
9
100
AcDbSymbolTableRecord
100
AcDbRegAppTableRecord
  2
GEVID1208845793
 70
     0
  0
APPID
  5
45B
330
9
100
AcDbSymbolTableRecord
100
AcDbRegAppTableRecord
  2
GEVID1208845794
 70
     0
  0
APPID
  5
45C
330
9
100
AcDbSymbolTableRecord
100
AcDbRegAppTableRecord
  2
GEVID1208845795
 70
     0
  0
APPID
  5
45D
330
9
100
AcDbSymbolTableRecord
100
AcDbRegAppTableRecord
  2
GEVID1208845796
 70
     0
  0
APPID
  5
45E
330
9
100
AcDbSymbolTableRecord
100
AcDbRegAppTableRecord
  2
GEVID1208845797
 70
     0
  0
APPID
  5
45F
330
9
100
AcDbSymbolTableRecord
100
AcDbRegAppTableRecord
  2
GEVID1208845798
 70
     0
  0
APPID
  5
460
330
9
100
AcDbSymbolTableRecord
100
AcDbRegAppTableRecord
  2
GEVID1208845799
 70
     0
  0
APPID
  5
461
330
9
100
AcDbSymbolTableRecord
100
AcDbRegAppTableRecord
  2
GEVID1208845800
 70
     0
  0
APPID
  5
462
330
9
100
AcDbSymbolTableRecord
100
AcDbRegAppTableRecord
  2
GEVID1208845801
 70
     0
  0
APPID
  5
463
330
9
100
AcDbSymbolTableRecord
100
AcDbRegAppTableRecord
  2
GEVID1208845802
 70
     0
  0
APPID
  5
464
330
9
100
AcDbSymbolTableRecord
100
AcDbRegAppTableRecord
  2
GENIUS_GENOBJ-N-DIM_13
 70
     0
  0
APPID
  5
465
330
9
100
AcDbSymbolTableRecord
100
AcDbRegAppTableRecord
  2
GENIUS_GENDIM_13
 70
     0
  0
APPID
  5
466
330
9
100
AcDbSymbolTableRecord
100
AcDbRegAppTableRecord
  2
GENIUS_GENDIMSH_14
 70
     0
  0
APPID
  5
467
330
9
100
AcDbSymbolTableRecord
100
AcDbRegAppTableRecord
  2
GEVID1208845803
 70
     0
  0
APPID
  5
468
330
9
100
AcDbSymbolTableRecord
100
AcDbRegAppTableRecord
  2
GEVID1208845804
 70
     0
  0
APPID
  5
469
330
9
100
AcDbSymbolTableRecord
100
AcDbRegAppTableRecord
  2
GEVID1208845805
 70
     0
  0
APPID
  5
46A
330
9
100
AcDbSymbolTableRecord
100
AcDbRegAppTableRecord
  2
GEVID1208845806
 70
     0
  0
APPID
  5
46B
330
9
100
AcDbSymbolTableRecord
100
AcDbRegAppTableRecord
  2
GEVID1208845807
 70
     0
  0
APPID
  5
46C
330
9
100
AcDbSymbolTableRecord
100
AcDbRegAppTableRecord
  2
GEVID1208845808
 70
     0
  0
APPID
  5
46D
330
9
100
AcDbSymbolTableRecord
100
AcDbRegAppTableRecord
  2
GEVID1208845809
 70
     0
  0
APPID
  5
46E
330
9
100
AcDbSymbolTableRecord
100
AcDbRegAppTableRecord
  2
GEVID1208845810
 70
     0
  0
APPID
  5
46F
330
9
100
AcDbSymbolTableRecord
100
AcDbRegAppTableRecord
  2
GEVID1208845811
 70
     0
  0
APPID
  5
470
330
9
100
AcDbSymbolTableRecord
100
AcDbRegAppTableRecord
  2
GEVID1208845813
 70
     0
  0
APPID
  5
471
330
9
100
AcDbSymbolTableRecord
100
AcDbRegAppTableRecord
  2
GEVID1208845814
 70
     0
  0
APPID
  5
472
330
9
100
AcDbSymbolTableRecord
100
AcDbRegAppTableRecord
  2
GEVID1208845815
 70
     0
  0
APPID
  5
473
330
9
100
AcDbSymbolTableRecord
100
AcDbRegAppTableRecord
  2
GEVID1208845816
 70
     0
  0
APPID
  5
474
330
9
100
AcDbSymbolTableRecord
100
AcDbRegAppTableRecord
  2
GEVID1208845817
 70
     0
  0
APPID
  5
475
330
9
100
AcDbSymbolTableRecord
100
AcDbRegAppTableRecord
  2
GEVID1208845818
 70
     0
  0
APPID
  5
476
330
9
100
AcDbSymbolTableRecord
100
AcDbRegAppTableRecord
  2
GEVID1208845819
 70
     0
  0
APPID
  5
477
330
9
100
AcDbSymbolTableRecord
100
AcDbRegAppTableRecord
  2
GEVID1208845820
 70
     0
  0
APPID
  5
478
330
9
100
AcDbSymbolTableRecord
100
AcDbRegAppTableRecord
  2
GENIUS_GENOBJ-F-SHCL_13
 70
     0
  0
APPID
  5
479
330
9
100
AcDbSymbolTableRecord
100
AcDbRegAppTableRecord
  2
GENIUS_GEFMSH_13
 70
     0
  0
APPID
  5
47A
330
9
100
AcDbSymbolTableRecord
100
AcDbRegAppTableRecord
  2
GENIUS_GENOBJ-F-SHCA_13
 70
     0
  0
APPID
  5
47B
330
9
100
AcDbSymbolTableRecord
100
AcDbRegAppTableRecord
  2
GENIUS_GEFSH_13
 70
     0
  0
APPID
  5
47C
330
9
100
AcDbSymbolTableRecord
100
AcDbRegAppTableRecord
  2
GENIUS_GEFSHP_13
 70
     0
  0
APPID
  5
47D
330
9
100
AcDbSymbolTableRecord
100
AcDbRegAppTableRecord
  2
GENIUS_GEFSHP0_13
 70
     0
  0
APPID
  5
47E
330
9
100
AcDbSymbolTableRecord
100
AcDbRegAppTableRecord
  2
GENIUS_GEFSH0_13
 70
     0
  0
APPID
  5
47F
330
9
100
AcDbSymbolTableRecord
100
AcDbRegAppTableRecord
  2
GENIUS_GEFSHP1_13
 70
     0
  0
APPID
  5
480
330
9
100
AcDbSymbolTableRecord
100
AcDbRegAppTableRecord
  2
GENIUS_GEFSH1_13
 70
     0
  0
APPID
  5
481
330
9
100
AcDbSymbolTableRecord
100
AcDbRegAppTableRecord
  2
GEVID1208866337
 70
     0
  0
APPID
  5
482
330
9
100
AcDbSymbolTableRecord
100
AcDbRegAppTableRecord
  2
GEVID1208866338
 70
     0
  0
APPID
  5
483
330
9
100
AcDbSymbolTableRecord
100
AcDbRegAppTableRecord
  2
GEVID1208866339
 70
     0
  0
APPID
  5
484
330
9
100
AcDbSymbolTableRecord
100
AcDbRegAppTableRecord
  2
GEVID1208866340
 70
     0
  0
APPID
  5
485
330
9
100
AcDbSymbolTableRecord
100
AcDbRegAppTableRecord
  2
GEVID1208866341
 70
     0
  0
APPID
  5
486
330
9
100
AcDbSymbolTableRecord
100
AcDbRegAppTableRecord
  2
ACAD_PSEXT
 70
     0
  0
APPID
  5
487
330
9
100
AcDbSymbolTableRecord
100
AcDbRegAppTableRecord
  2
GEVID1208866342
 70
     0
  0
APPID
  5
488
330
9
100
AcDbSymbolTableRecord
100
AcDbRegAppTableRecord
  2
GEVID1208913836
 70
     0
  0
APPID
  5
489
330
9
100
AcDbSymbolTableRecord
100
AcDbRegAppTableRecord
  2
GEVID1208913837
 70
     0
  0
APPID
  5
48A
330
9
100
AcDbSymbolTableRecord
100
AcDbRegAppTableRecord
  2
GEVID1208913838
 70
     0
  0
APPID
  5
48B
330
9
100
AcDbSymbolTableRecord
100
AcDbRegAppTableRecord
  2
GEVID1208913839
 70
     0
  0
APPID
  5
48C
330
9
100
AcDbSymbolTableRecord
100
AcDbRegAppTableRecord
  2
GENIUS_GENDTOL_13
 70
     0
  0
APPID
  5
48D
330
9
100
AcDbSymbolTableRecord
100
AcDbRegAppTableRecord
  2
GEVID1208928889
 70
     0
  0
APPID
  5
48E
330
9
100
AcDbSymbolTableRecord
100
AcDbRegAppTableRecord
  2
GEVID1208928890
 70
     0
  0
APPID
  5
48F
330
9
100
AcDbSymbolTableRecord
100
AcDbRegAppTableRecord
  2
GEVID1208928891
 70
     0
  0
APPID
  5
490
330
9
100
AcDbSymbolTableRecord
100
AcDbRegAppTableRecord
  2
GEVID1208928892
 70
     0
  0
APPID
  5
491
330
9
100
AcDbSymbolTableRecord
100
AcDbRegAppTableRecord
  2
GEVID1208933827
 70
     0
  0
APPID
  5
492
330
9
100
AcDbSymbolTableRecord
100
AcDbRegAppTableRecord
  2
GEVID1208933829
 70
     0
  0
APPID
  5
493
330
9
100
AcDbSymbolTableRecord
100
AcDbRegAppTableRecord
  2
GEVID1208933830
 70
     0
  0
APPID
  5
494
330
9
100
AcDbSymbolTableRecord
100
AcDbRegAppTableRecord
  2
GEVID1208933831
 70
     0
  0
APPID
  5
495
330
9
100
AcDbSymbolTableRecord
100
AcDbRegAppTableRecord
  2
GEVID1208933832
 70
     0
  0
APPID
  5
496
330
9
100
AcDbSymbolTableRecord
100
AcDbRegAppTableRecord
  2
GEVID1208933833
 70
     0
  0
APPID
  5
497
330
9
100
AcDbSymbolTableRecord
100
AcDbRegAppTableRecord
  2
GEVID1208933834
 70
     0
  0
APPID
  5
498
330
9
100
AcDbSymbolTableRecord
100
AcDbRegAppTableRecord
  2
GEVID1208933835
 70
     0
  0
APPID
  5
499
330
9
100
AcDbSymbolTableRecord
100
AcDbRegAppTableRecord
  2
GEVID1208933836
 70
     0
  0
APPID
  5
49A
330
9
100
AcDbSymbolTableRecord
100
AcDbRegAppTableRecord
  2
GEVID1208933837
 70
     0
  0
APPID
  5
49B
330
9
100
AcDbSymbolTableRecord
100
AcDbRegAppTableRecord
  2
GEVID1208933838
 70
     0
  0
APPID
  5
49C
330
9
100
AcDbSymbolTableRecord
100
AcDbRegAppTableRecord
  2
GEVID1208933840
 70
     0
  0
APPID
  5
49D
330
9
100
AcDbSymbolTableRecord
100
AcDbRegAppTableRecord
  2
GEVID1208933842
 70
     0
  0
APPID
  5
49E
330
9
100
AcDbSymbolTableRecord
100
AcDbRegAppTableRecord
  2
GEVID1208933843
 70
     0
  0
APPID
  5
49F
330
9
100
AcDbSymbolTableRecord
100
AcDbRegAppTableRecord
  2
GEVID1208933844
 70
     0
  0
APPID
  5
4A0
330
9
100
AcDbSymbolTableRecord
100
AcDbRegAppTableRecord
  2
GEVID1208933845
 70
     0
  0
APPID
  5
4A1
330
9
100
AcDbSymbolTableRecord
100
AcDbRegAppTableRecord
  2
GEVID1208933846
 70
     0
  0
APPID
  5
4A2
330
9
100
AcDbSymbolTableRecord
100
AcDbRegAppTableRecord
  2
GEVID1208933847
 70
     0
  0
APPID
  5
4A3
330
9
100
AcDbSymbolTableRecord
100
AcDbRegAppTableRecord
  2
GEVID1208933848
 70
     0
  0
APPID
  5
4A4
330
9
100
AcDbSymbolTableRecord
100
AcDbRegAppTableRecord
  2
GEVID1208933849
 70
     0
  0
APPID
  5
4A5
330
9
100
AcDbSymbolTableRecord
100
AcDbRegAppTableRecord
  2
GEVID1208933850
 70
     0
  0
APPID
  5
4A6
330
9
100
AcDbSymbolTableRecord
100
AcDbRegAppTableRecord
  2
GEVID1208933851
 70
     0
  0
APPID
  5
4A7
330
9
100
AcDbSymbolTableRecord
100
AcDbRegAppTableRecord
  2
GEVID1208933852
 70
     0
  0
APPID
  5
4A8
330
9
100
AcDbSymbolTableRecord
100
AcDbRegAppTableRecord
  2
GEVID1208933853
 70
     0
  0
APPID
  5
4A9
330
9
100
AcDbSymbolTableRecord
100
AcDbRegAppTableRecord
  2
GEVID1208933854
 70
     0
  0
APPID
  5
4AA
330
9
100
AcDbSymbolTableRecord
100
AcDbRegAppTableRecord
  2
GEVID1208933855
 70
     0
  0
APPID
  5
4AB
330
9
100
AcDbSymbolTableRecord
100
AcDbRegAppTableRecord
  2
GEVID1208933856
 70
     0
  0
APPID
  5
4AC
330
9
100
AcDbSymbolTableRecord
100
AcDbRegAppTableRecord
  2
GEVID1208933857
 70
     0
  0
APPID
  5
4AD
330
9
100
AcDbSymbolTableRecord
100
AcDbRegAppTableRecord
  2
GEVID1208933858
 70
     0
  0
APPID
  5
4AE
330
9
100
AcDbSymbolTableRecord
100
AcDbRegAppTableRecord
  2
GEVID1208933859
 70
     0
  0
APPID
  5
4AF
330
9
100
AcDbSymbolTableRecord
100
AcDbRegAppTableRecord
  2
GEVID1208933860
 70
     0
  0
APPID
  5
4B0
330
9
100
AcDbSymbolTableRecord
100
AcDbRegAppTableRecord
  2
GEVID1208933861
 70
     0
  0
APPID
  5
4B1
330
9
100
AcDbSymbolTableRecord
100
AcDbRegAppTableRecord
  2
GEVID1208933862
 70
     0
  0
APPID
  5
4B2
330
9
100
AcDbSymbolTableRecord
100
AcDbRegAppTableRecord
  2
GEVID1208933863
 70
     0
  0
APPID
  5
4B3
330
9
100
AcDbSymbolTableRecord
100
AcDbRegAppTableRecord
  2
GEVID1208933864
 70
     0
  0
APPID
  5
4B4
330
9
100
AcDbSymbolTableRecord
100
AcDbRegAppTableRecord
  2
GEVID1208933865
 70
     0
  0
APPID
  5
4B5
330
9
100
AcDbSymbolTableRecord
100
AcDbRegAppTableRecord
  2
GEVID1208933866
 70
     0
  0
APPID
  5
4B6
330
9
100
AcDbSymbolTableRecord
100
AcDbRegAppTableRecord
  2
GEVID1208933867
 70
     0
  0
APPID
  5
4B7
330
9
100
AcDbSymbolTableRecord
100
AcDbRegAppTableRecord
  2
GEVID1208933868
 70
     0
  0
APPID
  5
4B8
330
9
100
AcDbSymbolTableRecord
100
AcDbRegAppTableRecord
  2
GEVID1208933869
 70
     0
  0
APPID
  5
4B9
330
9
100
AcDbSymbolTableRecord
100
AcDbRegAppTableRecord
  2
GEVID1208933870
 70
     0
  0
APPID
  5
4BA
330
9
100
AcDbSymbolTableRecord
100
AcDbRegAppTableRecord
  2
GEVID1208933871
 70
     0
  0
APPID
  5
4BB
330
9
100
AcDbSymbolTableRecord
100
AcDbRegAppTableRecord
  2
GEVID1208933872
 70
     0
  0
APPID
  5
4BC
330
9
100
AcDbSymbolTableRecord
100
AcDbRegAppTableRecord
  2
GEVID1208933873
 70
     0
  0
APPID
  5
4BD
330
9
100
AcDbSymbolTableRecord
100
AcDbRegAppTableRecord
  2
GEVID1208933874
 70
     0
  0
APPID
  5
4BE
330
9
100
AcDbSymbolTableRecord
100
AcDbRegAppTableRecord
  2
GEVID1208933875
 70
     0
  0
APPID
  5
4BF
330
9
100
AcDbSymbolTableRecord
100
AcDbRegAppTableRecord
  2
GEVID1208933876
 70
     0
  0
APPID
  5
4C0
330
9
100
AcDbSymbolTableRecord
100
AcDbRegAppTableRecord
  2
ACAD_DSTYLE_DIMRADIAL_EXTENSION
 70
     0
  0
APPID
  5
4C1
330
9
100
AcDbSymbolTableRecord
100
AcDbRegAppTableRecord
  2
GEVID1208999100
 70
     0
  0
APPID
  5
4C2
330
9
100
AcDbSymbolTableRecord
100
AcDbRegAppTableRecord
  2
GEVID1208999101
 70
     0
  0
APPID
  5
4C3
330
9
100
AcDbSymbolTableRecord
100
AcDbRegAppTableRecord
  2
GEVID1208999102
 70
     0
  0
APPID
  5
4C4
330
9
100
AcDbSymbolTableRecord
100
AcDbRegAppTableRecord
  2
GEVID1208999103
 70
     0
  0
APPID
  5
4C5
330
9
100
AcDbSymbolTableRecord
100
AcDbRegAppTableRecord
  2
GEVID1208999105
 70
     0
  0
APPID
  5
4C6
330
9
100
AcDbSymbolTableRecord
100
AcDbRegAppTableRecord
  2
GEVID1208999106
 70
     0
  0
APPID
  5
4C7
330
9
100
AcDbSymbolTableRecord
100
AcDbRegAppTableRecord
  2
GEVID1208999108
 70
     0
  0
APPID
  5
4C8
330
9
100
AcDbSymbolTableRecord
100
AcDbRegAppTableRecord
  2
GEVID1208999109
 70
     0
  0
APPID
  5
4C9
330
9
100
AcDbSymbolTableRecord
100
AcDbRegAppTableRecord
  2
GEVID1208999110
 70
     0
  0
APPID
  5
4CA
330
9
100
AcDbSymbolTableRecord
100
AcDbRegAppTableRecord
  2
GEVID1208999111
 70
     0
  0
APPID
  5
4CB
330
9
100
AcDbSymbolTableRecord
100
AcDbRegAppTableRecord
  2
GEVID1208999112
 70
     0
  0
APPID
  5
4CC
330
9
100
AcDbSymbolTableRecord
100
AcDbRegAppTableRecord
  2
GEVID1208999113
 70
     0
  0
APPID
  5
4CD
330
9
100
AcDbSymbolTableRecord
100
AcDbRegAppTableRecord
  2
GEVID1208999114
 70
     0
  0
APPID
  5
4CE
330
9
100
AcDbSymbolTableRecord
100
AcDbRegAppTableRecord
  2
GEVID1210218799
 70
     0
  0
APPID
  5
4CF
330
9
100
AcDbSymbolTableRecord
100
AcDbRegAppTableRecord
  2
GEVID1210218800
 70
     0
  0
APPID
  5
4D0
330
9
100
AcDbSymbolTableRecord
100
AcDbRegAppTableRecord
  2
GENIUS_GEFWELD_13
 70
     0
  0
APPID
  5
4D1
330
9
100
AcDbSymbolTableRecord
100
AcDbRegAppTableRecord
  2
GENIUS_GENOBJ-F-WELS_13
 70
     0
  0
APPID
  5
4D2
330
9
100
AcDbSymbolTableRecord
100
AcDbRegAppTableRecord
  2
AcadAnnotative
 70
     0
  0
APPID
  5
4D3
330
9
100
AcDbSymbolTableRecord
100
AcDbRegAppTableRecord
  2
GEVID1210145339
 70
     0
  0
APPID
  5
4D4
330
9
100
AcDbSymbolTableRecord
100
AcDbRegAppTableRecord
  2
ACAD_DSTYLE_DIMBREAK
 70
     0
  0
APPID
  5
4D5
330
9
100
AcDbSymbolTableRecord
100
AcDbRegAppTableRecord
  2
GEVID1210145340
 70
     0
  0
APPID
  5
4D6
330
9
100
AcDbSymbolTableRecord
100
AcDbRegAppTableRecord
  2
GEVID1210145341
 70
     0
  0
APPID
  5
4D7
330
9
100
AcDbSymbolTableRecord
100
AcDbRegAppTableRecord
  2
GEVID1210145342
 70
     0
  0
APPID
  5
4D8
330
9
100
AcDbSymbolTableRecord
100
AcDbRegAppTableRecord
  2
GEVID1210145343
 70
     0
  0
APPID
  5
4D9
330
9
100
AcDbSymbolTableRecord
100
AcDbRegAppTableRecord
  2
GEVID1210145344
 70
     0
  0
APPID
  5
4DA
330
9
100
AcDbSymbolTableRecord
100
AcDbRegAppTableRecord
  2
GEVID1210145345
 70
     0
  0
APPID
  5
4DB
330
9
100
AcDbSymbolTableRecord
100
AcDbRegAppTableRecord
  2
GEVID1210152816
 70
     0
  0
APPID
  5
4DC
330
9
100
AcDbSymbolTableRecord
100
AcDbRegAppTableRecord
  2
GEVID1210153850
 70
     0
  0
APPID
  5
4DD
330
9
100
AcDbSymbolTableRecord
100
AcDbRegAppTableRecord
  2
GEVID1210153851
 70
     0
  0
APPID
  5
4DE
330
9
100
AcDbSymbolTableRecord
100
AcDbRegAppTableRecord
  2
GEVID1210153852
 70
     0
  0
APPID
  5
4DF
330
9
100
AcDbSymbolTableRecord
100
AcDbRegAppTableRecord
  2
GEVID1210549898
 70
     0
  0
APPID
  5
4E0
330
9
100
AcDbSymbolTableRecord
100
AcDbRegAppTableRecord
  2
GEVID1210549899
 70
     0
  0
APPID
  5
4E1
330
9
100
AcDbSymbolTableRecord
100
AcDbRegAppTableRecord
  2
GEVID1210549900
 70
     0
  0
APPID
  5
4E2
330
9
100
AcDbSymbolTableRecord
100
AcDbRegAppTableRecord
  2
GEVID1210549901
 70
     0
  0
APPID
  5
4E3
330
9
100
AcDbSymbolTableRecord
100
AcDbRegAppTableRecord
  2
GEVID1210549902
 70
     0
  0
APPID
  5
4E4
330
9
100
AcDbSymbolTableRecord
100
AcDbRegAppTableRecord
  2
GEVID1210549903
 70
     0
  0
APPID
  5
4E5
330
9
100
AcDbSymbolTableRecord
100
AcDbRegAppTableRecord
  2
GEVID1210549904
 70
     0
  0
APPID
  5
4E6
330
9
100
AcDbSymbolTableRecord
100
AcDbRegAppTableRecord
  2
GEVID1210549905
 70
     0
  0
APPID
  5
4E7
330
9
100
AcDbSymbolTableRecord
100
AcDbRegAppTableRecord
  2
GEVID1210549906
 70
     0
  0
APPID
  5
4E8
330
9
100
AcDbSymbolTableRecord
100
AcDbRegAppTableRecord
  2
GEVID1210549907
 70
     0
  0
APPID
  5
4E9
330
9
100
AcDbSymbolTableRecord
100
AcDbRegAppTableRecord
  2
GEVID1210549908
 70
     0
  0
APPID
  5
4EA
330
9
100
AcDbSymbolTableRecord
100
AcDbRegAppTableRecord
  2
GEVID1210549909
 70
     0
  0
APPID
  5
4EB
330
9
100
AcDbSymbolTableRecord
100
AcDbRegAppTableRecord
  2
GEVID1210549910
 70
     0
  0
APPID
  5
4EC
330
9
100
AcDbSymbolTableRecord
100
AcDbRegAppTableRecord
  2
GEVID1210549911
 70
     0
  0
APPID
  5
4ED
330
9
100
AcDbSymbolTableRecord
100
AcDbRegAppTableRecord
  2
GEVID1210549912
 70
     0
  0
APPID
  5
4EE
330
9
100
AcDbSymbolTableRecord
100
AcDbRegAppTableRecord
  2
GEVID1210549913
 70
     0
  0
APPID
  5
4EF
330
9
100
AcDbSymbolTableRecord
100
AcDbRegAppTableRecord
  2
GEVID1210549914
 70
     0
  0
APPID
  5
4F0
330
9
100
AcDbSymbolTableRecord
100
AcDbRegAppTableRecord
  2
GEVID1210549915
 70
     0
  0
APPID
  5
4F1
330
9
100
AcDbSymbolTableRecord
100
AcDbRegAppTableRecord
  2
GEVID1210549916
 70
     0
  0
APPID
  5
4F2
330
9
100
AcDbSymbolTableRecord
100
AcDbRegAppTableRecord
  2
GEVID1210549917
 70
     0
  0
APPID
  5
4F3
330
9
100
AcDbSymbolTableRecord
100
AcDbRegAppTableRecord
  2
GENIUS_GENOBJ-N-CRS_13
 70
     0
  0
APPID
  5
4F4
330
9
100
AcDbSymbolTableRecord
100
AcDbRegAppTableRecord
  2
GEVID1210549918
 70
     0
  0
APPID
  5
4F5
330
9
100
AcDbSymbolTableRecord
100
AcDbRegAppTableRecord
  2
GENIUS_GENOBJ-N-CRC_13
 70
     0
  0
APPID
  5
4F6
330
9
100
AcDbSymbolTableRecord
100
AcDbRegAppTableRecord
  2
GENIUS_GENCRC_14
 70
     0
  0
APPID
  5
4F7
330
9
100
AcDbSymbolTableRecord
100
AcDbRegAppTableRecord
  2
GEVID1210549919
 70
     0
  0
APPID
  5
4F8
330
9
100
AcDbSymbolTableRecord
100
AcDbRegAppTableRecord
  2
GEVID1210549921
 70
     0
  0
APPID
  5
4F9
330
9
100
AcDbSymbolTableRecord
100
AcDbRegAppTableRecord
  2
GEVID1210549922
 70
     0
  0
APPID
  5
4FA
330
9
100
AcDbSymbolTableRecord
100
AcDbRegAppTableRecord
  2
GEVID1210635173
 70
     0
  0
APPID
  5
4FB
330
9
100
AcDbSymbolTableRecord
100
AcDbRegAppTableRecord
  2
GEVID1210635174
 70
     0
  0
APPID
  5
4FC
330
9
100
AcDbSymbolTableRecord
100
AcDbRegAppTableRecord
  2
GEVID1210635175
 70
     0
  0
APPID
  5
4FD
330
9
100
AcDbSymbolTableRecord
100
AcDbRegAppTableRecord
  2
GEVID1210635176
 70
     0
  0
APPID
  5
4FE
330
9
100
AcDbSymbolTableRecord
100
AcDbRegAppTableRecord
  2
GEVID1210635177
 70
     0
  0
APPID
  5
4FF
330
9
100
AcDbSymbolTableRecord
100
AcDbRegAppTableRecord
  2
GEVID1210635178
 70
     0
  0
APPID
  5
500
330
9
100
AcDbSymbolTableRecord
100
AcDbRegAppTableRecord
  2
GENIUS_GENIUS_GENBHEDTMP_13
 70
     0
  0
APPID
  5
501
330
9
100
AcDbSymbolTableRecord
100
AcDbRegAppTableRecord
  2
GEVID1210635179
 70
     0
  0
APPID
  5
502
330
9
100
AcDbSymbolTableRecord
100
AcDbRegAppTableRecord
  2
GEVID1210635180
 70
     0
  0
APPID
  5
503
330
9
100
AcDbSymbolTableRecord
100
AcDbRegAppTableRecord
  2
GEVID1210635181
 70
     0
  0
APPID
  5
504
330
9
100
AcDbSymbolTableRecord
100
AcDbRegAppTableRecord
  2
GEVID1210635182
 70
     0
  0
APPID
  5
505
330
9
100
AcDbSymbolTableRecord
100
AcDbRegAppTableRecord
  2
GEVID1210635184
 70
     0
  0
APPID
  5
506
330
9
100
AcDbSymbolTableRecord
100
AcDbRegAppTableRecord
  2
GEVID1210635185
 70
     0
  0
APPID
  5
507
330
9
100
AcDbSymbolTableRecord
100
AcDbRegAppTableRecord
  2
GEVID1210635186
 70
     0
  0
APPID
  5
508
330
9
100
AcDbSymbolTableRecord
100
AcDbRegAppTableRecord
  2
GEVID1210635187
 70
     0
  0
APPID
  5
509
330
9
100
AcDbSymbolTableRecord
100
AcDbRegAppTableRecord
  2
GEVID1210635188
 70
     0
  0
APPID
  5
50A
330
9
100
AcDbSymbolTableRecord
100
AcDbRegAppTableRecord
  2
GEVID1210635189
 70
     0
  0
APPID
  5
50B
330
9
100
AcDbSymbolTableRecord
100
AcDbRegAppTableRecord
  2
GEVID1210635190
 70
     0
  0
APPID
  5
50C
330
9
100
AcDbSymbolTableRecord
100
AcDbRegAppTableRecord
  2
GENIUS_GENREC_14
 70
     0
  0
APPID
  5
50D
330
9
100
AcDbSymbolTableRecord
100
AcDbRegAppTableRecord
  2
GENIUS_GENOBJ-N-REC_13
 70
     0
  0
APPID
  5
50E
330
9
100
AcDbSymbolTableRecord
100
AcDbRegAppTableRecord
  2
GEVID1210676655
 70
     0
  0
APPID
  5
50F
330
9
100
AcDbSymbolTableRecord
100
AcDbRegAppTableRecord
  2
GEVID1210676656
 70
     0
  0
APPID
  5
510
330
9
100
AcDbSymbolTableRecord
100
AcDbRegAppTableRecord
  2
GEVID1210676657
 70
     0
  0
APPID
  5
511
330
9
100
AcDbSymbolTableRecord
100
AcDbRegAppTableRecord
  2
GEVID1210676659
 70
     0
  0
APPID
  5
512
330
9
100
AcDbSymbolTableRecord
100
AcDbRegAppTableRecord
  2
GEVID1210676660
 70
     0
  0
APPID
  5
513
330
9
100
AcDbSymbolTableRecord
100
AcDbRegAppTableRecord
  2
GEVID1210676661
 70
     0
  0
APPID
  5
514
330
9
100
AcDbSymbolTableRecord
100
AcDbRegAppTableRecord
  2
GEVID1210676662
 70
     0
  0
APPID
  5
515
330
9
100
AcDbSymbolTableRecord
100
AcDbRegAppTableRecord
  2
GEVID1210721646
 70
     0
  0
APPID
  5
516
330
9
100
AcDbSymbolTableRecord
100
AcDbRegAppTableRecord
  2
GEVID1210721647
 70
     0
  0
APPID
  5
517
330
9
100
AcDbSymbolTableRecord
100
AcDbRegAppTableRecord
  2
GEVID1210721648
 70
     0
  0
APPID
  5
518
330
9
100
AcDbSymbolTableRecord
100
AcDbRegAppTableRecord
  2
GEVID1210721649
 70
     0
  0
APPID
  5
519
330
9
100
AcDbSymbolTableRecord
100
AcDbRegAppTableRecord
  2
GEVID1210721650
 70
     0
  0
APPID
  5
51A
330
9
100
AcDbSymbolTableRecord
100
AcDbRegAppTableRecord
  2
GEVID1210721651
 70
     0
  0
APPID
  5
51B
330
9
100
AcDbSymbolTableRecord
100
AcDbRegAppTableRecord
  2
GEVID1210721652
 70
     0
  0
APPID
  5
51C
330
9
100
AcDbSymbolTableRecord
100
AcDbRegAppTableRecord
  2
GEVID1210721653
 70
     0
  0
APPID
  5
51D
330
9
100
AcDbSymbolTableRecord
100
AcDbRegAppTableRecord
  2
PE_URL
 70
     0
  0
APPID
  5
51E
330
9
100
AcDbSymbolTableRecord
100
AcDbRegAppTableRecord
  2
GEVID1210825555
 70
     0
  0
APPID
  5
51F
330
9
100
AcDbSymbolTableRecord
100
AcDbRegAppTableRecord
  2
GEVID1210825556
 70
     0
  0
APPID
  5
520
330
9
100
AcDbSymbolTableRecord
100
AcDbRegAppTableRecord
  2
GEVID1210825557
 70
     0
  0
APPID
  5
521
330
9
100
AcDbSymbolTableRecord
100
AcDbRegAppTableRecord
  2
GEVID1210825558
 70
     0
  0
APPID
  5
522
330
9
100
AcDbSymbolTableRecord
100
AcDbRegAppTableRecord
  2
GEVID1210825559
 70
     0
  0
APPID
  5
523
330
9
100
AcDbSymbolTableRecord
100
AcDbRegAppTableRecord
  2
GEVID1210825560
 70
     0
  0
APPID
  5
524
330
9
100
AcDbSymbolTableRecord
100
AcDbRegAppTableRecord
  2
GEVID1210825561
 70
     0
  0
APPID
  5
525
330
9
100
AcDbSymbolTableRecord
100
AcDbRegAppTableRecord
  2
GEVID1210825562
 70
     0
  0
APPID
  5
526
330
9
100
AcDbSymbolTableRecord
100
AcDbRegAppTableRecord
  2
GEVID1210825563
 70
     0
  0
APPID
  5
527
330
9
100
AcDbSymbolTableRecord
100
AcDbRegAppTableRecord
  2
GEVID1210825564
 70
     0
  0
APPID
  5
528
330
9
100
AcDbSymbolTableRecord
100
AcDbRegAppTableRecord
  2
GEVID1210825565
 70
     0
  0
APPID
  5
529
330
9
100
AcDbSymbolTableRecord
100
AcDbRegAppTableRecord
  2
GEVID1210825566
 70
     0
  0
APPID
  5
52A
330
9
100
AcDbSymbolTableRecord
100
AcDbRegAppTableRecord
  2
GEVID1210825567
 70
     0
  0
APPID
  5
52B
330
9
100
AcDbSymbolTableRecord
100
AcDbRegAppTableRecord
  2
GENIUS_GENOBJ-N-ZOO_13
 70
     0
  0
APPID
  5
52C
330
9
100
AcDbSymbolTableRecord
100
AcDbRegAppTableRecord
  2
GENIUS_GENZOO_17
 70
     0
  0
APPID
  5
52D
330
9
100
AcDbSymbolTableRecord
100
AcDbRegAppTableRecord
  2
ACADANNOTATIVEDECOMPOSITION
 70
     0
  0
APPID
  5
52E
330
9
100
AcDbSymbolTableRecord
100
AcDbRegAppTableRecord
  2
GENIUS_GENOBJ-N-HTC_13
 70
     0
  0
APPID
  5
52F
330
9
100
AcDbSymbolTableRecord
100
AcDbRegAppTableRecord
  2
GENIUS_GENHATCH_13
 70
     0
  0
APPID
  5
530
330
9
100
AcDbSymbolTableRecord
100
AcDbRegAppTableRecord
  2
GEVID1210896020
 70
     0
  0
APPID
  5
531
330
9
100
AcDbSymbolTableRecord
100
AcDbRegAppTableRecord
  2
GEVID1210896021
 70
     0
  0
APPID
  5
532
330
9
100
AcDbSymbolTableRecord
100
AcDbRegAppTableRecord
  2
GEVID1209083540
 70
     0
  0
APPID
  5
533
330
9
100
AcDbSymbolTableRecord
100
AcDbRegAppTableRecord
  2
GEVMK
 70
     0
  0
APPID
  5
534
330
9
100
AcDbSymbolTableRecord
100
AcDbRegAppTableRecord
  2
GEVID1209083542
 70
     0
  0
APPID
  5
535
330
9
100
AcDbSymbolTableRecord
100
AcDbRegAppTableRecord
  2
GEVID1209083543
 70
     0
  0
APPID
  5
536
330
9
100
AcDbSymbolTableRecord
100
AcDbRegAppTableRecord
  2
GEVID1209083544
 70
     0
  0
APPID
  5
537
330
9
100
AcDbSymbolTableRecord
100
AcDbRegAppTableRecord
  2
GEVID1209083545
 70
     0
  0
APPID
  5
538
330
9
100
AcDbSymbolTableRecord
100
AcDbRegAppTableRecord
  2
GEVID1209083546
 70
     0
  0
APPID
  5
539
330
9
100
AcDbSymbolTableRecord
100
AcDbRegAppTableRecord
  2
GEVID1209083547
 70
     0
  0
APPID
  5
53A
330
9
100
AcDbSymbolTableRecord
100
AcDbRegAppTableRecord
  2
GEVID1209083548
 70
     0
  0
APPID
  5
53B
330
9
100
AcDbSymbolTableRecord
100
AcDbRegAppTableRecord
  2
GEVID1209083549
 70
     0
  0
APPID
  5
53C
330
9
100
AcDbSymbolTableRecord
100
AcDbRegAppTableRecord
  2
GEVID1209083550
 70
     0
  0
APPID
  5
53D
330
9
100
AcDbSymbolTableRecord
100
AcDbRegAppTableRecord
  2
GEVID1209083551
 70
     0
  0
APPID
  5
53E
330
9
100
AcDbSymbolTableRecord
100
AcDbRegAppTableRecord
  2
GEVID1209083552
 70
     0
  0
APPID
  5
53F
330
9
100
AcDbSymbolTableRecord
100
AcDbRegAppTableRecord
  2
GEVID1209083553
 70
     0
  0
APPID
  5
540
330
9
100
AcDbSymbolTableRecord
100
AcDbRegAppTableRecord
  2
GEVID1210896022
 70
     0
  0
APPID
  5
541
330
9
100
AcDbSymbolTableRecord
100
AcDbRegAppTableRecord
  2
GEVID1211508364
 70
     0
  0
APPID
  5
542
330
9
100
AcDbSymbolTableRecord
100
AcDbRegAppTableRecord
  2
GEVID1211414908
 70
     0
  0
APPID
  5
543
330
9
100
AcDbSymbolTableRecord
100
AcDbRegAppTableRecord
  2
GEVID1211414909
 70
     0
  0
APPID
  5
544
330
9
100
AcDbSymbolTableRecord
100
AcDbRegAppTableRecord
  2
GEVID1211508359
 70
     0
  0
APPID
  5
545
330
9
100
AcDbSymbolTableRecord
100
AcDbRegAppTableRecord
  2
GEVID1211508360
 70
     0
  0
APPID
  5
546
330
9
100
AcDbSymbolTableRecord
100
AcDbRegAppTableRecord
  2
GEVID1211508361
 70
     0
  0
APPID
  5
547
330
9
100
AcDbSymbolTableRecord
100
AcDbRegAppTableRecord
  2
GEVID1211508362
 70
     0
  0
APPID
  5
548
330
9
100
AcDbSymbolTableRecord
100
AcDbRegAppTableRecord
  2
GEVID1211508363
 70
     0
  0
APPID
  5
549
330
9
100
AcDbSymbolTableRecord
100
AcDbRegAppTableRecord
  2
GEVID1211878469
 70
     0
  0
APPID
  5
54A
330
9
100
AcDbSymbolTableRecord
100
AcDbRegAppTableRecord
  2
GEVID1212642819
 70
     0
  0
APPID
  5
54B
330
9
100
AcDbSymbolTableRecord
100
AcDbRegAppTableRecord
  2
GEVID1212642820
 70
     0
  0
APPID
  5
54C
330
9
100
AcDbSymbolTableRecord
100
AcDbRegAppTableRecord
  2
GEVID1212642821
 70
     0
  0
APPID
  5
54D
330
9
100
AcDbSymbolTableRecord
100
AcDbRegAppTableRecord
  2
GEVID1212642822
 70
     0
  0
APPID
  5
54E
330
9
100
AcDbSymbolTableRecord
100
AcDbRegAppTableRecord
  2
GEVID1212642823
 70
     0
  0
APPID
  5
54F
330
9
100
AcDbSymbolTableRecord
100
AcDbRegAppTableRecord
  2
GEVID1212642825
 70
     0
  0
APPID
  5
550
330
9
100
AcDbSymbolTableRecord
100
AcDbRegAppTableRecord
  2
GEVID1212642826
 70
     0
  0
APPID
  5
551
330
9
100
AcDbSymbolTableRecord
100
AcDbRegAppTableRecord
  2
GEVID1212642827
 70
     0
  0
APPID
  5
552
330
9
100
AcDbSymbolTableRecord
100
AcDbRegAppTableRecord
  2
GEVID1212642828
 70
     0
  0
APPID
  5
553
330
9
100
AcDbSymbolTableRecord
100
AcDbRegAppTableRecord
  2
GEVID1212642831
 70
     0
  0
APPID
  5
554
330
9
100
AcDbSymbolTableRecord
100
AcDbRegAppTableRecord
  2
GEVID1212642834
 70
     0
  0
APPID
  5
555
330
9
100
AcDbSymbolTableRecord
100
AcDbRegAppTableRecord
  2
GEVID1212642835
 70
     0
  0
APPID
  5
556
330
9
100
AcDbSymbolTableRecord
100
AcDbRegAppTableRecord
  2
GEVID1212642836
 70
     0
  0
APPID
  5
557
330
9
100
AcDbSymbolTableRecord
100
AcDbRegAppTableRecord
  2
GEVID1212642837
 70
     0
  0
APPID
  5
558
330
9
100
AcDbSymbolTableRecord
100
AcDbRegAppTableRecord
  2
GEVID1212642839
 70
     0
  0
APPID
  5
559
330
9
100
AcDbSymbolTableRecord
100
AcDbRegAppTableRecord
  2
GEVID1212642840
 70
     0
  0
APPID
  5
55A
330
9
100
AcDbSymbolTableRecord
100
AcDbRegAppTableRecord
  2
GEVID1212642841
 70
     0
  0
APPID
  5
55B
330
9
100
AcDbSymbolTableRecord
100
AcDbRegAppTableRecord
  2
GEVID1212655312
 70
     0
  0
APPID
  5
55C
330
9
100
AcDbSymbolTableRecord
100
AcDbRegAppTableRecord
  2
GEVID1212655313
 70
     0
  0
APPID
  5
55D
330
9
100
AcDbSymbolTableRecord
100
AcDbRegAppTableRecord
  2
GEVID1212656533
 70
     0
  0
APPID
  5
55E
330
9
100
AcDbSymbolTableRecord
100
AcDbRegAppTableRecord
  2
GEVID1212656534
 70
     0
  0
APPID
  5
55F
330
9
100
AcDbSymbolTableRecord
100
AcDbRegAppTableRecord
  2
GEVID1212656535
 70
     0
  0
APPID
  5
560
330
9
100
AcDbSymbolTableRecord
100
AcDbRegAppTableRecord
  2
GEVID1212656536
 70
     0
  0
APPID
  5
561
330
9
100
AcDbSymbolTableRecord
100
AcDbRegAppTableRecord
  2
GEVID1212656538
 70
     0
  0
APPID
  5
562
330
9
100
AcDbSymbolTableRecord
100
AcDbRegAppTableRecord
  2
GEVID1212656541
 70
     0
  0
APPID
  5
563
330
9
100
AcDbSymbolTableRecord
100
AcDbRegAppTableRecord
  2
GEVID1212656543
 70
     0
  0
APPID
  5
564
330
9
100
AcDbSymbolTableRecord
100
AcDbRegAppTableRecord
  2
GENIUS_GENOBJ-F-PFASSM_13
 70
     0
  0
APPID
  5
565
330
9
100
AcDbSymbolTableRecord
100
AcDbRegAppTableRecord
  2
GEVID1212656544
 70
     0
  0
APPID
  5
566
330
9
100
AcDbSymbolTableRecord
100
AcDbRegAppTableRecord
  2
GEVID1212656545
 70
     0
  0
APPID
  5
567
330
9
100
AcDbSymbolTableRecord
100
AcDbRegAppTableRecord
  2
GEVID1212656546
 70
     0
  0
APPID
  5
568
330
9
100
AcDbSymbolTableRecord
100
AcDbRegAppTableRecord
  2
GEVID1212656547
 70
     0
  0
APPID
  5
569
330
9
100
AcDbSymbolTableRecord
100
AcDbRegAppTableRecord
  2
GEVID1212656548
 70
     0
  0
APPID
  5
56A
330
9
100
AcDbSymbolTableRecord
100
AcDbRegAppTableRecord
  2
GEVID1212656549
 70
     0
  0
APPID
  5
56B
330
9
100
AcDbSymbolTableRecord
100
AcDbRegAppTableRecord
  2
GEVID1212656550
 70
     0
  0
APPID
  5
56C
330
9
100
AcDbSymbolTableRecord
100
AcDbRegAppTableRecord
  2
GEVID1212656552
 70
     0
  0
APPID
  5
56D
330
9
100
AcDbSymbolTableRecord
100
AcDbRegAppTableRecord
  2
GEVID1212656553
 70
     0
  0
APPID
  5
56E
330
9
100
AcDbSymbolTableRecord
100
AcDbRegAppTableRecord
  2
GEVID1212656554
 70
     0
  0
APPID
  5
56F
330
9
100
AcDbSymbolTableRecord
100
AcDbRegAppTableRecord
  2
GEVID1212656555
 70
     0
  0
APPID
  5
570
330
9
100
AcDbSymbolTableRecord
100
AcDbRegAppTableRecord
  2
GEVID1212656556
 70
     0
  0
APPID
  5
571
330
9
100
AcDbSymbolTableRecord
100
AcDbRegAppTableRecord
  2
GEVID1212656557
 70
     0
  0
APPID
  5
572
330
9
100
AcDbSymbolTableRecord
100
AcDbRegAppTableRecord
  2
GEVID1212656559
 70
     0
  0
APPID
  5
573
330
9
100
AcDbSymbolTableRecord
100
AcDbRegAppTableRecord
  2
GEVID1212656560
 70
     0
  0
APPID
  5
574
330
9
100
AcDbSymbolTableRecord
100
AcDbRegAppTableRecord
  2
GEVID1212656561
 70
     0
  0
APPID
  5
575
330
9
100
AcDbSymbolTableRecord
100
AcDbRegAppTableRecord
  2
GEVID1212656562
 70
     0
  0
APPID
  5
576
330
9
100
AcDbSymbolTableRecord
100
AcDbRegAppTableRecord
  2
GEVID1212656563
 70
     0
  0
APPID
  5
577
330
9
100
AcDbSymbolTableRecord
100
AcDbRegAppTableRecord
  2
GEVID1212711781
 70
     0
  0
APPID
  5
578
330
9
100
AcDbSymbolTableRecord
100
AcDbRegAppTableRecord
  2
GEVID1212711782
 70
     0
  0
APPID
  5
579
330
9
100
AcDbSymbolTableRecord
100
AcDbRegAppTableRecord
  2
GEVID1212711783
 70
     0
  0
APPID
  5
57A
330
9
100
AcDbSymbolTableRecord
100
AcDbRegAppTableRecord
  2
GEVID1212711784
 70
     0
  0
APPID
  5
57B
330
9
100
AcDbSymbolTableRecord
100
AcDbRegAppTableRecord
  2
GEVID1212711788
 70
     0
  0
APPID
  5
57C
330
9
100
AcDbSymbolTableRecord
100
AcDbRegAppTableRecord
  2
GEVID1212711789
 70
     0
  0
APPID
  5
57D
330
9
100
AcDbSymbolTableRecord
100
AcDbRegAppTableRecord
  2
GEVID1212711790
 70
     0
  0
APPID
  5
57E
330
9
100
AcDbSymbolTableRecord
100
AcDbRegAppTableRecord
  2
GEVID1212711791
 70
     0
  0
APPID
  5
57F
330
9
100
AcDbSymbolTableRecord
100
AcDbRegAppTableRecord
  2
GEVID1212711792
 70
     0
  0
APPID
  5
580
330
9
100
AcDbSymbolTableRecord
100
AcDbRegAppTableRecord
  2
GEVID1212711793
 70
     0
  0
APPID
  5
581
330
9
100
AcDbSymbolTableRecord
100
AcDbRegAppTableRecord
  2
GEVID1212711794
 70
     0
  0
APPID
  5
582
330
9
100
AcDbSymbolTableRecord
100
AcDbRegAppTableRecord
  2
GEVID1212711795
 70
     0
  0
APPID
  5
583
330
9
100
AcDbSymbolTableRecord
100
AcDbRegAppTableRecord
  2
GEVID1212711797
 70
     0
  0
APPID
  5
584
330
9
100
AcDbSymbolTableRecord
100
AcDbRegAppTableRecord
  2
GEVID1212711798
 70
     0
  0
APPID
  5
585
330
9
100
AcDbSymbolTableRecord
100
AcDbRegAppTableRecord
  2
GEVID1212711799
 70
     0
  0
APPID
  5
586
330
9
100
AcDbSymbolTableRecord
100
AcDbRegAppTableRecord
  2
GEVID1212711800
 70
     0
  0
APPID
  5
587
330
9
100
AcDbSymbolTableRecord
100
AcDbRegAppTableRecord
  2
GEVID1212711801
 70
     0
  0
APPID
  5
588
330
9
100
AcDbSymbolTableRecord
100
AcDbRegAppTableRecord
  2
GEVID1212711802
 70
     0
  0
APPID
  5
589
330
9
100
AcDbSymbolTableRecord
100
AcDbRegAppTableRecord
  2
GEVID1212711803
 70
     0
  0
APPID
  5
58A
330
9
100
AcDbSymbolTableRecord
100
AcDbRegAppTableRecord
  2
GEVID1212711804
 70
     0
  0
APPID
  5
58B
330
9
100
AcDbSymbolTableRecord
100
AcDbRegAppTableRecord
  2
GEVID1212711805
 70
     0
  0
APPID
  5
58C
330
9
100
AcDbSymbolTableRecord
100
AcDbRegAppTableRecord
  2
GEVID1212711806
 70
     0
  0
APPID
  5
58D
330
9
100
AcDbSymbolTableRecord
100
AcDbRegAppTableRecord
  2
GEVID1212711807
 70
     0
  0
APPID
  5
58E
330
9
100
AcDbSymbolTableRecord
100
AcDbRegAppTableRecord
  2
GEVID1212711808
 70
     0
  0
APPID
  5
58F
330
9
100
AcDbSymbolTableRecord
100
AcDbRegAppTableRecord
  2
GEVID1212711809
 70
     0
  0
APPID
  5
590
330
9
100
AcDbSymbolTableRecord
100
AcDbRegAppTableRecord
  2
GEVID1212711810
 70
     0
  0
APPID
  5
591
330
9
100
AcDbSymbolTableRecord
100
AcDbRegAppTableRecord
  2
GEVID1212711811
 70
     0
  0
APPID
  5
90A
330
9
100
AcDbSymbolTableRecord
100
AcDbRegAppTableRecord
  2
GENIUS_GENTRA_14
 70
     0
  0
APPID
  5
919
330
9
100
AcDbSymbolTableRecord
100
AcDbRegAppTableRecord
  2
GENIUS_GENOBJ-N-TIT_13
 70
     0
  0
APPID
  5
91A
330
9
100
AcDbSymbolTableRecord
100
AcDbRegAppTableRecord
  2
GENIUS_GENTITLE_13
 70
     0
  0
APPID
  5
949
330
9
100
AcDbSymbolTableRecord
100
AcDbRegAppTableRecord
  2
GENIUS_GENBLLY_14
 70
     0
  0
APPID
  5
DDD
330
9
100
AcDbSymbolTableRecord
100
AcDbRegAppTableRecord
  2
GEVID1213165152
 70
     0
  0
APPID
  5
12F9
330
9
100
AcDbSymbolTableRecord
100
AcDbRegAppTableRecord
  2
AcDbDynamicBlockTrueName
 70
     0
  0
APPID
  5
12FA
330
9
100
AcDbSymbolTableRecord
100
AcDbRegAppTableRecord
  2
ACDBBLOCKREPETAG
 70
     0
  0
APPID
  5
1C15
330
9
100
AcDbSymbolTableRecord
100
AcDbRegAppTableRecord
  2
GEVID1214872427
 70
     0
  0
APPID
  5
1C2A
330
9
100
AcDbSymbolTableRecord
100
AcDbRegAppTableRecord
  2
GEVID1214872428
 70
     0
  0
APPID
  5
1C2F
330
9
100
AcDbSymbolTableRecord
100
AcDbRegAppTableRecord
  2
GEVID1214872429
 70
     0
  0
APPID
  5
1C33
330
9
100
AcDbSymbolTableRecord
100
AcDbRegAppTableRecord
  2
GEVID1214872430
 70
     0
  0
APPID
  5
1C3F
330
9
100
AcDbSymbolTableRecord
100
AcDbRegAppTableRecord
  2
GEVID1214872432
 70
     0
  0
APPID
  5
1C4E
330
9
100
AcDbSymbolTableRecord
100
AcDbRegAppTableRecord
  2
GEVID1214872433
 70
     0
  0
APPID
  5
20DC
330
9
100
AcDbSymbolTableRecord
100
AcDbRegAppTableRecord
  2
AcDbDynamicBlockGUID
 70
     0
  0
APPID
  5
20FD
330
9
100
AcDbSymbolTableRecord
100
AcDbRegAppTableRecord
  2
GENIUS_GENOBJ-N-REV_13
 70
     0
  0
APPID
  5
20FE
330
9
100
AcDbSymbolTableRecord
100
AcDbRegAppTableRecord
  2
GENIUS_GENOBJ-N-RSSYM_13
 70
     0
  0
APPID
  5
20FF
330
9
100
AcDbSymbolTableRecord
100
AcDbRegAppTableRecord
  2
GENIUS_GENSYMENT_13
 70
     0
  0
APPID
  5
2100
330
9
100
AcDbSymbolTableRecord
100
AcDbRegAppTableRecord
  2
GENIUS_GENSCSYM_13
 70
     0
  0
APPID
  5
5B8A
330
9
100
AcDbSymbolTableRecord
100
AcDbRegAppTableRecord
  2
GEVID1239931162
 70
     0
  0
APPID
  5
5B8E
330
9
100
AcDbSymbolTableRecord
100
AcDbRegAppTableRecord
  2
GEVID1239931163
 70
     0
  0
APPID
  5
66DA
330
9
100
AcDbSymbolTableRecord
100
AcDbRegAppTableRecord
  2
GEVID1239931164
 70
     0
  0
APPID
  5
66DE
330
9
100
AcDbSymbolTableRecord
100
AcDbRegAppTableRecord
  2
GEVID1239931165
 70
     0
  0
APPID
  5
6770
330
9
100
AcDbSymbolTableRecord
100
AcDbRegAppTableRecord
  2
GEVID1239931166
 70
     0
  0
APPID
  5
6773
330
9
100
AcDbSymbolTableRecord
100
AcDbRegAppTableRecord
  2
GEVID1239931167
 70
     0
  0
ENDTAB
  0
TABLE
  2
DIMSTYLE
  5
A
330
0
100
AcDbSymbolTable
 70
    29
100
AcDbDimStyleTable
 71
     1
340
5AB
  0
DIMSTYLE
105
5AB
330
A
100
AcDbSymbolTableRecord
100
AcDbDimStyleTableRecord
  2
SEISA
 70
     0
  4
"
 40
15.0
 41
2.5
 42
0.625
 43
10.0
 44
0.625
 47
0.1
 48
0.1
 73
     0
 74
     0
 77
     3
 78
     8
 79
     2
 90
     1
140
3.5
141
0.0
143
0.0393701
146
0.71
147
1.5
172
     1
176
     3
177
     3
178
     3
271
     2
272
     2
283
     0
286
     8
340
5D5
341
69
342
69
371
    -1
372
    -1
1001
ACAD_DSTYLE_DIMJAG
1070
   388
1040
1.5
1001
ACAD_DSTYLE_DIMTALN
1070
   392
1070
     1
  0
DIMSTYLE
105
5E9
102
{ACAD_REACTORS
330
5BF1
330
5C24
330
5C5D
330
5C75
330
5CA7
330
5D69
330
5D81
330
5D99
330
5EAF
330
5ECB
330
5EE7
330
5F47
330
7A60
330
7A8E
102
}
330
A
100
AcDbSymbolTableRecord
100
AcDbDimStyleTableRecord
  2
SEISA$0
 70
     0
  4
"
 40
15.0
 41
2.5
 42
0.625
 43
10.0
 44
0.625
 47
0.1
 48
0.1
 73
     0
 74
     0
 77
     3
 78
     8
 79
     2
 90
     1
140
3.5
141
0.0
143
0.0393701
146
0.71
147
1.5
172
     1
176
     3
177
     3
178
     3
271
     2
272
     2
283
     0
286
     8
340
5D5
341
69
342
69
371
    -1
372
    -1
  0
DIMSTYLE
105
8036
330
A
100
AcDbSymbolTableRecord
100
AcDbDimStyleTableRecord
  2
AM_ISO
 70
     0
  4
"
 41
2.5
 42
1.0
 43
10.0
 44
1.0
 47
0.1
 48
0.1
 73
     0
 74
     0
 77
     1
 78
     8
 79
     2
 90
     1
140
3.5
141
0.0
143
0.0393701
146
0.71
147
1.5
172
     1
176
   256
177
   256
178
     2
271
     2
272
     3
274
     4
283
     0
284
     8
340
11
371
    -1
372
    -1
  0
DIMSTYLE
105
8037
330
A
100
AcDbSymbolTableRecord
100
AcDbDimStyleTableRecord
  2
AM_ISO$3
 70
     0
  4
"
 41
2.5
 42
1.0
 43
10.0
 44
1.0
 47
0.1
 48
0.1
 73
     0
 77
     1
 78
     8
 79
     2
 90
     1
140
3.5
141
0.0
143
0.0393701
146
0.71
147
1.5
176
   256
177
   256
178
     2
271
     2
272
     3
274
     4
283
     0
284
     8
288
     1
289
     0
340
11
371
    -1
372
    -1
  0
DIMSTYLE
105
8038
330
A
100
AcDbSymbolTableRecord
100
AcDbDimStyleTableRecord
  2
AM_ISO$4
 70
     0
  4
"
 41
2.5
 42
1.0
 43
10.0
 44
1.0
 47
0.1
 48
0.1
 73
     0
 77
     1
 78
     8
 79
     2
 90
     1
140
3.5
141
0.0
143
0.0393701
146
0.71
147
1.5
176
   256
177
   256
178
     2
271
     2
272
     3
274
     4
283
     0
284
     8
288
     1
289
     0
340
11
371
    -1
372
    -1
  0
DIMSTYLE
105
8039
330
A
100
AcDbSymbolTableRecord
100
AcDbDimStyleTableRecord
  2
AM_ISO$6
 70
     0
  4
"
 41
2.5
 42
1.0
 43
10.0
 44
1.0
 47
0.1
 48
0.1
 73
     0
 74
     0
 78
     8
 79
     2
 90
     1
140
3.5
141
0.0
143
0.0393701
146
0.71
147
1.5
172
     1
176
   256
177
   256
178
     2
271
     2
272
     3
274
     4
283
     0
284
     8
340
11
371
    -1
372
    -1
  0
DIMSTYLE
105
803A
330
A
100
AcDbSymbolTableRecord
100
AcDbDimStyleTableRecord
  2
AM_ISO$7
 70
     0
  4
"
 41
2.5
 42
1.0
 43
10.0
 44
1.0
 47
0.1
 48
0.1
 73
     0
 74
     0
 77
     1
 78
     8
 79
     2
 90
     1
140
5.0
141
0.0
143
0.0393701
146
0.71
147
1.5
172
     1
176
   256
177
   256
178
     2
271
     2
272
     3
274
     4
283
     0
284
     8
340
11
371
    -1
372
    -1
  0
DIMSTYLE
105
803B
330
A
100
AcDbSymbolTableRecord
100
AcDbDimStyleTableRecord
  2
AM_ISO$SF
 70
     0
  4
"
 41
2.5
 42
1.0
 43
10.0
 44
1.0
 47
0.1
 48
0.1
 73
     0
 74
     0
 75
     1
 76
     1
 77
     1
 78
     8
 79
     2
 90
     1
140
3.5
141
0.0
143
0.0393701
146
0.71
147
1.5
172
     1
176
   256
177
   256
178
     2
271
     2
272
     3
274
     4
283
     0
284
     8
340
11
371
    -1
372
    -1
  0
DIMSTYLE
105
803C
330
A
100
AcDbSymbolTableRecord
100
AcDbDimStyleTableRecord
  2
AM_ISO$SH
 70
     0
  4
"
 41
2.5
 42
1.0
 43
10.0
 44
1.0
 47
0.1
 48
0.1
 73
     0
 74
     0
 75
     1
 76
     1
 77
     1
 78
     8
 79
     2
 90
     1
140
3.5
141
0.0
143
0.0393701
144
2.0
146
0.71
147
1.5
172
     1
173
     1
176
   256
177
   256
178
     2
271
     2
272
     3
274
     4
283
     0
284
     8
340
11
343
74
371
    -1
372
    -1
  0
ENDTAB
  0
TABLE
  2
BLOCK_RECORD
  5
1
330
0
100
AcDbSymbolTable
 70
    45
  0
BLOCK_RECORD
  5
1F
102
{ACAD_XDICTIONARY
360
82
102
}
330
1
100
AcDbSymbolTableRecord
100
AcDbBlockTableRecord
  2
*Model_Space
340
22
 70
     0
280
     1
281
     0
  0
BLOCK_RECORD
  5
1B
330
1
100
AcDbSymbolTableRecord
100
AcDbBlockTableRecord
  2
*Paper_Space
340
1E
 70
     0
280
     1
281
     0
  0
BLOCK_RECORD
  5
23
330
1
100
AcDbSymbolTableRecord
100
AcDbBlockTableRecord
  2
*Paper_Space0
340
26
 70
     0
280
     1
281
     0
  0
BLOCK_RECORD
  5
69
330
1
100
AcDbSymbolTableRecord
100
AcDbBlockTableRecord
  2
_Open30
340
0
102
{BLKREFS
331
6CBF
331
6CC0
331
6CDE
331
6CDF
331
6CEA
331
6CEB
331
6CF2
331
6CF3
331
6D02
331
6D03
331
6D0B
331
6D0C
331
6D14
331
6D15
331
6D20
331
6D2B
331
6D57
331
6D58
331
7A5A
331
7A5B
331
7ACE
331
7ACF
331
7C79
331
7C7A
331
7DF8
331
7DF9
102
}
 70
     0
280
     1
281
     0
  0
BLOCK_RECORD
  5
74
330
1
100
AcDbSymbolTableRecord
100
AcDbBlockTableRecord
  2
GENAXEH
340
0
 70
     0
280
     1
281
     0
  0
BLOCK_RECORD
  5
3B86
330
1
100
AcDbSymbolTableRecord
100
AcDbBlockTableRecord
  2
GENDOT
340
0
102
{BLKREFS
331
6D1F
331
6D2A
102
}
 70
     0
280
     1
281
     0
  0
BLOCK_RECORD
  5
4FC3
102
{ACAD_XDICTIONARY
360
4FF1
102
}
330
1
100
AcDbSymbolTableRecord
100
AcDbBlockTableRecord
  2
ロッカクアナツキプラグA R1
340
0
310
2800000020000000200000000100080000000000000400000000000000000000000000000000000000000000000080000080000000808000800000008000800080800000C0C0C000C0DCC000F0CAA6000020400000206000002080000020A0000020C0000020E00000400000004020000040400000406000004080000040A0
310
000040C0000040E00000600000006020000060400000606000006080000060A0000060C0000060E00000800000008020000080400000806000008080000080A0000080C0000080E00000A0000000A0200000A0400000A0600000A0800000A0A00000A0C00000A0E00000C0000000C0200000C0400000C0600000C0800000C0
310
A00000C0C00000C0E00000E0000000E0200000E0400000E0600000E0800000E0A00000E0C00000E0E00040000000400020004000400040006000400080004000A0004000C0004000E00040200000402020004020400040206000402080004020A0004020C0004020E000404000004040200040404000404060004040800040
310
40A0004040C0004040E00040600000406020004060400040606000406080004060A0004060C0004060E00040800000408020004080400040806000408080004080A0004080C0004080E00040A0000040A0200040A0400040A0600040A0800040A0A00040A0C00040A0E00040C0000040C0200040C0400040C0600040C08000
310
40C0A00040C0C00040C0E00040E0000040E0200040E0400040E0600040E0800040E0A00040E0C00040E0E00080000000800020008000400080006000800080008000A0008000C0008000E00080200000802020008020400080206000802080008020A0008020C0008020E00080400000804020008040400080406000804080
310
008040A0008040C0008040E00080600000806020008060400080606000806080008060A0008060C0008060E00080800000808020008080400080806000808080008080A0008080C0008080E00080A0000080A0200080A0400080A0600080A0800080A0A00080A0C00080A0E00080C0000080C0200080C0400080C0600080C0
310
800080C0A00080C0C00080C0E00080E0000080E0200080E0400080E0600080E0800080E0A00080E0C00080E0E000C0000000C0002000C0004000C0006000C0008000C000A000C000C000C000E000C0200000C0202000C0204000C0206000C0208000C020A000C020C000C020E000C0400000C0402000C0404000C0406000C0
310
408000C040A000C040C000C040E000C0600000C0602000C0604000C0606000C0608000C060A000C060C000C060E000C0800000C0802000C0804000C0806000C0808000C080A000C080C000C080E000C0A00000C0A02000C0A04000C0A06000C0A08000C0A0A000C0A0C000C0A0E000C0C00000C0C02000C0C04000C0C06000
310
C0C08000C0C0A000F0FBFF00A4A0A000808080000000FF0000FF000000FFFF00FF000000FF00FF00FFFF0000FFFFFF000000000000000000000000000000000000000000000000000000000000000000000000000000000000000000000000F900000000000000000000000000000000000000000000000000000000000000
310
F900000000000000000000000000000000000000000000000000000000000000F900000000000000000000000000000000000000000000000000000000000000F900000000000000000000000000000000000000000000000000000000000000F9000000000000000000000000000000000000000000000000000000000000
310
00F900000000000000000000000000000000000000000000000000000000000000F900000000000000000000000000000000000000000000000000000000000000F900000000000000000000000000000000000000000000000000000000000000F90000000000000000000000000000000000000000000000000000000000
310
0000F900000000000000000000000000000000000000000000000000000000000000F900000000000000000000000000000000000000000000000000000000000000F9000000000000000000000000000000000000000000000000FFFFFFFFFFFFFFFFFFFFFFFFFFFFFFFF0000000000000000000000000000FFFF00000000
310
000000F90000000000000000FFFF00000000000000000000FFFFFFFFFFFFFFFFFFFFFFF9FFFFFFFFFFFFFFFFFFFFFEFF0000000000000000FFFE000000000000000000F900000000000000000000FEFF0000000000000000FFFE000000000000000000F900000000000000000000FEFF0000000000000000FFFE0000000000
310
00000000F900000000000000000000FEFF0000000000000000FFFE000000000000000000F900000000000000000000FEFF0000000000000000FFFE000000000000000000F900000000000000000000FEFF0000000000000000FFFE000000000000000000F900000000000000000000FEFF0000000000000000FFFE00000000
310
0000000000F900000000000000000000FEFF0000000000000000FFFE000000000000000000F900000000000000000000FEFF0000000000000000FFFEFFFFFFFFFFFFFFFFFFF9FFFFFFFFFFFFFFFFFFFFFEFF000000000000000000FF000000000000000000F900000000000000000000FF0000000000000000000000FF0000
310
000000000000F9000000000000000000FF000000000000000000000000000000000000000000F900000000000000000000000000000000000000000000000000000000000000F900000000000000000000000000000000000000000000000000000000000000F9000000000000000000000000000000000000000000000000
310
00000000000000F9000000000000000000000000000000000000000000000000000000000000000000000000000000000000000000000000
102
{BLKREFS
331
5103
102
}
 70
     4
280
     1
281
     0
  0
BLOCK_RECORD
  5
5014
102
{ACAD_XDICTIONARY
360
504A
102
}
330
1
100
AcDbSymbolTableRecord
100
AcDbBlockTableRecord
  2
ロッカクアナツキプラグB R1
340
0
310
2800000020000000200000000100080000000000000400000000000000000000000000000000000000000000000080000080000000808000800000008000800080800000C0C0C000C0DCC000F0CAA6000020400000206000002080000020A0000020C0000020E00000400000004020000040400000406000004080000040A0
310
000040C0000040E00000600000006020000060400000606000006080000060A0000060C0000060E00000800000008020000080400000806000008080000080A0000080C0000080E00000A0000000A0200000A0400000A0600000A0800000A0A00000A0C00000A0E00000C0000000C0200000C0400000C0600000C0800000C0
310
A00000C0C00000C0E00000E0000000E0200000E0400000E0600000E0800000E0A00000E0C00000E0E00040000000400020004000400040006000400080004000A0004000C0004000E00040200000402020004020400040206000402080004020A0004020C0004020E000404000004040200040404000404060004040800040
310
40A0004040C0004040E00040600000406020004060400040606000406080004060A0004060C0004060E00040800000408020004080400040806000408080004080A0004080C0004080E00040A0000040A0200040A0400040A0600040A0800040A0A00040A0C00040A0E00040C0000040C0200040C0400040C0600040C08000
310
40C0A00040C0C00040C0E00040E0000040E0200040E0400040E0600040E0800040E0A00040E0C00040E0E00080000000800020008000400080006000800080008000A0008000C0008000E00080200000802020008020400080206000802080008020A0008020C0008020E00080400000804020008040400080406000804080
310
008040A0008040C0008040E00080600000806020008060400080606000806080008060A0008060C0008060E00080800000808020008080400080806000808080008080A0008080C0008080E00080A0000080A0200080A0400080A0600080A0800080A0A00080A0C00080A0E00080C0000080C0200080C0400080C0600080C0
310
800080C0A00080C0C00080C0E00080E0000080E0200080E0400080E0600080E0800080E0A00080E0C00080E0E000C0000000C0002000C0004000C0006000C0008000C000A000C000C000C000E000C0200000C0202000C0204000C0206000C0208000C020A000C020C000C020E000C0400000C0402000C0404000C0406000C0
310
408000C040A000C040C000C040E000C0600000C0602000C0604000C0606000C0608000C060A000C060C000C060E000C0800000C0802000C0804000C0806000C0808000C080A000C080C000C080E000C0A00000C0A02000C0A04000C0A06000C0A08000C0A0A000C0A0C000C0A0E000C0C00000C0C02000C0C04000C0C06000
310
C0C08000C0C0A000F0FBFF00A4A0A000808080000000FF0000FF000000FFFF00FF000000FF00FF00FFFF0000FFFFFF00000000000000000000000000000000000000000000000000000000000000000000000000000000000000000000000000F9000000000000000000000000000000000000000000000000000000000000
310
00F900000000000000000000000000000000000000000000000000000000000000F900000000000000000000000000000000000000000000000000000000000000F900000000000000000000000000000000000000000000000000000000000000F90000000000000000000000000000000000000000000000000000000000
310
0000F900000000000000000000000000000000000000000000000000000000000000F900000000000000000000000000000000000000000000000000000000000000F900000000000000000000000000000000000000000000000000000000000000F900000000000000000000000000000000000000000000000000000000
310
000000F900000000000000000000000000000000000000000000000000000000000000F900000000000000000000000000000000000000000000000000000000000000F90000000000000000000000000000000000000000000000FFFFFFFFFFFFFFFFFFFFFFFFFFFFFFFF0000000000000000000000000000FFFF00000000
310
00000000F900000000000000FFFF00000000000000000000FFFFFFFFFFFFFFFFFFFFFFFFFFFFFFFFFFFFFFFFFFFFFFFF0000000000000000FFFE00000000000000000000F9000000000000000000FEFF0000000000000000FFFE00000000000000000000F9000000000000000000FEFF0000000000000000FFFE0000000000
310
0000000000F9000000000000000000FEFF0000000000000000FFFE00000000000000000000F9000000000000000000FEFF0000000000000000FFFE00000000000000000000F9000000000000000000FEFF0000000000000000FFFE00000000000000000000F9000000000000000000FEFF0000000000000000FFFE00000000
310
000000000000F9000000000000000000FEFF0000000000000000FFFE00000000000000000000F9000000000000000000FEFF0000000000000000FFFFFFFFFFFFFFFFFFFFFFFFFFFFFFFFFFFFFFFFFFFFFFFF000000000000000000FF00000000000000000000F9000000000000000000FF0000000000000000000000FF0000
310
00000000000000F90000000000000000FF00000000000000000000000000000000000000000000F900000000000000000000000000000000000000000000000000000000000000F900000000000000000000000000000000000000000000000000000000000000F90000000000000000000000000000000000000000000000
310
0000000000000000F90000000000000000000000000000000000000000000000000000000000000000000000000000000000000000000000
102
{BLKREFS
331
5244
102
}
 70
     4
280
     1
281
     0
  0
BLOCK_RECORD
  5
50CB
102
{ACAD_XDICTIONARY
360
5185
102
}
330
1
100
AcDbSymbolTableRecord
100
AcDbBlockTableRecord
  2
ケースＡ CCMH1000
340
0
310
2800000020000000200000000100080000000000000400000000000000000000000000000000000000000000000080000080000000808000800000008000800080800000C0C0C000C0DCC000F0CAA6000020400000206000002080000020A0000020C0000020E00000400000004020000040400000406000004080000040A0
310
000040C0000040E00000600000006020000060400000606000006080000060A0000060C0000060E00000800000008020000080400000806000008080000080A0000080C0000080E00000A0000000A0200000A0400000A0600000A0800000A0A00000A0C00000A0E00000C0000000C0200000C0400000C0600000C0800000C0
310
A00000C0C00000C0E00000E0000000E0200000E0400000E0600000E0800000E0A00000E0C00000E0E00040000000400020004000400040006000400080004000A0004000C0004000E00040200000402020004020400040206000402080004020A0004020C0004020E000404000004040200040404000404060004040800040
310
40A0004040C0004040E00040600000406020004060400040606000406080004060A0004060C0004060E00040800000408020004080400040806000408080004080A0004080C0004080E00040A0000040A0200040A0400040A0600040A0800040A0A00040A0C00040A0E00040C0000040C0200040C0400040C0600040C08000
310
40C0A00040C0C00040C0E00040E0000040E0200040E0400040E0600040E0800040E0A00040E0C00040E0E00080000000800020008000400080006000800080008000A0008000C0008000E00080200000802020008020400080206000802080008020A0008020C0008020E00080400000804020008040400080406000804080
310
008040A0008040C0008040E00080600000806020008060400080606000806080008060A0008060C0008060E00080800000808020008080400080806000808080008080A0008080C0008080E00080A0000080A0200080A0400080A0600080A0800080A0A00080A0C00080A0E00080C0000080C0200080C0400080C0600080C0
310
800080C0A00080C0C00080C0E00080E0000080E0200080E0400080E0600080E0800080E0A00080E0C00080E0E000C0000000C0002000C0004000C0006000C0008000C000A000C000C000C000E000C0200000C0202000C0204000C0206000C0208000C020A000C020C000C020E000C0400000C0402000C0404000C0406000C0
310
408000C040A000C040C000C040E000C0600000C0602000C0604000C0606000C0608000C060A000C060C000C060E000C0800000C0802000C0804000C0806000C0808000C080A000C080C000C080E000C0A00000C0A02000C0A04000C0A06000C0A08000C0A0A000C0A0C000C0A0E000C0C00000C0C02000C0C04000C0C06000
310
C0C08000C0C0A000F0FBFF00A4A0A000808080000000FF0000FF000000FFFF00FF000000FF00FF00FFFF0000FFFFFF00000000000000000000000000000000000000000000000000000000000000000000000000000000000000000000FFFF000000000000000000000000000000000000000000000000000000000000FFFF
310
000000000000000000000000000000000000000000000000000000000000FFFF0000000000FFFF0000000000000000000000000000000000000000000000FFFFFFFFFFFFFFFFFF0000000000000000000000000000000000000000000000FFFF00000000FFFFFF0000000000000000000000000000000000000000000000FF
310
FF00000000FFFFFF0000000000000000000000000000000000000000000000FFFF00000000FFFFFF0000000000000000000000000000000000000000000000FFFF00000000FFFFFF0000000000000000000000000000000000000000000000FFFF00000000FFFFFF0000000000000000000000000000000000000000000000
310
FFFF00000000FFFFFF0000000000000000000000000000000000000000000000FFFF00000000FFFFFF0000000000000000000000000000000000000000000000FFFF00000000FFFFFF0000000000000000000000000000000000000000000000FFFF00000000FFFFFF00000000000000000000000000000000000000000000
310
00FFFF00000000FFFFFF0000000000000000000000000000000000000000000000FFFF00000000FFFFFF0000000000000000000000000000000000000000000000FFFF00000000FFFFFF0000000000000000000000000000000000000000000000000000000000000000000000000000000000000000000000000000000000
310
00000000000000000000000000000000000000000000000000000000000000000000000000000000000000000000000000000000000000000000000000000000000000000000000000000000000000000000000000000000000000000000000000000000000000000000000000000000000000000000000000000000000000
310
00000000000000000000000000000000000000000000000000000000000000000000000000000000000000000000000000000000000000000000000000000000000000000000000000000000000000000000000000000000000000000000000000000000000000000000000000000000000000000000000000000000000000
310
000000000000F9FFFFFFFFFFFF00000000000000000000000000000000000000000000FFFFFFFFFFFFFFFF00FF000000000000000000000000000000000000000000FFFFFFFF0000000000FFFFFF000000000000000000000000000000000000F9F9FFFFFFFFF9000000000000000000000000000000000000000000000000
310
0000000000FFFF00000000000000000000000000000000000000000000000000000000000000000000000000000000000000000000000000
102
{BLKREFS
331
5104
102
}
 70
     4
280
     1
281
     0
  0
BLOCK_RECORD
  5
5216
102
{ACAD_XDICTIONARY
360
52B6
102
}
330
1
100
AcDbSymbolTableRecord
100
AcDbBlockTableRecord
  2
ケースＢ CCMH1000
340
0
310
2800000020000000200000000100080000000000000400000000000000000000000000000000000000000000000080000080000000808000800000008000800080800000C0C0C000C0DCC000F0CAA6000020400000206000002080000020A0000020C0000020E00000400000004020000040400000406000004080000040A0
310
000040C0000040E00000600000006020000060400000606000006080000060A0000060C0000060E00000800000008020000080400000806000008080000080A0000080C0000080E00000A0000000A0200000A0400000A0600000A0800000A0A00000A0C00000A0E00000C0000000C0200000C0400000C0600000C0800000C0
310
A00000C0C00000C0E00000E0000000E0200000E0400000E0600000E0800000E0A00000E0C00000E0E00040000000400020004000400040006000400080004000A0004000C0004000E00040200000402020004020400040206000402080004020A0004020C0004020E000404000004040200040404000404060004040800040
310
40A0004040C0004040E00040600000406020004060400040606000406080004060A0004060C0004060E00040800000408020004080400040806000408080004080A0004080C0004080E00040A0000040A0200040A0400040A0600040A0800040A0A00040A0C00040A0E00040C0000040C0200040C0400040C0600040C08000
310
40C0A00040C0C00040C0E00040E0000040E0200040E0400040E0600040E0800040E0A00040E0C00040E0E00080000000800020008000400080006000800080008000A0008000C0008000E00080200000802020008020400080206000802080008020A0008020C0008020E00080400000804020008040400080406000804080
310
008040A0008040C0008040E00080600000806020008060400080606000806080008060A0008060C0008060E00080800000808020008080400080806000808080008080A0008080C0008080E00080A0000080A0200080A0400080A0600080A0800080A0A00080A0C00080A0E00080C0000080C0200080C0400080C0600080C0
310
800080C0A00080C0C00080C0E00080E0000080E0200080E0400080E0600080E0800080E0A00080E0C00080E0E000C0000000C0002000C0004000C0006000C0008000C000A000C000C000C000E000C0200000C0202000C0204000C0206000C0208000C020A000C020C000C020E000C0400000C0402000C0404000C0406000C0
310
408000C040A000C040C000C040E000C0600000C0602000C0604000C0606000C0608000C060A000C060C000C060E000C0800000C0802000C0804000C0806000C0808000C080A000C080C000C080E000C0A00000C0A02000C0A04000C0A06000C0A08000C0A0A000C0A0C000C0A0E000C0C00000C0C02000C0C04000C0C06000
310
C0C08000C0C0A000F0FBFF00A4A0A000808080000000FF0000FF000000FFFF00FF000000FF00FF00FFFF0000FFFFFF0000000000000000000000000000000000000000000000000000000000000000000000000000000000000000000000000000FFFFFF000000000000000000000000000000000000000000000000000000
310
0000F9F9F9F9F90000000000000000000000000000000000000000FFFFFF00000000FF0000000000000000000000000000000000000000000000000000FFFFFFFFFFFF0000000000000000000000000000000000000000000000000000FF00000000FF0000000000000000000000000000000000000000000000000000FF00
310
000000FF0000000000000000000000000000000000000000000000000000FF00000000FF0000000000000000000000000000000000000000000000000000FF00000000FF0000000000000000000000000000000000000000000000000000FF00000000FF0000000000000000000000000000000000000000000000000000FF
310
00000000FF0000000000000000000000000000000000000000000000000000FF00000000FF0000000000000000000000000000000000000000000000000000FF00000000FF0000000000000000000000000000000000000000000000000000FF00000000FF0000000000000000000000000000000000000000000000000000
310
FF00000000FF0000000000000000000000000000000000000000000000000000FF00000000FF0000000000000000000000000000000000000000000000000000FF00000000FF000000000000000000000000000000000000000000000000000000000000000000000000000000000000000000000000000000000000000000
310
00000000000000000000000000000000000000000000000000000000000000000000000000000000000000000000000000000000000000000000000000000000000000000000000000000000000000000000000000000000000000000000000000000000000000000000000000000000000000000000000000000000000000
310
00000000000000000000000000000000000000000000000000000000000000000000000000000000000000000000000000000000000000000000000000000000000000000000000000000000000000000000000000000000000000000000000000000000000000000000000000000000000000000000000000000000000000
310
0000FFFFFFFFFFF90000000000000000000000000000000000000000000000000000FFFFFFFFFFFFFFFFFF00000000000000000000000000000000000000000000FFFFFF00000000FFFFFF0000000000000000000000000000000000000000000000000000000000FFFFFF0000000000000000000000000000000000000000
310
000000000000000000FFFFFF0000000000000000000000000000000000000000000000000000000000000000000000000000000000000000
102
{BLKREFS
331
57A4
102
}
 70
     4
280
     1
281
     0
  0
BLOCK_RECORD
  5
5355
102
{ACAD_XDICTIONARY
360
6FBB
102
}
330
1
100
AcDbSymbolTableRecord
100
AcDbBlockTableRecord
  2
センタＡ CCMH1000
340
0
310
2800000020000000200000000100080000000000000400000000000000000000000000000000000000000000000080000080000000808000800000008000800080800000C0C0C000C0DCC000F0CAA6000020400000206000002080000020A0000020C0000020E00000400000004020000040400000406000004080000040A0
310
000040C0000040E00000600000006020000060400000606000006080000060A0000060C0000060E00000800000008020000080400000806000008080000080A0000080C0000080E00000A0000000A0200000A0400000A0600000A0800000A0A00000A0C00000A0E00000C0000000C0200000C0400000C0600000C0800000C0
310
A00000C0C00000C0E00000E0000000E0200000E0400000E0600000E0800000E0A00000E0C00000E0E00040000000400020004000400040006000400080004000A0004000C0004000E00040200000402020004020400040206000402080004020A0004020C0004020E000404000004040200040404000404060004040800040
310
40A0004040C0004040E00040600000406020004060400040606000406080004060A0004060C0004060E00040800000408020004080400040806000408080004080A0004080C0004080E00040A0000040A0200040A0400040A0600040A0800040A0A00040A0C00040A0E00040C0000040C0200040C0400040C0600040C08000
310
40C0A00040C0C00040C0E00040E0000040E0200040E0400040E0600040E0800040E0A00040E0C00040E0E00080000000800020008000400080006000800080008000A0008000C0008000E00080200000802020008020400080206000802080008020A0008020C0008020E00080400000804020008040400080406000804080
310
008040A0008040C0008040E00080600000806020008060400080606000806080008060A0008060C0008060E00080800000808020008080400080806000808080008080A0008080C0008080E00080A0000080A0200080A0400080A0600080A0800080A0A00080A0C00080A0E00080C0000080C0200080C0400080C0600080C0
310
800080C0A00080C0C00080C0E00080E0000080E0200080E0400080E0600080E0800080E0A00080E0C00080E0E000C0000000C0002000C0004000C0006000C0008000C000A000C000C000C000E000C0200000C0202000C0204000C0206000C0208000C020A000C020C000C020E000C0400000C0402000C0404000C0406000C0
310
408000C040A000C040C000C040E000C0600000C0602000C0604000C0606000C0608000C060A000C060C000C060E000C0800000C0802000C0804000C0806000C0808000C080A000C080C000C080E000C0A00000C0A02000C0A04000C0A06000C0A08000C0A0A000C0A0C000C0A0E000C0C00000C0C02000C0C04000C0C06000
310
C0C08000C0C0A000F0FBFF00A4A0A000808080000000FF0000FF000000FFFF00FF000000FF00FF00FFFF0000FFFFFF0000000000000000000000000000000000000000000000000000000000000000000000000000000000000000000000000000FFFFFFFFFFFFFFFF00000000000000000000000000000000000000000000
310
00000000FF0000000000FF00000000000000000000000000000000000000000000000000FF0000000000FF00000000000000000000000000000000000000000000000000FF0000000000FF00000000000000000000000000000000000000000000000000FF0000000000FF0000000000000000000000000000000000000000
310
0000000000FF0000000000FF00000000000000000000000000000000000000000000000000FF0000000000FF00000000000000000000000000000000000000000000000000FF0000000000FF00000000000000000000000000000000000000000000000000FF0000000000FF00000000000000000000000000000000000000
310
000000000000FF0000000000FF00000000000000000000000000000000000000000000000000FF0000000000FF00000000000000000000000000000000000000000000000000FF0000000000FF00000000000000000000000000000000000000000000000000FF0000000000FF000000000000000000000000000000000000
310
00000000000000FF0000000000FF000000000000000000000000A4A4A4A4000000000000000000FF0000A4A4FFA4000000000000000000000000A4A4A4A4000000000000000000000000A4A4FFA4000000000000000000000000FF0000000000000000000000000000000000FFFF000000000000000000000000FF00000000
310
00000000000000000000000000FFFF000000000000000000000000FF0000000000000000000000000000000000FFFF000000000000000000000000FF0000000000000000000000000000000000FFFF000000000000000000000000FF0000000000000000000000000000000000FFFF000000000000000000000000FF000000
310
0000000000000000000000000000FFFF000000000000000000000000FFFFFFFFFFFFFFFFFFFFFFFFFFFFFFFFFFFFFFFF000000000000000000000000FFFFFFFFFFFFFFFFFFFFFFFFFFFFFFFFFFFFFFFF000000000000000000000000FF000000000000000000000000000000000000FF000000000000000000000000FF0000
310
00000000000000000000000000000000FF000000000000000000000000FF000000000000000000000000000000000000FF000000000000000000000000FFFFFFFFFF0000F90000FFFFFFFFFFFFFFFFFF0000000000000000000000000000000000FFFFFFF9FFFFFF0000000000000000000000000000000000000000000000
310
0000000000F90000000000000000000000000000000000000000000000000000000000000000000000000000000000000000000000000000
102
{BLKREFS
331
5382
102
}
 70
     4
280
     1
281
     0
  0
BLOCK_RECORD
  5
53D2
102
{ACAD_XDICTIONARY
360
5642
102
}
330
1
100
AcDbSymbolTableRecord
100
AcDbBlockTableRecord
  2
センタＢ CCMH1000
340
0
310
2800000020000000200000000100080000000000000400000000000000000000000000000000000000000000000080000080000000808000800000008000800080800000C0C0C000C0DCC000F0CAA6000020400000206000002080000020A0000020C0000020E00000400000004020000040400000406000004080000040A0
310
000040C0000040E00000600000006020000060400000606000006080000060A0000060C0000060E00000800000008020000080400000806000008080000080A0000080C0000080E00000A0000000A0200000A0400000A0600000A0800000A0A00000A0C00000A0E00000C0000000C0200000C0400000C0600000C0800000C0
310
A00000C0C00000C0E00000E0000000E0200000E0400000E0600000E0800000E0A00000E0C00000E0E00040000000400020004000400040006000400080004000A0004000C0004000E00040200000402020004020400040206000402080004020A0004020C0004020E000404000004040200040404000404060004040800040
310
40A0004040C0004040E00040600000406020004060400040606000406080004060A0004060C0004060E00040800000408020004080400040806000408080004080A0004080C0004080E00040A0000040A0200040A0400040A0600040A0800040A0A00040A0C00040A0E00040C0000040C0200040C0400040C0600040C08000
310
40C0A00040C0C00040C0E00040E0000040E0200040E0400040E0600040E0800040E0A00040E0C00040E0E00080000000800020008000400080006000800080008000A0008000C0008000E00080200000802020008020400080206000802080008020A0008020C0008020E00080400000804020008040400080406000804080
310
008040A0008040C0008040E00080600000806020008060400080606000806080008060A0008060C0008060E00080800000808020008080400080806000808080008080A0008080C0008080E00080A0000080A0200080A0400080A0600080A0800080A0A00080A0C00080A0E00080C0000080C0200080C0400080C0600080C0
310
800080C0A00080C0C00080C0E00080E0000080E0200080E0400080E0600080E0800080E0A00080E0C00080E0E000C0000000C0002000C0004000C0006000C0008000C000A000C000C000C000E000C0200000C0202000C0204000C0206000C0208000C020A000C020C000C020E000C0400000C0402000C0404000C0406000C0
310
408000C040A000C040C000C040E000C0600000C0602000C0604000C0606000C0608000C060A000C060C000C060E000C0800000C0802000C0804000C0806000C0808000C080A000C080C000C080E000C0A00000C0A02000C0A04000C0A06000C0A08000C0A0A000C0A0C000C0A0E000C0C00000C0C02000C0C04000C0C06000
310
C0C08000C0C0A000F0FBFF00A4A0A000808080000000FF0000FF000000FFFF00FF000000FF00FF00FFFF0000FFFFFF00000000000000000000000000000000000000000000000000000000000000000000000000000000FFFFFFFFFFFFFFFF0000000000000000000000000000000000000000000000FF0000000000FF0000
310
0000000000000000000000000000000000000000000000FF0000000000FF00000000000000000000000000000000000000000000000000FF0000000000FF00000000000000000000000000000000000000000000000000FF0000000000FF00000000000000000000000000000000000000000000000000FF0000000000FF00
310
000000000000000000000000000000000000000000000000FF0000000000FF00000000000000000000000000000000000000000000000000FF0000000000FF00000000000000000000000000000000000000000000000000FF0000000000FF00000000000000000000000000000000000000000000000000FF0000000000FF
310
00000000000000000000000000000000000000000000000000FF0000000000FF00000000000000000000000000000000000000000000000000FF0000000000FF00000000000000000000000000000000000000000000000000FF0000000000FF00000000000000000000000000000000000000000000000000FF0000000000
310
FF00000000000000000000000000000000000000000000000000A4FFA4A40000FF000000000000000000A4A4A4A4000000000000000000000000A4FFA4A4000000000000000000000000A4A4A4A4000000000000000000000000FFFF0000000000000000000000000000000000FF000000000000000000000000FFFF000000
310
0000000000000000000000000000FF000000000000000000000000FFFF0000000000000000000000000000000000FF000000000000000000000000FFFF0000000000000000000000000000000000FF000000000000000000000000FFFF0000000000000000000000000000000000FF000000000000000000000000FFFF0000
310
000000000000000000000000000000FF000000000000000000000000FFFFFFFFFFFFFFFFFFFFFFFFFFFFFFFFFFFFFFFF000000000000000000000000FFFFFFFFFFFFFFFFFFFFFFFFFFFFFFFFFFFFFFFF000000000000000000000000FF000000000000000000000000000000000000FF000000000000000000000000FF0000
310
00000000000000000000000000000000FF000000000000000000000000FF000000000000000000000000000000000000FF00000000000000000000000000FFFFFFFFFFFFFFFFFF0000F90000FFFFFFFFFF000000000000000000000000000000000000000000FFFFFFF9FFFFFF000000000000000000000000000000000000
310
00000000000000000000F9000000000000000000000000000000000000000000000000000000000000000000000000000000000000000000
102
{BLKREFS
331
53FF
102
}
 70
     4
280
     1
281
     0
  0
BLOCK_RECORD
  5
5746
102
{ACAD_XDICTIONARY
360
57DC
102
}
330
1
100
AcDbSymbolTableRecord
100
AcDbBlockTableRecord
  2
リーマボルト CCMH1000 M36
340
0
310
2800000020000000200000000100080000000000000400000000000000000000000000000000000000000000000080000080000000808000800000008000800080800000C0C0C000C0DCC000F0CAA6000020400000206000002080000020A0000020C0000020E00000400000004020000040400000406000004080000040A0
310
000040C0000040E00000600000006020000060400000606000006080000060A0000060C0000060E00000800000008020000080400000806000008080000080A0000080C0000080E00000A0000000A0200000A0400000A0600000A0800000A0A00000A0C00000A0E00000C0000000C0200000C0400000C0600000C0800000C0
310
A00000C0C00000C0E00000E0000000E0200000E0400000E0600000E0800000E0A00000E0C00000E0E00040000000400020004000400040006000400080004000A0004000C0004000E00040200000402020004020400040206000402080004020A0004020C0004020E000404000004040200040404000404060004040800040
310
40A0004040C0004040E00040600000406020004060400040606000406080004060A0004060C0004060E00040800000408020004080400040806000408080004080A0004080C0004080E00040A0000040A0200040A0400040A0600040A0800040A0A00040A0C00040A0E00040C0000040C0200040C0400040C0600040C08000
310
40C0A00040C0C00040C0E00040E0000040E0200040E0400040E0600040E0800040E0A00040E0C00040E0E00080000000800020008000400080006000800080008000A0008000C0008000E00080200000802020008020400080206000802080008020A0008020C0008020E00080400000804020008040400080406000804080
310
008040A0008040C0008040E00080600000806020008060400080606000806080008060A0008060C0008060E00080800000808020008080400080806000808080008080A0008080C0008080E00080A0000080A0200080A0400080A0600080A0800080A0A00080A0C00080A0E00080C0000080C0200080C0400080C0600080C0
310
800080C0A00080C0C00080C0E00080E0000080E0200080E0400080E0600080E0800080E0A00080E0C00080E0E000C0000000C0002000C0004000C0006000C0008000C000A000C000C000C000E000C0200000C0202000C0204000C0206000C0208000C020A000C020C000C020E000C0400000C0402000C0404000C0406000C0
310
408000C040A000C040C000C040E000C0600000C0602000C0604000C0606000C0608000C060A000C060C000C060E000C0800000C0802000C0804000C0806000C0808000C080A000C080C000C080E000C0A00000C0A02000C0A04000C0A06000C0A08000C0A0A000C0A0C000C0A0E000C0C00000C0C02000C0C04000C0C06000
310
C0C08000C0C0A000F0FBFF00A4A0A000808080000000FF0000FF000000FFFF00FF000000FF00FF00FFFF0000FFFFFF0000000000000000000000000000000000000000000000000000000000000000000000000000000000000000000000000000FFFF00000000000000000000000000000000000000000000000000000000
310
00F9F9FFF9F9F90000000000000000000000000000000000000000FFFF0000000000FFFF0000000000000000000000000000000000000000000000FFFFFFFFFFFFFFFFFF0000000000000000000000000000000000000000000000FFFFFF00000000FFFF0000000000000000000000000000000000000000000000FFFFFF00
310
000000FFFF0000000000000000000000000000000000000000000000FFFFFF00000000FFFF0000000000000000000000000000000000000000000000FFFFFF00000000FFFF0000000000000000000000000000000000000000000000FFFFFF00000000FFFF0000000000000000000000000000000000000000000000FFFFFF
310
00000000FFFF0000000000000000000000000000000000000000000000FFFFFF00000000FFFF0000000000000000000000000000000000000000000000FFFFFF00000000FFFF0000000000000000000000000000000000000000000000FFFFFF00000000FFFF0000000000000000000000000000000000000000000000FFFF
310
FF00000000FFFF0000000000000000000000000000000000000000000000FFFFFF00000000FFFF0000000000000000000000000000000000000000000000FFFFFF00000000FFFF0000000000000000000000000000000000000000000000000000000000000000000000000000000000000000000000000000000000000000
310
00000000000000000000000000000000000000000000000000000000000000000000000000000000000000000000000000000000000000000000000000000000000000000000000000000000000000000000000000000000000000000000000000000000000000000000000000000000000000000000000000000000000000
310
00000000000000000000000000000000000000000000000000000000000000000000000000000000000000000000000000000000000000000000000000000000000000000000000000000000000000000000000000000000000000000000000000000000000000000000000000000000000000000000000000000000000000
310
00FFFFFFFFFFFFF900000000000000000000000000000000000000000000000000FF00FFFFFFFFFFFFFF0000000000000000000000000000000000000000000000FFFF000000FFFFFFFF00FFFF00000000000000000000000000000000000000000000000000FFFFFFFF00FFFF000000000000000000000000000000000000
310
0000000000000000FFFFFF00FFFF000000000000000000000000000000000000000000000000000000000000000000000000000000000000
102
{BLKREFS
331
5776
102
}
 70
     4
280
     1
281
     0
  0
BLOCK_RECORD
  5
585D
102
{ACAD_XDICTIONARY
360
58FB
102
}
330
1
100
AcDbSymbolTableRecord
100
AcDbBlockTableRecord
  2
ＧＣサイドカバ－A CCMH1000
340
0
310
2800000020000000200000000100080000000000000400000000000000000000000000000000000000000000000080000080000000808000800000008000800080800000C0C0C000C0DCC000F0CAA6000020400000206000002080000020A0000020C0000020E00000400000004020000040400000406000004080000040A0
310
000040C0000040E00000600000006020000060400000606000006080000060A0000060C0000060E00000800000008020000080400000806000008080000080A0000080C0000080E00000A0000000A0200000A0400000A0600000A0800000A0A00000A0C00000A0E00000C0000000C0200000C0400000C0600000C0800000C0
310
A00000C0C00000C0E00000E0000000E0200000E0400000E0600000E0800000E0A00000E0C00000E0E00040000000400020004000400040006000400080004000A0004000C0004000E00040200000402020004020400040206000402080004020A0004020C0004020E000404000004040200040404000404060004040800040
310
40A0004040C0004040E00040600000406020004060400040606000406080004060A0004060C0004060E00040800000408020004080400040806000408080004080A0004080C0004080E00040A0000040A0200040A0400040A0600040A0800040A0A00040A0C00040A0E00040C0000040C0200040C0400040C0600040C08000
310
40C0A00040C0C00040C0E00040E0000040E0200040E0400040E0600040E0800040E0A00040E0C00040E0E00080000000800020008000400080006000800080008000A0008000C0008000E00080200000802020008020400080206000802080008020A0008020C0008020E00080400000804020008040400080406000804080
310
008040A0008040C0008040E00080600000806020008060400080606000806080008060A0008060C0008060E00080800000808020008080400080806000808080008080A0008080C0008080E00080A0000080A0200080A0400080A0600080A0800080A0A00080A0C00080A0E00080C0000080C0200080C0400080C0600080C0
310
800080C0A00080C0C00080C0E00080E0000080E0200080E0400080E0600080E0800080E0A00080E0C00080E0E000C0000000C0002000C0004000C0006000C0008000C000A000C000C000C000E000C0200000C0202000C0204000C0206000C0208000C020A000C020C000C020E000C0400000C0402000C0404000C0406000C0
310
408000C040A000C040C000C040E000C0600000C0602000C0604000C0606000C0608000C060A000C060C000C060E000C0800000C0802000C0804000C0806000C0808000C080A000C080C000C080E000C0A00000C0A02000C0A04000C0A06000C0A08000C0A0A000C0A0C000C0A0E000C0C00000C0C02000C0C04000C0C06000
310
C0C08000C0C0A000F0FBFF00A4A0A000808080000000FF0000FF000000FFFF00FF000000FF00FF00FFFF0000FFFFFF00000000000000000000000000000000000000000000000000000000000000000000000000000000000000000000000000FF0000000000000000000000000000000000000000000000000000000000F9
310
F9FFF9000000000000000000000000000000000000000000000000000000000000FF00000000000000000000000000000000000000000000000000000000000000FF00000000000000000000000000000000000000000000000000000000000000FF0000000000000000000000000000000000000000000000000000000000
310
0000FF00000000000000000000000000000000000000000000000000000000000000FF00000000000000000000000000000000000000000000000000000000000000FF00000000000000000000000000000000000000000000000000000000000000FF00000000000000000000000000000000000000000000000000000000
310
000000FF00000000000000000000000000000000000000000000000000000000000000FF00000000000000000000000000000000000000000000000000000000000000FF00000000000000000000000000000000000000000000000000000000000000FF000000000000000000000000000000000000000000000000000000
310
00000000FF00000000000000000000000000000000000000000000000000000000000000FF000000000000000000000000000000000000000000000000000000000000000000000000000000000000000000000000000000000000000000000000000000000000000000000000000000000000000000000000000000000000
310
00000000000000000000000000000000000000000000000000000000000000000000000000000000000000000000000000000000000000000000000000000000000000000000000000000000000000000000000000000000000000000000000000000000000000000000000000000000000000000000000000000000000000
310
00000000000000000000000000000000000000000000000000000000000000000000000000000000000000000000000000000000000000000000000000000000000000000000000000000000000000000000000000000000000000000000000000000000000000000000000000000000000000000000000000000000000000
310
0000000000000000000000000000000000000000000000000000000000000000000000000000FFFF000000000000000000000000000000000000000000000000000000000000FFFF0000000000000000000000000000000000000000000000000000000000FFFFFFFF00000000000000000000000000000000000000000000
310
00000000000000FFFF0000000000000000000000000000000000000000000000000000000000000000000000000000000000000000000000
102
{BLKREFS
331
5890
102
}
 70
     4
280
     1
281
     0
  0
BLOCK_RECORD
  5
5972
102
{ACAD_XDICTIONARY
360
5A13
102
}
330
1
100
AcDbSymbolTableRecord
100
AcDbBlockTableRecord
  2
ＧＣサイドカバ－Ｂ CCMH1000
340
0
310
2800000020000000200000000100080000000000000400000000000000000000000000000000000000000000000080000080000000808000800000008000800080800000C0C0C000C0DCC000F0CAA6000020400000206000002080000020A0000020C0000020E00000400000004020000040400000406000004080000040A0
310
000040C0000040E00000600000006020000060400000606000006080000060A0000060C0000060E00000800000008020000080400000806000008080000080A0000080C0000080E00000A0000000A0200000A0400000A0600000A0800000A0A00000A0C00000A0E00000C0000000C0200000C0400000C0600000C0800000C0
310
A00000C0C00000C0E00000E0000000E0200000E0400000E0600000E0800000E0A00000E0C00000E0E00040000000400020004000400040006000400080004000A0004000C0004000E00040200000402020004020400040206000402080004020A0004020C0004020E000404000004040200040404000404060004040800040
310
40A0004040C0004040E00040600000406020004060400040606000406080004060A0004060C0004060E00040800000408020004080400040806000408080004080A0004080C0004080E00040A0000040A0200040A0400040A0600040A0800040A0A00040A0C00040A0E00040C0000040C0200040C0400040C0600040C08000
310
40C0A00040C0C00040C0E00040E0000040E0200040E0400040E0600040E0800040E0A00040E0C00040E0E00080000000800020008000400080006000800080008000A0008000C0008000E00080200000802020008020400080206000802080008020A0008020C0008020E00080400000804020008040400080406000804080
310
008040A0008040C0008040E00080600000806020008060400080606000806080008060A0008060C0008060E00080800000808020008080400080806000808080008080A0008080C0008080E00080A0000080A0200080A0400080A0600080A0800080A0A00080A0C00080A0E00080C0000080C0200080C0400080C0600080C0
310
800080C0A00080C0C00080C0E00080E0000080E0200080E0400080E0600080E0800080E0A00080E0C00080E0E000C0000000C0002000C0004000C0006000C0008000C000A000C000C000C000E000C0200000C0202000C0204000C0206000C0208000C020A000C020C000C020E000C0400000C0402000C0404000C0406000C0
310
408000C040A000C040C000C040E000C0600000C0602000C0604000C0606000C0608000C060A000C060C000C060E000C0800000C0802000C0804000C0806000C0808000C080A000C080C000C080E000C0A00000C0A02000C0A04000C0A06000C0A08000C0A0A000C0A0C000C0A0E000C0C00000C0C02000C0C04000C0C06000
310
C0C08000C0C0A000F0FBFF00A4A0A000808080000000FF0000FF000000FFFF00FF000000FF00FF00FFFF0000FFFFFF000000000000000000000000000000000000000000000000000000000000000000000000000000000000000000000000FFFF0000000000000000000000000000000000000000000000000000000000F9
310
F9F9F90000000000000000000000000000000000000000000000000000000000FF00000000000000000000000000000000000000000000000000000000000000FF00000000000000000000000000000000000000000000000000000000000000FF000000000000000000000000000000000000000000000000000000000000
310
00FF00000000000000000000000000000000000000000000000000000000000000FF00000000000000000000000000000000000000000000000000000000000000FF00000000000000000000000000000000000000000000000000000000000000FF0000000000000000000000000000000000000000000000000000000000
310
0000FF00000000000000000000000000000000000000000000000000000000000000FF00000000000000000000000000000000000000000000000000000000000000FF00000000000000000000000000000000000000000000000000000000000000FF00000000000000000000000000000000000000000000000000000000
310
000000FF00000000000000000000000000000000000000000000000000000000000000FF00000000000000000000000000000000000000000000000000000000000000000000000000000000000000000000000000000000000000000000000000000000000000000000000000000000000000000000000000000000000000
310
00000000000000000000000000000000000000000000000000000000000000000000000000000000000000000000000000000000000000000000000000000000000000000000000000000000000000000000000000000000000000000000000000000000000000000000000000000000000000000000000000000000000000
310
00000000000000000000000000000000000000000000000000000000000000000000000000000000000000000000000000000000000000000000000000000000000000000000000000000000000000000000000000000000000000000000000000000000000000000000000000000000000000000000000000000000000000
310
0000000000000000000000000000000000000000000000000000000000000000000000000000FFFF000000000000000000000000000000000000000000000000000000000000FFFF0000000000000000000000000000000000000000000000000000000000FFFFFFFF00000000000000000000000000000000000000000000
310
00000000000000FFFF0000000000000000000000000000000000000000000000000000000000000000000000000000000000000000000000
102
{BLKREFS
331
59A6
102
}
 70
     4
280
     1
281
     0
  0
BLOCK_RECORD
  5
5BF2
330
1
100
AcDbSymbolTableRecord
100
AcDbBlockTableRecord
  2
*D16
340
0
 70
     0
280
     1
281
     0
  0
BLOCK_RECORD
  5
5C25
330
1
100
AcDbSymbolTableRecord
100
AcDbBlockTableRecord
  2
*D17
340
0
 70
     0
280
     1
281
     0
  0
BLOCK_RECORD
  5
5C5E
330
1
100
AcDbSymbolTableRecord
100
AcDbBlockTableRecord
  2
*D18
340
0
 70
     0
280
     1
281
     0
  0
BLOCK_RECORD
  5
5C76
330
1
100
AcDbSymbolTableRecord
100
AcDbBlockTableRecord
  2
*D19
340
0
 70
     0
280
     1
281
     0
  0
BLOCK_RECORD
  5
5CA8
330
1
100
AcDbSymbolTableRecord
100
AcDbBlockTableRecord
  2
*D20
340
0
 70
     0
280
     1
281
     0
  0
BLOCK_RECORD
  5
5D6A
330
1
100
AcDbSymbolTableRecord
100
AcDbBlockTableRecord
  2
*D21
340
0
 70
     0
280
     1
281
     0
  0
BLOCK_RECORD
  5
5D82
330
1
100
AcDbSymbolTableRecord
100
AcDbBlockTableRecord
  2
*D22
340
0
 70
     0
280
     1
281
     0
  0
BLOCK_RECORD
  5
5D9A
330
1
100
AcDbSymbolTableRecord
100
AcDbBlockTableRecord
  2
*D23
340
0
 70
     0
280
     1
281
     0
  0
BLOCK_RECORD
  5
5EB0
330
1
100
AcDbSymbolTableRecord
100
AcDbBlockTableRecord
  2
*D24
340
0
 70
     0
280
     1
281
     0
  0
BLOCK_RECORD
  5
5ECC
330
1
100
AcDbSymbolTableRecord
100
AcDbBlockTableRecord
  2
*D25
340
0
 70
     0
280
     1
281
     0
  0
BLOCK_RECORD
  5
5EE8
330
1
100
AcDbSymbolTableRecord
100
AcDbBlockTableRecord
  2
*D26
340
0
 70
     0
280
     1
281
     0
  0
BLOCK_RECORD
  5
5F48
330
1
100
AcDbSymbolTableRecord
100
AcDbBlockTableRecord
  2
*D27
340
0
 70
     0
280
     1
281
     0
  0
BLOCK_RECORD
  5
7A61
330
1
100
AcDbSymbolTableRecord
100
AcDbBlockTableRecord
  2
*D28
340
0
 70
     0
280
     1
281
     0
  0
BLOCK_RECORD
  5
7A8F
330
1
100
AcDbSymbolTableRecord
100
AcDbBlockTableRecord
  2
*D29
340
0
 70
     0
280
     1
281
     0
  0
ENDTAB
  0
ENDSEC
  0
SECTION
  2
BLOCKS
  0
BLOCK
  5
20
330
1F
100
AcDbEntity
  8
0
100
AcDbBlockBegin
  2
*Model_Space
 70
     0
 10
0.0
 20
0.0
 30
0.0
  3
*Model_Space
  1

  0
ENDBLK
  5
21
330
1F
100
AcDbEntity
  8
0
100
AcDbBlockEnd
  0
BLOCK
  5
1C
330
1B
100
AcDbEntity
 67
     1
  8
0
100
AcDbBlockBegin
  2
*Paper_Space
 70
     0
 10
0.0
 20
0.0
 30
0.0
  3
*Paper_Space
  1

  0
ENDBLK
  5
1D
330
1B
100
AcDbEntity
 67
     1
  8
0
100
AcDbBlockEnd
  0
BLOCK
  5
24
330
23
100
AcDbEntity
 67
     1
  8
0
100
AcDbBlockBegin
  2
*Paper_Space0
 70
     0
 10
0.0
 20
0.0
 30
0.0
  3
*Paper_Space0
  1

  0
ENDBLK
  5
25
330
23
100
AcDbEntity
 67
     1
  8
0
100
AcDbBlockEnd
  0
BLOCK
  5
6D
330
69
100
AcDbEntity
  8
0
100
AcDbBlockBegin
  2
_Open30
 70
     0
 10
0.0
 20
0.0
 30
0.0
  3
_Open30
  1

  0
LINE
  5
6A
330
69
100
AcDbEntity
  8
0
  6
ByBlock
 62
     0
370
    -2
100
AcDbLine
 10
-1.0
 20
0.26794919
 30
0.0
 11
0.0
 21
0.0
 31
0.0
  0
LINE
  5
6B
330
69
100
AcDbEntity
  8
0
  6
ByBlock
 62
     0
370
    -2
100
AcDbLine
 10
0.0
 20
0.0
 30
0.0
 11
-1.0
 21
-0.26794919
 31
0.0
  0
LINE
  5
6C
330
69
100
AcDbEntity
  8
0
  6
ByBlock
 62
     0
370
    -2
100
AcDbLine
 10
0.0
 20
0.0
 30
0.0
 11
-1.0
 21
0.0
 31
0.0
  0
ENDBLK
  5
6E
330
69
100
AcDbEntity
  8
0
100
AcDbBlockEnd
  0
BLOCK
  5
76
330
74
100
AcDbEntity
  8
0
100
AcDbBlockBegin
  2
GENAXEH
 70
     0
 10
0.0
 20
0.0
 30
0.0
  3
GENAXEH
  1

  0
LINE
  5
75
330
74
100
AcDbEntity
  8
0
100
AcDbLine
 10
-1.0
 20
0.0
 30
0.0
 11
1.0
 21
0.0
 31
0.0
  0
ENDBLK
  5
77
330
74
100
AcDbEntity
  8
0
100
AcDbBlockEnd
  0
BLOCK
  5
3B87
330
3B86
100
AcDbEntity
  8
0
100
AcDbBlockBegin
  2
GENDOT
 70
     0
 10
0.0
 20
0.0
 30
0.0
  3
GENDOT
  1

  0
LINE
  5
3B88
330
3B86
100
AcDbEntity
  8
0
100
AcDbLine
 10
0.0
 20
0.0
 30
0.0
 11
-1.0
 21
0.0
 31
0.0
  0
LWPOLYLINE
  5
3B89
330
3B86
100
AcDbEntity
  8
0
100
AcDbPolyline
 90
        2
 70
     1
 43
0.25
 10
-0.125
 20
0.0
 42
1.0
 10
0.125
 20
0.0
 42
1.0
  0
ENDBLK
  5
3B8A
330
3B86
100
AcDbEntity
  8
0
100
AcDbBlockEnd
  0
BLOCK
  5
4FC4
330
4FC3
100
AcDbEntity
  8
0
100
AcDbBlockBegin
  2
ロッカクアナツキプラグA R1
 70
     0
 10
0.0
 20
0.0
 30
0.0
  3
ロッカクアナツキプラグA R1
  1

  0
LINE
  5
4FC6
330
4FC3
100
AcDbEntity
  8
AM_0 外形線1
100
AcDbLine
 10
9.25978699999996
 20
-19.0
 30
0.0
 11
16.18798999999944
 21
-15.0
 31
0.0
  0
LINE
  5
4FC7
330
4FC3
100
AcDbEntity
  8
AM_0 外形線1
100
AcDbLine
 10
-16.18798999999944
 20
-15.0
 30
0.0
 11
16.18798999999944
 21
-15.0
 31
0.0
  0
LINE
  5
4FC8
330
4FC3
100
AcDbEntity
  8
AM_0 外形線1
100
AcDbLine
 10
16.6244999999999
 20
-2.5
 30
0.0
 11
-16.6244999999999
 21
-2.5
 31
0.0
  0
LINE
  5
4FC9
330
4FC3
100
AcDbEntity
  8
AM_4 細線
100
AcDbLine
 10
-15.19540499999948
 20
-1.070904999999584
 30
0.0
 11
-14.67855799999961
 21
-15.87147099999947
 31
0.0
  0
LINE
  5
4FCA
330
4FC3
100
AcDbEntity
  8
AM_0 外形線1
100
AcDbLine
 10
-16.6244999999999
 20
-2.5
 30
0.0
 11
-16.18798999999944
 21
-15.0
 31
0.0
  0
LINE
  5
4FCB
330
4FC3
100
AcDbEntity
  8
AM_0 外形線1
100
AcDbLine
 10
-14.1244999999999
 20
0.0
 30
0.0
 11
-16.6244999999999
 21
-2.5
 31
0.0
  0
LINE
  5
4FCC
330
4FC3
100
AcDbEntity
  8
AM_7 中心線
100
AcDbLine
 10
0.0
 20
5.609930000000531
 30
0.0
 11
0.0
 21
-35.24113399999988
 31
0.0
  0
LINE
  5
4FCD
330
4FC3
100
AcDbEntity
  8
AM_0 外形線1
100
AcDbLine
 10
-9.25978699999996
 20
-19.0
 30
0.0
 11
9.25978699999996
 21
-19.0
 31
0.0
  0
LINE
  5
4FCE
330
4FC3
100
AcDbEntity
  8
AM_0 外形線1
100
AcDbLine
 10
-16.18798999999944
 20
-15.0
 30
0.0
 11
-9.25978699999996
 21
-19.0
 31
0.0
  0
LINE
  5
4FCF
330
4FC3
100
AcDbEntity
  8
AM_0 外形線1
100
AcDbLine
 10
16.18798999999944
 20
-15.0
 30
0.0
 11
16.6244999999999
 21
-2.5
 31
0.0
  0
LINE
  5
4FD0
330
4FC3
100
AcDbEntity
  8
AM_4 細線
100
AcDbLine
 10
15.19540499999948
 20
-1.070904999999584
 30
0.0
 11
14.67855799999961
 21
-15.87147099999947
 31
0.0
  0
LINE
  5
4FD1
330
4FC3
100
AcDbEntity
  8
AM_0 外形線1
100
AcDbLine
 10
16.6244999999999
 20
-2.5
 30
0.0
 11
14.1244999999999
 21
0.0
 31
0.0
  0
LINE
  5
4FF0
330
4FC3
100
AcDbEntity
  8
AM_0 外形線1
100
AcDbLine
 10
-14.1244999999999
 20
0.0
 30
0.0
 11
14.1244999999999
 21
0.0
 31
0.0
  0
ENDBLK
  5
4FC5
330
4FC3
100
AcDbEntity
  8
0
100
AcDbBlockEnd
  0
BLOCK
  5
5015
330
5014
100
AcDbEntity
  8
0
100
AcDbBlockBegin
  2
ロッカクアナツキプラグB R1
 70
     0
 10
0.0
 20
0.0
 30
0.0
  3
ロッカクアナツキプラグB R1
  1

  0
LINE
  5
5017
330
5014
100
AcDbEntity
  8
AM_7 中心線
100
AcDbLine
 10
0.0
 20
5.609930000000531
 30
0.0
 11
0.0
 21
-35.24113399999988
 31
0.0
  0
LINE
  5
5018
330
5014
100
AcDbEntity
  8
AM_4 細線
100
AcDbLine
 10
-15.19540499999948
 20
-1.070904999999584
 30
0.0
 11
-14.67855799999961
 21
-15.87147099999947
 31
0.0
  0
LINE
  5
5019
330
5014
100
AcDbEntity
  8
AM_4 細線
100
AcDbLine
 10
15.19540499999948
 20
-1.070904999999584
 30
0.0
 11
14.67855799999961
 21
-15.87147099999947
 31
0.0
  0
LINE
  5
501A
330
5014
100
AcDbEntity
  8
AM_0 外形線1
100
AcDbLine
 10
16.18798999999944
 20
-15.0
 30
0.0
 11
-16.18798999999944
 21
-15.0
 31
0.0
  0
LINE
  5
501B
330
5014
100
AcDbEntity
  8
AM_0 外形線1
100
AcDbLine
 10
-16.6244999999999
 20
-2.5
 30
0.0
 11
16.6244999999999
 21
-2.5
 31
0.0
  0
LINE
  5
501C
330
5014
100
AcDbEntity
  8
AM_0 外形線1
100
AcDbLine
 10
-16.6244999999999
 20
-2.5
 30
0.0
 11
-14.1244999999999
 21
0.0
 31
0.0
  0
LINE
  5
501D
330
5014
100
AcDbEntity
  8
AM_0 外形線1
100
AcDbLine
 10
-16.18798999999944
 20
-15.0
 30
0.0
 11
-16.6244999999999
 21
-2.5
 31
0.0
  0
LINE
  5
501E
330
5014
100
AcDbEntity
  8
AM_0 外形線1
100
AcDbLine
 10
-9.25978699999996
 20
-19.0
 30
0.0
 11
-16.18798999999944
 21
-15.0
 31
0.0
  0
LINE
  5
501F
330
5014
100
AcDbEntity
  8
AM_0 外形線1
100
AcDbLine
 10
9.25978699999996
 20
-19.0
 30
0.0
 11
-9.25978699999996
 21
-19.0
 31
0.0
  0
LINE
  5
5020
330
5014
100
AcDbEntity
  8
AM_0 外形線1
100
AcDbLine
 10
16.18798999999944
 20
-15.0
 30
0.0
 11
9.25978699999996
 21
-19.0
 31
0.0
  0
LINE
  5
5021
330
5014
100
AcDbEntity
  8
AM_0 外形線1
100
AcDbLine
 10
16.6244999999999
 20
-2.5
 30
0.0
 11
16.18798999999944
 21
-15.0
 31
0.0
  0
LINE
  5
5022
330
5014
100
AcDbEntity
  8
AM_0 外形線1
100
AcDbLine
 10
14.1244999999999
 20
0.0
 30
0.0
 11
16.6244999999999
 21
-2.5
 31
0.0
  0
LINE
  5
5049
330
5014
100
AcDbEntity
  8
AM_0 外形線1
100
AcDbLine
 10
-14.1244999999999
 20
0.0
 30
0.0
 11
14.1244999999999
 21
0.0
 31
0.0
  0
ENDBLK
  5
5016
330
5014
100
AcDbEntity
  8
0
100
AcDbBlockEnd
  0
BLOCK
  5
50CC
330
50CB
100
AcDbEntity
  8
0
100
AcDbBlockBegin
  2
ケースＡ CCMH1000
 70
     0
 10
0.0
 20
0.0
 30
0.0
  3
ケースＡ CCMH1000
  1

  0
LINE
  5
50CE
330
50CB
100
AcDbEntity
  8
AM_0 外形線1
100
AcDbLine
 10
294.0000000000004
 20
-429.0
 30
0.0
 11
254.0
 21
-429.0
 31
0.0
  0
LINE
  5
50CF
330
50CB
100
AcDbEntity
  8
AM_0 外形線1
100
AcDbLine
 10
254.0
 20
-429.0
 30
0.0
 11
254.0
 21
0.0
 31
0.0
  0
LINE
  5
50D0
330
50CB
100
AcDbEntity
  8
AM_0 外形線1
100
AcDbLine
 10
244.0
 20
-419.0
 30
0.0
 11
244.0
 21
0.0
 31
0.0
  0
LINE
  5
50D1
330
50CB
100
AcDbEntity
  8
AM_0 外形線1
100
AcDbLine
 10
0.0
 20
0.0
 30
0.0
 11
0.0
 21
-498.0
 31
0.0
  0
LINE
  5
50D2
330
50CB
100
AcDbEntity
  8
AM_0 外形線1
100
AcDbLine
 10
60.0
 20
-498.0
 30
0.0
 11
60.0
 21
0.0
 31
0.0
  0
LINE
  5
50D3
330
50CB
100
AcDbEntity
  8
AM_0 外形線1
100
AcDbLine
 10
2.0
 20
-500.0
 30
0.0
 11
58.0
 21
-500.0
 31
0.0
  0
LINE
  5
50D4
330
50CB
100
AcDbEntity
  8
AM_0 外形線1
100
AcDbLine
 10
0.0
 20
-498.0
 30
0.0
 11
2.0
 21
-500.0
 31
0.0
  0
LINE
  5
50D5
330
50CB
100
AcDbEntity
  8
AM_0 外形線1
100
AcDbLine
 10
254.0
 20
-429.0
 30
0.0
 11
244.0
 21
-419.0
 31
0.0
  0
ARC
  5
50D6
330
50CB
100
AcDbEntity
  8
AM_0 外形線1
100
AcDbCircle
 10
68.0
 20
-427.0
 30
0.0
 40
8.0
100
AcDbArc
 50
90.0
 51
180.0
  0
LINE
  5
50D7
330
50CB
100
AcDbEntity
  8
AM_0 外形線1
100
AcDbLine
 10
58.0
 20
-500.0
 30
0.0
 11
60.0
 21
-498.0
 31
0.0
  0
LINE
  5
50D8
330
50CB
100
AcDbEntity
  8
AM_0 外形線1
100
AcDbLine
 10
68.0
 20
-419.0
 30
0.0
 11
244.0
 21
-419.0
 31
0.0
  0
LINE
  5
50D9
330
50CB
100
AcDbEntity
  8
AM_0 外形線1
100
AcDbLine
 10
294.0
 20
-429.0
 30
0.0
 11
294.0
 21
0.0
 31
0.0
  0
LINE
  5
50DB
330
50CB
100
AcDbEntity
  8
AM_0 外形線1
100
AcDbLine
 10
0.0000000000004547
 20
420.5
 30
0.0
 11
0.0
 21
447.0
 31
0.0
  0
LINE
  5
50DC
330
50CB
100
AcDbEntity
  8
AM_0 外形線1
100
AcDbLine
 10
60.0
 20
427.0
 30
0.0
 11
60.0
 21
498.0
 31
0.0
  0
LINE
  5
50DD
330
50CB
100
AcDbEntity
  8
AM_0 外形線1
100
AcDbLine
 10
117.0
 20
391.5
 30
0.0
 11
-12.0
 21
391.5
 31
0.0
  0
LWPOLYLINE
  5
50DE
330
50CB
100
AcDbEntity
  8
AM_0 外形線1
100
AcDbPolyline
 90
       73
 70
     0
 43
0.0
 10
3.349999999999452
 20
410.0000000000004
 10
3.641972000000348
 20
410.0199780000005
 10
3.931720999999923
 20
410.0797600000007
 10
4.217043999999987
 20
410.1788900000007
 10
4.49576700000034
 20
410.3166140000007
 10
4.765771000000313
 20
410.4918850000008
 10
5.025000000000543
 20
410.7033670000008
 10
5.271480999999766
 20
410.9494520000007
 10
5.50333799999953
 20
411.2282670000007
 10
5.718807999999624
 20
411.5376900000008
 10
5.916248999999877
 20
411.8753650000006
 10
6.094158999999307
 20
412.2387240000007
 10
6.251185000000077
 20
412.6250000000004
 10
6.386131000000204
 20
413.0312550000008
 10
6.49796999999944
 20
413.4543950000006
 10
6.585852000000159
 20
413.8912000000003
 10
6.649105999999846
 20
414.3383480000006
 10
6.687252000000626
 20
414.792433000001
 10
6.699999999999817
 20
415.2500000000004
 10
6.687252000000626
 20
415.7075680000006
 10
6.649105999999846
 20
416.1616530000006
 10
6.585852000000159
 20
416.6088000000008
 10
6.49796999999944
 20
417.045606000001
 10
6.386131000000204
 20
417.4687460000008
 10
6.251185000000077
 20
417.8750000000004
 10
6.094158999999307
 20
418.2612770000003
 10
5.916248999999877
 20
418.6246350000009
 10
5.718807999999624
 20
418.9623110000006
 10
5.50333799999953
 20
419.2717340000008
 10
5.271480999999766
 20
419.5505490000008
 10
5.025000000000543
 20
419.7966340000006
 10
4.765771000000313
 20
420.0081160000008
 10
4.49576700000034
 20
420.1833870000008
 10
4.217043999999987
 20
420.3211110000006
 10
3.931720999999923
 20
420.4202410000005
 10
3.641972000000348
 20
420.4800230000005
 10
3.349999999999452
 20
420.5000000000002
 10
3.058028000000376
 20
420.4800230000005
 10
2.768278999999893
 20
420.4202410000005
 10
2.48295599999983
 20
420.3211110000006
 10
2.204232999999474
 20
420.1833870000008
 10
1.934228999999504
 20
420.0081160000008
 10
1.675000000000181
 20
419.7966340000006
 10
1.42851900000005
 20
419.5505490000008
 10
1.196662000000287
 20
419.2717340000008
 10
0.981192000000192
 20
418.9623110000006
 10
0.7837509999999384
 20
418.6246350000009
 10
0.6058409999996002
 20
418.2612770000003
 10
0.4488149999997404
 20
417.8750000000004
 10
0.3138690000005226
 20
417.4687460000008
 10
0.2020299999994677
 20
417.045606000001
 10
0.1141479999996591
 20
416.6088000000008
 10
0.0508939999999711
 20
416.1616530000006
 10
0.0127480000001015
 20
415.7075680000006
 10
0.0
 20
415.2500000000004
 10
0.0127480000001015
 20
414.792433000001
 10
0.0508939999999711
 20
414.3383480000006
 10
0.1141479999996591
 20
413.8912000000003
 10
0.2020299999994677
 20
413.4543950000006
 10
0.3138690000005226
 20
413.0312550000008
 10
0.4488149999997404
 20
412.6250000000004
 10
0.6058409999996002
 20
412.2387240000007
 10
0.7837509999999384
 20
411.8753650000006
 10
0.981192000000192
 20
411.5376900000008
 10
1.196662000000287
 20
411.2282670000007
 10
1.42851900000005
 20
410.9494520000007
 10
1.675000000000181
 20
410.7033670000008
 10
1.934228999999504
 20
410.4918850000008
 10
2.204232999999474
 20
410.3166140000007
 10
2.48295599999983
 20
410.1788900000007
 10
2.768278999999893
 20
410.0797600000007
 10
3.058028000000376
 20
410.0199780000005
 10
3.349999999999452
 20
410.0000000000004
  0
LINE
  5
50DF
330
50CB
100
AcDbEntity
  8
AM_0 外形線1
100
AcDbLine
 10
6.199999999999817
 20
420.5
 30
0.0
 11
0.0
 21
420.5
 31
0.0
  0
ARC
  5
50E0
330
50CB
100
AcDbEntity
  8
AM_0 外形線1
100
AcDbCircle
 10
6.199999999999817
 20
420.0
 30
0.0
 40
0.5
100
AcDbArc
 50
0.0
 51
90.0
  0
LINE
  5
50E1
330
50CB
100
AcDbEntity
  8
AM_0 外形線1
100
AcDbLine
 10
6.699999999999817
 20
410.5
 30
0.0
 11
6.699999999999817
 21
420.0
 31
0.0
  0
ARC
  5
50E2
330
50CB
100
AcDbEntity
  8
AM_0 外形線1
100
AcDbCircle
 10
6.199999999999817
 20
410.5
 30
0.0
 40
0.5
100
AcDbArc
 50
270.0
 51
0.0
  0
LINE
  5
50E3
330
50CB
100
AcDbEntity
  8
AM_0 外形線1
100
AcDbLine
 10
-9.000000000000452
 20
410.0
 30
0.0
 11
6.199999999999817
 21
410.0
 31
0.0
  0
LINE
  5
50E4
330
50CB
100
AcDbEntity
  8
AM_0 外形線1
100
AcDbLine
 10
-12.0
 20
407.0
 30
0.0
 11
-9.0
 21
410.0
 31
0.0
  0
LINE
  5
50E5
330
50CB
100
AcDbEntity
  8
AM_0 外形線1
100
AcDbLine
 10
-12.0
 20
391.5
 30
0.0
 11
-12.0
 21
407.0
 31
0.0
  0
LINE
  5
50E6
330
50CB
100
AcDbEntity
  8
AM_3 隠れ線
100
AcDbLine
 10
275.0
 20
372.0
 30
0.0
 11
130.0
 21
372.0
 31
0.0
  0
LINE
  5
50E7
330
50CB
100
AcDbEntity
  8
AM_0 外形線1
100
AcDbLine
 10
68.0
 20
419.0
 30
0.0
 11
244.0
 21
419.0
 31
0.0
  0
LINE
  5
50E8
330
50CB
100
AcDbEntity
  8
AM_7 中心線
100
AcDbLine
 10
116.0
 20
380.0
 30
0.0
 11
288.0
 21
380.0
 31
0.0
  0
LINE
  5
50E9
330
50CB
100
AcDbEntity
  8
AM_0 外形線1
100
AcDbLine
 10
118.0
 20
390.0
 30
0.0
 11
286.0
 21
390.0
 31
0.0
  0
LINE
  5
50EA
330
50CB
100
AcDbEntity
  8
AM_0 外形線1
100
AcDbLine
 10
78.81201000000054
 20
404.0
 30
0.0
 11
79.24851899999976
 21
391.5
 31
0.0
  0
LINE
  5
50EB
330
50CB
100
AcDbEntity
  8
AM_0 外形線1
100
AcDbLine
 10
78.28819800000019
 20
419.0
 30
0.0
 11
78.3755000000001
 21
416.5
 31
0.0
  0
LINE
  5
50EC
330
50CB
100
AcDbEntity
  8
AM_0 外形線1
100
AcDbLine
 10
80.32144200000038
 20
403.1285290000004
 30
0.0
 11
80.72751900000003
 21
391.5
 31
0.0
  0
ARC
  5
50ED
330
50CB
100
AcDbEntity
  8
AM_0 外形線1
100
AcDbCircle
 10
68.0
 20
427.0
 30
0.0
 40
8.0
100
AcDbArc
 50
180.0
 51
270.0
  0
LINE
  5
50EE
330
50CB
100
AcDbEntity
  8
AM_0 外形線1
100
AcDbLine
 10
130.0
 20
372.0
 30
0.0
 11
119.0
 21
372.0
 31
0.0
  0
LINE
  5
50EF
330
50CB
100
AcDbEntity
  8
AM_0 外形線1
100
AcDbLine
 10
111.1879899999994
 20
404.0
 30
0.0
 11
110.7514810000002
 21
391.5
 31
0.0
  0
ARC
  5
50F0
330
50CB
100
AcDbEntity
  8
AM_0 外形線1
100
AcDbCircle
 10
117.0
 20
390.5
 30
0.0
 40
1.0
100
AcDbArc
 50
0.0
 51
90.0
  0
LINE
  5
50F1
330
50CB
100
AcDbEntity
  8
AM_0 外形線1
100
AcDbLine
 10
109.6785579999996
 20
403.1285290000004
 30
0.0
 11
109.2724809999999
 21
391.5
 31
0.0
  0
LINE
  5
50F2
330
50CB
100
AcDbEntity
  8
AM_0 外形線1
100
AcDbLine
 10
118.0
 20
373.0
 30
0.0
 11
118.0
 21
390.5
 31
0.0
  0
LINE
  5
50F3
330
50CB
100
AcDbEntity
  8
AM_0 外形線1
100
AcDbLine
 10
119.0
 20
372.0
 30
0.0
 11
118.0
 21
373.0
 31
0.0
  0
LINE
  5
50F4
330
50CB
100
AcDbEntity
  8
AM_0 外形線1
100
AcDbLine
 10
275.0
 20
372.0
 30
0.0
 11
285.0
 21
372.0
 31
0.0
  0
LINE
  5
50F5
330
50CB
100
AcDbEntity
  8
AM_0 外形線1
100
AcDbLine
 10
286.0
 20
373.0
 30
0.0
 11
285.0
 21
372.0
 31
0.0
  0
LINE
  5
50F6
330
50CB
100
AcDbEntity
  8
AM_0 外形線1
100
AcDbLine
 10
286.0
 20
390.5
 30
0.0
 11
286.0
 21
373.0
 31
0.0
  0
ARC
  5
50F7
330
50CB
100
AcDbEntity
  8
AM_0 外形線1
100
AcDbCircle
 10
287.0
 20
390.5
 30
0.0
 40
1.0
100
AcDbArc
 50
90.0
 51
180.0
  0
LINE
  5
50F8
330
50CB
100
AcDbEntity
  8
AM_0 外形線1
100
AcDbLine
 10
254.0
 20
429.0
 30
0.0
 11
244.0
 21
419.0
 31
0.0
  0
LINE
  5
50F9
330
50CB
100
AcDbEntity
  8
AM_7 中心線
100
AcDbLine
 10
88.0
 20
466.0
 30
0.0
 11
-114.0
 21
466.0
 31
0.0
  0
LINE
  5
50FC
330
50CB
100
AcDbEntity
  8
AM_0 外形線1
100
AcDbLine
 10
2.0
 20
500.0
 30
0.0
 11
58.0
 21
500.0
 31
0.0
  0
LINE
  5
50FD
330
50CB
100
AcDbEntity
  8
AM_0 外形線1
100
AcDbLine
 10
0.0
 20
498.0
 30
0.0
 11
2.0
 21
500.0
 31
0.0
  0
LINE
  5
50FE
330
50CB
100
AcDbEntity
  8
AM_0 外形線1
100
AcDbLine
 10
0.0
 20
485.0
 30
0.0
 11
0.0
 21
498.0
 31
0.0
  0
LINE
  5
50FF
330
50CB
100
AcDbEntity
  8
AM_0 外形線1
100
AcDbLine
 10
58.0
 20
500.0
 30
0.0
 11
60.0
 21
498.0
 31
0.0
  0
LINE
  5
5100
330
50CB
100
AcDbEntity
  8
AM_0 外形線1
100
AcDbLine
 10
294.0
 20
403.0
 30
0.0
 11
294.0
 21
398.7000000000007
 31
0.0
  0
LINE
  5
5101
330
50CB
100
AcDbEntity
  8
AM_0 外形線1
100
AcDbLine
 10
294.0
 20
429.0
 30
0.0
 11
294.0000000000004
 21
419.0
 31
0.0
  0
LINE
  5
5102
330
50CB
100
AcDbEntity
  8
AM_0 外形線1
100
AcDbLine
 10
294.0
 20
398.7000000000007
 30
0.0
 11
294.0
 21
391.5
 31
0.0
  0
INSERT
  5
5103
330
50CB
100
AcDbEntity
  8
AM_0 外形線1
100
AcDbBlockReference
  2
ロッカクアナツキプラグA R1
 10
95.0
 20
419.0
 30
0.0
  0
LINE
  5
514B
330
50CB
100
AcDbEntity
  8
AM_0 外形線1
100
AcDbLine
 10
111.6244999999999
 20
416.5
 30
0.0
 11
111.7118019999998
 21
419.0
 31
0.0
  0
LINE
  5
517F
330
50CB
100
AcDbEntity
  8
AM_0 外形線1
100
AcDbLine
 10
0.0
 20
485.0
 30
0.0
 11
60.0
 21
485.0
 31
0.0
  0
LINE
  5
5180
330
50CB
100
AcDbEntity
  8
AM_0 外形線1
100
AcDbLine
 10
0.0
 20
447.0
 30
0.0
 11
60.0
 21
447.0
 31
0.0
  0
LINE
  5
5181
330
50CB
100
AcDbEntity
  8
AM_0 外形線1
100
AcDbLine
 10
294.0
 20
429.0
 30
0.0
 11
254.0
 21
429.0
 31
0.0
  0
LINE
  5
5182
330
50CB
100
AcDbEntity
  8
AM_0 外形線1
100
AcDbLine
 10
294.0
 20
391.5
 30
0.0
 11
287.0
 21
391.5
 31
0.0
  0
LINE
  5
5183
330
50CB
100
AcDbEntity
  8
AM_0 外形線1
100
AcDbLine
 10
79.76719814067745
 20
419.0
 30
0.0
 11
79.80459500000051
 21
417.9290950000003
 31
0.0
  0
LINE
  5
5184
330
50CB
100
AcDbEntity
  8
AM_0 外形線1
100
AcDbLine
 10
110.2328018593202
 20
418.9999999999891
 30
0.0
 11
110.1954049999963
 21
417.9290949999893
 31
0.0
  0
ENDBLK
  5
50CD
330
50CB
100
AcDbEntity
  8
0
100
AcDbBlockEnd
  0
BLOCK
  5
5217
330
5216
100
AcDbEntity
  8
0
100
AcDbBlockBegin
  2
ケースＢ CCMH1000
 70
     0
 10
0.0
 20
0.0
 30
0.0
  3
ケースＢ CCMH1000
  1

  0
LINE
  5
5219
330
5216
100
AcDbEntity
  8
AM_3 隠れ線
100
AcDbLine
 10
-275.0
 20
372.0
 30
0.0
 11
-130.0
 21
372.0
 31
0.0
  0
LINE
  5
521A
330
5216
100
AcDbEntity
  8
AM_0 外形線1
100
AcDbLine
 10
-68.0
 20
419.0
 30
0.0
 11
-244.0
 21
419.0
 31
0.0
  0
LINE
  5
521B
330
5216
100
AcDbEntity
  8
AM_7 中心線
100
AcDbLine
 10
-116.0
 20
380.0
 30
0.0
 11
-288.0
 21
380.0
 31
0.0
  0
LINE
  5
521C
330
5216
100
AcDbEntity
  8
AM_0 外形線1
100
AcDbLine
 10
-68.0
 20
-419.0
 30
0.0
 11
-244.0
 21
-419.0
 31
0.0
  0
LINE
  5
521D
330
5216
100
AcDbEntity
  8
AM_0 外形線1
100
AcDbLine
 10
-118.0
 20
390.0
 30
0.0
 11
-286.0
 21
390.0
 31
0.0
  0
LINE
  5
521E
330
5216
100
AcDbEntity
  8
AM_0 外形線1
100
AcDbLine
 10
-244.0
 20
-419.0
 30
0.0
 11
-244.0
 21
0.0
 31
0.0
  0
LINE
  5
521F
330
5216
100
AcDbEntity
  8
AM_0 外形線1
100
AcDbLine
 10
-254.0
 20
-429.0
 30
0.0
 11
-254.0
 21
0.0
 31
0.0
  0
LINE
  5
5220
330
5216
100
AcDbEntity
  8
AM_0 外形線1
100
AcDbLine
 10
-254.0
 20
-429.0
 30
0.0
 11
-244.0
 21
-419.0
 31
0.0
  0
LINE
  5
5223
330
5216
100
AcDbEntity
  8
AM_0 外形線1
100
AcDbLine
 10
-275.0
 20
372.0
 30
0.0
 11
-285.0
 21
372.0
 31
0.0
  0
LINE
  5
5224
330
5216
100
AcDbEntity
  8
AM_0 外形線1
100
AcDbLine
 10
-294.0
 20
403.0
 30
0.0
 11
-294.0
 21
398.7000000000007
 31
0.0
  0
LINE
  5
5225
330
5216
100
AcDbEntity
  8
AM_0 外形線1
100
AcDbLine
 10
-294.0
 20
429.0
 30
0.0
 11
-294.0
 21
419.0
 31
0.0
  0
ARC
  5
5226
330
5216
100
AcDbEntity
  8
AM_0 外形線1
100
AcDbCircle
 10
-287.0
 20
390.5
 30
0.0
 40
1.0
100
AcDbArc
 50
44.99999999998157
 51
90.0
  0
LINE
  5
5227
330
5216
100
AcDbEntity
  8
AM_0 外形線1
100
AcDbLine
 10
-286.0
 20
373.0
 30
0.0
 11
-285.0
 21
372.0
 31
0.0
  0
LINE
  5
5228
330
5216
100
AcDbEntity
  8
AM_0 外形線1
100
AcDbLine
 10
-286.0
 20
390.5
 30
0.0
 11
-286.0
 21
373.0
 31
0.0
  0
ARC
  5
5229
330
5216
100
AcDbEntity
  8
AM_0 外形線1
100
AcDbCircle
 10
-287.0
 20
390.5
 30
0.0
 40
1.0
100
AcDbArc
 50
0.0
 51
44.99999999998157
  0
LINE
  5
522A
330
5216
100
AcDbEntity
  8
AM_0 外形線1
100
AcDbLine
 10
-294.0
 20
398.7000000000007
 30
0.0
 11
-294.0
 21
391.5
 31
0.0
  0
LINE
  5
522B
330
5216
100
AcDbEntity
  8
AM_0 外形線1
100
AcDbLine
 10
-254.0
 20
429.0
 30
0.0
 11
-244.0
 21
419.0
 31
0.0
  0
LINE
  5
522C
330
5216
100
AcDbEntity
  8
AM_0 外形線1
100
AcDbLine
 10
-60.0
 20
-498.0
 30
0.0
 11
-60.0
 21
0.0
 31
0.0
  0
ARC
  5
522D
330
5216
100
AcDbEntity
  8
AM_0 外形線1
100
AcDbCircle
 10
-68.0
 20
-427.0
 30
0.0
 40
8.0
100
AcDbArc
 50
0.0
 51
90.0
  0
LINE
  5
522E
330
5216
100
AcDbEntity
  8
AM_7 中心線
100
AcDbLine
 10
75.67411990767505
 20
-466.0
 30
0.0
 11
-75.67411990767505
 21
-466.0
 31
0.0
  0
LINE
  5
522F
330
5216
100
AcDbEntity
  8
AM_0 外形線1
100
AcDbLine
 10
-2.0
 20
-500.0
 30
0.0
 11
-58.0
 21
-500.0
 31
0.0
  0
LINE
  5
5230
330
5216
100
AcDbEntity
  8
AM_0 外形線1
100
AcDbLine
 10
-58.0
 20
-500.0
 30
0.0
 11
-60.0
 21
-498.0
 31
0.0
  0
LINE
  5
5231
330
5216
100
AcDbEntity
  8
AM_0 外形線1
100
AcDbLine
 10
0.0
 20
-498.0
 30
0.0
 11
-2.0
 21
-500.0
 31
0.0
  0
LINE
  5
5232
330
5216
100
AcDbEntity
  8
AM_0 外形線1
100
AcDbLine
 10
-60.0
 20
427.0
 30
0.0
 11
-60.0
 21
498.0
 31
0.0
  0
LINE
  5
5233
330
5216
100
AcDbEntity
  8
AM_0 外形線1
100
AcDbLine
 10
-117.0
 20
391.5
 30
0.0
 11
-14.0
 21
391.5
 31
0.0
  0
LINE
  5
5234
330
5216
100
AcDbEntity
  8
AM_0 外形線1
100
AcDbLine
 10
-130.0
 20
372.0
 30
0.0
 11
-119.0
 21
372.0
 31
0.0
  0
LINE
  5
5235
330
5216
100
AcDbEntity
  8
AM_0 外形線1
100
AcDbLine
 10
-111.6244999999999
 20
416.5
 30
0.0
 11
-111.7118019999998
 21
419.0
 31
0.0
  0
LINE
  5
5236
330
5216
100
AcDbEntity
  8
AM_0 外形線1
100
AcDbLine
 10
-111.1879899999994
 20
404.0
 30
0.0
 11
-110.7514810000002
 21
391.5
 31
0.0
  0
LINE
  5
5237
330
5216
100
AcDbEntity
  8
AM_0 外形線1
100
AcDbLine
 10
-78.81201000000054
 20
404.0
 30
0.0
 11
-79.24851899999976
 21
391.5
 31
0.0
  0
LINE
  5
5238
330
5216
100
AcDbEntity
  8
AM_0 外形線1
100
AcDbLine
 10
-78.28819800000019
 20
419.0
 30
0.0
 11
-78.3755000000001
 21
416.5
 31
0.0
  0
LINE
  5
5239
330
5216
100
AcDbEntity
  8
AM_0 外形線1
100
AcDbLine
 10
-80.32144200000038
 20
403.1285290000004
 30
0.0
 11
-80.72751900000003
 21
391.5
 31
0.0
  0
LINE
  5
523A
330
5216
100
AcDbEntity
  8
AM_0 外形線1
100
AcDbLine
 10
-109.6785579999996
 20
403.1285290000004
 30
0.0
 11
-109.2724809999999
 21
391.5
 31
0.0
  0
ARC
  5
523B
330
5216
100
AcDbEntity
  8
AM_0 外形線1
100
AcDbCircle
 10
-117.0
 20
390.5
 30
0.0
 40
1.0
100
AcDbArc
 50
90.0
 51
180.0
  0
LINE
  5
523C
330
5216
100
AcDbEntity
  8
AM_0 外形線1
100
AcDbLine
 10
-118.0
 20
373.0
 30
0.0
 11
-118.0
 21
390.5
 31
0.0
  0
LINE
  5
523D
330
5216
100
AcDbEntity
  8
AM_0 外形線1
100
AcDbLine
 10
-119.0
 20
372.0
 30
0.0
 11
-118.0
 21
373.0
 31
0.0
  0
ARC
  5
523E
330
5216
100
AcDbEntity
  8
AM_0 外形線1
100
AcDbCircle
 10
-68.0
 20
427.0
 30
0.0
 40
8.0
100
AcDbArc
 50
270.0
 51
0.0
  0
LINE
  5
523F
330
5216
100
AcDbEntity
  8
AM_0 外形線1
100
AcDbLine
 10
-3.0
 20
410.0
 30
0.0
 11
0.0
 21
413.0
 31
0.0
  0
LINE
  5
5240
330
5216
100
AcDbEntity
  8
AM_0 外形線1
100
AcDbLine
 10
-14.0
 20
391.5
 30
0.0
 11
-14.0
 21
410.0
 31
0.0
  0
LINE
  5
5241
330
5216
100
AcDbEntity
  8
AM_0 外形線1
100
AcDbLine
 10
-2.0
 20
500.0
 30
0.0
 11
-58.0
 21
500.0
 31
0.0
  0
LINE
  5
5242
330
5216
100
AcDbEntity
  8
AM_0 外形線1
100
AcDbLine
 10
-58.0
 20
500.0
 30
0.0
 11
-60.0
 21
498.0
 31
0.0
  0
LINE
  5
5243
330
5216
100
AcDbEntity
  8
AM_0 外形線1
100
AcDbLine
 10
0.0
 20
498.0
 30
0.0
 11
-2.0
 21
500.0
 31
0.0
  0
INSERT
  5
5244
330
5216
100
AcDbEntity
  8
AM_0 外形線1
100
AcDbBlockReference
  2
ロッカクアナツキプラグB R1
 10
-95.0
 20
419.0
 30
0.0
  0
LINE
  5
5245
330
5216
100
AcDbEntity
  8
AM_0 外形線1
100
AcDbLine
 10
-60.0
 20
447.0
 30
0.0
 11
0.0
 21
447.0
 31
0.0
  0
LINE
  5
5246
330
5216
100
AcDbEntity
  8
AM_0 外形線1
100
AcDbLine
 10
-60.0
 20
485.0
 30
0.0
 11
0.0
 21
485.0
 31
0.0
  0
LINE
  5
52AE
330
5216
100
AcDbEntity
  8
AM_0 外形線1
100
AcDbLine
 10
0.0
 20
0.0
 30
0.0
 11
0.0
 21
-498.0
 31
0.0
  0
LINE
  5
52AF
330
5216
100
AcDbEntity
  8
AM_0 外形線1
100
AcDbLine
 10
-294.0
 20
-429.0
 30
0.0
 11
-254.0
 21
-429.0
 31
0.0
  0
LINE
  5
52B0
330
5216
100
AcDbEntity
  8
AM_0 外形線1
100
AcDbLine
 10
-294.0
 20
-429.0
 30
0.0
 11
-294.0
 21
0.0
 31
0.0
  0
LINE
  5
52B1
330
5216
100
AcDbEntity
  8
AM_0 外形線1
100
AcDbLine
 10
-294.0
 20
429.0
 30
0.0
 11
-254.0
 21
429.0
 31
0.0
  0
LINE
  5
52B2
330
5216
100
AcDbEntity
  8
AM_0 外形線1
100
AcDbLine
 10
-287.0
 20
391.5
 30
0.0
 11
-294.0
 21
391.5
 31
0.0
  0
LINE
  5
52B3
330
5216
100
AcDbEntity
  8
AM_0 外形線1
100
AcDbLine
 10
-14.0
 20
410.0
 30
0.0
 11
-3.0
 21
410.0
 31
0.0
  0
LINE
  5
52B4
330
5216
100
AcDbEntity
  8
AM_0 外形線1
100
AcDbLine
 10
0.0
 20
413.0
 30
0.0
 11
0.0
 21
447.0
 31
0.0
  0
LINE
  5
52B5
330
5216
100
AcDbEntity
  8
AM_0 外形線1
100
AcDbLine
 10
0.0
 20
498.0
 30
0.0
 11
0.0
 21
485.0
 31
0.0
  0
ENDBLK
  5
5218
330
5216
100
AcDbEntity
  8
0
100
AcDbBlockEnd
  0
BLOCK
  5
5356
330
5355
100
AcDbEntity
  8
0
100
AcDbBlockBegin
  2
センタＡ CCMH1000
 70
     0
 10
0.0
 20
0.0
 30
0.0
  3
センタＡ CCMH1000
  1

  0
LINE
  5
5358
330
5355
100
AcDbEntity
  8
AM_0 外形線1
100
AcDbLine
 10
0.0
 20
355.0
 30
0.0
 11
0.0
 21
0.0
 31
0.0
  0
LINE
  5
5359
330
5355
100
AcDbEntity
  8
AM_0 外形線1
100
AcDbLine
 10
500.0
 20
-338.0
 30
0.0
 11
500.0
 21
338.0
 31
0.0
  0
LINE
  5
535A
330
5355
100
AcDbEntity
  8
AM_3 隠れ線
100
AcDbLine
 10
0.0
 20
18.0
 30
0.0
 11
66.0
 21
18.0
 31
0.0
  0
LINE
  5
535B
330
5355
100
AcDbEntity
  8
AM_3 隠れ線
100
AcDbLine
 10
0.0
 20
16.0
 30
0.0
 11
80.0
 21
16.0
 31
0.0
  0
LINE
  5
535C
330
5355
100
AcDbEntity
  8
AM_3 隠れ線
100
AcDbLine
 10
67.15470100000039
 20
16.0
 30
0.0
 11
67.15470100000039
 21
0.0
 31
0.0
  0
LINE
  5
535D
330
5355
100
AcDbEntity
  8
AM_3 隠れ線
100
AcDbLine
 10
66.0
 20
0.0
 30
0.0
 11
66.0
 21
18.0
 31
0.0
  0
LINE
  5
535E
330
5355
100
AcDbEntity
  8
AM_3 隠れ線
100
AcDbLine
 10
80.0
 20
16.0
 30
0.0
 11
80.0
 21
0.0
 31
0.0
  0
LINE
  5
535F
330
5355
100
AcDbEntity
  8
AM_3 隠れ線
100
AcDbLine
 10
80.0
 20
16.0
 30
0.0
 11
89.2376039999999
 21
0.0
 31
0.0
  0
LINE
  5
5360
330
5355
100
AcDbEntity
  8
AM_3 隠れ線
100
AcDbLine
 10
66.0
 20
18.0
 30
0.0
 11
67.15470100000039
 21
16.0
 31
0.0
  0
LINE
  5
5361
330
5355
100
AcDbEntity
  8
AM_0 外形線1
100
AcDbLine
 10
348.0
 20
-358.0
 30
0.0
 11
348.0
 21
0.0
 31
0.0
  0
LINE
  5
5362
330
5355
100
AcDbEntity
  8
AM_0 外形線1
100
AcDbLine
 10
342.0
 20
-360.0
 30
0.0
 11
342.0
 21
0.0
 31
0.0
  0
LINE
  5
5363
330
5355
100
AcDbEntity
  8
AM_0 外形線1
100
AcDbLine
 10
348.0
 20
-358.0
 30
0.0
 11
480.0
 21
-358.0
 31
0.0
  0
LINE
  5
5364
330
5355
100
AcDbEntity
  8
AM_0 外形線1
100
AcDbLine
 10
302.0
 20
-360.0
 30
0.0
 11
342.0
 21
-360.0
 31
0.0
  0
LINE
  5
5365
330
5355
100
AcDbEntity
  8
AM_0 外形線1
100
AcDbLine
 10
342.0
 20
-360.0
 30
0.0
 11
348.0
 21
-358.0
 31
0.0
  0
ARC
  5
5366
330
5355
100
AcDbEntity
  8
AM_0 外形線1
100
AcDbCircle
 10
480.0
 20
-338.0
 30
0.0
 40
20.0
100
AcDbArc
 50
270.0
 51
0.0
  0
LINE
  5
5367
330
5355
100
AcDbEntity
  8
AM_3 隠れ線
100
AcDbLine
 10
432.8452989999996
 20
16.0
 30
0.0
 11
432.8452989999996
 21
0.0
 31
0.0
  0
LINE
  5
5368
330
5355
100
AcDbEntity
  8
AM_3 隠れ線
100
AcDbLine
 10
434.0
 20
0.0
 30
0.0
 11
434.0
 21
18.0
 31
0.0
  0
LINE
  5
5369
330
5355
100
AcDbEntity
  8
AM_3 隠れ線
100
AcDbLine
 10
420.0
 20
16.0
 30
0.0
 11
410.762396
 21
0.0
 31
0.0
  0
LINE
  5
536A
330
5355
100
AcDbEntity
  8
AM_3 隠れ線
100
AcDbLine
 10
420.0
 20
16.0
 30
0.0
 11
420.0
 21
0.0
 31
0.0
  0
LINE
  5
536B
330
5355
100
AcDbEntity
  8
AM_3 隠れ線
100
AcDbLine
 10
500.0
 20
18.0
 30
0.0
 11
434.0
 21
18.0
 31
0.0
  0
LINE
  5
536C
330
5355
100
AcDbEntity
  8
AM_3 隠れ線
100
AcDbLine
 10
500.0
 20
16.0
 30
0.0
 11
420.0
 21
16.0
 31
0.0
  0
LINE
  5
536D
330
5355
100
AcDbEntity
  8
AM_3 隠れ線
100
AcDbLine
 10
434.0
 20
18.0
 30
0.0
 11
432.8452989999996
 21
16.0
 31
0.0
  0
LINE
  5
536E
330
5355
100
AcDbEntity
  8
AM_0 外形線1
100
AcDbLine
 10
342.0
 20
360.0
 30
0.0
 11
255.5
 21
360.0
 31
0.0
  0
LINE
  5
536F
330
5355
100
AcDbEntity
  8
AM_0 外形線1
100
AcDbLine
 10
109.5
 20
360.0
 30
0.0
 11
5.0
 21
360.0
 31
0.0
  0
LINE
  5
5370
330
5355
100
AcDbEntity
  8
AM_0 外形線1
100
AcDbLine
 10
5.0
 20
360.0
 30
0.0
 11
0.0
 21
355.0
 31
0.0
  0
ARC
  5
5372
330
5355
100
AcDbEntity
  8
AM_0 外形線1
100
AcDbCircle
 10
182.5
 20
0.0
 30
0.0
 40
389.6
100
AcDbArc
 50
79.42505200000585
 51
100.5749479999941
  0
ARC
  5
5374
330
5355
100
AcDbEntity
  8
AM_0 外形線1
100
AcDbCircle
 10
109.5
 20
360.5
 30
0.0
 40
0.5
100
AcDbArc
 50
270.0
 51
0.0
  0
LINE
  5
5375
330
5355
100
AcDbEntity
  8
AM_0 外形線1
100
AcDbLine
 10
110.0
 20
381.7948670000005
 30
0.0
 11
110.0
 21
360.5
 31
0.0
  0
LINE
  5
5376
330
5355
100
AcDbEntity
  8
AM_0 外形線1
100
AcDbLine
 10
111.0
 20
382.9829110000002
 30
0.0
 11
110.0
 21
381.7948670000005
 31
0.0
  0
LINE
  5
5377
330
5355
100
AcDbEntity
  8
AM_7 中心線
100
AcDbLine
 10
182.5
 20
394.6000000000004
 30
0.0
 11
182.5
 21
365.0
 31
0.0
  0
LINE
  5
5378
330
5355
100
AcDbEntity
  8
AM_0 外形線1
100
AcDbLine
 10
255.0
 20
381.7948670000005
 30
0.0
 11
254.0
 21
382.9829110000002
 31
0.0
  0
LINE
  5
5379
330
5355
100
AcDbEntity
  8
AM_0 外形線1
100
AcDbLine
 10
255.0
 20
360.5
 30
0.0
 11
255.0
 21
381.7948670000005
 31
0.0
  0
ARC
  5
537A
330
5355
100
AcDbEntity
  8
AM_0 外形線1
100
AcDbCircle
 10
255.5
 20
360.5
 30
0.0
 40
0.5
100
AcDbArc
 50
180.0
 51
270.0
  0
LINE
  5
537B
330
5355
100
AcDbEntity
  8
AM_0 外形線1
100
AcDbLine
 10
480.0
 20
358.0
 30
0.0
 11
348.0
 21
358.0
 31
0.0
  0
LINE
  5
537C
330
5355
100
AcDbEntity
  8
AM_0 外形線1
100
AcDbLine
 10
348.0
 20
358.0
 30
0.0
 11
342.0
 21
360.0
 31
0.0
  0
ARC
  5
537D
330
5355
100
AcDbEntity
  8
AM_0 外形線1
100
AcDbCircle
 10
480.0
 20
338.0
 30
0.0
 40
20.0
100
AcDbArc
 50
0.0
 51
90.0
  0
LINE
  5
5380
330
5355
100
AcDbEntity
  8
AM_0 外形線1
100
AcDbLine
 10
0.0
 20
217.5000000000005
 30
0.0
 11
500.0
 21
217.5000000000005
 31
0.0
  0
ARC
  5
795C
330
5355
100
AcDbEntity
  8
AM_0 外形線1
100
AcDbCircle
 10
182.5
 20
-0.2000000000002728
 30
0.0
 40
370.0
100
AcDbArc
 50
78.70001158616353
 51
101.2999884138364
  0
ARC
  5
7D82
330
5355
100
AcDbEntity
  8
AM_7 中心線
100
AcDbCircle
 10
183.5635083269098
 20
0.0
 30
0.0
 40
380.0000000000005
100
AcDbArc
 50
77.81191802242375
 51
102.2153198996653
  0
ENDBLK
  5
5357
330
5355
100
AcDbEntity
  8
0
100
AcDbBlockEnd
  0
BLOCK
  5
53D3
330
53D2
100
AcDbEntity
  8
0
100
AcDbBlockBegin
  2
センタＢ CCMH1000
 70
     0
 10
0.0
 20
0.0
 30
0.0
  3
センタＢ CCMH1000
  1

  0
ARC
  5
53D7
330
53D2
100
AcDbEntity
  8
AM_0 外形線1
100
AcDbCircle
 10
-182.5
 20
0.0
 30
0.0
 40
389.6
100
AcDbArc
 50
79.42505200000585
 51
100.5749479999941
  0
LINE
  5
53D8
330
53D2
100
AcDbEntity
  8
AM_0 外形線1
100
AcDbLine
 10
-500.0
 20
-338.0
 30
0.0
 11
-500.0
 21
338.0
 31
0.0
  0
LINE
  5
53D9
330
53D2
100
AcDbEntity
  8
AM_0 外形線1
100
AcDbLine
 10
-348.0
 20
-358.0
 30
0.0
 11
-348.0
 21
0.0
 31
0.0
  0
LINE
  5
53DA
330
53D2
100
AcDbEntity
  8
AM_0 外形線1
100
AcDbLine
 10
-342.0
 20
-360.0
 30
0.0
 11
-342.0
 21
0.0
 31
0.0
  0
LINE
  5
53DB
330
53D2
100
AcDbEntity
  8
AM_0 外形線1
100
AcDbLine
 10
-348.0
 20
-358.0
 30
0.0
 11
-480.0
 21
-358.0
 31
0.0
  0
ARC
  5
53DC
330
53D2
100
AcDbEntity
  8
AM_0 外形線1
100
AcDbCircle
 10
-480.0
 20
-338.0
 30
0.0
 40
20.0
100
AcDbArc
 50
180.0
 51
270.0
  0
LINE
  5
53DD
330
53D2
100
AcDbEntity
  8
AM_0 外形線1
100
AcDbLine
 10
-302.0
 20
-360.0
 30
0.0
 11
-342.0
 21
-360.0
 31
0.0
  0
LINE
  5
53DE
330
53D2
100
AcDbEntity
  8
AM_0 外形線1
100
AcDbLine
 10
-342.0
 20
-360.0
 30
0.0
 11
-348.0
 21
-358.0
 31
0.0
  0
LINE
  5
53DF
330
53D2
100
AcDbEntity
  8
AM_3 隠れ線
100
AcDbLine
 10
-500.0
 20
16.0
 30
0.0
 11
-420.0
 21
16.0
 31
0.0
  0
LINE
  5
53E0
330
53D2
100
AcDbEntity
  8
AM_3 隠れ線
100
AcDbLine
 10
-432.8452989999996
 20
16.0
 30
0.0
 11
-432.8452989999996
 21
0.0
 31
0.0
  0
LINE
  5
53E1
330
53D2
100
AcDbEntity
  8
AM_3 隠れ線
100
AcDbLine
 10
-434.0
 20
0.0
 30
0.0
 11
-434.0
 21
18.0
 31
0.0
  0
LINE
  5
53E2
330
53D2
100
AcDbEntity
  8
AM_3 隠れ線
100
AcDbLine
 10
-500.0
 20
18.0
 30
0.0
 11
-434.0
 21
18.0
 31
0.0
  0
LINE
  5
53E3
330
53D2
100
AcDbEntity
  8
AM_3 隠れ線
100
AcDbLine
 10
-434.0
 20
18.0
 30
0.0
 11
-432.8452989999996
 21
16.0
 31
0.0
  0
LINE
  5
53E4
330
53D2
100
AcDbEntity
  8
AM_3 隠れ線
100
AcDbLine
 10
-420.0
 20
16.0
 30
0.0
 11
-420.0
 21
0.0
 31
0.0
  0
LINE
  5
53E5
330
53D2
100
AcDbEntity
  8
AM_3 隠れ線
100
AcDbLine
 10
-420.0
 20
16.0
 30
0.0
 11
-410.762396
 21
0.0
 31
0.0
  0
LINE
  5
53E6
330
53D2
100
AcDbEntity
  8
AM_0 外形線1
100
AcDbLine
 10
-480.0
 20
358.0
 30
0.0
 11
-348.0
 21
358.0
 31
0.0
  0
ARC
  5
53E7
330
53D2
100
AcDbEntity
  8
AM_0 外形線1
100
AcDbCircle
 10
-480.0
 20
338.0
 30
0.0
 40
20.0
100
AcDbArc
 50
90.0
 51
180.0
  0
LINE
  5
53E8
330
53D2
100
AcDbEntity
  8
AM_0 外形線1
100
AcDbLine
 10
-342.0
 20
360.0
 30
0.0
 11
-255.5
 21
360.0
 31
0.0
  0
LINE
  5
53E9
330
53D2
100
AcDbEntity
  8
AM_0 外形線1
100
AcDbLine
 10
-348.0
 20
358.0
 30
0.0
 11
-342.0
 21
360.0
 31
0.0
  0
LINE
  5
53EA
330
53D2
100
AcDbEntity
  8
AM_0 外形線1
100
AcDbLine
 10
-255.0
 20
381.7948670000005
 30
0.0
 11
-254.0
 21
382.9829110000002
 31
0.0
  0
LINE
  5
53EB
330
53D2
100
AcDbEntity
  8
AM_0 外形線1
100
AcDbLine
 10
-255.0
 20
360.5
 30
0.0
 11
-255.0
 21
381.7948670000005
 31
0.0
  0
ARC
  5
53EC
330
53D2
100
AcDbEntity
  8
AM_0 外形線1
100
AcDbCircle
 10
-255.5
 20
360.5
 30
0.0
 40
0.5
100
AcDbArc
 50
270.0
 51
0.0
  0
LINE
  5
53ED
330
53D2
100
AcDbEntity
  8
AM_7 中心線
100
AcDbLine
 10
-182.5
 20
394.6000000000004
 30
0.0
 11
-182.5
 21
365.0
 31
0.0
  0
LINE
  5
53EF
330
53D2
100
AcDbEntity
  8
AM_3 隠れ線
100
AcDbLine
 10
0.0
 20
18.0
 30
0.0
 11
-66.0
 21
18.0
 31
0.0
  0
LINE
  5
53F0
330
53D2
100
AcDbEntity
  8
AM_3 隠れ線
100
AcDbLine
 10
0.0
 20
16.0
 30
0.0
 11
-80.0
 21
16.0
 31
0.0
  0
LINE
  5
53F1
330
53D2
100
AcDbEntity
  8
AM_3 隠れ線
100
AcDbLine
 10
-66.0
 20
0.0
 30
0.0
 11
-66.0
 21
18.0
 31
0.0
  0
LINE
  5
53F2
330
53D2
100
AcDbEntity
  8
AM_3 隠れ線
100
AcDbLine
 10
-67.15470100000039
 20
16.0
 30
0.0
 11
-67.15470100000039
 21
0.0
 31
0.0
  0
LINE
  5
53F3
330
53D2
100
AcDbEntity
  8
AM_3 隠れ線
100
AcDbLine
 10
-80.0
 20
16.0
 30
0.0
 11
-89.2376039999999
 21
0.0
 31
0.0
  0
LINE
  5
53F4
330
53D2
100
AcDbEntity
  8
AM_3 隠れ線
100
AcDbLine
 10
-80.0
 20
16.0
 30
0.0
 11
-80.0
 21
0.0
 31
0.0
  0
LINE
  5
53F5
330
53D2
100
AcDbEntity
  8
AM_3 隠れ線
100
AcDbLine
 10
-66.0
 20
18.0
 30
0.0
 11
-67.15470100000039
 21
16.0
 31
0.0
  0
LINE
  5
53F6
330
53D2
100
AcDbEntity
  8
AM_0 外形線1
100
AcDbLine
 10
-109.5
 20
360.0
 30
0.0
 11
-5.0
 21
360.0
 31
0.0
  0
ARC
  5
53F7
330
53D2
100
AcDbEntity
  8
AM_0 外形線1
100
AcDbCircle
 10
-109.5
 20
360.5
 30
0.0
 40
0.5
100
AcDbArc
 50
180.0
 51
270.0
  0
LINE
  5
53F8
330
53D2
100
AcDbEntity
  8
AM_0 外形線1
100
AcDbLine
 10
-110.0
 20
381.7948670000005
 30
0.0
 11
-110.0
 21
360.5
 31
0.0
  0
LINE
  5
53F9
330
53D2
100
AcDbEntity
  8
AM_0 外形線1
100
AcDbLine
 10
-111.0
 20
382.9829110000002
 30
0.0
 11
-110.0
 21
381.7948670000005
 31
0.0
  0
LINE
  5
53FA
330
53D2
100
AcDbEntity
  8
AM_0 外形線1
100
AcDbLine
 10
-5.0
 20
360.0
 30
0.0
 11
0.0
 21
355.0
 31
0.0
  0
LINE
  5
53FB
330
53D2
100
AcDbEntity
  8
AM_0 外形線1
100
AcDbLine
 10
-500.0
 20
217.5000000000014
 30
0.0
 11
0.0
 21
217.5000000000005
 31
0.0
  0
ARC
  5
787C
330
53D2
100
AcDbEntity
  8
AM_0 外形線1
100
AcDbCircle
 10
-182.5
 20
0.0
 30
0.0
 40
370.0
100
AcDbArc
 50
78.70001158616353
 51
101.2999884138364
  0
ARC
  5
78A6
330
53D2
100
AcDbEntity
  8
AM_7 中心線
100
AcDbCircle
 10
-182.5
 20
0.0
 30
0.0
 40
380.0000000000005
100
AcDbArc
 50
77.7846801003347
 51
102.1880819775762
  0
LINE
  5
7B72
330
53D2
100
AcDbEntity
  8
AM_0 外形線1
100
AcDbLine
 10
0.0
 20
355.0
 30
0.0
 11
0.0
 21
0.0
 31
0.0
  0
ENDBLK
  5
53D4
330
53D2
100
AcDbEntity
  8
0
100
AcDbBlockEnd
  0
BLOCK
  5
5747
330
5746
100
AcDbEntity
  8
0
100
AcDbBlockBegin
  2
リーマボルト CCMH1000 M36
 70
     0
 10
0.0
 20
0.0
 30
0.0
  3
リーマボルト CCMH1000 M36
  1

  0
ARC
  5
5749
330
5746
100
AcDbEntity
  8
AM_0 外形線1
100
AcDbCircle
 10
-143.9382300000006
 20
-23.81356599999981
 30
0.0
 40
14.06177
100
AcDbArc
 50
145.6395059999856
 51
214.3604940000144
  0
LINE
  5
574A
330
5746
100
AcDbEntity
  8
AM_0 外形線1
100
AcDbLine
 10
-129.0
 20
-31.75
 30
0.0
 11
-129.0
 21
31.75
 31
0.0
  0
LINE
  5
574B
330
5746
100
AcDbEntity
  8
AM_0 外形線1
100
AcDbLine
 10
-158.0
 20
27.5
 30
0.0
 11
-158.0
 21
-27.5
 31
0.0
  0
ARC
  5
574C
330
5746
100
AcDbEntity
  8
AM_0 外形線1
100
AcDbCircle
 10
8.938230000000658
 20
-23.81356599999981
 30
0.0
 40
14.06177
100
AcDbArc
 50
325.6395059999856
 51
34.3604940000144
  0
LINE
  5
574D
330
5746
100
AcDbEntity
  8
AM_0 外形線1
100
AcDbLine
 10
23.0
 20
27.5
 30
0.0
 11
23.0
 21
-27.5
 31
0.0
  0
LINE
  5
574E
330
5746
100
AcDbEntity
  8
AM_0 外形線1
100
AcDbLine
 10
-155.5462610000004
 20
-31.75
 30
0.0
 11
-129.0
 21
-31.75
 31
0.0
  0
LINE
  5
574F
330
5746
100
AcDbEntity
  8
AM_0 外形線1
100
AcDbLine
 10
-158.0
 20
-27.5
 30
0.0
 11
-155.5462610000004
 21
-31.75
 31
0.0
  0
LINE
  5
5750
330
5746
100
AcDbEntity
  8
AM_0 外形線1
100
AcDbLine
 10
-120.0
 20
-29.75
 30
0.0
 11
-129.0
 21
-29.75
 31
0.0
  0
LINE
  5
5751
330
5746
100
AcDbEntity
  8
AM_0 外形線1
100
AcDbLine
 10
20.54626100000041
 20
-31.75
 30
0.0
 11
0.0
 21
-31.75
 31
0.0
  0
LINE
  5
5752
330
5746
100
AcDbEntity
  8
AM_0 外形線1
100
AcDbLine
 10
23.0
 20
-27.5
 30
0.0
 11
20.54626100000041
 21
-31.75
 31
0.0
  0
LINE
  5
5753
330
5746
100
AcDbEntity
  8
AM_0 外形線1
100
AcDbLine
 10
-129.0
 20
-15.87713199999962
 30
0.0
 11
-155.5462610000004
 21
-15.87713199999962
 31
0.0
  0
LINE
  5
5754
330
5746
100
AcDbEntity
  8
AM_0 外形線1
100
AcDbLine
 10
-129.0
 20
15.87713300000087
 30
0.0
 11
-155.5462610000004
 21
15.87713300000087
 31
0.0
  0
LINE
  5
5755
330
5746
100
AcDbEntity
  8
AM_0 外形線1
100
AcDbLine
 10
-129.0
 20
31.75
 30
0.0
 11
-155.5462610000004
 21
31.75
 31
0.0
  0
LINE
  5
5756
330
5746
100
AcDbEntity
  8
AM_4 細線
100
AcDbLine
 10
-158.0
 20
-16.0
 30
0.0
 11
-168.0
 21
-16.0
 31
0.0
  0
LINE
  5
5757
330
5746
100
AcDbEntity
  8
AM_4 細線
100
AcDbLine
 10
-158.0
 20
16.0
 30
0.0
 11
-168.0
 21
16.0
 31
0.0
  0
LINE
  5
5758
330
5746
100
AcDbEntity
  8
AM_0 外形線1
100
AcDbLine
 10
-166.0
 20
18.0
 30
0.0
 11
-166.0
 21
-18.0
 31
0.0
  0
LINE
  5
5759
330
5746
100
AcDbEntity
  8
AM_0 外形線1
100
AcDbLine
 10
-166.0
 20
-18.0
 30
0.0
 11
-158.0
 21
-18.0
 31
0.0
  0
LINE
  5
575A
330
5746
100
AcDbEntity
  8
AM_0 外形線1
100
AcDbLine
 10
-169.0
 20
-15.0
 30
0.0
 11
-166.0
 21
-18.0
 31
0.0
  0
LINE
  5
575B
330
5746
100
AcDbEntity
  8
AM_0 外形線1
100
AcDbLine
 10
-169.0
 20
15.0
 30
0.0
 11
-169.0
 21
-15.0
 31
0.0
  0
LINE
  5
575C
330
5746
100
AcDbEntity
  8
AM_0 外形線1
100
AcDbLine
 10
-166.0
 20
18.0
 30
0.0
 11
-169.0
 21
15.0
 31
0.0
  0
LINE
  5
575D
330
5746
100
AcDbEntity
  8
AM_0 外形線1
100
AcDbLine
 10
-158.0
 20
18.0
 30
0.0
 11
-166.0
 21
18.0
 31
0.0
  0
ARC
  5
575E
330
5746
100
AcDbEntity
  8
AM_0 外形線1
100
AcDbCircle
 10
-105.4059379999999
 20
0.0
 30
0.0
 40
52.594062
100
AcDbArc
 50
162.4294029999824
 51
197.5705970000175
  0
ARC
  5
575F
330
5746
100
AcDbEntity
  8
AM_0 外形線1
100
AcDbCircle
 10
-143.9382300000006
 20
23.81356700000106
 30
0.0
 40
14.06177
100
AcDbArc
 50
145.6395059999856
 51
214.3604940000144
  0
LINE
  5
5760
330
5746
100
AcDbEntity
  8
AM_0 外形線1
100
AcDbLine
 10
-155.5462610000004
 20
31.75
 30
0.0
 11
-158.0
 21
27.5
 31
0.0
  0
LINE
  5
5761
330
5746
100
AcDbEntity
  8
AM_0 外形線1
100
AcDbLine
 10
-120.0
 20
-18.0
 30
0.0
 11
-117.7320509999999
 21
-18.0
 31
0.0
  0
LINE
  5
5762
330
5746
100
AcDbEntity
  8
AM_0 外形線1
100
AcDbLine
 10
-120.0
 20
18.0
 30
0.0
 11
-117.7320509999999
 21
18.0
 31
0.0
  0
LINE
  5
5763
330
5746
100
AcDbEntity
  8
AM_0 外形線1
100
AcDbLine
 10
-120.0
 20
3.0
 30
0.0
 11
-129.0
 21
-6.0
 31
0.0
  0
LINE
  5
5764
330
5746
100
AcDbEntity
  8
AM_0 外形線1
100
AcDbLine
 10
-120.0
 20
6.0
 30
0.0
 11
-129.0
 21
-3.0
 31
0.0
  0
LINE
  5
5765
330
5746
100
AcDbEntity
  8
AM_0 外形線1
100
AcDbLine
 10
-129.0
 20
29.75
 30
0.0
 11
-120.0
 21
29.75
 31
0.0
  0
LINE
  5
5766
330
5746
100
AcDbEntity
  8
AM_0 外形線1
100
AcDbLine
 10
-116.0
 20
19.0
 30
0.0
 11
-116.0
 21
-19.0
 31
0.0
  0
LINE
  5
5767
330
5746
100
AcDbEntity
  8
AM_0 外形線1
100
AcDbLine
 10
-118.0
 20
-17.84529899999961
 30
0.0
 11
-116.0
 21
-19.0
 31
0.0
  0
LINE
  5
5768
330
5746
100
AcDbEntity
  8
AM_0 外形線1
100
AcDbLine
 10
-118.0
 20
17.84530000000086
 30
0.0
 11
-118.0
 21
-17.84529899999961
 31
0.0
  0
LINE
  5
5769
330
5746
100
AcDbEntity
  8
AM_0 外形線1
100
AcDbLine
 10
-116.0
 20
19.0
 30
0.0
 11
-118.0
 21
17.84530000000086
 31
0.0
  0
ARC
  5
576A
330
5746
100
AcDbEntity
  8
AM_0 外形線1
100
AcDbCircle
 10
-2.0
 20
-19.5
 30
0.0
 40
2.0
100
AcDbArc
 50
14.03624300000194
 51
75.52248800001485
  0
ARC
  5
576B
330
5746
100
AcDbEntity
  8
AM_0 外形線1
100
AcDbCircle
 10
-1.0
 20
-19.5
 30
0.0
 40
2.0
100
AcDbArc
 50
104.4775119999851
 51
165.963756999998
  0
ARC
  5
576C
330
5746
100
AcDbEntity
  8
AM_0 外形線1
100
AcDbCircle
 10
-1.0
 20
19.5
 30
0.0
 40
2.0
100
AcDbArc
 50
194.0362430000019
 51
255.5224880000149
  0
ARC
  5
576D
330
5746
100
AcDbEntity
  8
AM_0 外形線1
100
AcDbCircle
 10
-2.0
 20
19.5
 30
0.0
 40
2.0
100
AcDbArc
 50
284.4775119999852
 51
345.963756999998
  0
LINE
  5
576E
330
5746
100
AcDbEntity
  8
AM_0 外形線1
100
AcDbLine
 10
-3.0
 20
-19.0
 30
0.0
 11
-3.0
 21
19.0
 31
0.0
  0
ARC
  5
576F
330
5746
100
AcDbEntity
  8
AM_0 外形線1
100
AcDbCircle
 10
-29.59406200000012
 20
0.0
 30
0.0
 40
52.594062
100
AcDbArc
 50
342.4294029999825
 51
17.57059700001753
  0
ARC
  5
5770
330
5746
100
AcDbEntity
  8
AM_0 外形線1
100
AcDbCircle
 10
8.938230000000658
 20
23.81356700000106
 30
0.0
 40
14.06177
100
AcDbArc
 50
325.6395059999856
 51
34.3604940000144
  0
LINE
  5
5771
330
5746
100
AcDbEntity
  8
AM_0 外形線1
100
AcDbLine
 10
0.0
 20
-15.87713199999962
 30
0.0
 11
20.54626100000041
 21
-15.87713199999962
 31
0.0
  0
LINE
  5
5772
330
5746
100
AcDbEntity
  8
AM_0 外形線1
100
AcDbLine
 10
0.0
 20
15.87713300000087
 30
0.0
 11
20.54626100000041
 21
15.87713300000087
 31
0.0
  0
LINE
  5
5773
330
5746
100
AcDbEntity
  8
AM_0 外形線1
100
AcDbLine
 10
20.54626100000041
 20
31.75
 30
0.0
 11
23.0
 21
27.5
 31
0.0
  0
LINE
  5
5774
330
5746
100
AcDbEntity
  8
AM_0 外形線1
100
AcDbLine
 10
0.0
 20
31.75
 30
0.0
 11
20.54626100000041
 21
31.75
 31
0.0
  0
LINE
  5
57D8
330
5746
100
AcDbEntity
  8
AM_0 外形線1
100
AcDbLine
 10
-120.0
 20
29.75
 30
0.0
 11
-120.0
 21
-29.75
 31
0.0
  0
LINE
  5
57D9
330
5746
100
AcDbEntity
  8
AM_0 外形線1
100
AcDbLine
 10
-116.0
 20
19.0
 30
0.0
 11
-2.936491673103772
 21
19.0
 31
0.0
  0
LINE
  5
57DA
330
5746
100
AcDbEntity
  8
AM_0 外形線1
100
AcDbLine
 10
-115.9999999999931
 20
-19.00000000003092
 30
0.0
 11
-2.936491673096951
 21
-18.99999999998954
 31
0.0
  0
LINE
  5
57DB
330
5746
100
AcDbEntity
  8
AM_0 外形線1
100
AcDbLine
 10
0.0
 20
31.75
 30
0.0
 11
0.0
 21
-31.75
 31
0.0
  0
ENDBLK
  5
5748
330
5746
100
AcDbEntity
  8
0
100
AcDbBlockEnd
  0
BLOCK
  5
585E
330
585D
100
AcDbEntity
  8
0
100
AcDbBlockBegin
  2
ＧＣサイドカバ－A CCMH1000
 70
     0
 10
0.0
 20
0.0
 30
0.0
  3
ＧＣサイドカバ－A CCMH1000
  1

  0
LINE
  5
5860
330
585D
100
AcDbEntity
  8
AM_7 中心線
100
AcDbLine
 10
-37.29609900000014
 20
-411.0
 30
0.0
 11
43.27127699999983
 21
-411.0
 31
0.0
  0
LINE
  5
5861
330
585D
100
AcDbEntity
  8
AM_0 外形線1
100
AcDbLine
 10
28.0
 20
-429.0
 30
0.0
 11
28.0
 21
0.0
 31
0.0
  0
LINE
  5
5862
330
585D
100
AcDbEntity
  8
AM_0 外形線1
100
AcDbLine
 10
28.0
 20
-429.0
 30
0.0
 11
-0.0000000000004547
 21
-429.0
 31
0.0
  0
LINE
  5
5863
330
585D
100
AcDbEntity
  8
AM_0 外形線1
100
AcDbLine
 10
28.0
 20
404.0
 30
0.0
 11
-23.0
 21
404.0
 31
0.0
  0
LINE
  5
5864
330
585D
100
AcDbEntity
  8
AM_0 外形線1
100
AcDbLine
 10
28.0
 20
418.0
 30
0.0
 11
-23.0
 21
418.0
 31
0.0
  0
LINE
  5
5865
330
585D
100
AcDbEntity
  8
AM_7 中心線
100
AcDbLine
 10
-39.63192750345389
 20
411.0
 30
0.0
 11
46.4164088450934
 21
411.0
 31
0.0
  0
LINE
  5
5866
330
585D
100
AcDbEntity
  8
AM_0 外形線1
100
AcDbLine
 10
4.5
 20
391.5
 30
0.0
 11
-7.0
 21
391.5
 31
0.0
  0
LINE
  5
5867
330
585D
100
AcDbEntity
  8
AM_0 外形線1
100
AcDbLine
 10
0.0
 20
362.5
 30
0.0
 11
-7.0
 21
362.5
 31
0.0
  0
LINE
  5
5868
330
585D
100
AcDbEntity
  8
AM_4 細線
100
AcDbLine
 10
-23.0
 20
403.0
 30
0.0
 11
28.0
 21
403.0
 31
0.0
  0
LINE
  5
5869
330
585D
100
AcDbEntity
  8
AM_4 細線
100
AcDbLine
 10
28.0
 20
419.0
 30
0.0
 11
-23.0
 21
419.0
 31
0.0
  0
LINE
  5
586A
330
585D
100
AcDbEntity
  8
AM_0 外形線1
100
AcDbLine
 10
-7.0
 20
362.5
 30
0.0
 11
-7.0
 21
391.5
 31
0.0
  0
LINE
  5
586B
330
585D
100
AcDbEntity
  8
AM_0 外形線1
100
AcDbLine
 10
-7.0
 20
362.5
 30
0.0
 11
-7.0
 21
360.0
 31
0.0
  0
LINE
  5
586C
330
585D
100
AcDbEntity
  8
AM_0 外形線1
100
AcDbLine
 10
-30.0
 20
404.0
 30
0.0
 11
-23.0
 21
404.0
 31
0.0
  0
LINE
  5
586D
330
585D
100
AcDbEntity
  8
AM_0 外形線1
100
AcDbLine
 10
-34.04145200000039
 20
411.0
 30
0.0
 11
-30.0
 21
404.0
 31
0.0
  0
LINE
  5
586E
330
585D
100
AcDbEntity
  8
AM_0 外形線1
100
AcDbLine
 10
-30.0
 20
418.0
 30
0.0
 11
-34.04145200000039
 21
411.0
 31
0.0
  0
LINE
  5
586F
330
585D
100
AcDbEntity
  8
AM_0 外形線1
100
AcDbLine
 10
-23.0
 20
418.0
 30
0.0
 11
-30.0
 21
418.0
 31
0.0
  0
LINE
  5
5870
330
585D
100
AcDbEntity
  8
AM_0 外形線1
100
AcDbLine
 10
-30.0
 20
418.0
 30
0.0
 11
-30.0
 21
404.0
 31
0.0
  0
LINE
  5
5871
330
585D
100
AcDbEntity
  8
AM_0 外形線1
100
AcDbLine
 10
-23.0
 20
419.0
 30
0.0
 11
-23.0
 21
403.0
 31
0.0
  0
LWPOLYLINE
  5
5872
330
585D
100
AcDbEntity
  8
002
100
AcDbPolyline
 90
       73
 70
     0
 43
0.0
 10
2.25
 20
391.5000000000004
 10
2.446100000000114
 20
391.5137000000008
 10
2.640707999999904
 20
391.5546930000005
 10
2.832343000000037
 20
391.622667000001
 10
3.019545000000106
 20
391.7171070000009
 10
3.200890999999501
 20
391.8372920000006
 10
3.375
 20
391.9823090000004
 10
3.540546999999603
 20
392.151053000001
 10
3.696272000000133
 20
392.3422400000008
 10
3.840989999999692
 20
392.5544160000009
 10
3.97360000000026
 20
392.785965000001
 10
4.093092000000068
 20
393.0351250000009
 10
4.198557000000618
 20
393.3000000000006
 10
4.289192999999611
 20
393.5785750000005
 10
4.364307999999255
 20
393.8687280000008
 10
4.423332999999728
 20
394.1682520000004
 10
4.465817000000241
 20
394.4748670000008
 10
4.491438000000016
 20
394.7862400000008
 10
4.5
 20
395.1000000000008
 10
4.491438000000016
 20
395.4137610000007
 10
4.465817000000241
 20
395.7251340000007
 10
4.423332999999728
 20
396.0317490000007
 10
4.364307999999255
 20
396.3312730000007
 10
4.289192999999611
 20
396.6214260000006
 10
4.198557000000618
 20
396.9000000000006
 10
4.093092000000068
 20
397.1648760000007
 10
3.97360000000026
 20
397.4140360000006
 10
3.840989999999692
 20
397.6455850000007
 10
3.696272000000133
 20
397.8577600000008
 10
3.540546999999603
 20
398.0489480000006
 10
3.375
 20
398.2176920000006
 10
3.200890999999501
 20
398.362708000001
 10
3.019545000000106
 20
398.4828940000007
 10
2.832343000000037
 20
398.5773330000006
 10
2.640707999999904
 20
398.645308000001
 10
2.446100000000114
 20
398.6863010000007
 10
2.25
 20
398.7000000000007
 10
2.053899999999885
 20
398.6863010000007
 10
1.859292000000093
 20
398.645308000001
 10
1.66765699999996
 20
398.5773330000006
 10
1.48045499999989
 20
398.4828940000007
 10
1.299109000000497
 20
398.362708000001
 10
1.125
 20
398.2176920000006
 10
0.9594530000003942
 20
398.0489480000006
 10
0.8037279999998645
 20
397.8577600000008
 10
0.6590100000003078
 20
397.6455850000007
 10
0.5263999999997396
 20
397.4140360000006
 10
0.4069079999999305
 20
397.1648760000007
 10
0.3014429999993808
 20
396.9000000000006
 10
0.2108070000003863
 20
396.6214260000006
 10
0.1356920000007449
 20
396.3312730000007
 10
0.0766670000002705
 20
396.0317490000007
 10
0.0341829999997572
 20
395.7251340000007
 10
0.0085619999999835
 20
395.4137610000007
 10
0.0
 20
395.1000000000008
 10
0.0085619999999835
 20
394.7862400000008
 10
0.0341829999997572
 20
394.4748670000008
 10
0.0766670000002705
 20
394.1682520000004
 10
0.1356920000007449
 20
393.8687280000008
 10
0.2108070000003863
 20
393.5785750000005
 10
0.3014429999993808
 20
393.3000000000006
 10
0.4069079999999305
 20
393.0351250000009
 10
0.5263999999997396
 20
392.785965000001
 10
0.6590100000003078
 20
392.5544160000009
 10
0.8037279999998645
 20
392.3422400000008
 10
0.9594530000003942
 20
392.151053000001
 10
1.125
 20
391.9823090000004
 10
1.299109000000497
 20
391.8372920000006
 10
1.48045499999989
 20
391.7171070000009
 10
1.66765699999996
 20
391.622667000001
 10
1.859292000000093
 20
391.5546930000005
 10
2.053899999999885
 20
391.5137000000008
 10
2.25
 20
391.5000000000004
  0
LWPOLYLINE
  5
5873
330
585D
100
AcDbEntity
  8
AM_0 外形線1
100
AcDbPolyline
 90
       73
 70
     0
 43
0.0
 10
0.0
 20
366.1500000000005
 10
0.03995599999962
 20
365.6139930000009
 10
0.1595189999998183
 20
365.0820640000006
 10
0.3577789999999368
 20
364.5582630000003
 10
0.6332269999993514
 20
364.0465770000005
 10
0.9837680000000544
 20
363.5508980000008
 10
1.406732999999803
 20
363.0750000000007
 10
1.898904000000584
 20
362.6225050000007
 10
2.456532999999581
 20
362.1968570000008
 10
3.075378999999883
 20
361.8012940000008
 10
3.750730000000658
 20
361.4388270000004
 10
4.477447000000211
 20
361.112215000001
 10
5.25
 20
360.8239440000007
 10
6.062507999999977
 20
360.5762080000009
 10
6.908787999999733
 20
360.3708910000005
 10
7.782400000000052
 20
360.2095570000006
 10
8.676694000000678
 20
360.0934330000009
 10
9.584864999999807
 20
360.0234030000006
 10
10.5
 20
360.0000000000004
 10
11.41513500000018
 20
360.0234030000006
 10
12.32330599999932
 20
360.0934330000009
 10
13.21759999999995
 20
360.2095570000006
 10
14.09121200000027
 20
360.3708910000005
 10
14.93749200000002
 20
360.5762080000009
 10
15.75
 20
360.8239440000007
 10
16.52255299999979
 20
361.112215000001
 10
17.24926999999934
 20
361.4388270000004
 10
17.92462100000011
 20
361.8012940000008
 10
18.54346700000042
 20
362.1968570000008
 10
19.10109599999941
 20
362.6225050000007
 10
19.59326700000019
 20
363.0750000000007
 10
20.01623199999995
 20
363.5508980000008
 10
20.36677300000065
 20
364.0465770000005
 10
20.64222100000006
 20
364.5582630000003
 10
20.84048100000018
 20
365.0820640000006
 10
20.96004400000038
 20
365.6139930000009
 10
21.0
 20
366.1500000000005
 10
20.96004400000038
 20
366.686008000001
 10
20.84048100000018
 20
367.2179370000009
 10
20.64222100000006
 20
367.7417380000006
 10
20.36677300000065
 20
368.2534240000009
 10
20.01623199999995
 20
368.7491030000006
 10
19.59326700000019
 20
369.2250000000008
 10
19.10109599999941
 20
369.6774960000007
 10
18.54346700000042
 20
370.1031440000006
 10
17.92462100000011
 20
370.4987070000007
 10
17.24926999999934
 20
370.861174000001
 10
16.52255299999979
 20
371.1877860000003
 10
15.75
 20
371.4760570000008
 10
14.93749200000002
 20
371.7237930000006
 10
14.09121200000027
 20
371.929110000001
 10
13.21759999999995
 20
372.0904440000008
 10
12.32330599999932
 20
372.2065680000005
 10
11.41513500000018
 20
372.2765980000009
 10
10.5
 20
372.3000000000006
 10
9.584864999999807
 20
372.2765980000009
 10
8.676694000000678
 20
372.2065680000005
 10
7.782400000000052
 20
372.0904440000008
 10
6.908787999999733
 20
371.929110000001
 10
6.062507999999977
 20
371.7237930000006
 10
5.25
 20
371.4760570000008
 10
4.477447000000211
 20
371.1877860000003
 10
3.750730000000658
 20
370.861174000001
 10
3.075378999999883
 20
370.4987070000007
 10
2.456532999999581
 20
370.1031440000006
 10
1.898904000000584
 20
369.6774960000007
 10
1.406732999999803
 20
369.2250000000008
 10
0.9837680000000544
 20
368.7491030000006
 10
0.6332269999993514
 20
368.2534240000009
 10
0.3577789999999368
 20
367.7417380000006
 10
0.1595189999998183
 20
367.2179370000009
 10
0.03995599999962
 20
366.686008000001
 10
0.0
 20
366.1500000000005
  0
LINE
  5
5874
330
585D
100
AcDbEntity
  8
AM_0 外形線1
100
AcDbLine
 10
4.5
 20
398.7000000000007
 30
0.0
 11
4.5
 21
391.5
 31
0.0
  0
LINE
  5
5875
330
585D
100
AcDbEntity
  8
AM_0 外形線1
100
AcDbLine
 10
0.0
 20
398.7000000000007
 30
0.0
 11
4.5
 21
398.7000000000007
 31
0.0
  0
LINE
  5
5876
330
585D
100
AcDbEntity
  8
AM_0 外形線1
100
AcDbLine
 10
0.0
 20
372.3000000000001
 30
0.0
 11
0.0
 21
362.5
 31
0.0
  0
LINE
  5
5877
330
585D
100
AcDbEntity
  8
AM_0 外形線1
100
AcDbLine
 10
21.0
 20
372.3000000000001
 30
0.0
 11
0.0
 21
372.3000000000001
 31
0.0
  0
LINE
  5
5878
330
585D
100
AcDbEntity
  8
AM_0 外形線1
100
AcDbLine
 10
21.0
 20
362.5
 30
0.0
 11
21.0
 21
372.3000000000001
 31
0.0
  0
LINE
  5
5879
330
585D
100
AcDbEntity
  8
AM_0 外形線1
100
AcDbLine
 10
28.0
 20
362.5
 30
0.0
 11
21.0
 21
362.5
 31
0.0
  0
LINE
  5
587A
330
585D
100
AcDbEntity
  8
AM_0 外形線1
100
AcDbLine
 10
28.0
 20
398.7000000000007
 30
0.0
 11
28.0
 21
362.5
 31
0.0
  0
LINE
  5
587B
330
585D
100
AcDbEntity
  8
AM_0 外形線1
100
AcDbLine
 10
28.0
 20
398.7000000000007
 30
0.0
 11
28.0
 21
429.0
 31
0.0
  0
LINE
  5
587C
330
585D
100
AcDbEntity
  8
AM_0 外形線1
100
AcDbLine
 10
0.0
 20
362.5
 30
0.0
 11
0.0
 21
360.0
 31
0.0
  0
LINE
  5
587D
330
585D
100
AcDbEntity
  8
AM_0 外形線1
100
AcDbLine
 10
21.0
 20
362.5
 30
0.0
 11
21.0
 21
360.0
 31
0.0
  0
LINE
  5
587E
330
585D
100
AcDbEntity
  8
AM_0 外形線1
100
AcDbLine
 10
28.0
 20
362.5
 30
0.0
 11
28.0
 21
360.0
 31
0.0
  0
LINE
  5
587F
330
585D
100
AcDbEntity
  8
AM_0 外形線1
100
AcDbLine
 10
32.0
 20
412.0
 30
0.0
 11
28.0
 21
408.4999999999998
 31
0.0
  0
LINE
  5
5880
330
585D
100
AcDbEntity
  8
AM_0 外形線1
100
AcDbLine
 10
28.0
 20
410.0
 30
0.0
 11
32.0
 21
413.4999999999998
 31
0.0
  0
LINE
  5
5881
330
585D
100
AcDbEntity
  8
AM_0 外形線1
100
AcDbLine
 10
42.0
 20
421.3858990000008
 30
0.0
 11
42.0
 21
400.6141020000002
 31
0.0
  0
LINE
  5
5882
330
585D
100
AcDbEntity
  8
AM_0 外形線1
100
AcDbLine
 10
40.7640280000005
 20
417.9217969999998
 30
0.0
 11
32.0
 21
417.9217969999998
 31
0.0
  0
LINE
  5
5883
330
585D
100
AcDbEntity
  8
AM_0 外形線1
100
AcDbLine
 10
40.7640280000005
 20
404.0782040000003
 30
0.0
 11
32.0
 21
404.0782040000003
 31
0.0
  0
LINE
  5
5884
330
585D
100
AcDbEntity
  8
AM_0 外形線1
100
AcDbLine
 10
40.7640280000005
 20
397.1500000000006
 30
0.0
 11
32.0
 21
397.1500000000006
 31
0.0
  0
ARC
  5
5885
330
585D
100
AcDbEntity
  8
AM_0 外形線1
100
AcDbCircle
 10
36.52753799999937
 20
400.6141020000002
 30
0.0
 40
5.472462999999997
100
AcDbArc
 50
320.7277500000099
 51
39.27224999999017
  0
ARC
  5
5886
330
585D
100
AcDbEntity
  8
AM_0 外形線1
100
AcDbCircle
 10
22.0
 20
411.0
 30
0.0
 40
20.0
100
AcDbArc
 50
339.7516619999837
 51
20.24833800001628
  0
ARC
  5
5887
330
585D
100
AcDbEntity
  8
AM_0 外形線1
100
AcDbCircle
 10
36.52753699999994
 20
421.3858990000008
 30
0.0
 40
5.472462999999997
100
AcDbArc
 50
320.7277570000183
 51
39.27224299998168
  0
LINE
  5
5888
330
585D
100
AcDbEntity
  8
AM_0 外形線1
100
AcDbLine
 10
32.0
 20
424.8500000000003
 30
0.0
 11
40.7640280000005
 21
424.8500000000003
 31
0.0
  0
LINE
  5
5889
330
585D
100
AcDbEntity
  8
AM_0 外形線1
100
AcDbLine
 10
32.0
 20
396.9000000000006
 30
0.0
 11
28.0
 21
396.9000000000006
 31
0.0
  0
LINE
  5
588A
330
585D
100
AcDbEntity
  8
AM_0 外形線1
100
AcDbLine
 10
32.0
 20
397.1500000000006
 30
0.0
 11
32.0
 21
396.9000000000006
 31
0.0
  0
LINE
  5
588B
330
585D
100
AcDbEntity
  8
AM_0 外形線1
100
AcDbLine
 10
32.0
 20
425.1000000000001
 30
0.0
 11
32.0
 21
397.1500000000006
 31
0.0
  0
LINE
  5
588C
330
585D
100
AcDbEntity
  8
AM_0 外形線1
100
AcDbLine
 10
28.0
 20
425.1000000000001
 30
0.0
 11
32.0
 21
425.1000000000001
 31
0.0
  0
LINE
  5
588D
330
585D
100
AcDbEntity
  8
AM_0 外形線1
100
AcDbLine
 10
28.0
 20
402.0
 30
0.0
 11
0.0
 21
402.0
 31
0.0
  0
LINE
  5
588E
330
585D
100
AcDbEntity
  8
AM_0 外形線1
100
AcDbLine
 10
28.0
 20
420.0
 30
0.0
 11
0.0
 21
420.0
 31
0.0
  0
LINE
  5
588F
330
585D
100
AcDbEntity
  8
AM_0 外形線1
100
AcDbLine
 10
28.0
 20
429.0
 30
0.0
 11
0.0000000000004547
 21
429.0
 31
0.0
  0
LINE
  5
58F8
330
585D
100
AcDbEntity
  8
AM_0 外形線1
100
AcDbLine
 10
-0.0000000000004547
 20
-429.0
 30
0.0
 11
0.0
 21
0.0
 31
0.0
  0
LINE
  5
58F9
330
585D
100
AcDbEntity
  8
AM_0 外形線1
100
AcDbLine
 10
0.0000000000004547
 20
419.0
 30
0.0
 11
0.0
 21
429.0
 31
0.0
  0
LINE
  5
58FA
330
585D
100
AcDbEntity
  8
AM_0 外形線1
100
AcDbLine
 10
0.0
 20
403.0
 30
0.0
 11
0.0
 21
398.7000000000007
 31
0.0
  0
ENDBLK
  5
585F
330
585D
100
AcDbEntity
  8
0
100
AcDbBlockEnd
  0
BLOCK
  5
5973
330
5972
100
AcDbEntity
  8
0
100
AcDbBlockBegin
  2
ＧＣサイドカバ－Ｂ CCMH1000
 70
     0
 10
0.0
 20
0.0
 30
0.0
  3
ＧＣサイドカバ－Ｂ CCMH1000
  1

  0
LINE
  5
5975
330
5972
100
AcDbEntity
  8
AM_0 外形線1
100
AcDbLine
 10
-28.0
 20
-429.0
 30
0.0
 11
-28.0
 21
0.0
 31
0.0
  0
LINE
  5
5976
330
5972
100
AcDbEntity
  8
AM_7 中心線
100
AcDbLine
 10
37.29609900000014
 20
-411.0
 30
0.0
 11
-43.27127699999983
 21
-411.0
 31
0.0
  0
LINE
  5
5977
330
5972
100
AcDbEntity
  8
AM_7 中心線
100
AcDbLine
 10
37.29609900000014
 20
411.0
 30
0.0
 11
-46.4372449758657
 21
411.0
 31
0.0
  0
LINE
  5
5978
330
5972
100
AcDbEntity
  8
AM_0 外形線1
100
AcDbLine
 10
-28.0
 20
412.0
 30
0.0
 11
-32.0
 21
408.4999999999998
 31
0.0
  0
LINE
  5
5979
330
5972
100
AcDbEntity
  8
AM_0 外形線1
100
AcDbLine
 10
-32.0
 20
410.0
 30
0.0
 11
-28.0
 21
413.4999999999998
 31
0.0
  0
LINE
  5
597A
330
5972
100
AcDbEntity
  8
AM_0 外形線1
100
AcDbLine
 10
-32.0
 20
396.9000000000006
 30
0.0
 11
-28.0
 21
396.9000000000006
 31
0.0
  0
LINE
  5
597B
330
5972
100
AcDbEntity
  8
AM_0 外形線1
100
AcDbLine
 10
-28.0
 20
425.1000000000001
 30
0.0
 11
-32.0
 21
425.1000000000001
 31
0.0
  0
LINE
  5
597C
330
5972
100
AcDbEntity
  8
AM_0 外形線1
100
AcDbLine
 10
-42.0
 20
421.3858990000008
 30
0.0
 11
-42.0
 21
400.6141020000002
 31
0.0
  0
LINE
  5
597D
330
5972
100
AcDbEntity
  8
AM_0 外形線1
100
AcDbLine
 10
-40.7640280000005
 20
417.9217969999998
 30
0.0
 11
-32.0
 21
417.9217969999998
 31
0.0
  0
LINE
  5
597E
330
5972
100
AcDbEntity
  8
AM_0 外形線1
100
AcDbLine
 10
-40.7640280000005
 20
404.0782040000003
 30
0.0
 11
-32.0
 21
404.0782040000003
 31
0.0
  0
LINE
  5
597F
330
5972
100
AcDbEntity
  8
AM_0 外形線1
100
AcDbLine
 10
-40.7640280000005
 20
397.1500000000006
 30
0.0
 11
-32.0
 21
397.1500000000006
 31
0.0
  0
ARC
  5
5980
330
5972
100
AcDbEntity
  8
AM_0 外形線1
100
AcDbCircle
 10
-36.52753799999937
 20
400.6141020000002
 30
0.0
 40
5.472462999999997
100
AcDbArc
 50
140.7277500000098
 51
219.2722499999902
  0
ARC
  5
5981
330
5972
100
AcDbEntity
  8
AM_0 外形線1
100
AcDbCircle
 10
-22.0
 20
411.0
 30
0.0
 40
20.0
100
AcDbArc
 50
159.7516619999837
 51
200.2483380000164
  0
ARC
  5
5982
330
5972
100
AcDbEntity
  8
AM_0 外形線1
100
AcDbCircle
 10
-36.52753699999994
 20
421.3858990000008
 30
0.0
 40
5.472462999999997
100
AcDbArc
 50
140.7277570000183
 51
219.2722429999817
  0
LINE
  5
5983
330
5972
100
AcDbEntity
  8
AM_0 外形線1
100
AcDbLine
 10
-32.0
 20
424.8500000000003
 30
0.0
 11
-40.7640280000005
 21
424.8500000000003
 31
0.0
  0
LINE
  5
5984
330
5972
100
AcDbEntity
  8
AM_0 外形線1
100
AcDbLine
 10
-32.0
 20
397.1500000000006
 30
0.0
 11
-32.0
 21
396.9000000000006
 31
0.0
  0
LINE
  5
5985
330
5972
100
AcDbEntity
  8
AM_0 外形線1
100
AcDbLine
 10
-32.0
 20
425.1000000000001
 30
0.0
 11
-32.0
 21
397.1500000000006
 31
0.0
  0
LINE
  5
5986
330
5972
100
AcDbEntity
  8
AM_0 外形線1
100
AcDbLine
 10
34.04145200000039
 20
411.0
 30
0.0
 11
30.0
 21
404.0
 31
0.0
  0
LINE
  5
5987
330
5972
100
AcDbEntity
  8
AM_0 外形線1
100
AcDbLine
 10
30.0
 20
418.0
 30
0.0
 11
34.04145200000039
 21
411.0
 31
0.0
  0
LWPOLYLINE
  5
5988
330
5972
100
AcDbEntity
  8
AM_0 外形線1
100
AcDbPolyline
 90
       73
 70
     0
 43
0.0
 10
-2.25
 20
391.5000000000004
 10
-2.053899999999885
 20
391.5137000000008
 10
-1.859292000000093
 20
391.5546930000005
 10
-1.66765699999996
 20
391.622667000001
 10
-1.48045499999989
 20
391.7171070000009
 10
-1.299109000000497
 20
391.8372920000006
 10
-1.125
 20
391.9823090000004
 10
-0.9594530000003942
 20
392.151053000001
 10
-0.8037279999998645
 20
392.3422400000008
 10
-0.6590100000003078
 20
392.5544160000009
 10
-0.5263999999997396
 20
392.785965000001
 10
-0.4069079999999305
 20
393.0351250000009
 10
-0.3014429999993808
 20
393.3000000000006
 10
-0.2108070000003863
 20
393.5785750000005
 10
-0.1356920000007449
 20
393.8687280000008
 10
-0.0766670000002705
 20
394.1682520000004
 10
-0.0341829999997572
 20
394.4748670000008
 10
-0.0085619999999835
 20
394.7862400000008
 10
0.0
 20
395.1000000000008
 10
-0.0085619999999835
 20
395.4137610000007
 10
-0.0341829999997572
 20
395.7251340000007
 10
-0.0766670000002705
 20
396.0317490000007
 10
-0.1356920000007449
 20
396.3312730000007
 10
-0.2108070000003863
 20
396.6214260000006
 10
-0.3014429999993808
 20
396.9000000000006
 10
-0.4069079999999305
 20
397.1648760000007
 10
-0.5263999999997396
 20
397.4140360000006
 10
-0.6590100000003078
 20
397.6455850000007
 10
-0.8037279999998645
 20
397.8577600000008
 10
-0.9594530000003942
 20
398.0489480000006
 10
-1.125
 20
398.2176920000006
 10
-1.299109000000497
 20
398.362708000001
 10
-1.48045499999989
 20
398.4828940000007
 10
-1.66765699999996
 20
398.5773330000006
 10
-1.859292000000093
 20
398.645308000001
 10
-2.053899999999885
 20
398.6863010000007
 10
-2.25
 20
398.7000000000007
 10
-2.446100000000114
 20
398.6863010000007
 10
-2.640707999999904
 20
398.645308000001
 10
-2.832343000000037
 20
398.5773330000006
 10
-3.019545000000106
 20
398.4828940000007
 10
-3.200890999999501
 20
398.362708000001
 10
-3.375
 20
398.2176920000006
 10
-3.540546999999603
 20
398.0489480000006
 10
-3.696272000000133
 20
397.8577600000008
 10
-3.840989999999692
 20
397.6455850000007
 10
-3.97360000000026
 20
397.4140360000006
 10
-4.093092000000068
 20
397.1648760000007
 10
-4.198557000000618
 20
396.9000000000006
 10
-4.289192999999611
 20
396.6214260000006
 10
-4.364307999999255
 20
396.3312730000007
 10
-4.423332999999728
 20
396.0317490000007
 10
-4.465817000000241
 20
395.7251340000007
 10
-4.491438000000016
 20
395.4137610000007
 10
-4.5
 20
395.1000000000008
 10
-4.491438000000016
 20
394.7862400000008
 10
-4.465817000000241
 20
394.4748670000008
 10
-4.423332999999728
 20
394.1682520000004
 10
-4.364307999999255
 20
393.8687280000008
 10
-4.289192999999611
 20
393.5785750000005
 10
-4.198557000000618
 20
393.3000000000006
 10
-4.093092000000068
 20
393.0351250000009
 10
-3.97360000000026
 20
392.785965000001
 10
-3.840989999999692
 20
392.5544160000009
 10
-3.696272000000133
 20
392.3422400000008
 10
-3.540546999999603
 20
392.151053000001
 10
-3.375
 20
391.9823090000004
 10
-3.200890999999501
 20
391.8372920000006
 10
-3.019545000000106
 20
391.7171070000009
 10
-2.832343000000037
 20
391.622667000001
 10
-2.640707999999904
 20
391.5546930000005
 10
-2.446100000000114
 20
391.5137000000008
 10
-2.25
 20
391.5000000000004
  0
LWPOLYLINE
  5
5989
330
5972
100
AcDbEntity
  8
AM_0 外形線1
100
AcDbPolyline
 90
       73
 70
     0
 43
0.0
 10
0.0
 20
366.1500000000005
 10
-0.03995599999962
 20
366.686008000001
 10
-0.1595189999998183
 20
367.2179370000009
 10
-0.3577789999999368
 20
367.7417380000006
 10
-0.6332269999993514
 20
368.2534240000009
 10
-0.9837680000000544
 20
368.7491030000006
 10
-1.406732999999803
 20
369.2250000000008
 10
-1.898904000000584
 20
369.6774960000007
 10
-2.456532999999581
 20
370.1031440000006
 10
-3.075378999999883
 20
370.4987070000007
 10
-3.750730000000658
 20
370.861174000001
 10
-4.477447000000211
 20
371.1877860000003
 10
-5.25
 20
371.4760570000008
 10
-6.062507999999977
 20
371.7237930000006
 10
-6.908787999999733
 20
371.929110000001
 10
-7.782400000000052
 20
372.0904440000008
 10
-8.676694000000678
 20
372.2065680000005
 10
-9.584864999999807
 20
372.2765980000009
 10
-10.5
 20
372.3000000000006
 10
-11.41513500000018
 20
372.2765980000009
 10
-12.32330599999932
 20
372.2065680000005
 10
-13.21759999999995
 20
372.0904440000008
 10
-14.09121200000027
 20
371.929110000001
 10
-14.93749200000002
 20
371.7237930000006
 10
-15.75
 20
371.4760570000008
 10
-16.52255299999979
 20
371.1877860000003
 10
-17.24926999999934
 20
370.861174000001
 10
-17.92462100000011
 20
370.4987070000007
 10
-18.54346700000042
 20
370.1031440000006
 10
-19.10109599999941
 20
369.6774960000007
 10
-19.59326700000019
 20
369.2250000000008
 10
-20.01623199999995
 20
368.7491030000006
 10
-20.36677300000065
 20
368.2534240000009
 10
-20.64222100000006
 20
367.7417380000006
 10
-20.84048100000018
 20
367.2179370000009
 10
-20.96004400000038
 20
366.686008000001
 10
-21.0
 20
366.1500000000005
 10
-20.96004400000038
 20
365.6139930000009
 10
-20.84048100000018
 20
365.0820640000006
 10
-20.64222100000006
 20
364.5582630000003
 10
-20.36677300000065
 20
364.0465770000005
 10
-20.01623199999995
 20
363.5508980000008
 10
-19.59326700000019
 20
363.0750000000007
 10
-19.10109599999941
 20
362.6225050000007
 10
-18.54346700000042
 20
362.1968570000008
 10
-17.92462100000011
 20
361.8012940000008
 10
-17.24926999999934
 20
361.4388270000004
 10
-16.52255299999979
 20
361.112215000001
 10
-15.75
 20
360.8239440000007
 10
-14.93749200000002
 20
360.5762080000009
 10
-14.09121200000027
 20
360.3708910000005
 10
-13.21759999999995
 20
360.2095570000006
 10
-12.32330599999932
 20
360.0934330000009
 10
-11.41513500000018
 20
360.0234030000006
 10
-10.5
 20
360.0000000000004
 10
-9.584864999999807
 20
360.0234030000006
 10
-8.676694000000678
 20
360.0934330000009
 10
-7.782400000000052
 20
360.2095570000006
 10
-6.908787999999733
 20
360.3708910000005
 10
-6.062507999999977
 20
360.5762080000009
 10
-5.25
 20
360.8239440000007
 10
-4.477447000000211
 20
361.112215000001
 10
-3.750730000000658
 20
361.4388270000004
 10
-3.075378999999883
 20
361.8012940000008
 10
-2.456532999999581
 20
362.1968570000008
 10
-1.898904000000584
 20
362.6225050000007
 10
-1.406732999999803
 20
363.0750000000007
 10
-0.9837680000000544
 20
363.5508980000008
 10
-0.6332269999993514
 20
364.0465770000005
 10
-0.3577789999999368
 20
364.5582630000003
 10
-0.1595189999998183
 20
365.0820640000006
 10
-0.03995599999962
 20
365.6139930000009
 10
0.0
 20
366.1500000000005
  0
LINE
  5
598A
330
5972
100
AcDbEntity
  8
AM_0 外形線1
100
AcDbLine
 10
-28.0
 20
418.0
 30
0.0
 11
23.0
 21
418.0
 31
0.0
  0
LINE
  5
598B
330
5972
100
AcDbEntity
  8
AM_0 外形線1
100
AcDbLine
 10
-28.0
 20
404.0
 30
0.0
 11
23.0
 21
404.0
 31
0.0
  0
LINE
  5
598C
330
5972
100
AcDbEntity
  8
AM_0 外形線1
100
AcDbLine
 10
-4.5
 20
391.5
 30
0.0
 11
7.0
 21
391.5
 31
0.0
  0
LINE
  5
598D
330
5972
100
AcDbEntity
  8
AM_0 外形線1
100
AcDbLine
 10
-4.5
 20
398.7000000000007
 30
0.0
 11
-4.5
 21
391.5
 31
0.0
  0
LINE
  5
598E
330
5972
100
AcDbEntity
  8
AM_0 外形線1
100
AcDbLine
 10
0.0
 20
398.7000000000007
 30
0.0
 11
-4.5
 21
398.7000000000007
 31
0.0
  0
LINE
  5
598F
330
5972
100
AcDbEntity
  8
AM_0 外形線1
100
AcDbLine
 10
30.0
 20
404.0
 30
0.0
 11
23.0
 21
404.0
 31
0.0
  0
LINE
  5
5990
330
5972
100
AcDbEntity
  8
AM_0 外形線1
100
AcDbLine
 10
23.0
 20
418.0
 30
0.0
 11
30.0
 21
418.0
 31
0.0
  0
LINE
  5
5991
330
5972
100
AcDbEntity
  8
AM_0 外形線1
100
AcDbLine
 10
30.0
 20
418.0
 30
0.0
 11
30.0
 21
404.0
 31
0.0
  0
LINE
  5
5992
330
5972
100
AcDbEntity
  8
AM_4 細線
100
AcDbLine
 10
23.0
 20
403.0
 30
0.0
 11
-28.0
 21
403.0
 31
0.0
  0
LINE
  5
5993
330
5972
100
AcDbEntity
  8
AM_0 外形線1
100
AcDbLine
 10
23.0
 20
419.0
 30
0.0
 11
23.0
 21
403.0
 31
0.0
  0
LINE
  5
5994
330
5972
100
AcDbEntity
  8
AM_4 細線
100
AcDbLine
 10
-28.0
 20
419.0
 30
0.0
 11
23.0
 21
419.0
 31
0.0
  0
LINE
  5
5995
330
5972
100
AcDbEntity
  8
AM_0 外形線1
100
AcDbLine
 10
-28.0
 20
402.0
 30
0.0
 11
0.0
 21
402.0
 31
0.0
  0
LINE
  5
5996
330
5972
100
AcDbEntity
  8
AM_0 外形線1
100
AcDbLine
 10
-28.0
 20
420.0
 30
0.0
 11
0.0
 21
420.0
 31
0.0
  0
LINE
  5
5997
330
5972
100
AcDbEntity
  8
AM_0 外形線1
100
AcDbLine
 10
7.0
 20
390.5
 30
0.0
 11
7.0
 21
391.5
 31
0.0
  0
LINE
  5
5998
330
5972
100
AcDbEntity
  8
AM_0 外形線1
100
AcDbLine
 10
7.0
 20
362.5
 30
0.0
 11
7.0
 21
390.5
 31
0.0
  0
LINE
  5
5999
330
5972
100
AcDbEntity
  8
AM_0 外形線1
100
AcDbLine
 10
0.0
 20
362.5
 30
0.0
 11
7.0
 21
362.5
 31
0.0
  0
LINE
  5
599A
330
5972
100
AcDbEntity
  8
AM_0 外形線1
100
AcDbLine
 10
0.0
 20
372.3000000000001
 30
0.0
 11
0.0
 21
362.5
 31
0.0
  0
LINE
  5
599B
330
5972
100
AcDbEntity
  8
AM_0 外形線1
100
AcDbLine
 10
-21.0
 20
372.3000000000001
 30
0.0
 11
0.0
 21
372.3000000000001
 31
0.0
  0
LINE
  5
599C
330
5972
100
AcDbEntity
  8
AM_0 外形線1
100
AcDbLine
 10
-21.0
 20
362.5
 30
0.0
 11
-21.0
 21
372.3000000000001
 31
0.0
  0
LINE
  5
599D
330
5972
100
AcDbEntity
  8
AM_0 外形線1
100
AcDbLine
 10
-28.0
 20
362.5
 30
0.0
 11
-21.0
 21
362.5
 31
0.0
  0
LINE
  5
599E
330
5972
100
AcDbEntity
  8
AM_0 外形線1
100
AcDbLine
 10
-28.0
 20
398.7000000000007
 30
0.0
 11
-28.0
 21
362.5
 31
0.0
  0
LINE
  5
599F
330
5972
100
AcDbEntity
  8
AM_0 外形線1
100
AcDbLine
 10
-28.0
 20
398.7000000000007
 30
0.0
 11
-28.0
 21
429.0
 31
0.0
  0
LINE
  5
59A0
330
5972
100
AcDbEntity
  8
AM_0 外形線1
100
AcDbLine
 10
7.0
 20
362.5
 30
0.0
 11
7.0
 21
360.0
 31
0.0
  0
LINE
  5
59A1
330
5972
100
AcDbEntity
  8
AM_0 外形線1
100
AcDbLine
 10
0.0
 20
362.5
 30
0.0
 11
0.0
 21
360.0
 31
0.0
  0
LINE
  5
59A2
330
5972
100
AcDbEntity
  8
AM_0 外形線1
100
AcDbLine
 10
-21.0
 20
362.5
 30
0.0
 11
-21.0
 21
360.0
 31
0.0
  0
LINE
  5
59A3
330
5972
100
AcDbEntity
  8
AM_0 外形線1
100
AcDbLine
 10
-28.0
 20
362.5
 30
0.0
 11
-28.0
 21
360.0
 31
0.0
  0
LINE
  5
59A4
330
5972
100
AcDbEntity
  8
AM_0 外形線1
100
AcDbLine
 10
-28.0
 20
-429.0
 30
0.0
 11
0.0
 21
-429.0
 31
0.0
  0
LINE
  5
59A5
330
5972
100
AcDbEntity
  8
AM_0 外形線1
100
AcDbLine
 10
-28.0
 20
429.0
 30
0.0
 11
0.0
 21
429.0
 31
0.0
  0
LINE
  5
5A10
330
5972
100
AcDbEntity
  8
AM_0 外形線1
100
AcDbLine
 10
0.0
 20
-429.0
 30
0.0
 11
0.0
 21
0.0
 31
0.0
  0
LINE
  5
5A11
330
5972
100
AcDbEntity
  8
AM_0 外形線1
100
AcDbLine
 10
0.0
 20
398.7000000000007
 30
0.0
 11
0.0
 21
403.0
 31
0.0
  0
LINE
  5
5A12
330
5972
100
AcDbEntity
  8
AM_0 外形線1
100
AcDbLine
 10
0.0
 20
419.0
 30
0.0
 11
0.0
 21
429.0
 31
0.0
  0
ENDBLK
  5
5974
330
5972
100
AcDbEntity
  8
0
100
AcDbBlockEnd
  0
BLOCK
  5
5BF3
330
5BF2
100
AcDbEntity
  8
0
100
AcDbBlockBegin
  2
*D16
 70
     1
 10
0.0
 20
0.0
 30
0.0
  3
*D16
  1

  0
LINE
  5
6CBC
330
5BF2
100
AcDbEntity
  8
AM_5 寸法線
 62
     3
100
AcDbLine
 10
2764.775767173523
 20
3493.849940242244
 30
0.0
 11
2306.775767173523
 21
3493.849940242244
 31
0.0
  0
LINE
  5
6CBD
330
5BF2
100
AcDbEntity
  8
AM_5 寸法線
 62
     3
100
AcDbLine
 10
2764.775767173523
 20
2773.849940242243
 30
0.0
 11
2306.775767173522
 21
2773.849940242243
 31
0.0
  0
LINE
  5
6CBE
330
5BF2
100
AcDbEntity
  8
AM_5 寸法線
 62
     3
100
AcDbLine
 10
2316.150767173523
 20
3456.349940242244
 30
0.0
 11
2316.150767173523
 21
2811.349940242243
 31
0.0
  0
INSERT
  5
6CBF
330
5BF2
100
AcDbEntity
  8
AM_5 寸法線
 62
     3
100
AcDbBlockReference
  2
_Open30
 10
2316.150767173523
 20
3493.849940242244
 30
0.0
 41
37.5
 42
37.5
 43
37.5
 50
90.0
  0
INSERT
  5
6CC0
330
5BF2
100
AcDbEntity
  8
AM_5 寸法線
 62
     3
100
AcDbBlockReference
  2
_Open30
 10
2316.150767173523
 20
2773.849940242243
 30
0.0
 41
37.5
 42
37.5
 43
37.5
 50
270.0
  0
MTEXT
  5
6CC1
330
5BF2
100
AcDbEntity
  8
AM_5 寸法線
 62
     3
100
AcDbMText
 10
2267.400767173522
 20
3133.849940242245
 30
0.0
 40
52.5
 41
0.0
 46
0.0
 71
     5
 72
     1
  1
%%c720
  7
SEISA
 11
0.0000000000000001
 21
1.0
 31
0.0
 73
     1
 44
1.0
  0
POINT
  5
6CC2
330
5BF2
100
AcDbEntity
  8
Defpoints
 62
     0
100
AcDbPoint
 10
2774.150767173523
 20
3493.849940242244
 30
0.0
  0
POINT
  5
6CC3
330
5BF2
100
AcDbEntity
  8
Defpoints
 62
     0
100
AcDbPoint
 10
2774.150767173523
 20
2773.849940242243
 30
0.0
  0
POINT
  5
6CC4
330
5BF2
100
AcDbEntity
  8
Defpoints
 62
     0
100
AcDbPoint
 10
2316.150767173523
 20
2773.849940242243
 30
0.0
  0
ENDBLK
  5
5BF4
330
5BF2
100
AcDbEntity
  8
0
100
AcDbBlockEnd
  0
BLOCK
  5
5C26
330
5C25
100
AcDbEntity
  8
0
100
AcDbBlockBegin
  2
*D17
 70
     1
 10
0.0
 20
0.0
 30
0.0
  3
*D17
  1

  0
LINE
  5
7A55
330
5C25
100
AcDbEntity
  8
AM_5 寸法線
 62
     3
100
AcDbLine
 10
2861.150767173523
 20
3484.974940242245
 30
0.0
 11
2861.150767173523
 21
3388.462054436564
 31
0.0
  0
LINE
  5
7A56
330
5C25
100
AcDbEntity
  8
AM_5 寸法線
 62
     3
100
AcDbLine
 10
2849.150767173523
 20
3484.474940242245
 30
0.0
 11
2849.150767173523
 21
3388.462054436564
 31
0.0
  0
LINE
  5
7A57
330
5C25
100
AcDbEntity
  8
AM_5 寸法線
 62
     3
100
AcDbLine
 10
2898.650767173523
 20
3397.837054436564
 30
0.0
 11
2936.150767173522
 21
3397.837054436564
 31
0.0
  0
LINE
  5
7A58
330
5C25
100
AcDbEntity
  8
AM_5 寸法線
 62
     3
100
AcDbLine
 10
2811.650767173523
 20
3397.837054436564
 30
0.0
 11
2659.400767173523
 21
3397.837054436564
 31
0.0
  0
LINE
  5
7A59
330
5C25
100
AcDbEntity
  8
AM_5 寸法線
 62
     3
100
AcDbLine
 10
2861.150767173523
 20
3397.837054436564
 30
0.0
 11
2849.150767173523
 21
3397.837054436564
 31
0.0
  0
INSERT
  5
7A5A
330
5C25
100
AcDbEntity
  8
AM_5 寸法線
 62
     3
100
AcDbBlockReference
  2
_Open30
 10
2861.150767173523
 20
3397.837054436564
 30
0.0
 41
37.5
 42
37.5
 43
37.5
 50
180.0
  0
INSERT
  5
7A5B
330
5C25
100
AcDbEntity
  8
AM_5 寸法線
 62
     3
100
AcDbBlockReference
  2
_Open30
 10
2849.150767173523
 20
3397.837054436564
 30
0.0
 41
37.5
 42
37.5
 43
37.5
  0
MTEXT
  5
7A5C
330
5C25
100
AcDbEntity
  8
AM_5 寸法線
 62
     3
100
AcDbMText
 10
2716.775767173523
 20
3446.587054436565
 30
0.0
 40
52.5
 41
0.0
 46
0.0
 71
     5
 72
     1
  1
12
  7
SEISA
 73
     1
 44
1.0
  0
POINT
  5
7A5D
102
{ACAD_REACTORS
330
7A6F
102
}
330
5C25
100
AcDbEntity
  8
Defpoints
 62
     0
100
AcDbPoint
 10
2861.150767173523
 20
3494.349940242245
 30
0.0
  0
POINT
  5
7A5E
330
5C25
100
AcDbEntity
  8
Defpoints
 62
     0
100
AcDbPoint
 10
2849.150767173523
 20
3493.849940242244
 30
0.0
  0
POINT
  5
7A5F
330
5C25
100
AcDbEntity
  8
Defpoints
 62
     0
100
AcDbPoint
 10
2849.150767173523
 20
3397.837054436564
 30
0.0
  0
ENDBLK
  5
5C27
330
5C25
100
AcDbEntity
  8
0
100
AcDbBlockEnd
  0
BLOCK
  5
5C5F
330
5C5E
100
AcDbEntity
  8
0
100
AcDbBlockBegin
  2
*D18
 70
     1
 10
0.0
 20
0.0
 30
0.0
  3
*D18
  1

  0
LINE
  5
6CDB
330
5C5E
100
AcDbEntity
  8
AM_5 寸法線
 62
     3
100
AcDbLine
 10
2616.150767173523
 20
3143.224940242245
 30
0.0
 11
2616.150767173523
 21
3226.564976242245
 31
0.0
  0
LINE
  5
6CDC
330
5C5E
100
AcDbEntity
  8
AM_5 寸法線
 62
     3
100
AcDbLine
 10
3116.150767173522
 20
3143.224940242245
 30
0.0
 11
3116.150767173522
 21
3226.564976242245
 31
0.0
  0
LINE
  5
6CDD
330
5C5E
100
AcDbEntity
  8
AM_5 寸法線
 62
     3
100
AcDbLine
 10
2653.650767173523
 20
3217.189976242245
 30
0.0
 11
3078.650767173523
 21
3217.189976242245
 31
0.0
  0
INSERT
  5
6CDE
330
5C5E
100
AcDbEntity
  8
AM_5 寸法線
 62
     3
100
AcDbBlockReference
  2
_Open30
 10
2616.150767173523
 20
3217.189976242245
 30
0.0
 41
37.5
 42
37.5
 43
37.5
 50
180.0
  0
INSERT
  5
6CDF
330
5C5E
100
AcDbEntity
  8
AM_5 寸法線
 62
     3
100
AcDbBlockReference
  2
_Open30
 10
3116.150767173522
 20
3217.189976242245
 30
0.0
 41
37.5
 42
37.5
 43
37.5
  0
MTEXT
  5
6CE0
330
5C5E
100
AcDbEntity
  8
AM_5 寸法線
 62
     3
100
AcDbMText
 10
2866.150767173523
 20
3265.939976242246
 30
0.0
 40
52.5
 41
0.0
 46
0.0
 71
     5
 72
     1
  1
500
  7
SEISA
 73
     1
 44
1.0
  0
POINT
  5
6CE1
330
5C5E
100
AcDbEntity
  8
Defpoints
 62
     0
100
AcDbPoint
 10
2616.150767173523
 20
3133.849940242245
 30
0.0
  0
POINT
  5
6CE2
330
5C5E
100
AcDbEntity
  8
Defpoints
 62
     0
100
AcDbPoint
 10
3116.150767173522
 20
3133.849940242245
 30
0.0
  0
POINT
  5
6CE3
330
5C5E
100
AcDbEntity
  8
Defpoints
 62
     0
100
AcDbPoint
 10
3116.150767173522
 20
3217.189976242245
 30
0.0
  0
ENDBLK
  5
5C60
330
5C5E
100
AcDbEntity
  8
0
100
AcDbBlockEnd
  0
BLOCK
  5
5C77
330
5C76
100
AcDbEntity
  8
0
100
AcDbBlockBegin
  2
*D19
 70
     1
 10
0.0
 20
0.0
 30
0.0
  3
*D19
  1

  0
LINE
  5
6CE4
330
5C76
100
AcDbEntity
  8
AM_5 寸法線
 62
     3
100
AcDbLine
 10
3156.150767173523
 20
3143.224940242245
 30
0.0
 11
3156.150767173523
 21
3226.564976242245
 31
0.0
  0
LINE
  5
6CE5
330
5C76
100
AcDbEntity
  8
AM_5 寸法線
 62
     3
100
AcDbLine
 10
3116.150767173522
 20
3143.224940242245
 30
0.0
 11
3116.150767173522
 21
3226.564976242245
 31
0.0
  0
LINE
  5
6CE6
330
5C76
100
AcDbEntity
  8
AM_5 寸法線
 62
     3
100
AcDbLine
 10
3193.650767173523
 20
3217.189976242245
 30
0.0
 11
3231.150767173523
 21
3217.189976242245
 31
0.0
  0
LINE
  5
6CE7
330
5C76
100
AcDbEntity
  8
AM_5 寸法線
 62
     3
100
AcDbLine
 10
3078.650767173523
 20
3217.189976242245
 30
0.0
 11
3041.150767173522
 21
3217.189976242245
 31
0.0
  0
MTEXT
  5
6CE8
330
5C76
100
AcDbEntity
  8
AM_5 寸法線
 62
     3
100
AcDbMText
 10
3227.263336844597
 20
3266.311116215665
 30
0.0
 40
52.5
 41
0.0
 46
0.0
 71
     5
 72
     1
  1
40
  7
SEISA
 73
     1
 44
1.0
  0
LINE
  5
6CE9
330
5C76
100
AcDbEntity
  8
AM_5 寸法線
 62
     3
100
AcDbLine
 10
3156.150767173523
 20
3217.189976242245
 30
0.0
 11
3116.150767173522
 21
3217.189976242245
 31
0.0
  0
INSERT
  5
6CEA
330
5C76
100
AcDbEntity
  8
AM_5 寸法線
 62
     3
100
AcDbBlockReference
  2
_Open30
 10
3156.150767173523
 20
3217.189976242245
 30
0.0
 41
37.5
 42
37.5
 43
37.5
 50
180.0
  0
INSERT
  5
6CEB
330
5C76
100
AcDbEntity
  8
AM_5 寸法線
 62
     3
100
AcDbBlockReference
  2
_Open30
 10
3116.150767173522
 20
3217.189976242245
 30
0.0
 41
37.5
 42
37.5
 43
37.5
  0
POINT
  5
6CEC
330
5C76
100
AcDbEntity
  8
Defpoints
 62
     0
100
AcDbPoint
 10
3156.150767173523
 20
3133.849940242245
 30
0.0
  0
POINT
  5
6CED
330
5C76
100
AcDbEntity
  8
Defpoints
 62
     0
100
AcDbPoint
 10
3116.150767173522
 20
3133.849940242245
 30
0.0
  0
POINT
  5
6CEE
330
5C76
100
AcDbEntity
  8
Defpoints
 62
     0
100
AcDbPoint
 10
3116.150767173522
 20
3217.189976242245
 30
0.0
  0
ENDBLK
  5
5C78
330
5C76
100
AcDbEntity
  8
0
100
AcDbBlockEnd
  0
BLOCK
  5
5CA9
330
5CA8
100
AcDbEntity
  8
0
100
AcDbBlockBegin
  2
*D20
 70
     1
 10
0.0
 20
0.0
 30
0.0
  3
*D20
  1

  0
LINE
  5
6CEF
330
5CA8
100
AcDbEntity
  8
AM_5 寸法線
 62
     3
100
AcDbLine
 10
3156.150767173523
 20
3143.224940242245
 30
0.0
 11
3156.150767173523
 21
3226.564976242245
 31
0.0
  0
LINE
  5
6CF0
330
5CA8
100
AcDbEntity
  8
AM_5 寸法線
 62
     3
100
AcDbLine
 10
3656.150767173523
 20
3143.224940242245
 30
0.0
 11
3656.150767173523
 21
3226.564976242245
 31
0.0
  0
LINE
  5
6CF1
330
5CA8
100
AcDbEntity
  8
AM_5 寸法線
 62
     3
100
AcDbLine
 10
3193.650767173523
 20
3217.189976242245
 30
0.0
 11
3618.650767173523
 21
3217.189976242245
 31
0.0
  0
INSERT
  5
6CF2
330
5CA8
100
AcDbEntity
  8
AM_5 寸法線
 62
     3
100
AcDbBlockReference
  2
_Open30
 10
3156.150767173523
 20
3217.189976242245
 30
0.0
 41
37.5
 42
37.5
 43
37.5
 50
180.0
  0
INSERT
  5
6CF3
330
5CA8
100
AcDbEntity
  8
AM_5 寸法線
 62
     3
100
AcDbBlockReference
  2
_Open30
 10
3656.150767173523
 20
3217.189976242245
 30
0.0
 41
37.5
 42
37.5
 43
37.5
  0
MTEXT
  5
6CF4
330
5CA8
100
AcDbEntity
  8
AM_5 寸法線
 62
     3
100
AcDbMText
 10
3406.150767173523
 20
3265.939976242246
 30
0.0
 40
52.5
 41
0.0
 46
0.0
 71
     5
 72
     1
  1
500
  7
SEISA
 73
     1
 44
1.0
  0
POINT
  5
6CF5
330
5CA8
100
AcDbEntity
  8
Defpoints
 62
     0
100
AcDbPoint
 10
3156.150767173523
 20
3133.849940242245
 30
0.0
  0
POINT
  5
6CF6
330
5CA8
100
AcDbEntity
  8
Defpoints
 62
     0
100
AcDbPoint
 10
3656.150767173523
 20
3133.849940242245
 30
0.0
  0
POINT
  5
6CF7
330
5CA8
100
AcDbEntity
  8
Defpoints
 62
     0
100
AcDbPoint
 10
3656.150767173523
 20
3217.189976242245
 30
0.0
  0
ENDBLK
  5
5CAA
330
5CA8
100
AcDbEntity
  8
0
100
AcDbBlockEnd
  0
BLOCK
  5
5D6B
330
5D6A
100
AcDbEntity
  8
0
100
AcDbBlockBegin
  2
*D21
 70
     1
 10
0.0
 20
0.0
 30
0.0
  3
*D21
  1

  0
LINE
  5
6CFF
330
5D6A
100
AcDbEntity
  8
AM_5 寸法線
 62
     3
100
AcDbLine
 10
3507.525767173523
 20
3493.849940242244
 30
0.0
 11
3965.525767173523
 21
3493.849940242244
 31
0.0
  0
LINE
  5
6D00
330
5D6A
100
AcDbEntity
  8
AM_5 寸法線
 62
     3
100
AcDbLine
 10
3507.525767173522
 20
2773.849940242243
 30
0.0
 11
3965.525767173523
 21
2773.849940242243
 31
0.0
  0
LINE
  5
6D01
330
5D6A
100
AcDbEntity
  8
AM_5 寸法線
 62
     3
100
AcDbLine
 10
3956.150767173523
 20
3456.349940242244
 30
0.0
 11
3956.150767173523
 21
2811.349940242243
 31
0.0
  0
INSERT
  5
6D02
330
5D6A
100
AcDbEntity
  8
AM_5 寸法線
 62
     3
100
AcDbBlockReference
  2
_Open30
 10
3956.150767173523
 20
3493.849940242244
 30
0.0
 41
37.5
 42
37.5
 43
37.5
 50
90.0
  0
INSERT
  5
6D03
330
5D6A
100
AcDbEntity
  8
AM_5 寸法線
 62
     3
100
AcDbBlockReference
  2
_Open30
 10
3956.150767173523
 20
2773.849940242243
 30
0.0
 41
37.5
 42
37.5
 43
37.5
 50
270.0
  0
MTEXT
  5
6D04
330
5D6A
100
AcDbEntity
  8
AM_5 寸法線
 62
     3
100
AcDbMText
 10
3907.400767173522
 20
3133.849940242245
 30
0.0
 40
52.5
 41
0.0
 46
0.0
 71
     5
 72
     1
  1
%%c720
  7
SEISA
 11
0.0000000000000001
 21
1.0
 31
0.0
 73
     1
 44
1.0
  0
POINT
  5
6D05
330
5D6A
100
AcDbEntity
  8
Defpoints
 62
     0
100
AcDbPoint
 10
3498.150767173523
 20
3493.849940242244
 30
0.0
  0
POINT
  5
6D06
330
5D6A
100
AcDbEntity
  8
Defpoints
 62
     0
100
AcDbPoint
 10
3498.150767173522
 20
2773.849940242243
 30
0.0
  0
POINT
  5
6D07
330
5D6A
100
AcDbEntity
  8
Defpoints
 62
     0
100
AcDbPoint
 10
3956.150767173523
 20
2773.849940242243
 30
0.0
  0
ENDBLK
  5
5D6C
330
5D6A
100
AcDbEntity
  8
0
100
AcDbBlockEnd
  0
BLOCK
  5
5D83
330
5D82
100
AcDbEntity
  8
0
100
AcDbBlockBegin
  2
*D22
 70
     1
 10
0.0
 20
0.0
 30
0.0
  3
*D22
  1

  0
LINE
  5
6D08
330
5D82
100
AcDbEntity
  8
AM_5 寸法線
 62
     3
100
AcDbLine
 10
3467.525767173523
 20
3562.849940242243
 30
0.0
 11
4085.525767173524
 21
3562.849940242243
 31
0.0
  0
LINE
  5
6D09
330
5D82
100
AcDbEntity
  8
AM_5 寸法線
 62
     3
100
AcDbLine
 10
3467.525767173523
 20
2704.849940242244
 30
0.0
 11
4085.525767173523
 21
2704.849940242244
 31
0.0
  0
LINE
  5
6D0A
330
5D82
100
AcDbEntity
  8
AM_5 寸法線
 62
     3
100
AcDbLine
 10
4076.150767173523
 20
3525.349940242243
 30
0.0
 11
4076.150767173523
 21
2742.349940242244
 31
0.0
  0
INSERT
  5
6D0B
330
5D82
100
AcDbEntity
  8
AM_5 寸法線
 62
     3
100
AcDbBlockReference
  2
_Open30
 10
4076.150767173523
 20
3562.849940242243
 30
0.0
 41
37.5
 42
37.5
 43
37.5
 50
90.0
  0
INSERT
  5
6D0C
330
5D82
100
AcDbEntity
  8
AM_5 寸法線
 62
     3
100
AcDbBlockReference
  2
_Open30
 10
4076.150767173523
 20
2704.849940242244
 30
0.0
 41
37.5
 42
37.5
 43
37.5
 50
270.0
  0
MTEXT
  5
6D0D
330
5D82
100
AcDbEntity
  8
AM_5 寸法線
 62
     3
100
AcDbMText
 10
4027.400767173523
 20
3133.849940242245
 30
0.0
 40
52.5
 41
0.0
 46
0.0
 71
     5
 72
     1
  1
%%c858
  7
SEISA
 11
0.0000000000000001
 21
1.0
 31
0.0
 73
     1
 44
1.0
  0
POINT
  5
6D0E
330
5D82
100
AcDbEntity
  8
Defpoints
 62
     0
100
AcDbPoint
 10
3458.150767173523
 20
3562.849940242243
 30
0.0
  0
POINT
  5
6D0F
330
5D82
100
AcDbEntity
  8
Defpoints
 62
     0
100
AcDbPoint
 10
3458.150767173523
 20
2704.849940242244
 30
0.0
  0
POINT
  5
6D10
330
5D82
100
AcDbEntity
  8
Defpoints
 62
     0
100
AcDbPoint
 10
4076.150767173523
 20
2704.849940242244
 30
0.0
  0
ENDBLK
  5
5D84
330
5D82
100
AcDbEntity
  8
0
100
AcDbBlockEnd
  0
BLOCK
  5
5D9B
330
5D9A
100
AcDbEntity
  8
0
100
AcDbBlockBegin
  2
*D23
 70
     1
 10
0.0
 20
0.0
 30
0.0
  3
*D23
  1

  0
LINE
  5
6D11
330
5D9A
100
AcDbEntity
  8
AM_5 寸法線
 62
     3
100
AcDbLine
 10
3203.525767173522
 20
3633.849940242245
 30
0.0
 11
4205.525767173521
 21
3633.849940242245
 31
0.0
  0
LINE
  5
6D12
330
5D9A
100
AcDbEntity
  8
AM_5 寸法線
 62
     3
100
AcDbLine
 10
3203.525767173522
 20
2633.849940242244
 30
0.0
 11
4205.525767173521
 21
2633.849940242244
 31
0.0
  0
LINE
  5
6D13
330
5D9A
100
AcDbEntity
  8
AM_5 寸法線
 62
     3
100
AcDbLine
 10
4196.150767173523
 20
3596.349940242244
 30
0.0
 11
4196.150767173523
 21
2671.349940242244
 31
0.0
  0
INSERT
  5
6D14
330
5D9A
100
AcDbEntity
  8
AM_5 寸法線
 62
     3
100
AcDbBlockReference
  2
_Open30
 10
4196.150767173523
 20
3633.849940242245
 30
0.0
 41
37.5
 42
37.5
 43
37.5
 50
90.0
  0
INSERT
  5
6D15
330
5D9A
100
AcDbEntity
  8
AM_5 寸法線
 62
     3
100
AcDbBlockReference
  2
_Open30
 10
4196.150767173523
 20
2633.849940242244
 30
0.0
 41
37.5
 42
37.5
 43
37.5
 50
270.0
  0
MTEXT
  5
6D16
330
5D9A
100
AcDbEntity
  8
AM_5 寸法線
 62
     3
100
AcDbMText
 10
4147.400767173523
 20
3133.849940242245
 30
0.0
 40
52.5
 41
0.0
 46
0.0
 71
     5
 72
     1
  1
%%c1000
  7
SEISA
 11
0.0000000000000001
 21
1.0
 31
0.0
 73
     1
 44
1.0
  0
POINT
  5
6D17
330
5D9A
100
AcDbEntity
  8
Defpoints
 62
     0
100
AcDbPoint
 10
3194.150767173523
 20
3633.849940242245
 30
0.0
  0
POINT
  5
6D18
330
5D9A
100
AcDbEntity
  8
Defpoints
 62
     0
100
AcDbPoint
 10
3194.150767173523
 20
2633.849940242244
 30
0.0
  0
POINT
  5
6D19
330
5D9A
100
AcDbEntity
  8
Defpoints
 62
     0
100
AcDbPoint
 10
4196.150767173523
 20
2633.849940242244
 30
0.0
  0
ENDBLK
  5
5D9C
330
5D9A
100
AcDbEntity
  8
0
100
AcDbBlockEnd
  0
BLOCK
  5
5EB1
330
5EB0
100
AcDbEntity
  8
0
100
AcDbBlockBegin
  2
*D24
 70
     1
 10
0.0
 20
0.0
 30
0.0
  3
*D24
  1

  0
LINE
  5
6D1A
330
5EB0
100
AcDbEntity
  8
AM_5 寸法線
 62
     3
100
AcDbLine
 10
3136.150767173524
 20
2626.474940242244
 30
0.0
 11
3136.150767173524
 21
2399.474940242244
 31
0.0
  0
LINE
  5
6D1B
330
5EB0
100
AcDbEntity
  8
AM_5 寸法線
 62
     3
100
AcDbLine
 10
3076.150767173523
 20
2626.474940242244
 30
0.0
 11
3076.150767173523
 21
2399.474940242244
 31
0.0
  0
LINE
  5
6D1C
330
5EB0
100
AcDbEntity
  8
AM_5 寸法線
 62
     3
100
AcDbLine
 10
3173.650767173523
 20
2408.849940242244
 30
0.0
 11
3211.150767173523
 21
2408.849940242244
 31
0.0
  0
LINE
  5
6D1D
330
5EB0
100
AcDbEntity
  8
AM_5 寸法線
 62
     3
100
AcDbLine
 10
3038.650767173523
 20
2408.849940242244
 30
0.0
 11
2881.900767173523
 21
2408.849940242244
 31
0.0
  0
LINE
  5
6D1E
330
5EB0
100
AcDbEntity
  8
AM_5 寸法線
 62
     3
100
AcDbLine
 10
3136.150767173524
 20
2408.849940242244
 30
0.0
 11
3076.150767173523
 21
2408.849940242244
 31
0.0
  0
INSERT
  5
6D1F
330
5EB0
100
AcDbEntity
  8
AM_5 寸法線
 62
     3
100
AcDbBlockReference
  2
GENDOT
 10
3136.150767173524
 20
2408.849940242244
 30
0.0
 41
37.5
 42
37.5
 43
37.5
 50
180.0
  0
INSERT
  5
6D20
330
5EB0
100
AcDbEntity
  8
AM_5 寸法線
 62
     3
100
AcDbBlockReference
  2
_Open30
 10
3076.150767173523
 20
2408.849940242244
 30
0.0
 41
37.5
 42
37.5
 43
37.5
  0
MTEXT
  5
6D21
330
5EB0
100
AcDbEntity
  8
AM_5 寸法線
 62
     3
100
AcDbMText
 10
2941.525767173523
 20
2457.599940242244
 30
0.0
 40
52.5
 41
0.0
 46
0.0
 71
     5
 72
     1
  1
60
  7
SEISA
 73
     1
 44
1.0
  0
POINT
  5
6D22
330
5EB0
100
AcDbEntity
  8
Defpoints
 62
     0
100
AcDbPoint
 10
3136.150767173524
 20
2635.849940242243
 30
0.0
  0
POINT
  5
6D23
330
5EB0
100
AcDbEntity
  8
Defpoints
 62
     0
100
AcDbPoint
 10
3076.150767173523
 20
2635.849940242243
 30
0.0
  0
POINT
  5
6D24
330
5EB0
100
AcDbEntity
  8
Defpoints
 62
     0
100
AcDbPoint
 10
3076.150767173523
 20
2408.849940242244
 30
0.0
  0
ENDBLK
  5
5EB2
330
5EB0
100
AcDbEntity
  8
0
100
AcDbBlockEnd
  0
BLOCK
  5
5ECD
330
5ECC
100
AcDbEntity
  8
0
100
AcDbBlockBegin
  2
*D25
 70
     1
 10
0.0
 20
0.0
 30
0.0
  3
*D25
  1

  0
LINE
  5
6D25
330
5ECC
100
AcDbEntity
  8
AM_5 寸法線
 62
     3
100
AcDbLine
 10
3136.150767173524
 20
2626.474940242244
 30
0.0
 11
3136.150767173524
 21
2399.474940242244
 31
0.0
  0
LINE
  5
6D26
330
5ECC
100
AcDbEntity
  8
AM_5 寸法線
 62
     3
100
AcDbLine
 10
3196.150767173523
 20
2626.474940242244
 30
0.0
 11
3196.150767173523
 21
2399.474940242244
 31
0.0
  0
LINE
  5
6D27
330
5ECC
100
AcDbEntity
  8
AM_5 寸法線
 62
     3
100
AcDbLine
 10
3098.650767173523
 20
2408.849940242244
 30
0.0
 11
3061.150767173522
 21
2408.849940242244
 31
0.0
  0
LINE
  5
6D28
330
5ECC
100
AcDbEntity
  8
AM_5 寸法線
 62
     3
100
AcDbLine
 10
3233.650767173524
 20
2408.849940242244
 30
0.0
 11
3390.400767173523
 21
2408.849940242244
 31
0.0
  0
LINE
  5
6D29
330
5ECC
100
AcDbEntity
  8
AM_5 寸法線
 62
     3
100
AcDbLine
 10
3136.150767173524
 20
2408.849940242244
 30
0.0
 11
3196.150767173523
 21
2408.849940242244
 31
0.0
  0
INSERT
  5
6D2A
330
5ECC
100
AcDbEntity
  8
AM_5 寸法線
 62
     3
100
AcDbBlockReference
  2
GENDOT
 10
3136.150767173524
 20
2408.849940242244
 30
0.0
 41
37.5
 42
37.5
 43
37.5
  0
INSERT
  5
6D2B
330
5ECC
100
AcDbEntity
  8
AM_5 寸法線
 62
     3
100
AcDbBlockReference
  2
_Open30
 10
3196.150767173523
 20
2408.849940242244
 30
0.0
 41
37.5
 42
37.5
 43
37.5
 50
180.0
  0
MTEXT
  5
6D2C
330
5ECC
100
AcDbEntity
  8
AM_5 寸法線
 62
     3
100
AcDbMText
 10
3330.775767173522
 20
2457.599940242244
 30
0.0
 40
52.5
 41
0.0
 46
0.0
 71
     5
 72
     1
  1
60
  7
SEISA
 73
     1
 44
1.0
  0
POINT
  5
6D2D
330
5ECC
100
AcDbEntity
  8
Defpoints
 62
     0
100
AcDbPoint
 10
3136.150767173524
 20
2635.849940242243
 30
0.0
  0
POINT
  5
6D2E
330
5ECC
100
AcDbEntity
  8
Defpoints
 62
     0
100
AcDbPoint
 10
3196.150767173523
 20
2635.849940242243
 30
0.0
  0
POINT
  5
6D2F
330
5ECC
100
AcDbEntity
  8
Defpoints
 62
     0
100
AcDbPoint
 10
3196.150767173523
 20
2408.849940242244
 30
0.0
  0
ENDBLK
  5
5ECE
330
5ECC
100
AcDbEntity
  8
0
100
AcDbBlockEnd
  0
BLOCK
  5
5EE9
330
5EE8
100
AcDbEntity
  8
0
100
AcDbBlockBegin
  2
*D26
 70
     1
 10
0.0
 20
0.0
 30
0.0
  3
*D26
  1

  0
LINE
  5
7DF5
330
5EE8
100
AcDbEntity
  8
AM_5 寸法線
 62
     3
100
AcDbLine
 10
3458.150767173523
 20
2695.474940242244
 30
0.0
 11
3458.150767173523
 21
2279.474940242244
 31
0.0
  0
LINE
  5
7DF6
330
5EE8
100
AcDbEntity
  8
AM_5 寸法線
 62
     3
100
AcDbLine
 10
2814.150767173522
 20
2695.474940242244
 30
0.0
 11
2814.150767173522
 21
2279.474940242244
 31
0.0
  0
LINE
  5
7DF7
330
5EE8
100
AcDbEntity
  8
AM_5 寸法線
 62
     3
100
AcDbLine
 10
3420.650767173523
 20
2288.849940242244
 30
0.0
 11
2851.650767173523
 21
2288.849940242244
 31
0.0
  0
INSERT
  5
7DF8
330
5EE8
100
AcDbEntity
  8
AM_5 寸法線
 62
     3
100
AcDbBlockReference
  2
_Open30
 10
3458.150767173523
 20
2288.849940242244
 30
0.0
 41
37.5
 42
37.5
 43
37.5
  0
INSERT
  5
7DF9
330
5EE8
100
AcDbEntity
  8
AM_5 寸法線
 62
     3
100
AcDbBlockReference
  2
_Open30
 10
2814.150767173522
 20
2288.849940242244
 30
0.0
 41
37.5
 42
37.5
 43
37.5
 50
180.0
  0
MTEXT
  5
7DFA
330
5EE8
100
AcDbEntity
  8
AM_5 寸法線
 62
     3
100
AcDbMText
 10
3136.150767173524
 20
2337.599940242244
 30
0.0
 40
52.5
 41
0.0
 46
0.0
 71
     5
 72
     1
  1
644
  7
SEISA
 73
     1
 44
1.0
  0
POINT
  5
7DFB
330
5EE8
100
AcDbEntity
  8
Defpoints
 62
     0
100
AcDbPoint
 10
3458.150767173523
 20
2704.849940242244
 30
0.0
  0
POINT
  5
7DFC
330
5EE8
100
AcDbEntity
  8
Defpoints
 62
     0
100
AcDbPoint
 10
2814.150767173522
 20
2704.849940242244
 30
0.0
  0
POINT
  5
7DFD
330
5EE8
100
AcDbEntity
  8
Defpoints
 62
     0
100
AcDbPoint
 10
2814.150767173522
 20
2288.849940242244
 30
0.0
  0
ENDBLK
  5
5EEA
330
5EE8
100
AcDbEntity
  8
0
100
AcDbBlockEnd
  0
BLOCK
  5
5F49
330
5F48
100
AcDbEntity
  8
0
100
AcDbBlockBegin
  2
*D27
 70
     1
 10
0.0
 20
0.0
 30
0.0
  3
*D27
  1

  0
LINE
  5
6D54
330
5F48
100
AcDbEntity
  8
AM_5 寸法線
 62
     3
100
AcDbLine
 10
2616.150767173523
 20
2786.474940242245
 30
0.0
 11
2616.150767173523
 21
2159.474940242244
 31
0.0
  0
LINE
  5
6D55
330
5F48
100
AcDbEntity
  8
AM_5 寸法線
 62
     3
100
AcDbLine
 10
3656.150767173523
 20
2786.474940242245
 30
0.0
 11
3656.150767173523
 21
2159.474940242244
 31
0.0
  0
LINE
  5
6D56
330
5F48
100
AcDbEntity
  8
AM_5 寸法線
 62
     3
100
AcDbLine
 10
2653.650767173523
 20
2168.849940242244
 30
0.0
 11
3618.650767173523
 21
2168.849940242244
 31
0.0
  0
INSERT
  5
6D57
330
5F48
100
AcDbEntity
  8
AM_5 寸法線
 62
     3
100
AcDbBlockReference
  2
_Open30
 10
2616.150767173523
 20
2168.849940242244
 30
0.0
 41
37.5
 42
37.5
 43
37.5
 50
180.0
  0
INSERT
  5
6D58
330
5F48
100
AcDbEntity
  8
AM_5 寸法線
 62
     3
100
AcDbBlockReference
  2
_Open30
 10
3656.150767173523
 20
2168.849940242244
 30
0.0
 41
37.5
 42
37.5
 43
37.5
  0
MTEXT
  5
6D59
330
5F48
100
AcDbEntity
  8
AM_5 寸法線
 62
     3
100
AcDbMText
 10
3136.150767173524
 20
2217.599940242244
 30
0.0
 40
52.5
 41
0.0
 46
0.0
 71
     5
 72
     1
  1
1040
  7
SEISA
 73
     1
 44
1.0
  0
POINT
  5
6D5A
330
5F48
100
AcDbEntity
  8
Defpoints
 62
     0
100
AcDbPoint
 10
2616.150767173523
 20
2795.849940242244
 30
0.0
  0
POINT
  5
6D5B
330
5F48
100
AcDbEntity
  8
Defpoints
 62
     0
100
AcDbPoint
 10
3656.150767173523
 20
2795.849940242244
 30
0.0
  0
POINT
  5
6D5C
330
5F48
100
AcDbEntity
  8
Defpoints
 62
     0
100
AcDbPoint
 10
3656.150767173523
 20
2168.849940242244
 30
0.0
  0
ENDBLK
  5
5F4A
330
5F48
100
AcDbEntity
  8
0
100
AcDbBlockEnd
  0
BLOCK
  5
7A62
330
7A61
100
AcDbEntity
  8
0
100
AcDbBlockBegin
  2
*D28
 70
     1
 10
0.0
 20
0.0
 30
0.0
  3
*D28
  1

  0
LINE
  5
7ACA
330
7A61
100
AcDbEntity
  8
AM_5 寸法線
 62
     3
100
AcDbLine
 10
2861.150767173523
 20
3484.974940242245
 30
0.0
 11
2861.150767173523
 21
3388.462054436568
 31
0.0
  0
LINE
  5
7ACB
330
7A61
100
AcDbEntity
  8
AM_5 寸法線
 62
     3
100
AcDbLine
 10
3006.150767173523
 20
3484.974940242245
 30
0.0
 11
3006.150767173523
 21
3388.462054436568
 31
0.0
  0
LINE
  5
7ACC
330
7A61
100
AcDbEntity
  8
AM_5 寸法線
 62
     3
100
AcDbLine
 10
2898.650767173523
 20
3397.837054436568
 30
0.0
 11
2968.650767173523
 21
3397.837054436568
 31
0.0
  0
MTEXT
  5
7ACD
330
7A61
100
AcDbEntity
  8
AM_5 寸法線
 62
     3
100
AcDbMText
 10
2928.295407520147
 20
3439.363227099613
 30
0.0
 40
52.5
 41
0.0
 46
0.0
 71
     5
 72
     1
  1
145
  7
SEISA
 73
     1
 44
1.0
  0
INSERT
  5
7ACE
330
7A61
100
AcDbEntity
  8
AM_5 寸法線
 62
     3
100
AcDbBlockReference
  2
_Open30
 10
2861.150767173523
 20
3397.837054436568
 30
0.0
 41
37.5
 42
37.5
 43
37.5
 50
180.0
  0
INSERT
  5
7ACF
330
7A61
100
AcDbEntity
  8
AM_5 寸法線
 62
     3
100
AcDbBlockReference
  2
_Open30
 10
3006.150767173523
 20
3397.837054436568
 30
0.0
 41
37.5
 42
37.5
 43
37.5
  0
POINT
  5
7AD0
330
7A61
100
AcDbEntity
  8
Defpoints
 62
     0
100
AcDbPoint
 10
2861.150767173523
 20
3494.349940242245
 30
0.0
  0
POINT
  5
7AD1
330
7A61
100
AcDbEntity
  8
Defpoints
 62
     0
100
AcDbPoint
 10
3006.150767173523
 20
3494.349940242245
 30
0.0
  0
POINT
  5
7AD2
330
7A61
100
AcDbEntity
  8
Defpoints
 62
     0
100
AcDbPoint
 10
3006.150767173523
 20
3397.837054436568
 30
0.0
  0
ENDBLK
  5
7A63
330
7A61
100
AcDbEntity
  8
0
100
AcDbBlockEnd
  0
BLOCK
  5
7A90
330
7A8F
100
AcDbEntity
  8
0
100
AcDbBlockBegin
  2
*D29
 70
     1
 10
0.0
 20
0.0
 30
0.0
  3
*D29
  1

  0
LINE
  5
7C71
330
7A8F
100
AcDbEntity
  8
AM_5 寸法線
 62
     3
100
AcDbLine
 10
3006.150767173523
 20
3484.974940242245
 30
0.0
 11
3006.150767173523
 21
3388.462054436566
 31
0.0
  0
LINE
  5
7C72
330
7A8F
100
AcDbEntity
  8
AM_5 寸法線
 62
     3
100
AcDbLine
 10
3116.150767173522
 20
3360.724940242245
 30
0.0
 11
3116.150767173522
 21
3407.212054436566
 31
0.0
  0
LINE
  5
7C73
330
7A8F
100
AcDbEntity
  8
AM_5 寸法線
 62
     3
100
AcDbLine
 10
2968.650767173523
 20
3397.837054436566
 30
0.0
 11
2931.150767173523
 21
3397.837054436566
 31
0.0
  0
LINE
  5
7C74
330
7A8F
100
AcDbEntity
  8
AM_5 寸法線
 62
     3
100
AcDbLine
 10
3153.650767173522
 20
3397.837054436566
 30
0.0
 11
3191.150767173522
 21
3397.837054436566
 31
0.0
  0
LINE
  5
7C75
330
7A8F
100
AcDbEntity
  8
AM_5 寸法線
 62
     3
100
AcDbLine
 10
3353.221580956005
 20
3397.837054436566
 30
0.0
 11
3116.150767173522
 21
3397.837054436566
 31
0.0
  0
MTEXT
  5
7C76
330
7A8F
100
AcDbEntity
  8
AM_5 寸法線
 62
     3
100
AcDbMText
 10
3273.346580956004
 20
3446.587054436566
 30
0.0
 40
52.5
 41
0.0
 46
0.0
 71
     5
 72
     1
  1
110
  7
SEISA
 73
     1
 44
1.0
  0
LINE
  5
7C77
330
7A8F
100
AcDbEntity
  8
AM_5 寸法線
 62
     3
100
AcDbLine
 10
3006.150767173523
 20
3397.837054436566
 30
0.0
 11
3116.150767173522
 21
3397.837054436566
 31
0.0
  0
LINE
  5
7C78
330
7A8F
100
AcDbEntity
  8
AM_5 寸法線
 62
     3
100
AcDbLine
 10
3006.150767173523
 20
3397.837054436566
 30
0.0
 11
3116.150767173522
 21
3397.837054436566
 31
0.0
  0
INSERT
  5
7C79
330
7A8F
100
AcDbEntity
  8
AM_5 寸法線
 62
     3
100
AcDbBlockReference
  2
_Open30
 10
3006.150767173523
 20
3397.837054436566
 30
0.0
 41
37.5
 42
37.5
 43
37.5
  0
INSERT
  5
7C7A
330
7A8F
100
AcDbEntity
  8
AM_5 寸法線
 62
     3
100
AcDbBlockReference
  2
_Open30
 10
3116.150767173522
 20
3397.837054436566
 30
0.0
 41
37.5
 42
37.5
 43
37.5
 50
180.0
  0
POINT
  5
7C7B
330
7A8F
100
AcDbEntity
  8
Defpoints
 62
     0
100
AcDbPoint
 10
3006.150767173523
 20
3494.349940242245
 30
0.0
  0
POINT
  5
7C7C
330
7A8F
100
AcDbEntity
  8
Defpoints
 62
     0
100
AcDbPoint
 10
3116.150767173522
 20
3351.349940242245
 30
0.0
  0
POINT
  5
7C7D
330
7A8F
100
AcDbEntity
  8
Defpoints
 62
     0
100
AcDbPoint
 10
3116.150767173522
 20
3397.837054436566
 30
0.0
  0
ENDBLK
  5
7A91
330
7A8F
100
AcDbEntity
  8
0
100
AcDbBlockEnd
  0
ENDSEC
  0
SECTION
  2
ENTITIES
  0
LINE
  5
4639
330
1F
100
AcDbEntity
  8
AM_7 中心線
100
AcDbLine
 10
2550.617810923555
 20
3133.849940242245
 30
0.0
 11
3721.964298309013
 21
3133.849940242245
 31
0.0
  0
LINE
  5
465E
330
1F
100
AcDbEntity
  8
AM_0 外形線1
100
AcDbLine
 10
2842.150767173523
 20
2704.849940242244
 30
0.0
 11
2842.150767173523
 21
3133.849940242245
 31
0.0
  0
ARC
  5
469B
330
1F
100
AcDbEntity
  8
AM_0 外形線1
100
AcDbCircle
 10
2850.150767173523
 20
3524.349940242244
 30
0.0
 40
1.0
100
AcDbArc
 50
176.2897689999971
 51
180.0
  0
INSERT
  5
5104
102
{ACAD_REACTORS
330
5DB0
330
5EE6
102
}
330
1F
100
AcDbEntity
  8
AM_0 外形線1
100
AcDbBlockReference
  2
ケースＡ CCMH1000
 10
3136.150767173524
 20
3133.849940242245
 30
0.0
  0
INSERT
  5
5382
102
{ACAD_REACTORS
330
5CBE
330
5D80
330
5F5E
330
5C90
102
}
330
1F
100
AcDbEntity
  8
AM_0 外形線1
100
AcDbBlockReference
  2
センタＡ CCMH1000
 10
3156.150767173523
 20
3133.849940242245
 30
0.0
  0
INSERT
  5
53FF
102
{ACAD_REACTORS
330
5C08
330
5C3F
330
5C90
330
5F5E
330
7A6F
330
7A9E
330
5C74
102
}
330
1F
100
AcDbEntity
  8
AM_0 外形線1
100
AcDbBlockReference
  2
センタＢ CCMH1000
 10
3116.150767173523
 20
3133.849940242245
 30
0.0
  0
INSERT
  5
5776
330
1F
100
AcDbEntity
  8
AM_0 外形線1
100
AcDbBlockReference
  2
リーマボルト CCMH1000 M36
 10
3196.150767173523
 20
3599.849940242245
 30
0.0
  0
INSERT
  5
57A4
102
{ACAD_REACTORS
330
5ECA
330
5EE6
102
}
330
1F
100
AcDbEntity
  8
AM_0 外形線1
100
AcDbBlockReference
  2
ケースＢ CCMH1000
 10
3136.150767173524
 20
3133.849940242245
 30
0.0
  0
INSERT
  5
5890
102
{ACAD_REACTORS
330
5D98
102
}
330
1F
100
AcDbEntity
  8
AM_0 外形線1
100
AcDbBlockReference
  2
ＧＣサイドカバ－A CCMH1000
 10
3430.150767173523
 20
3133.849940242245
 30
0.0
  0
INSERT
  5
59A6
102
{ACAD_REACTORS
330
5C3F
330
5EFE
102
}
330
1F
100
AcDbEntity
  8
AM_0 外形線1
100
AcDbBlockReference
  2
ＧＣサイドカバ－Ｂ CCMH1000
 10
2842.150767173523
 20
3133.849940242245
 30
0.0
  0
DIMENSION
  5
5BF1
102
{ACAD_XDICTIONARY
360
5BFE
102
}
102
{ACAD_REACTORS
330
5C08
102
}
330
1F
100
AcDbEntity
  8
AM_5 寸法線
100
AcDbDimension
  2
*D16
 10
2316.150767173523
 20
2773.849940242243
 30
0.0
 11
2267.400767173522
 21
3133.849940242245
 31
0.0
 70
    32
  1
%%c<>
 71
     5
 42
720.0
 73
     0
 74
     0
 75
     0
  3
SEISA$0
100
AcDbAlignedDimension
 13
2774.150767173523
 23
3493.849940242244
 33
0.0
 14
2774.150767173523
 24
2773.849940242243
 34
0.0
 50
90.0
100
AcDbRotatedDimension
1001
ACAD_DSTYLE_DIMINSPECT
1070
   396
1000
100%
1070
   395
1000

1070
   394
1070
    33
1070
   393
1070
     0
  0
DIMENSION
  5
5C24
102
{ACAD_XDICTIONARY
360
5C33
102
}
102
{ACAD_REACTORS
330
5C3F
330
7A6F
102
}
330
1F
100
AcDbEntity
  8
AM_5 寸法線
100
AcDbDimension
  2
*D17
 10
2849.150767173523
 20
3397.837054436564
 30
0.0
 11
2716.775767173523
 21
3446.587054436565
 31
0.0
 70
    32
 71
     5
 42
12.0
 73
     0
 74
     0
 75
     0
  3
SEISA$0
100
AcDbAlignedDimension
 13
2861.150767173523
 23
3494.349940242245
 33
0.0
 14
2849.150767173523
 24
3493.849940242244
 34
0.0
100
AcDbRotatedDimension
1001
ACAD
1000
DSTYLE
1002
{
1070
   344
1005
69
1070
   342
1005
0
1070
   173
1070
     1
1070
   343
1005
69
1002
}
  0
DIMENSION
  5
5C5D
102
{ACAD_XDICTIONARY
360
5C6A
102
}
102
{ACAD_REACTORS
330
5C74
102
}
330
1F
100
AcDbEntity
  8
AM_5 寸法線
100
AcDbDimension
  2
*D18
 10
3116.150767173522
 20
3217.189976242245
 30
0.0
 11
2866.150767173523
 21
3265.939976242246
 31
0.0
 70
    32
 71
     5
 42
499.9999999999993
 73
     0
 74
     0
 75
     0
  3
SEISA$0
100
AcDbAlignedDimension
 13
2616.150767173523
 23
3133.849940242245
 33
0.0
 14
3116.150767173522
 24
3133.849940242245
 34
0.0
100
AcDbRotatedDimension
  0
DIMENSION
  5
5C75
102
{ACAD_XDICTIONARY
360
5C84
102
}
102
{ACAD_REACTORS
330
5C90
102
}
330
1F
100
AcDbEntity
  8
AM_5 寸法線
100
AcDbDimension
  2
*D19
 10
3116.150767173522
 20
3217.189976242245
 30
0.0
 11
3227.263336844597
 21
3266.311116215665
 31
0.0
 70
   160
 71
     5
 42
40.00000000000045
 73
     0
 74
     0
 75
     0
  3
SEISA$0
100
AcDbAlignedDimension
 13
3156.150767173523
 23
3133.849940242245
 33
0.0
 14
3116.150767173522
 24
3133.849940242245
 34
0.0
100
AcDbRotatedDimension
1001
ACAD
1000
DSTYLE
1002
{
1070
   279
1070
     2
1002
}
  0
DIMENSION
  5
5CA7
102
{ACAD_XDICTIONARY
360
5CB4
102
}
102
{ACAD_REACTORS
330
5CBE
102
}
330
1F
100
AcDbEntity
  8
AM_5 寸法線
100
AcDbDimension
  2
*D20
 10
3656.150767173523
 20
3217.189976242245
 30
0.0
 11
3406.150767173523
 21
3265.939976242246
 31
0.0
 70
    32
 71
     5
 42
500.0
 73
     0
 74
     0
 75
     0
  3
SEISA$0
100
AcDbAlignedDimension
 13
3156.150767173523
 23
3133.849940242245
 33
0.0
 14
3656.150767173523
 24
3133.849940242245
 34
0.0
100
AcDbRotatedDimension
  0
DIMENSION
  5
5D69
102
{ACAD_XDICTIONARY
360
5D76
102
}
102
{ACAD_REACTORS
330
5D80
102
}
330
1F
100
AcDbEntity
  8
AM_5 寸法線
100
AcDbDimension
  2
*D21
 10
3956.150767173523
 20
2773.849940242243
 30
0.0
 11
3907.400767173522
 21
3133.849940242245
 31
0.0
 70
    32
  1
%%c<>
 71
     5
 42
720.0
 73
     0
 74
     0
 75
     0
  3
SEISA$0
100
AcDbAlignedDimension
 13
3498.150767173523
 23
3493.849940242244
 33
0.0
 14
3498.150767173522
 24
2773.849940242243
 34
0.0
 50
90.0
100
AcDbRotatedDimension
1001
ACAD_DSTYLE_DIMINSPECT
1070
   396
1000
100%
1070
   395
1000

1070
   394
1070
    33
1070
   393
1070
     0
1001
ACAD
1000
DSTYLE
1002
{
1070
   279
1070
     0
1002
}
  0
DIMENSION
  5
5D81
102
{ACAD_XDICTIONARY
360
5D8E
102
}
102
{ACAD_REACTORS
330
5D98
102
}
330
1F
100
AcDbEntity
  8
AM_5 寸法線
100
AcDbDimension
  2
*D22
 10
4076.150767173523
 20
2704.849940242244
 30
0.0
 11
4076.150767173522
 21
3133.849940242245
 31
0.0
 70
   160
  1
%%c<>
 71
     5
 42
858.0
 73
     0
 74
     0
 75
     0
  3
SEISA$0
100
AcDbAlignedDimension
 13
3458.150767173523
 23
3562.849940242243
 33
0.0
 14
3458.150767173523
 24
2704.849940242244
 34
0.0
 50
90.0
100
AcDbRotatedDimension
1001
ACAD_DSTYLE_DIMINSPECT
1070
   396
1000
100%
1070
   395
1000

1070
   394
1070
    33
1070
   393
1070
     0
1001
ACAD
1000
DSTYLE
1002
{
1070
   279
1070
     0
1002
}
  0
DIMENSION
  5
5D99
102
{ACAD_XDICTIONARY
360
5DA6
102
}
102
{ACAD_REACTORS
330
5DB0
102
}
330
1F
100
AcDbEntity
  8
AM_5 寸法線
100
AcDbDimension
  2
*D23
 10
4196.150767173523
 20
2633.849940242244
 30
0.0
 11
4196.150767173523
 21
3133.849940242245
 31
0.0
 70
   160
  1
%%c<>
 71
     5
 42
1000.0
 73
     0
 74
     0
 75
     0
  3
SEISA$0
100
AcDbAlignedDimension
 13
3194.150767173523
 23
3633.849940242245
 33
0.0
 14
3194.150767173523
 24
2633.849940242244
 34
0.0
 50
90.0
100
AcDbRotatedDimension
1001
ACAD_DSTYLE_DIMINSPECT
1070
   396
1000
100%
1070
   395
1000

1070
   394
1070
    33
1070
   393
1070
     0
1001
ACAD
1000
DSTYLE
1002
{
1070
   279
1070
     0
1002
}
  0
DIMENSION
  5
5EAF
102
{ACAD_XDICTIONARY
360
5EBE
102
}
102
{ACAD_REACTORS
330
5ECA
102
}
330
1F
100
AcDbEntity
  8
AM_5 寸法線
100
AcDbDimension
  2
*D24
 10
3076.150767173523
 20
2408.849940242244
 30
0.0
 11
2941.525767173523
 21
2457.599940242244
 31
0.0
 70
    32
 71
     5
 42
60.0
 73
     0
 74
     0
 75
     0
  3
SEISA$0
100
AcDbAlignedDimension
 13
3136.150767173524
 23
2635.849940242243
 33
0.0
 14
3076.150767173523
 24
2635.849940242243
 34
0.0
100
AcDbRotatedDimension
1001
ACAD_DSTYLE_DIMINSPECT
1070
   396
1000
100%
1070
   395
1000

1070
   394
1070
    33
1070
   393
1070
     0
1001
ACAD
1000
DSTYLE
1002
{
1070
   173
1070
     1
1070
   342
1005
0
1070
   343
1005
3B86
1070
   344
1005
69
1002
}
  0
DIMENSION
  5
5ECB
102
{ACAD_XDICTIONARY
360
5EDA
102
}
102
{ACAD_REACTORS
330
5EE6
102
}
330
1F
100
AcDbEntity
  8
AM_5 寸法線
100
AcDbDimension
  2
*D25
 10
3196.150767173523
 20
2408.849940242244
 30
0.0
 11
3330.775767173522
 21
2457.599940242244
 31
0.0
 70
    32
 71
     5
 42
60.0
 73
     0
 74
     0
 75
     0
  3
SEISA$0
100
AcDbAlignedDimension
 13
3136.150767173524
 23
2635.849940242243
 33
0.0
 14
3196.150767173523
 24
2635.849940242243
 34
0.0
100
AcDbRotatedDimension
1001
ACAD_DSTYLE_DIMINSPECT
1070
   396
1000
100%
1070
   395
1000

1070
   394
1070
    33
1070
   393
1070
     0
1001
ACAD
1000
DSTYLE
1002
{
1070
   173
1070
     1
1070
   342
1005
0
1070
   343
1005
3B86
1070
   344
1005
69
1002
}
  0
DIMENSION
  5
5EE7
102
{ACAD_XDICTIONARY
360
5EF4
102
}
102
{ACAD_REACTORS
330
5EFE
102
}
330
1F
100
AcDbEntity
  8
AM_5 寸法線
100
AcDbDimension
  2
*D26
 10
2814.150767173522
 20
2288.849940242244
 30
0.0
 11
3136.150767173524
 21
2337.599940242244
 31
0.0
 70
    32
 71
     5
 42
644.0
 73
     0
 74
     0
 75
     0
  3
SEISA$0
100
AcDbAlignedDimension
 13
3458.150767173523
 23
2704.849940242244
 33
0.0
 14
2814.150767173522
 24
2704.849940242244
 34
0.0
100
AcDbRotatedDimension
  0
DIMENSION
  5
5F47
102
{ACAD_XDICTIONARY
360
5F54
102
}
102
{ACAD_REACTORS
330
5F5E
102
}
330
1F
100
AcDbEntity
  8
AM_5 寸法線
100
AcDbDimension
  2
*D27
 10
3656.150767173523
 20
2168.849940242244
 30
0.0
 11
3136.150767173524
 21
2217.599940242244
 31
0.0
 70
    32
 71
     5
 42
1040.0
 73
     0
 74
     0
 75
     0
  3
SEISA$0
100
AcDbAlignedDimension
 13
2616.150767173523
 23
2795.849940242244
 33
0.0
 14
3656.150767173523
 24
2795.849940242244
 34
0.0
100
AcDbRotatedDimension
  0
MTEXT
  5
7844
330
1F
100
AcDbEntity
  8
AM_6 文字
100
AcDbMText
 10
3765.302694325774
 20
2546.885241373356
 30
0.0
 40
52.5
 41
1061.922780217006
 46
167.7220905885837
 71
     1
 72
     5
  1
{\W0.6;TYPE:CCM1000/CCMH1000\PSHAFT DIA:MAX/MIN φ510/φ355}
  7
SEISA
 73
     1
 44
1.0
  0
DIMENSION
  5
7A60
102
{ACAD_XDICTIONARY
360
7A6E
102
}
102
{ACAD_REACTORS
330
7A6F
102
}
330
1F
100
AcDbEntity
  8
AM_5 寸法線
100
AcDbDimension
  2
*D28
 10
3006.150767173523
 20
3397.837054436568
 30
0.0
 11
2928.295407520147
 21
3439.363227099613
 31
0.0
 70
   160
 71
     5
 42
145.0
 73
     0
 74
     0
 75
     0
  3
SEISA$0
100
AcDbAlignedDimension
 13
2861.150767173523
 23
3494.349940242245
 33
0.0
 14
3006.150767173523
 24
3494.349940242245
 34
0.0
 50
0.0000000000001132
100
AcDbRotatedDimension
1001
ACAD_DSTYLE_DIMINSPECT
1070
   396
1000
100%
1070
   395
1000

1070
   394
1070
    33
1070
   393
1070
     0
1001
ACAD
1000
DSTYLE
1002
{
1070
   279
1070
     2
1002
}
  0
DIMENSION
  5
7A8E
102
{ACAD_XDICTIONARY
360
7A9D
102
}
102
{ACAD_REACTORS
330
7A9E
102
}
330
1F
100
AcDbEntity
  8
AM_5 寸法線
100
AcDbDimension
  2
*D29
 10
3116.150767173522
 20
3397.837054436566
 30
0.0
 11
3273.346580956004
 21
3390.500998047524
 31
0.0
 70
   160
 71
     5
 42
109.9999999999995
 73
     0
 74
     0
 75
     0
  3
SEISA$0
100
AcDbAlignedDimension
 13
3006.150767173523
 23
3494.349940242245
 33
0.0
 14
3116.150767173522
 24
3351.349940242245
 34
0.0
 50
0.0000000000001132
100
AcDbRotatedDimension
1001
ACAD_DSTYLE_DIMINSPECT
1070
   396
1000
100%
1070
   395
1000

1070
   394
1070
    33
1070
   393
1070
     0
1001
ACAD
1000
DSTYLE
1002
{
1070
   279
1070
     1
1002
}
  0
ENDSEC
  0
SECTION
  2
OBJECTS
  0
DICTIONARY
  5
C
330
0
100
AcDbDictionary
281
     1
  3
ACAD_COLOR
350
C5
  3
ACAD_GROUP
350
D
  3
ACAD_LAYOUT
350
1A
  3
ACAD_MATERIAL
350
C4
  3
ACAD_MLEADERSTYLE
350
2D5
  3
ACAD_MLINESTYLE
350
17
  3
ACAD_PLOTSETTINGS
350
19
  3
ACAD_PLOTSTYLENAME
350
E
  3
ACAD_SCALELIST
350
2B3
  3
ACAD_TABLESTYLE
350
121
  3
ACAD_VISUALSTYLE
350
27F
  3
ACDB_RECOMPOSE_DATA
350
2F7
  3
AcDbVariableDictionary
350
34
  3
AcmDictionary
350
49
  3
AMG
350
2B
  3
AMGSNAPSETTINGS
350
1DE
  0
DICTIONARY
  5
BF
330
2
100
AcDbDictionary
280
     1
281
     1
  3
ACAD_LAYERSTATES
360
3C6C
  3
AMLAYER_GROUPCOLORS
360
C0
  0
DICTIONARY
  5
29F7
330
10
100
AcDbDictionary
280
     1
281
     1
  3
ADSK_XREC_LAYER_RECONCILED
360
29F8
  0
DICTIONARY
  5
29F9
330
81
100
AcDbDictionary
280
     1
281
     1
  3
ADSK_XREC_LAYER_RECONCILED
360
29FA
  0
DICTIONARY
  5
2DF7
330
2DF6
100
AcDbDictionary
280
     1
281
     1
  0
DICTIONARY
  5
82
330
1F
100
AcDbDictionary
280
     1
281
     1
  3
ACAD_SORTENTS
360
A41
  0
DICTIONARY
  5
4FF1
330
4FC3
100
AcDbDictionary
280
     1
281
     1
  3
ACAD_SORTENTS
360
6E74
  0
DICTIONARY
  5
504A
330
5014
100
AcDbDictionary
280
     1
281
     1
  3
ACAD_SORTENTS
360
504B
  0
DICTIONARY
  5
5185
330
50CB
100
AcDbDictionary
280
     1
281
     1
  3
ACAD_SORTENTS
360
6EED
  0
DICTIONARY
  5
52B6
330
5216
100
AcDbDictionary
280
     1
281
     1
  3
ACAD_SORTENTS
360
6F62
  0
DICTIONARY
  5
6FBB
330
5355
100
AcDbDictionary
280
     1
281
     1
  3
ACAD_SORTENTS
360
7D83
  0
DICTIONARY
  5
5642
330
53D2
100
AcDbDictionary
280
     1
281
     1
  3
ACAD_SORTENTS
360
7D30
  0
DICTIONARY
  5
57DC
330
5746
100
AcDbDictionary
280
     1
281
     1
  3
ACAD_SORTENTS
360
708C
  0
DICTIONARY
  5
58FB
330
585D
100
AcDbDictionary
280
     1
281
     1
  3
ACAD_SORTENTS
360
7182
  0
DICTIONARY
  5
5A13
330
5972
100
AcDbDictionary
280
     1
281
     1
  3
ACAD_SORTENTS
360
7EDC
  0
DICTIONARY
  5
5BFE
330
5BF1
100
AcDbDictionary
280
     1
281
     1
  3
ACAD_DIMASSOC
360
5C08
  0
DICTIONARY
  5
5C33
330
5C24
100
AcDbDictionary
280
     1
281
     1
  3
ACAD_DIMASSOC
360
5C3F
  0
DICTIONARY
  5
5C6A
330
5C5D
100
AcDbDictionary
280
     1
281
     1
  3
ACAD_DIMASSOC
360
5C74
  0
DICTIONARY
  5
5C84
330
5C75
100
AcDbDictionary
280
     1
281
     1
  3
ACAD_DIMASSOC
360
5C90
  0
DICTIONARY
  5
5CB4
330
5CA7
100
AcDbDictionary
280
     1
281
     1
  3
ACAD_DIMASSOC
360
5CBE
  0
DICTIONARY
  5
5D76
330
5D69
100
AcDbDictionary
280
     1
281
     1
  3
ACAD_DIMASSOC
360
5D80
  0
DICTIONARY
  5
5D8E
330
5D81
100
AcDbDictionary
280
     1
281
     1
  3
ACAD_DIMASSOC
360
5D98
  0
DICTIONARY
  5
5DA6
330
5D99
100
AcDbDictionary
280
     1
281
     1
  3
ACAD_DIMASSOC
360
5DB0
  0
DICTIONARY
  5
5EBE
330
5EAF
100
AcDbDictionary
280
     1
281
     1
  3
ACAD_DIMASSOC
360
5ECA
  0
DICTIONARY
  5
5EDA
330
5ECB
100
AcDbDictionary
280
     1
281
     1
  3
ACAD_DIMASSOC
360
5EE6
  0
DICTIONARY
  5
5EF4
330
5EE7
100
AcDbDictionary
280
     1
281
     1
  3
ACAD_DIMASSOC
360
5EFE
  0
DICTIONARY
  5
5F54
330
5F47
100
AcDbDictionary
280
     1
281
     1
  3
ACAD_DIMASSOC
360
5F5E
  0
DICTIONARY
  5
7A6E
330
7A60
100
AcDbDictionary
280
     1
281
     1
  3
ACAD_DIMASSOC
360
7A6F
  0
DICTIONARY
  5
7A9D
330
7A8E
100
AcDbDictionary
280
     1
281
     1
  3
ACAD_DIMASSOC
360
7A9E
  0
DICTIONARY
  5
C5
102
{ACAD_REACTORS
330
C
102
}
330
C
100
AcDbDictionary
281
     1
  0
DICTIONARY
  5
D
102
{ACAD_REACTORS
330
C
102
}
330
C
100
AcDbDictionary
281
     1
  0
DICTIONARY
  5
1A
102
{ACAD_REACTORS
330
C
102
}
330
C
100
AcDbDictionary
281
     1
  3
Model
350
22
  3
レイアウト1
350
1E
  3
レイアウト2
350
26
  0
DICTIONARY
  5
C4
102
{ACAD_REACTORS
330
C
102
}
330
C
100
AcDbDictionary
281
     1
  3
ByBlock
350
27D
  3
ByLayer
350
27C
  3
Global
350
27E
  0
DICTIONARY
  5
2D5
102
{ACAD_REACTORS
330
C
102
}
330
C
100
AcDbDictionary
281
     1
  3
Standard
350
2D6
  0
DICTIONARY
  5
17
102
{ACAD_REACTORS
330
C
102
}
330
C
100
AcDbDictionary
281
     1
  3
Standard
350
18
  0
DICTIONARY
  5
19
102
{ACAD_REACTORS
330
C
102
}
330
C
100
AcDbDictionary
281
     1
  3
SEISA基本
350
1C7E
  0
ACDBDICTIONARYWDFLT
  5
E
102
{ACAD_REACTORS
330
C
102
}
330
C
100
AcDbDictionary
281
     1
  3
Normal
350
F
100
AcDbDictionaryWithDefault
340
F
  0
DICTIONARY
  5
2B3
102
{ACAD_REACTORS
330
C
102
}
330
C
100
AcDbDictionary
281
     1
  3
*A1
350
2A04
  3
*A2
350
7838
  3
*A3
350
7839
  3
*A4
350
783A
  3
*A5
350
783B
  3
A0
350
2B4
  3
A1
350
2B5
  3
A2
350
2B6
  3
A3
350
2B7
  3
A4
350
2B8
  3
A5
350
2B9
  3
A6
350
2BA
  3
A7
350
2BB
  3
A8
350
2BC
  3
A9
350
2BD
  3
B0
350
2BE
  3
B1
350
2BF
  3
B2
350
2C0
  3
B3
350
2C1
  3
B4
350
2C2
  3
B5
350
2C3
  3
B6
350
2C4
  3
B7
350
2C5
  3
B8
350
2C6
  3
B9
350
2C7
  3
C0
350
2C8
  3
C1
350
2C9
  3
C2
350
2CA
  3
C3
350
2CB
  3
C4
350
2CC
  3
C5
350
2CD
  3
C6
350
2CE
  3
C7
350
2CF
  3
C8
350
2D0
  3
C9
350
2D1
  3
D0
350
2D2
  3
D1
350
2D3
  3
D2
350
2D4
  0
DICTIONARY
  5
121
102
{ACAD_REACTORS
330
C
102
}
330
C
100
AcDbDictionary
281
     1
  3
Standard
350
122
  0
DICTIONARY
  5
27F
102
{ACAD_REACTORS
330
C
102
}
330
C
100
AcDbDictionary
281
     1
  3
2dWireframe
350
285
  3
3D Hidden
350
287
  3
3dWireframe
350
286
  3
Basic
350
284
  3
Brighten
350
28B
  3
ColorChange
350
28F
  3
Conceptual
350
288
  3
Dim
350
28A
  3
Facepattern
350
28E
  3
Flat
350
280
  3
FlatWithEdges
350
281
  3
Gouraud
350
282
  3
GouraudWithEdges
350
283
  3
Linepattern
350
28D
  3
Realistic
350
289
  3
Thicken
350
28C
  0
XRECORD
  5
2F7
102
{ACAD_REACTORS
330
C
102
}
330
C
100
AcDbXrecord
280
     1
 90
        1
330
122
  0
DICTIONARY
  5
34
102
{ACAD_REACTORS
330
C
102
}
330
C
100
AcDbDictionary
281
     1
  3
CANNOSCALE
350
2FA
  3
CMLEADERSTYLE
350
2F8
  3
CTABLESTYLE
350
140
  3
DIMASSOC
350
AC
  3
INDEXCTL
350
35
  3
LAYEREVAL
350
7247
  3
LAYERNOTIFY
350
7248
  3
LIGHTINGUNITS
350
2FB
  3
MSLTSCALE
350
2F9
  0
DICTIONARY
  5
49
102
{ACAD_REACTORS
330
C
102
}
330
C
100
AcDbDictionary
281
     1
  3
AcmBOM
350
161B
  3
AcmStdDictionary
350
4A
  3
AMDTSECTSYM_ARROWCOLOR
350
12B
  0
DICTIONARY
  5
2B
102
{ACAD_REACTORS
330
C
102
}
330
C
100
AcDbDictionary
281
     1
  0
DICTIONARY
  5
1DE
102
{ACAD_REACTORS
330
C
102
}
330
C
100
AcDbDictionary
281
     1
  0
DICTIONARY
  5
3C6C
102
{ACAD_REACTORS
330
BF
102
}
330
BF
100
AcDbDictionary
281
     1
  0
DICTIONARY
  5
C0
102
{ACAD_REACTORS
330
BF
102
}
330
BF
100
AcDbDictionary
280
     1
281
     1
  0
XRECORD
  5
29F8
102
{ACAD_REACTORS
330
29F7
102
}
330
29F7
100
AcDbXrecord
280
     1
290
     1
  0
XRECORD
  5
29FA
102
{ACAD_REACTORS
330
29F9
102
}
330
29F9
100
AcDbXrecord
280
     1
290
     1
  0
SORTENTSTABLE
  5
A41
102
{ACAD_REACTORS
330
82
102
}
330
82
100
AcDbSortentsTable
330
1F
331
5EAF
  5
61C6
331
59A6
  5
5B1C
331
5EE7
  5
61C8
331
5CA7
  5
5EE7
331
5C75
  5
5ECB
331
5BF1
  5
5D69
331
5C24
  5
5D81
331
5ECB
  5
61C7
331
5776
  5
5AC8
331
5D81
  5
5F2F
331
465E
  5
465E
331
5104
  5
5A27
331
5382
  5
5A6B
331
469B
  5
469B
331
57A4
  5
5AD7
331
5C5D
  5
5EAF
331
4639
  5
4639
331
53FF
  5
5A94
331
5F47
  5
629B
331
5D69
  5
5F17
331
5890
  5
5B19
331
5D99
  5
5F47
  0
SORTENTSTABLE
  5
6E74
102
{ACAD_REACTORS
330
4FF1
102
}
330
4FF1
100
AcDbSortentsTable
330
4FC3
  0
SORTENTSTABLE
  5
504B
102
{ACAD_REACTORS
330
504A
102
}
330
504A
100
AcDbSortentsTable
330
5014
  0
SORTENTSTABLE
  5
6EED
102
{ACAD_REACTORS
330
5185
102
}
330
5185
100
AcDbSortentsTable
330
50CB
331
5181
  5
50DC
331
50FF
  5
5103
331
50FC
  5
5100
331
50F9
  5
50FD
331
5102
  5
5180
331
50F6
  5
50F8
331
50F3
  5
50F5
331
50F0
  5
50F2
331
50ED
  5
50EF
331
50E6
  5
50E8
331
50EA
  5
50EC
331
50E3
  5
50E5
331
50E0
  5
50E2
331
50DD
  5
50DF
331
50D7
  5
50D8
331
50D4
  5
50D5
331
50CE
  5
50CF
331
50D1
  5
50D2
331
514B
  5
50CE
331
517F
  5
50FF
331
50FD
  5
5101
331
50F7
  5
50F9
331
5103
  5
5181
331
5100
  5
514B
331
50F4
  5
50F6
331
50F1
  5
50F3
331
50EE
  5
50F0
331
50E7
  5
50E9
331
50EB
  5
50ED
331
50E4
  5
50E6
331
50E8
  5
50EA
331
50E1
  5
50E3
331
50DE
  5
50E0
331
50DB
  5
50DD
331
50D8
  5
50D9
331
50D5
  5
50D6
331
50CF
  5
50D0
331
50D2
  5
50D3
331
5180
  5
50FE
331
50FE
  5
5102
331
50F8
  5
50FC
331
50F5
  5
50F7
331
5101
  5
517F
331
50F2
  5
50F4
331
50EF
  5
50F1
331
50EC
  5
50EE
331
50E5
  5
50E7
331
50E9
  5
50EB
331
50E2
  5
50E4
331
50DF
  5
50E1
331
50DC
  5
50DE
331
50D9
  5
50DB
331
50D6
  5
50D7
331
50D3
  5
50D4
331
50D0
  5
50D1
  0
SORTENTSTABLE
  5
6F62
102
{ACAD_REACTORS
330
52B6
102
}
330
52B6
100
AcDbSortentsTable
330
5216
331
5232
  5
5234
331
5237
  5
5239
331
523C
  5
523E
331
5245
  5
52AE
331
5223
  5
5225
331
52B0
  5
52B1
331
52AE
  5
52B0
331
522D
  5
522F
331
5228
  5
522A
331
5240
  5
5242
331
5238
  5
523A
331
5241
  5
5243
331
5233
  5
5235
331
5246
  5
52AF
331
52B1
  5
5224
331
52AF
  5
5223
331
522E
  5
5230
331
5229
  5
522B
331
5224
  5
5226
331
523D
  5
523F
331
5234
  5
5236
331
5239
  5
523B
331
5225
  5
5227
331
523E
  5
5240
331
522F
  5
5231
331
522A
  5
522C
331
5242
  5
5244
331
5230
  5
5232
331
523A
  5
523C
331
523F
  5
5241
331
5243
  5
5245
331
5235
  5
5237
331
522B
  5
522D
331
5226
  5
5228
331
5236
  5
5238
331
5231
  5
5233
331
5244
  5
5246
331
5227
  5
5229
331
523B
  5
523D
331
522C
  5
522E
  0
SORTENTSTABLE
  5
7D83
102
{ACAD_REACTORS
330
6FBB
102
}
330
6FBB
100
AcDbSortentsTable
330
5355
331
537A
  5
537C
331
5364
  5
5366
331
5369
  5
536B
331
795C
  5
5359
331
536E
  5
5370
331
535A
  5
535C
331
535F
  5
5361
331
5360
  5
5362
331
537B
  5
537D
331
5365
  5
5367
331
536A
  5
536C
331
536F
  5
5372
331
7D82
  5
5358
331
5374
  5
5376
331
535B
  5
535D
331
5361
  5
5363
331
537C
  5
5380
331
5366
  5
5368
331
536B
  5
536D
331
5370
  5
5374
331
5375
  5
5377
331
535C
  5
535E
331
5362
  5
5364
331
5378
  5
537A
331
537D
  5
795C
331
5367
  5
5369
331
536C
  5
536E
331
5376
  5
5378
331
5358
  5
535A
331
535D
  5
535F
331
5379
  5
537B
331
5363
  5
5365
331
5368
  5
536A
331
536D
  5
536F
331
5372
  5
5375
331
5377
  5
5379
331
5359
  5
535B
331
5380
  5
7D82
331
535E
  5
5360
  0
SORTENTSTABLE
  5
7D30
102
{ACAD_REACTORS
330
5642
102
}
330
5642
100
AcDbSortentsTable
330
53D2
331
53E0
  5
53E2
331
53E5
  5
53E7
331
53EA
  5
53EC
331
53EF
  5
53F2
331
53D7
  5
53D9
331
53F4
  5
53F7
331
53DB
  5
53DD
331
53F8
  5
53FB
331
53E1
  5
53E3
331
53E6
  5
53E8
331
53EB
  5
53ED
331
53F0
  5
53F3
331
53F5
  5
53F8
331
53DC
  5
53DE
331
53F9
  5
787C
331
53E2
  5
53E4
331
53E7
  5
53E9
331
7B72
  5
53F1
331
53EC
  5
53EF
331
53F1
  5
53F4
331
53F6
  5
53F9
331
53D8
  5
53DA
331
53DD
  5
53DF
331
53FA
  5
78A6
331
53E3
  5
53E5
331
78A6
  5
53D8
331
53E8
  5
53EA
331
53ED
  5
53F0
331
53F2
  5
53F5
331
53F7
  5
53FA
331
53D9
  5
53DB
331
787C
  5
53D7
331
53DE
  5
53E0
331
53FB
  5
7B72
331
53E4
  5
53E6
331
53E9
  5
53EB
331
53F3
  5
53F6
331
53DA
  5
53DC
331
53DF
  5
53E1
  0
SORTENTSTABLE
  5
708C
102
{ACAD_REACTORS
330
57DC
102
}
330
57DC
100
AcDbSortentsTable
330
5746
  0
SORTENTSTABLE
  5
7182
102
{ACAD_REACTORS
330
58FB
102
}
330
58FB
100
AcDbSortentsTable
330
585D
  0
SORTENTSTABLE
  5
7EDC
102
{ACAD_REACTORS
330
5A13
102
}
330
5A13
100
AcDbSortentsTable
330
5972
  0
DIMASSOC
  5
5C08
102
{ACAD_REACTORS
330
5BFE
102
}
330
5BFE
100
AcDbDimAssoc
330
5BF1
 90
        3
 70
     0
 71
     0
  1
AcDbOsnapPointRef
 72
    13
331
53FF
331
53E8
 73
     2
 91
        0
 40
0.0
 10
0.0
 20
0.0
 30
2.000000000000000E+50
 75
     0
  1
AcDbOsnapPointRef
 72
    13
331
53FF
331
53DA
 73
     2
 91
        0
 40
0.0
 10
0.0
 20
0.0
 30
2.000000000000000E+50
 75
     0
  0
DIMASSOC
  5
5C3F
102
{ACAD_REACTORS
330
5C33
102
}
330
5C33
100
AcDbDimAssoc
330
5C24
 90
        3
 70
     0
 71
     0
  1
AcDbOsnapPointRef
 72
    13
331
53FF
331
53EB
 73
     2
 91
        0
 40
0.0
 10
0.0
 20
0.0
 30
2.000000000000000E+50
 75
     0
  1
AcDbOsnapPointRef
 72
     1
331
59A6
331
59A0
 73
     2
 91
        0
 40
1.0
 10
0.0
 20
0.0
 30
2.000000000000000E+50
 75
     0
  0
DIMASSOC
  5
5C74
102
{ACAD_REACTORS
330
5C6A
102
}
330
5C6A
100
AcDbDimAssoc
330
5C5D
 90
        1
 70
     0
 71
     0
  1
AcDbOsnapPointRef
 72
     2
331
53FF
331
53D8
 73
     2
 91
        0
 40
0.5
 10
0.0
 20
0.0
 30
0.0
 75
     0
  0
DIMASSOC
  5
5C90
102
{ACAD_REACTORS
330
5C84
102
}
330
5C84
100
AcDbDimAssoc
330
5C75
 90
        1
 70
     0
 71
     0
  1
AcDbOsnapPointRef
 72
     1
331
5382
331
5358
 73
     2
 91
        0
 40
1.0
 10
0.0
 20
0.0
 30
2.000000000000000E+50
 75
     0
  0
DIMASSOC
  5
5CBE
102
{ACAD_REACTORS
330
5CB4
102
}
330
5CB4
100
AcDbDimAssoc
330
5CA7
 90
        3
 70
     0
 71
     0
  1
AcDbOsnapPointRef
 72
     1
331
5382
331
5358
 73
     2
 91
        0
 40
1.0
 10
0.0
 20
0.0
 30
2.000000000000000E+50
 75
     0
  1
AcDbOsnapPointRef
 72
     2
331
5382
331
5359
 73
     2
 91
        0
 40
0.5
 10
0.0
 20
0.0
 30
0.0
 75
     0
  0
DIMASSOC
  5
5D80
102
{ACAD_REACTORS
330
5D76
102
}
330
5D76
100
AcDbDimAssoc
330
5D69
 90
        3
 70
     0
 71
     0
  1
AcDbOsnapPointRef
 72
    13
331
5382
331
536E
 73
     2
 91
        0
 40
0.0
 10
0.0
 20
0.0
 30
2.000000000000000E+50
 75
     0
  1
AcDbOsnapPointRef
 72
     8
331
5382
331
5364
 73
     2
 91
        0
 40
0.9999999999999886
 10
0.0
 20
0.0
 30
0.0
 75
     1
  1
AcDbOsnapPointRef
 72
    13
331
5382
331
536E
 73
     2
 91
        0
 40
0.0
 10
0.0
 20
0.0
 30
2.000000000000000E+50
 75
     0
  0
DIMASSOC
  5
5D98
102
{ACAD_REACTORS
330
5D8E
102
}
330
5D8E
100
AcDbDimAssoc
330
5D81
 90
        3
 70
     0
 71
     0
  1
AcDbOsnapPointRef
 72
     1
331
5890
331
587B
 73
     2
 91
        0
 40
1.0
 10
0.0
 20
0.0
 30
2.000000000000000E+50
 75
     0
  1
AcDbOsnapPointRef
 72
    13
331
5890
331
5861
 73
     2
 91
        0
 40
0.0
 10
0.0
 20
0.0
 30
2.000000000000000E+50
 75
     0
  0
DIMASSOC
  5
5DB0
102
{ACAD_REACTORS
330
5DA6
102
}
330
5DA6
100
AcDbDimAssoc
330
5D99
 90
        3
 70
     0
 71
     0
  1
AcDbOsnapPointRef
 72
     1
331
5104
331
50FC
 73
     2
 91
        0
 40
1.0
 10
0.0
 20
0.0
 30
2.000000000000000E+50
 75
     0
  1
AcDbOsnapPointRef
 72
     1
331
5104
331
50D3
 73
     2
 91
        0
 40
1.0
 10
0.0
 20
0.0
 30
2.000000000000000E+50
 75
     0
  0
DIMASSOC
  5
5ECA
102
{ACAD_REACTORS
330
5EBE
102
}
330
5EBE
100
AcDbDimAssoc
330
5EAF
 90
        3
 70
     0
 71
     0
  1
AcDbOsnapPointRef
 72
    13
331
57A4
331
5231
 73
     2
 91
        0
 40
0.0
 10
0.0
 20
0.0
 30
2.000000000000000E+50
 75
     0
  1
AcDbOsnapPointRef
 72
    13
331
57A4
331
522C
 73
     2
 91
        0
 40
0.0
 10
0.0
 20
0.0
 30
2.000000000000000E+50
 75
     0
  0
DIMASSOC
  5
5EE6
102
{ACAD_REACTORS
330
5EDA
102
}
330
5EDA
100
AcDbDimAssoc
330
5ECB
 90
        3
 70
     0
 71
     0
  1
AcDbOsnapPointRef
 72
    13
331
57A4
331
5231
 73
     2
 91
        0
 40
0.0
 10
0.0
 20
0.0
 30
2.000000000000000E+50
 75
     0
  1
AcDbOsnapPointRef
 72
    13
331
5104
331
50D2
 73
     2
 91
        0
 40
0.0
 10
0.0
 20
0.0
 30
2.000000000000000E+50
 75
     0
  0
DIMASSOC
  5
5EFE
102
{ACAD_REACTORS
330
5EF4
102
}
330
5EF4
100
AcDbDimAssoc
330
5EE7
 90
        2
 70
     0
 71
     0
  1
AcDbOsnapPointRef
 72
    13
331
59A6
331
5975
 73
     2
 91
        0
 40
0.0
 10
0.0
 20
0.0
 30
2.000000000000000E+50
 75
     0
  0
DIMASSOC
  5
5F5E
102
{ACAD_REACTORS
330
5F54
102
}
330
5F54
100
AcDbDimAssoc
330
5F47
 90
        3
 70
     0
 71
     0
  1
AcDbOsnapPointRef
 72
    13
331
53FF
331
53D8
 73
     2
 91
        0
 40
0.0
 10
0.0
 20
0.0
 30
2.000000000000000E+50
 75
     0
  1
AcDbOsnapPointRef
 72
    13
331
5382
331
5359
 73
     2
 91
        0
 40
0.0
 10
0.0
 20
0.0
 30
2.000000000000000E+50
 75
     0
  0
DIMASSOC
  5
7A6F
102
{ACAD_REACTORS
330
7A6E
102
}
330
7A6E
100
AcDbDimAssoc
330
7A60
 90
        3
 70
     0
 71
     0
  1
AcDbOsnapPointRef
 72
     4
331
5C24
331
7A5D
 73
     0
 91
        0
 40
0.0
 10
0.0
 20
0.0
 30
0.0
 75
     0
  1
AcDbOsnapPointRef
 72
     8
331
53FF
331
53F8
 73
     0
 91
        0
 40
0.9999999999999783
 10
0.0
 20
0.0
 30
0.0
 75
     1
  1
AcDbOsnapPointRef
 72
     4
331
5C24
331
7A5D
 73
     0
 91
        0
 40
0.0
 10
0.0
 20
0.0
 30
0.0
 75
     0
  0
DIMASSOC
  5
7A9E
102
{ACAD_REACTORS
330
7A9D
102
}
330
7A9D
100
AcDbDimAssoc
330
7A8E
 90
        1
 70
     0
 71
     0
  1
AcDbOsnapPointRef
 72
    13
331
53FF
331
53F7
 73
     0
 91
        0
 40
0.0
 10
0.0
 20
0.0
 30
2.000000000000000E+50
 75
     0
  0
LAYOUT
  5
22
102
{ACAD_REACTORS
330
1A
102
}
330
1A
100
AcDbPlotSettings
  1

  2
KONICA MINOLTA 501 PCL
  4
A4
  6

 40
5.027082920074462
 41
5.027085781097412
 42
5.027069091796875
 43
5.027069091796875
 44
209.9733276367186
 45
296.9259948730469
 46
6.477275634141875
 47
0.0
 48
0.0
 49
0.0
140
0.0
141
0.0
142
1.0
143
8.018911077560156
 70
 11956
 72
     1
 73
     1
 74
     1
  7
SEISA.ctb
 75
     0
147
0.124705211259714
 76
     0
 77
     2
 78
   300
148
-2241.087361457403
149
-2158.502444573625
100
AcDbLayout
  1
Model
 70
     1
 71
     0
 10
0.0
 20
0.0
 11
12.0
 21
9.0
 12
0.0
 22
0.0
 32
0.0
 14
0.0
 24
0.0
 34
0.0
 15
0.0
 25
0.0
 35
0.0
146
0.0
 13
0.0
 23
0.0
 33
0.0
 16
1.0
 26
0.0
 36
0.0
 17
0.0
 27
1.0
 37
0.0
 76
     0
330
1F
331
27A
1001
ACAD_PSEXT
1000
KONICA MINOLTA 501 PCL
1000
KONICA MINOLTA 501/421/361PCL
1000
IP_192.168.20.231_(1)
1000

1070
     0
  0
LAYOUT
  5
1E
102
{ACAD_REACTORS
330
1A
102
}
330
1A
100
AcDbPlotSettings
  1

  2
none_device
  4
Letter_(8.50_x_11.00_Inches)
  6

 40
6.349999904632567
 41
6.349999904632567
 42
6.350006103515625
 43
6.350006103515625
 44
215.8999938964844
 45
279.3999938964844
 46
0.0
 47
0.0
 48
0.0
 49
0.0
140
0.0
141
0.0
142
1.0
143
1.0
 70
 15024
 72
     1
 73
     1
 74
     5
  7
SEISA.ctb
 75
    16
147
1.0
 76
     0
 77
     2
 78
   300
148
0.0
149
0.0
100
AcDbLayout
  1
レイアウト1
 70
     1
 71
     1
 10
0.0
 20
0.0
 11
420.0
 21
297.0
 12
0.0
 22
0.0
 32
0.0
 14
1.000000000000000E+20
 24
1.000000000000000E+20
 34
1.000000000000000E+20
 15
-1.000000000000000E+20
 25
-1.000000000000000E+20
 35
-1.000000000000000E+20
146
0.0
 13
0.0
 23
0.0
 33
0.0
 16
1.0
 26
0.0
 36
0.0
 17
0.0
 27
1.0
 37
0.0
 76
     0
330
1B
  0
LAYOUT
  5
26
102
{ACAD_REACTORS
330
1A
102
}
330
1A
100
AcDbPlotSettings
  1

  2
none_device
  4
Letter_(8.50_x_11.00_Inches)
  6

 40
6.349999904632567
 41
6.349999904632567
 42
6.350006103515625
 43
6.350006103515625
 44
215.8999938964844
 45
279.3999938964844
 46
0.0
 47
0.0
 48
0.0
 49
0.0
140
0.0
141
0.0
142
1.0
143
1.0
 70
 15024
 72
     1
 73
     1
 74
     5
  7
SEISA.ctb
 75
    16
147
1.0
 76
     0
 77
     2
 78
   300
148
0.0
149
0.0
100
AcDbLayout
  1
レイアウト2
 70
     1
 71
     2
 10
0.0
 20
0.0
 11
12.0
 21
9.0
 12
0.0
 22
0.0
 32
0.0
 14
0.0
 24
0.0
 34
0.0
 15
0.0
 25
0.0
 35
0.0
146
0.0
 13
0.0
 23
0.0
 33
0.0
 16
1.0
 26
0.0
 36
0.0
 17
0.0
 27
1.0
 37
0.0
 76
     0
330
23
  0
MATERIAL
  5
27D
102
{ACAD_REACTORS
330
C4
102
}
330
C4
100
AcDbMaterial
  1
ByBlock
 73
     1
 78
     1
172
     1
176
     1
270
     1
274
     1
 94
       63
  0
MATERIAL
  5
27C
102
{ACAD_REACTORS
330
C4
102
}
330
C4
100
AcDbMaterial
  1
ByLayer
 73
     1
 78
     1
172
     1
176
     1
270
     1
274
     1
 94
       63
  0
MATERIAL
  5
27E
102
{ACAD_REACTORS
330
C4
102
}
330
C4
100
AcDbMaterial
  1
Global
 73
     1
 78
     1
172
     1
176
     1
270
     1
274
     1
 94
       63
  0
MLEADERSTYLE
  5
2D6
102
{ACAD_REACTORS
330
2D5
102
}
330
2D5
100
AcDbMLeaderStyle
170
     2
171
     1
172
     0
 90
        2
 40
0.0
 41
0.0
173
     1
 91
-1056964608
340
14
 92
       -2
290
     1
 42
2.0
291
     1
 43
0.36
  3
Standard
 44
4.0
300

342
11
174
     1
178
     6
175
     1
176
     0
 93
-1056964608
 45
4.0
292
     0
297
     0
 46
4.0
 94
-1056964608
 47
1.0
 49
1.0
140
1.0
293
     1
141
0.0
294
     1
177
     0
142
1.0
295
     0
296
     0
143
0.125
1001
ACAD_MLEADERVER
1070
     2
  0
MLINESTYLE
  5
18
102
{ACAD_REACTORS
330
17
102
}
330
17
100
AcDbMlineStyle
  2
STANDARD
 70
     0
  3

 62
   256
 51
90.0
 52
90.0
 71
     2
 49
0.5
 62
   256
  6
BYLAYER
 49
-0.5
 62
   256
  6
BYLAYER
  0
PLOTSETTINGS
  5
1C7E
102
{ACAD_REACTORS
330
19
102
}
330
19
100
AcDbPlotSettings
  1
SEISA基本
  2
none_device
  4
Letter_(8.50_x_11.00_Inches)
  6

 40
6.349999904632567
 41
6.349999904632567
 42
6.350006103515625
 43
6.350006103515625
 44
215.8999938964844
 45
279.3999938964844
 46
7.302498226506357
 47
0.0
 48
0.0
 49
0.0
140
0.0
141
0.0
142
1.0
143
1.574803221122935
 70
 11956
 72
     1
 73
     1
 74
     2
  7
SEISA.ctb
 75
     0
147
0.6349999711627054
 76
     0
 77
     2
 78
   300
148
0.0
149
0.0
1001
ACAD_PSEXT
1000
なし
1000
なし
1000
適切ではありません
1000
新しいプロッタ環境設定名を選択しない限り、レイアウトは印刷されません。
1070
     0
  0
ACDBPLACEHOLDER
  5
F
102
{ACAD_REACTORS
330
E
102
}
330
E
  0
SCALE
  5
2A04
102
{ACAD_REACTORS
330
2B3
102
}
330
2B3
100
AcDbScale
 70
     0
300
1:15
140
1.0
141
15.0
290
     0
  0
SCALE
  5
7838
102
{ACAD_REACTORS
330
2B3
102
}
330
2B3
100
AcDbScale
 70
     0
300
1:6
140
1.0
141
6.0
290
     0
  0
SCALE
  5
7839
102
{ACAD_REACTORS
330
2B3
102
}
330
2B3
100
AcDbScale
 70
     0
300
1:3
140
1.0
141
3.0
290
     0
  0
SCALE
  5
783A
102
{ACAD_REACTORS
330
2B3
102
}
330
2B3
100
AcDbScale
 70
     0
300
1:2.5
140
1.0
141
2.5
290
     0
  0
SCALE
  5
783B
102
{ACAD_REACTORS
330
2B3
102
}
330
2B3
100
AcDbScale
 70
     0
300
1:1.5
140
1.0
141
1.5
290
     0
  0
SCALE
  5
2B4
102
{ACAD_REACTORS
330
2B3
102
}
330
2B3
100
AcDbScale
 70
     0
300
1:1
140
1.0
141
1.0
290
     1
  0
SCALE
  5
2B5
102
{ACAD_REACTORS
330
2B3
102
}
330
2B3
100
AcDbScale
 70
     0
300
1:2
140
1.0
141
2.0
290
     0
  0
SCALE
  5
2B6
102
{ACAD_REACTORS
330
2B3
102
}
330
2B3
100
AcDbScale
 70
     0
300
1:4
140
1.0
141
4.0
290
     0
  0
SCALE
  5
2B7
102
{ACAD_REACTORS
330
2B3
102
}
330
2B3
100
AcDbScale
 70
     0
300
1:5
140
1.0
141
5.0
290
     0
  0
SCALE
  5
2B8
102
{ACAD_REACTORS
330
2B3
102
}
330
2B3
100
AcDbScale
 70
     0
300
1:8
140
1.0
141
8.0
290
     0
  0
SCALE
  5
2B9
102
{ACAD_REACTORS
330
2B3
102
}
330
2B3
100
AcDbScale
 70
     0
300
1:10
140
1.0
141
10.0
290
     0
  0
SCALE
  5
2BA
102
{ACAD_REACTORS
330
2B3
102
}
330
2B3
100
AcDbScale
 70
     0
300
1:16
140
1.0
141
16.0
290
     0
  0
SCALE
  5
2BB
102
{ACAD_REACTORS
330
2B3
102
}
330
2B3
100
AcDbScale
 70
     0
300
1:20
140
1.0
141
20.0
290
     0
  0
SCALE
  5
2BC
102
{ACAD_REACTORS
330
2B3
102
}
330
2B3
100
AcDbScale
 70
     0
300
1:30
140
1.0
141
30.0
290
     0
  0
SCALE
  5
2BD
102
{ACAD_REACTORS
330
2B3
102
}
330
2B3
100
AcDbScale
 70
     0
300
1:40
140
1.0
141
40.0
290
     0
  0
SCALE
  5
2BE
102
{ACAD_REACTORS
330
2B3
102
}
330
2B3
100
AcDbScale
 70
     0
300
1:50
140
1.0
141
50.0
290
     0
  0
SCALE
  5
2BF
102
{ACAD_REACTORS
330
2B3
102
}
330
2B3
100
AcDbScale
 70
     0
300
1:100
140
1.0
141
100.0
290
     0
  0
SCALE
  5
2C0
102
{ACAD_REACTORS
330
2B3
102
}
330
2B3
100
AcDbScale
 70
     0
300
2:1
140
2.0
141
1.0
290
     0
  0
SCALE
  5
2C1
102
{ACAD_REACTORS
330
2B3
102
}
330
2B3
100
AcDbScale
 70
     0
300
4:1
140
4.0
141
1.0
290
     0
  0
SCALE
  5
2C2
102
{ACAD_REACTORS
330
2B3
102
}
330
2B3
100
AcDbScale
 70
     0
300
8:1
140
8.0
141
1.0
290
     0
  0
SCALE
  5
2C3
102
{ACAD_REACTORS
330
2B3
102
}
330
2B3
100
AcDbScale
 70
     0
300
10:1
140
10.0
141
1.0
290
     0
  0
SCALE
  5
2C4
102
{ACAD_REACTORS
330
2B3
102
}
330
2B3
100
AcDbScale
 70
     0
300
100:1
140
100.0
141
1.0
290
     0
  0
SCALE
  5
2C5
102
{ACAD_REACTORS
330
2B3
102
}
330
2B3
100
AcDbScale
 70
     0
300
1/128" = 1'-0"
140
0.0078125
141
12.0
290
     0
  0
SCALE
  5
2C6
102
{ACAD_REACTORS
330
2B3
102
}
330
2B3
100
AcDbScale
 70
     0
300
1/64" = 1'-0"
140
0.015625
141
12.0
290
     0
  0
SCALE
  5
2C7
102
{ACAD_REACTORS
330
2B3
102
}
330
2B3
100
AcDbScale
 70
     0
300
1/32" = 1'-0"
140
0.03125
141
12.0
290
     0
  0
SCALE
  5
2C8
102
{ACAD_REACTORS
330
2B3
102
}
330
2B3
100
AcDbScale
 70
     0
300
1/16" = 1'-0"
140
0.0625
141
12.0
290
     0
  0
SCALE
  5
2C9
102
{ACAD_REACTORS
330
2B3
102
}
330
2B3
100
AcDbScale
 70
     0
300
3/32" = 1'-0"
140
0.09375
141
12.0
290
     0
  0
SCALE
  5
2CA
102
{ACAD_REACTORS
330
2B3
102
}
330
2B3
100
AcDbScale
 70
     0
300
1/8" = 1'-0"
140
0.125
141
12.0
290
     0
  0
SCALE
  5
2CB
102
{ACAD_REACTORS
330
2B3
102
}
330
2B3
100
AcDbScale
 70
     0
300
3/16" = 1'-0"
140
0.1875
141
12.0
290
     0
  0
SCALE
  5
2CC
102
{ACAD_REACTORS
330
2B3
102
}
330
2B3
100
AcDbScale
 70
     0
300
1/4" = 1'-0"
140
0.25
141
12.0
290
     0
  0
SCALE
  5
2CD
102
{ACAD_REACTORS
330
2B3
102
}
330
2B3
100
AcDbScale
 70
     0
300
3/8" = 1'-0"
140
0.375
141
12.0
290
     0
  0
SCALE
  5
2CE
102
{ACAD_REACTORS
330
2B3
102
}
330
2B3
100
AcDbScale
 70
     0
300
1/2" = 1'-0"
140
0.5
141
12.0
290
     0
  0
SCALE
  5
2CF
102
{ACAD_REACTORS
330
2B3
102
}
330
2B3
100
AcDbScale
 70
     0
300
3/4" = 1'-0"
140
0.75
141
12.0
290
     0
  0
SCALE
  5
2D0
102
{ACAD_REACTORS
330
2B3
102
}
330
2B3
100
AcDbScale
 70
     0
300
1" = 1'-0"
140
1.0
141
12.0
290
     0
  0
SCALE
  5
2D1
102
{ACAD_REACTORS
330
2B3
102
}
330
2B3
100
AcDbScale
 70
     0
300
1-1/2" = 1'-0"
140
1.5
141
12.0
290
     0
  0
SCALE
  5
2D2
102
{ACAD_REACTORS
330
2B3
102
}
330
2B3
100
AcDbScale
 70
     0
300
3" = 1'-0"
140
3.0
141
12.0
290
     0
  0
SCALE
  5
2D3
102
{ACAD_REACTORS
330
2B3
102
}
330
2B3
100
AcDbScale
 70
     0
300
6" = 1'-0"
140
6.0
141
12.0
290
     0
  0
SCALE
  5
2D4
102
{ACAD_REACTORS
330
2B3
102
}
330
2B3
100
AcDbScale
 70
     0
300
1'-0" = 1'-0"
140
12.0
141
12.0
290
     0
  0
TABLESTYLE
  5
122
102
{ACAD_XDICTIONARY
360
2F5
102
}
102
{ACAD_REACTORS
330
121
102
}
330
121
100
AcDbTableStyle
  3
Standard
 70
     0
 71
     0
 40
1.5
 41
1.5
280
     0
281
     0
  7
STANDARD
140
4.5
170
     2
 62
     0
 63
     7
283
     0
 90
      512
 91
        0
  1

274
    -2
284
     1
 64
     0
275
    -2
285
     1
 65
     0
276
    -2
286
     1
 66
     0
277
    -2
287
     1
 67
     0
278
    -2
288
     1
 68
     0
279
    -2
289
     1
 69
     0
  7
STANDARD
140
6.0
170
     5
 62
     0
 63
     7
283
     0
 90
      512
 91
        0
  1

274
    -2
284
     1
 64
     0
275
    -2
285
     1
 65
     0
276
    -2
286
     1
 66
     0
277
    -2
287
     1
 67
     0
278
    -2
288
     1
 68
     0
279
    -2
289
     1
 69
     0
  7
STANDARD
140
4.5
170
     5
 62
     0
 63
     7
283
     0
 90
      512
 91
        0
  1

274
    -2
284
     1
 64
     0
275
    -2
285
     1
 65
     0
276
    -2
286
     1
 66
     0
277
    -2
287
     1
 67
     0
278
    -2
288
     1
 68
     0
279
    -2
289
     1
 69
     0
  0
VISUALSTYLE
  5
285
102
{ACAD_REACTORS
330
27F
102
}
330
27F
100
AcDbVisualStyle
  2
2dWireframe
 70
     4
 71
     0
 72
     2
 73
     0
 90
        0
 40
-0.6
 41
-30.0
 62
     5
 63
     7
421
 16777215
 74
     1
 91
        4
 64
     7
 65
   257
 75
     1
175
     1
 42
1.0
 92
        0
 66
   257
 43
1.0
 76
     1
 77
     6
 78
     2
 67
     7
 79
     5
170
     0
171
     0
290
     0
174
     0
 93
        1
 44
0.0
173
     0
291
     0
 45
0.0
  0
VISUALSTYLE
  5
287
102
{ACAD_REACTORS
330
27F
102
}
330
27F
100
AcDbVisualStyle
  2
3D Hidden
 70
     6
 71
     1
 72
     2
 73
     2
 90
        0
 40
-0.6
 41
-30.0
 62
     5
 63
     7
421
 16777215
 74
     2
 91
        2
 64
     7
 65
   257
 75
     2
175
     1
 42
40.0
 92
        0
 66
   257
 43
1.0
 76
     1
 77
     6
 78
     2
 67
     7
 79
     3
170
     0
171
     0
290
     0
174
     0
 93
        1
 44
0.0
173
     0
291
     0
 45
0.0
  0
VISUALSTYLE
  5
286
102
{ACAD_REACTORS
330
27F
102
}
330
27F
100
AcDbVisualStyle
  2
3dWireframe
 70
     5
 71
     0
 72
     2
 73
     0
 90
        0
 40
-0.6
 41
-30.0
 62
     5
 63
     7
421
 16777215
 74
     1
 91
        4
 64
     7
 65
   257
 75
     1
175
     1
 42
1.0
 92
        0
 66
   257
 43
1.0
 76
     1
 77
     6
 78
     2
 67
     7
 79
     5
170
     0
171
     0
290
     0
174
     0
 93
        1
 44
0.0
173
     0
291
     0
 45
0.0
  0
VISUALSTYLE
  5
284
102
{ACAD_REACTORS
330
27F
102
}
330
27F
100
AcDbVisualStyle
  2
Basic
 70
     7
 71
     1
 72
     0
 73
     1
 90
        0
 40
-0.6
 41
-30.0
 62
     5
 63
     7
421
 16777215
 74
     0
 91
        4
 64
     7
 65
   257
 75
     1
175
     1
 42
1.0
 92
        8
 66
     7
 43
1.0
 76
     1
 77
     6
 78
     2
 67
     7
 79
     5
170
     0
171
     0
290
     0
174
     0
 93
        1
 44
0.0
173
     0
291
     1
 45
0.0
  0
VISUALSTYLE
  5
28B
102
{ACAD_REACTORS
330
27F
102
}
330
27F
100
AcDbVisualStyle
  2
Brighten
 70
    12
 71
     2
 72
     2
 73
     0
 90
        0
 40
-0.6
 41
-30.0
 62
     5
 63
     7
421
 16777215
 74
     1
 91
        4
 64
     7
 65
   257
 75
     1
175
     1
 42
1.0
 92
        8
 66
     7
 43
1.0
 76
     1
 77
     6
 78
     2
 67
     7
 79
     5
170
     0
171
     0
290
     0
174
     0
 93
        1
 44
50.0
173
     0
291
     1
 45
0.0
  0
VISUALSTYLE
  5
28F
102
{ACAD_REACTORS
330
27F
102
}
330
27F
100
AcDbVisualStyle
  2
ColorChange
 70
    16
 71
     2
 72
     2
 73
     3
 90
        0
 40
-0.6
 41
-30.0
 62
     5
 63
     8
421
  8421504
 74
     1
 91
        4
 64
     7
 65
   257
 75
     1
175
     1
 42
1.0
 92
        8
 66
     8
424
  8421504
 43
1.0
 76
     1
 77
     6
 78
     2
 67
     7
 79
     5
170
     0
171
     0
290
     0
174
     0
 93
        1
 44
0.0
173
     0
291
     1
 45
0.0
  0
VISUALSTYLE
  5
288
102
{ACAD_REACTORS
330
27F
102
}
330
27F
100
AcDbVisualStyle
  2
Conceptual
 70
     9
 71
     3
 72
     2
 73
     0
 90
        0
 40
-0.6
 41
-30.0
 62
     5
 63
     7
421
 16777215
 74
     2
 91
        2
 64
     7
 65
   257
 75
     1
175
     1
 42
40.0
 92
        8
 66
     7
 43
1.0
 76
     1
 77
     6
 78
     2
 67
     7
 79
     3
170
     0
171
     0
290
     0
174
     0
 93
        1
 44
0.0
173
     0
291
     0
 45
0.0
  0
VISUALSTYLE
  5
28A
102
{ACAD_REACTORS
330
27F
102
}
330
27F
100
AcDbVisualStyle
  2
Dim
 70
    11
 71
     2
 72
     2
 73
     0
 90
        0
 40
-0.6
 41
-30.0
 62
     5
 63
     7
421
 16777215
 74
     1
 91
        4
 64
     7
 65
   257
 75
     1
175
     1
 42
1.0
 92
        8
 66
     7
 43
1.0
 76
     1
 77
     6
 78
     2
 67
     7
 79
     5
170
     0
171
     0
290
     0
174
     0
 93
        1
 44
-50.0
173
     0
291
     1
 45
0.0
  0
VISUALSTYLE
  5
28E
102
{ACAD_REACTORS
330
27F
102
}
330
27F
100
AcDbVisualStyle
  2
Facepattern
 70
    15
 71
     2
 72
     2
 73
     0
 90
        0
 40
-0.6
 41
-30.0
 62
     5
 63
     7
421
 16777215
 74
     1
 91
        4
 64
     7
 65
   257
 75
     1
175
     1
 42
1.0
 92
        8
 66
     7
 43
1.0
 76
     1
 77
     6
 78
     2
 67
     7
 79
     5
170
     0
171
     0
290
     0
174
     0
 93
        1
 44
0.0
173
     0
291
     1
 45
0.0
  0
VISUALSTYLE
  5
280
102
{ACAD_REACTORS
330
27F
102
}
330
27F
100
AcDbVisualStyle
  2
Flat
 70
     0
 71
     2
 72
     1
 73
     1
 90
        2
 40
-0.6
 41
30.0
 62
     5
 63
     7
421
 16777215
 74
     0
 91
        4
 64
     7
 65
   257
 75
     1
175
     1
 42
1.0
 92
        8
 66
     7
 43
1.0
 76
     1
 77
     6
 78
     2
 67
     7
 79
     5
170
     0
171
     0
290
     0
174
     0
 93
       13
 44
0.0
173
     0
291
     1
 45
0.0
  0
VISUALSTYLE
  5
281
102
{ACAD_REACTORS
330
27F
102
}
330
27F
100
AcDbVisualStyle
  2
FlatWithEdges
 70
     1
 71
     2
 72
     1
 73
     1
 90
        2
 40
-0.6
 41
30.0
 62
     5
 63
     7
421
 16777215
 74
     1
 91
        4
 64
     7
 65
   257
 75
     1
175
     1
 42
1.0
 92
        0
 66
   257
 43
1.0
 76
     1
 77
     6
 78
     2
 67
     7
 79
     5
170
     0
171
     0
290
     0
174
     0
 93
       13
 44
0.0
173
     0
291
     1
 45
0.0
  0
VISUALSTYLE
  5
282
102
{ACAD_REACTORS
330
27F
102
}
330
27F
100
AcDbVisualStyle
  2
Gouraud
 70
     2
 71
     2
 72
     2
 73
     1
 90
        2
 40
-0.6
 41
30.0
 62
     5
 63
     7
421
 16777215
 74
     0
 91
        4
 64
     7
 65
   257
 75
     1
175
     1
 42
1.0
 92
        0
 66
     7
 43
1.0
 76
     1
 77
     6
 78
     2
 67
     7
 79
     5
170
     0
171
     0
290
     0
174
     0
 93
       13
 44
0.0
173
     0
291
     1
 45
0.0
  0
VISUALSTYLE
  5
283
102
{ACAD_REACTORS
330
27F
102
}
330
27F
100
AcDbVisualStyle
  2
GouraudWithEdges
 70
     3
 71
     2
 72
     2
 73
     1
 90
        2
 40
-0.6
 41
30.0
 62
     5
 63
     7
421
 16777215
 74
     1
 91
        4
 64
     7
 65
   257
 75
     1
175
     1
 42
1.0
 92
        0
 66
   257
 43
1.0
 76
     1
 77
     6
 78
     2
 67
     7
 79
     5
170
     0
171
     0
290
     0
174
     0
 93
       13
 44
0.0
173
     0
291
     1
 45
0.0
  0
VISUALSTYLE
  5
28D
102
{ACAD_REACTORS
330
27F
102
}
330
27F
100
AcDbVisualStyle
  2
Linepattern
 70
    14
 71
     2
 72
     2
 73
     0
 90
        0
 40
-0.6
 41
-30.0
 62
     5
 63
     7
421
 16777215
 74
     1
 91
        4
 64
     7
 65
   257
 75
     7
175
     7
 42
1.0
 92
        8
 66
     7
 43
1.0
 76
     1
 77
     6
 78
     2
 67
     7
 79
     5
170
     0
171
     0
290
     0
174
     0
 93
        1
 44
0.0
173
     0
291
     1
 45
0.0
  0
VISUALSTYLE
  5
289
102
{ACAD_REACTORS
330
27F
102
}
330
27F
100
AcDbVisualStyle
  2
Realistic
 70
     8
 71
     2
 72
     2
 73
     0
 90
        0
 40
-0.6
 41
-30.0
 62
     5
 63
     7
421
 16777215
 74
     1
 91
        0
 64
     7
 65
   257
 75
     1
175
     1
 42
1.0
 92
        8
 66
     8
424
  7895160
 43
1.0
 76
     1
 77
     6
 78
     2
 67
     7
 79
     5
170
     0
171
     0
290
     0
174
     0
 93
       13
 44
0.0
173
     0
291
     0
 45
0.0
  0
VISUALSTYLE
  5
28C
102
{ACAD_REACTORS
330
27F
102
}
330
27F
100
AcDbVisualStyle
  2
Thicken
 70
    13
 71
     2
 72
     2
 73
     0
 90
        0
 40
-0.6
 41
-30.0
 62
     5
 63
     7
421
 16777215
 74
     1
 91
        4
 64
     7
 65
   257
 75
     1
175
     1
 42
1.0
 92
       12
 66
     7
 43
1.0
 76
     1
 77
     6
 78
     2
 67
     7
 79
     5
170
     0
171
     0
290
     0
174
     0
 93
        1
 44
0.0
173
     0
291
     1
 45
0.0
  0
DICTIONARYVAR
  5
2FA
102
{ACAD_REACTORS
330
34
102
}
330
34
100
DictionaryVariables
280
     0
  1
1:15
  0
DICTIONARYVAR
  5
2F8
102
{ACAD_REACTORS
330
34
102
}
330
34
100
DictionaryVariables
280
     0
  1
STANDARD
  0
DICTIONARYVAR
  5
140
102
{ACAD_REACTORS
330
34
102
}
330
34
100
DictionaryVariables
280
     0
  1
STANDARD
  0
DICTIONARYVAR
  5
AC
102
{ACAD_REACTORS
330
34
102
}
330
34
100
DictionaryVariables
280
     0
  1
1
  0
DICTIONARYVAR
  5
35
102
{ACAD_REACTORS
330
34
102
}
330
34
100
DictionaryVariables
280
     0
  1
1
  0
DICTIONARYVAR
  5
7247
102
{ACAD_REACTORS
330
34
102
}
330
34
100
DictionaryVariables
280
     0
  1
1
  0
DICTIONARYVAR
  5
7248
102
{ACAD_REACTORS
330
34
102
}
330
34
100
DictionaryVariables
280
     0
  1
15
  0
DICTIONARYVAR
  5
2FB
102
{ACAD_REACTORS
330
34
102
}
330
34
100
DictionaryVariables
280
     0
  1
0
  0
DICTIONARYVAR
  5
2F9
102
{ACAD_REACTORS
330
34
102
}
330
34
100
DictionaryVariables
280
     0
  1
0
  0
DICTIONARY
  5
161B
102
{ACAD_REACTORS
330
49
102
}
330
49
100
AcDbDictionary
281
     1
  0
DICTIONARY
  5
4A
102
{ACAD_REACTORS
330
49
102
}
330
49
100
AcDbDictionary
281
     1
  0
XRECORD
  5
12B
102
{ACAD_REACTORS
330
49
102
}
330
49
100
AcDbXrecord
280
     1
 90
-1023410169
  0
DICTIONARY
  5
2F5
330
122
100
AcDbDictionary
280
     1
281
     1
  3
ACAD_ROUNDTRIP_2008_TABLESTYLE_CELLSTYLEMAP
360
80C1
  0
CELLSTYLEMAP
  5
80C1
102
{ACAD_REACTORS
330
2F5
102
}
330
2F5
100
AcDbCellStyleMap
 90
        3
300
CELLSTYLE
  1
TABLEFORMAT_BEGIN
 90
        5
170
     1
 91
        0
 92
    32768
 62
   257
 93
        1
300
CONTENTFORMAT
  1
CONTENTFORMAT_BEGIN
 90
        0
 91
        0
 92
      512
 93
        0
300

 40
0.0
140
1.0
 94
        5
 62
     0
340
11
144
6.0
309
CONTENTFORMAT_END
171
     1
301
MARGIN
  1
CELLMARGIN_BEGIN
 40
1.5
 40
1.5
 40
1.5
 40
1.5
 40
0.18
 40
0.18
309
CELLMARGIN_END
 94
        6
 95
        1
302
GRIDFORMAT
  1
GRIDFORMAT_BEGIN
 90
        0
 91
        1
 62
     0
 92
       -2
340
0
 93
        0
 40
0.045
309
GRIDFORMAT_END
 95
        2
302
GRIDFORMAT
  1
GRIDFORMAT_BEGIN
 90
        0
 91
        1
 62
     0
 92
       -2
340
0
 93
        0
 40
0.045
309
GRIDFORMAT_END
 95
        4
302
GRIDFORMAT
  1
GRIDFORMAT_BEGIN
 90
        0
 91
        1
 62
     0
 92
       -2
340
0
 93
        0
 40
0.045
309
GRIDFORMAT_END
 95
        8
302
GRIDFORMAT
  1
GRIDFORMAT_BEGIN
 90
        0
 91
        1
 62
     0
 92
       -2
340
0
 93
        0
 40
0.045
309
GRIDFORMAT_END
 95
       16
302
GRIDFORMAT
  1
GRIDFORMAT_BEGIN
 90
        0
 91
        1
 62
     0
 92
       -2
340
0
 93
        0
 40
0.045
309
GRIDFORMAT_END
 95
       32
302
GRIDFORMAT
  1
GRIDFORMAT_BEGIN
 90
        0
 91
        1
 62
     0
 92
       -2
340
0
 93
        0
 40
0.045
309
GRIDFORMAT_END
309
TABLEFORMAT_END
  1
CELLSTYLE_BEGIN
 90
        1
 91
        1
300
_TITLE
309
CELLSTYLE_END
300
CELLSTYLE
  1
TABLEFORMAT_BEGIN
 90
        5
170
     1
 91
        0
 92
        0
 62
   257
 93
        1
300
CONTENTFORMAT
  1
CONTENTFORMAT_BEGIN
 90
        0
 91
        0
 92
      512
 93
        0
300

 40
0.0
140
1.0
 94
        5
 62
     0
340
11
144
4.5
309
CONTENTFORMAT_END
171
     1
301
MARGIN
  1
CELLMARGIN_BEGIN
 40
1.5
 40
1.5
 40
1.5
 40
1.5
 40
0.18
 40
0.18
309
CELLMARGIN_END
 94
        6
 95
        1
302
GRIDFORMAT
  1
GRIDFORMAT_BEGIN
 90
        0
 91
        1
 62
     0
 92
       -2
340
0
 93
        0
 40
0.045
309
GRIDFORMAT_END
 95
        2
302
GRIDFORMAT
  1
GRIDFORMAT_BEGIN
 90
        0
 91
        1
 62
     0
 92
       -2
340
0
 93
        0
 40
0.045
309
GRIDFORMAT_END
 95
        4
302
GRIDFORMAT
  1
GRIDFORMAT_BEGIN
 90
        0
 91
        1
 62
     0
 92
       -2
340
0
 93
        0
 40
0.045
309
GRIDFORMAT_END
 95
        8
302
GRIDFORMAT
  1
GRIDFORMAT_BEGIN
 90
        0
 91
        1
 62
     0
 92
       -2
340
0
 93
        0
 40
0.045
309
GRIDFORMAT_END
 95
       16
302
GRIDFORMAT
  1
GRIDFORMAT_BEGIN
 90
        0
 91
        1
 62
     0
 92
       -2
340
0
 93
        0
 40
0.045
309
GRIDFORMAT_END
 95
       32
302
GRIDFORMAT
  1
GRIDFORMAT_BEGIN
 90
        0
 91
        1
 62
     0
 92
       -2
340
0
 93
        0
 40
0.045
309
GRIDFORMAT_END
309
TABLEFORMAT_END
  1
CELLSTYLE_BEGIN
 90
        2
 91
        1
300
_HEADER
309
CELLSTYLE_END
300
CELLSTYLE
  1
TABLEFORMAT_BEGIN
 90
        5
170
     1
 91
        0
 92
        0
 62
   257
 93
        1
300
CONTENTFORMAT
  1
CONTENTFORMAT_BEGIN
 90
        0
 91
        0
 92
      512
 93
        0
300

 40
0.0
140
1.0
 94
        2
 62
     0
340
11
144
4.5
309
CONTENTFORMAT_END
171
     1
301
MARGIN
  1
CELLMARGIN_BEGIN
 40
1.5
 40
1.5
 40
1.5
 40
1.5
 40
0.18
 40
0.18
309
CELLMARGIN_END
 94
        6
 95
        1
302
GRIDFORMAT
  1
GRIDFORMAT_BEGIN
 90
        0
 91
        1
 62
     0
 92
       -2
340
0
 93
        0
 40
0.045
309
GRIDFORMAT_END
 95
        2
302
GRIDFORMAT
  1
GRIDFORMAT_BEGIN
 90
        0
 91
        1
 62
     0
 92
       -2
340
0
 93
        0
 40
0.045
309
GRIDFORMAT_END
 95
        4
302
GRIDFORMAT
  1
GRIDFORMAT_BEGIN
 90
        0
 91
        1
 62
     0
 92
       -2
340
0
 93
        0
 40
0.045
309
GRIDFORMAT_END
 95
        8
302
GRIDFORMAT
  1
GRIDFORMAT_BEGIN
 90
        0
 91
        1
 62
     0
 92
       -2
340
0
 93
        0
 40
0.045
309
GRIDFORMAT_END
 95
       16
302
GRIDFORMAT
  1
GRIDFORMAT_BEGIN
 90
        0
 91
        1
 62
     0
 92
       -2
340
0
 93
        0
 40
0.045
309
GRIDFORMAT_END
 95
       32
302
GRIDFORMAT
  1
GRIDFORMAT_BEGIN
 90
        0
 91
        1
 62
     0
 92
       -2
340
0
 93
        0
 40
0.045
309
GRIDFORMAT_END
309
TABLEFORMAT_END
  1
CELLSTYLE_BEGIN
 90
        3
 91
        2
300
_DATA
309
CELLSTYLE_END
  0
ENDSEC
  0
EOF
