  0
SECTION
  2
HEADER
  9
$ACADVER
  1
AC1021
  9
$ACADMAINTVER
 70
    26
  9
$DWGCODEPAGE
  3
ANSI_932
  9
$LASTSAVEDBY
  1
Htm_Terada
  9
$CUSTOMPROPERTYTAG
  1
AmdtFileType
  9
$CUSTOMPROPERTY
  1
84
  9
$INSBASE
 10
0.0
 20
0.0
 30
0.0
  9
$EXTMIN
 10
597.453494261529
 20
918.9970737849467
 30
0.0
  9
$EXTMAX
 10
1933.206400249781
 20
1561.144792936595
 30
0.0
  9
$LIMMIN
 10
0.0000011486031326
 20
0.0000022162923869
  9
$LIMMAX
 10
2520.000001148603
 20
1782.000002216293
  9
$ORTHOMODE
 70
     0
  9
$REGENMODE
 70
     1
  9
$FILLMODE
 70
     1
  9
$QTEXTMODE
 70
     0
  9
$MIRRTEXT
 70
     1
  9
$LTSCALE
 40
6.0
  9
$ATTMODE
 70
     1
  9
$TEXTSIZE
 40
25.0
  9
$TRACEWID
 40
1.0
  9
$TEXTSTYLE
  7
SEISA
  9
$CLAYER
  8
AM_0 外形線1
  9
$CELTYPE
  6
ByLayer
  9
$CECOLOR
 62
   256
  9
$CELTSCALE
 40
1.0
  9
$DISPSILH
 70
     0
  9
$DIMSCALE
 40
6.0
  9
$DIMASZ
 40
2.5
  9
$DIMEXO
 40
0.625
  9
$DIMDLI
 40
10.0
  9
$DIMRND
 40
0.0
  9
$DIMDLE
 40
0.0
  9
$DIMEXE
 40
0.625
  9
$DIMTP
 40
0.1
  9
$DIMTM
 40
0.1
  9
$DIMTXT
 40
3.5
  9
$DIMCEN
 40
0.0
  9
$DIMTSZ
 40
0.0
  9
$DIMTOL
 70
     0
  9
$DIMLIM
 70
     0
  9
$DIMTIH
 70
     0
  9
$DIMTOH
 70
     0
  9
$DIMSE1
 70
     0
  9
$DIMSE2
 70
     0
  9
$DIMTAD
 70
     3
  9
$DIMZIN
 70
     8
  9
$DIMBLK
  1
Open30
  9
$DIMASO
 70
     1
  9
$DIMSHO
 70
     1
  9
$DIMPOST
  1

  9
$DIMAPOST
  1
"
  9
$DIMALT
 70
     0
  9
$DIMALTD
 70
     2
  9
$DIMALTF
 40
0.0393701
  9
$DIMLFAC
 40
1.0
  9
$DIMTOFL
 70
     1
  9
$DIMTVP
 40
0.0
  9
$DIMTIX
 70
     0
  9
$DIMSOXD
 70
     0
  9
$DIMSAH
 70
     0
  9
$DIMBLK1
  1

  9
$DIMBLK2
  1

  9
$DIMSTYLE
  2
SEISA
  9
$DIMCLRD
 70
     3
  9
$DIMCLRE
 70
     3
  9
$DIMCLRT
 70
     3
  9
$DIMTFAC
 40
0.71
  9
$DIMGAP
 40
1.5
  9
$DIMJUST
 70
     0
  9
$DIMSD1
 70
     0
  9
$DIMSD2
 70
     0
  9
$DIMTOLJ
 70
     0
  9
$DIMTZIN
 70
     0
  9
$DIMALTZ
 70
     0
  9
$DIMALTTZ
 70
     8
  9
$DIMUPT
 70
     0
  9
$DIMDEC
 70
     2
  9
$DIMTDEC
 70
     2
  9
$DIMALTU
 70
     2
  9
$DIMALTTD
 70
     2
  9
$DIMTXSTY
  7
SEISA
  9
$DIMAUNIT
 70
     0
  9
$DIMADEC
 70
     0
  9
$DIMALTRND
 40
0.0
  9
$DIMAZIN
 70
     2
  9
$DIMDSEP
 70
    46
  9
$DIMATFIT
 70
     3
  9
$DIMFRAC
 70
     0
  9
$DIMLDRBLK
  1
Open30
  9
$DIMLUNIT
 70
     2
  9
$DIMLWD
 70
    -1
  9
$DIMLWE
 70
    -1
  9
$DIMTMOVE
 70
     0
  9
$DIMFXL
 40
1.0
  9
$DIMFXLON
 70
     0
  9
$DIMJOGANG
 40
0.7853981633974483
  9
$DIMTFILL
 70
     0
  9
$DIMTFILLCLR
 70
     0
  9
$DIMARCSYM
 70
     1
  9
$DIMLTYPE
  6

  9
$DIMLTEX1
  6

  9
$DIMLTEX2
  6

  9
$LUNITS
 70
     2
  9
$LUPREC
 70
     2
  9
$SKETCHINC
 40
1.0
  9
$FILLETRAD
 40
1.0
  9
$AUNITS
 70
     0
  9
$AUPREC
 70
     0
  9
$MENU
  1
.
  9
$ELEVATION
 40
0.0
  9
$PELEVATION
 40
0.0
  9
$THICKNESS
 40
0.0
  9
$LIMCHECK
 70
     0
  9
$CHAMFERA
 40
8.0
  9
$CHAMFERB
 40
8.000000000000227
  9
$CHAMFERC
 40
7.999999999999772
  9
$CHAMFERD
 40
0.7853981633974483
  9
$SKPOLY
 70
     0
  9
$TDCREATE
 40
2454937.425196412
  9
$TDUCREATE
 40
2454937.050196412
  9
$TDUPDATE
 40
2456479.697767824
  9
$TDUUPDATE
 40
2456479.322767824
  9
$TDINDWG
 40
0.5141015625
  9
$TDUSRTIMER
 40
0.5141010185
  9
$USRTIMER
 70
     1
  9
$ANGBASE
 50
0.0
  9
$ANGDIR
 70
     0
  9
$PDMODE
 70
     0
  9
$PDSIZE
 40
0.0
  9
$PLINEWID
 40
0.0
  9
$SPLFRAME
 70
     0
  9
$SPLINETYPE
 70
     6
  9
$SPLINESEGS
 70
     8
  9
$HANDSEED
  5
A2B4
  9
$SURFTAB1
 70
     6
  9
$SURFTAB2
 70
     6
  9
$SURFTYPE
 70
     6
  9
$SURFU
 70
     6
  9
$SURFV
 70
     6
  9
$UCSBASE
  2

  9
$UCSNAME
  2

  9
$UCSORG
 10
0.0
 20
0.0
 30
0.0
  9
$UCSXDIR
 10
1.0
 20
0.0
 30
0.0
  9
$UCSYDIR
 10
0.0
 20
1.0
 30
0.0
  9
$UCSORTHOREF
  2

  9
$UCSORTHOVIEW
 70
     0
  9
$UCSORGTOP
 10
0.0
 20
0.0
 30
0.0
  9
$UCSORGBOTTOM
 10
0.0
 20
0.0
 30
0.0
  9
$UCSORGLEFT
 10
0.0
 20
0.0
 30
0.0
  9
$UCSORGRIGHT
 10
0.0
 20
0.0
 30
0.0
  9
$UCSORGFRONT
 10
0.0
 20
0.0
 30
0.0
  9
$UCSORGBACK
 10
0.0
 20
0.0
 30
0.0
  9
$PUCSBASE
  2

  9
$PUCSNAME
  2

  9
$PUCSORG
 10
0.0
 20
0.0
 30
0.0
  9
$PUCSXDIR
 10
1.0
 20
0.0
 30
0.0
  9
$PUCSYDIR
 10
0.0
 20
1.0
 30
0.0
  9
$PUCSORTHOREF
  2

  9
$PUCSORTHOVIEW
 70
     0
  9
$PUCSORGTOP
 10
0.0
 20
0.0
 30
0.0
  9
$PUCSORGBOTTOM
 10
0.0
 20
0.0
 30
0.0
  9
$PUCSORGLEFT
 10
0.0
 20
0.0
 30
0.0
  9
$PUCSORGRIGHT
 10
0.0
 20
0.0
 30
0.0
  9
$PUCSORGFRONT
 10
0.0
 20
0.0
 30
0.0
  9
$PUCSORGBACK
 10
0.0
 20
0.0
 30
0.0
  9
$USERI1
 70
     0
  9
$USERI2
 70
     0
  9
$USERI3
 70
     0
  9
$USERI4
 70
     0
  9
$USERI5
 70
     0
  9
$USERR1
 40
0.0
  9
$USERR2
 40
0.0
  9
$USERR3
 40
0.0
  9
$USERR4
 40
0.0
  9
$USERR5
 40
0.0
  9
$WORLDVIEW
 70
     1
  9
$SHADEDGE
 70
     3
  9
$SHADEDIF
 70
    70
  9
$TILEMODE
 70
     1
  9
$MAXACTVP
 70
    64
  9
$PINSBASE
 10
0.0
 20
0.0
 30
0.0
  9
$PLIMCHECK
 70
     0
  9
$PEXTMIN
 10
1.000000000000000E+20
 20
1.000000000000000E+20
 30
1.000000000000000E+20
  9
$PEXTMAX
 10
-1.000000000000000E+20
 20
-1.000000000000000E+20
 30
-1.000000000000000E+20
  9
$PLIMMIN
 10
0.0
 20
0.0
  9
$PLIMMAX
 10
420.0
 20
297.0
  9
$UNITMODE
 70
     0
  9
$VISRETAIN
 70
     1
  9
$PLINEGEN
 70
     0
  9
$PSLTSCALE
 70
     1
  9
$TREEDEPTH
 70
  3020
  9
$CMLSTYLE
  2
Standard
  9
$CMLJUST
 70
     0
  9
$CMLSCALE
 40
20.0
  9
$PROXYGRAPHICS
 70
     1
  9
$MEASUREMENT
 70
     1
  9
$CELWEIGHT
370
    -1
  9
$ENDCAPS
280
     0
  9
$JOINSTYLE
280
     0
  9
$LWDISPLAY
290
     0
  9
$INSUNITS
 70
     4
  9
$HYPERLINKBASE
  1

  9
$STYLESHEET
  1
SEISA.CTB
  9
$XEDIT
290
     1
  9
$CEPSNTYPE
380
     0
  9
$PSTYLEMODE
290
     1
  9
$FINGERPRINTGUID
  2
{A393BF26-F2C5-4BF6-8253-129FB6B8920C}
  9
$VERSIONGUID
  2
{9350BBF4-4962-4BEA-8B7F-F5A6E34AAF61}
  9
$EXTNAMES
290
     1
  9
$PSVPSCALE
 40
0.0
  9
$OLESTARTUP
290
     0
  9
$SORTENTS
280
   127
  9
$INDEXCTL
280
     0
  9
$HIDETEXT
280
     0
  9
$XCLIPFRAME
290
     0
  9
$HALOGAP
280
     0
  9
$OBSCOLOR
 70
   257
  9
$OBSLTYPE
280
     0
  9
$INTERSECTIONDISPLAY
280
     0
  9
$INTERSECTIONCOLOR
 70
   257
  9
$DIMASSOC
280
     2
  9
$PROJECTNAME
  1

  9
$CAMERADISPLAY
290
     0
  9
$LENSLENGTH
 40
50.0
  9
$CAMERAHEIGHT
 40
0.0
  9
$STEPSPERSEC
 40
2.0
  9
$STEPSIZE
 40
6.0
  9
$3DDWFPREC
 40
2.0
  9
$PSOLWIDTH
 40
0.25
  9
$PSOLHEIGHT
 40
4.0
  9
$LOFTANG1
 40
1.570796326794896
  9
$LOFTANG2
 40
1.570796326794896
  9
$LOFTMAG1
 40
0.0
  9
$LOFTMAG2
 40
0.0
  9
$LOFTPARAM
 70
     7
  9
$LOFTNORMALS
280
     1
  9
$LATITUDE
 40
37.795
  9
$LONGITUDE
 40
-122.394
  9
$NORTHDIRECTION
 40
0.0
  9
$TIMEZONE
 70
 -8000
  9
$LIGHTGLYPHDISPLAY
280
     1
  9
$TILEMODELIGHTSYNCH
280
     1
  9
$CMATERIAL
347
27C
  9
$SOLIDHIST
280
     1
  9
$SHOWHIST
280
     1
  9
$DWFFRAME
280
     2
  9
$DGNFRAME
280
     0
  9
$REALWORLDSCALE
290
     1
  9
$INTERFERECOLOR
 62
     1
  9
$INTERFEREOBJVS
345
289
  9
$INTERFEREVPVS
346
286
  9
$CSHADOW
280
     0
  9
$SHADOWPLANELOCATION
 40
0.0
  0
ENDSEC
  0
SECTION
  2
CLASSES
  0
CLASS
  1
ACDBDICTIONARYWDFLT
  2
AcDbDictionaryWithDefault
  3
ObjectDBX Classes
 90
        0
 91
        1
280
     0
281
     0
  0
CLASS
  1
AMGSETTINGSOBJ
  2
AmgSettingsObj
  3
"AcadM|Product Description: AutoCAD Mechanical|Company: Autodesk, Inc."
 90
     1024
 91
        2
280
     0
281
     0
  0
CLASS
  1
ACME_DOCUMENT
  2
AcMeDbDoc
  3
AcMeServices
 90
     1024
 91
        1
280
     0
281
     0
  0
CLASS
  1
ACMESCOPE
  2
AcMeScope
  3
AcMeServices
 90
     1024
 91
        1
280
     0
281
     0
  0
CLASS
  1
ACMECOMMANDHISTORY
  2
AcMeCommandHistory
  3
AcMeServices
 90
     1024
 91
        1
280
     0
281
     0
  0
CLASS
  1
DICTIONARYVAR
  2
AcDbDictionaryVar
  3
ObjectDBX Classes
 90
        0
 91
        9
280
     0
281
     0
  0
CLASS
  1
ACIMSYSVARMAN
  2
AcImSysVarManager
  3
AcMeServices
 90
     1024
 91
        5
280
     0
281
     0
  0
CLASS
  1
ACIMREALSYSVAR
  2
AcImRealSysVar
  3
AcMeServices
 90
     1024
 91
        1
280
     0
281
     0
  0
CLASS
  1
ACIMINTSYSVAR
  2
AcImIntSysVar
  3
AcMeServices
 90
     1024
 91
       27
280
     0
281
     0
  0
CLASS
  1
ACMEDRAWINGMAN
  2
AcMeDrawingMan
  3
AcMeServices
 90
     1024
 91
        1
280
     0
281
     0
  0
CLASS
  1
ACMEVIEW
  2
AcMeView
  3
AcMeServices
 90
     1024
 91
        1
280
     0
281
     0
  0
CLASS
  1
ACDBENTITYCACHE
  2
AcMeEntityCache
  3
AcMeServices
 90
     1024
 91
        1
280
     0
281
     0
  0
CLASS
  1
GSMANAGER
  2
AcMeGSManager
  3
AcMeServices
 90
     1024
 91
        1
280
     0
281
     0
  0
CLASS
  1
AMDTINTERNALREACTOR
  2
AmdtInternalReactor
  3
AcMeServices
 90
     1024
 91
        2
280
     0
281
     0
  0
CLASS
  1
ACMESTATEMGR
  2
AcMeStateMgr
  3
AcMeServices
 90
     1024
 91
        1
280
     0
281
     0
  0
CLASS
  1
ACGREFMASTER
  2
AcGrefMaster
  3
AcAttribServices
 90
     1024
 91
        1
280
     0
281
     0
  0
CLASS
  1
ACME_DATABASE
  2
AcMeDbDatabase
  3
AcMeServices
 90
     1024
 91
        1
280
     0
281
     0
  0
CLASS
  1
ACRFINSADJUSTERMGR
  2
AcRfInsAdjusterMgr
  3
AcMeServices
 90
     1024
 91
        1
280
     0
281
     0
  0
CLASS
  1
ACGREFACADMASTER
  2
AcGrefacadMaster
  3
AcGrefServices
 90
     1024
 91
        1
280
     0
281
     0
  0
CLASS
  1
AMIMASTER
  2
AmiMaster
  3
AmiServices
 90
     1024
 91
        1
280
     0
281
     0
  0
CLASS
  1
ACIMSTRSYSVAR
  2
AcImStrSysVar
  3
AcMeServices
 90
     1024
 91
        5
280
     0
281
     0
  0
CLASS
  1
ACMSTANDARDJIS
  2
AcmStandardJIS
  3
"Amdt_StdImp|Product Description: AutoCAD Mechanical|Company: Autodesk, Inc."
 90
     1024
 91
        0
280
     0
281
     0
  0
CLASS
  1
AMGOBJPROPCFG
  2
AmgObjPropCfg
  3
"AmgLay|Product Description: AutoCAD Mechanical|Company: Autodesk, Inc."
 90
     1025
 91
        1
280
     0
281
     0
  0
CLASS
  1
ACMSURFSTANDARDJIS
  2
AcmSurfTextStdJIS
  3
"Amdt_StdImp|Product Description: AutoCAD Mechanical|Company: Autodesk, Inc."
 90
     1024
 91
        0
280
     0
281
     0
  0
CLASS
  1
ACMFCFSTANDARDJIS
  2
AcmFCFStdJIS
  3
"Amdt_StdImp|Product Description: AutoCAD Mechanical|Company: Autodesk, Inc."
 90
     1024
 91
        0
280
     0
281
     0
  0
CLASS
  1
ACMWELDSTANDARDJIS
  2
AcmWeldingStdJIS
  3
"Amdt_StdImp|Product Description: AutoCAD Mechanical|Company: Autodesk, Inc."
 90
     1024
 91
        0
280
     0
281
     0
  0
CLASS
  1
ACMIDSTANDARDJIS
  2
AcmIdStdJIS
  3
"Amdt_StdImp|Product Description: AutoCAD Mechanical|Company: Autodesk, Inc."
 90
     1024
 91
        0
280
     0
281
     0
  0
CLASS
  1
ACMDATUMSTANDARDJIS
  2
AcmDatumStdJIS
  3
"Amdt_StdImp|Product Description: AutoCAD Mechanical|Company: Autodesk, Inc."
 90
     1024
 91
        0
280
     0
281
     0
  0
CLASS
  1
ACMBOMSTANDARDJIS
  2
AcmBOMStdJIS
  3
"Amdt_StdImp|Product Description: AutoCAD Mechanical|Company: Autodesk, Inc."
 90
     1024
 91
        0
280
     0
281
     0
  0
CLASS
  1
ACMDETAILSTANDARDJIS
  2
AmdtDetailSymStdJIS
  3
"Amdt_StdImp|Product Description: AutoCAD Mechanical|Company: Autodesk, Inc."
 90
     1024
 91
        0
280
     0
281
     0
  0
CLASS
  1
ACMSECTIONSTANDARDJIS
  2
AmdtSectionSymStdJIS
  3
"Amdt_StdImp|Product Description: AutoCAD Mechanical|Company: Autodesk, Inc."
 90
     1024
 91
        0
280
     0
281
     0
  0
CLASS
  1
ACMCENTERLINESTANDARDJIS
  2
AmdtCenterLineStdJIS
  3
"Amdt_StdImp|Product Description: AutoCAD Mechanical|Company: Autodesk, Inc."
 90
     1024
 91
        0
280
     0
281
     0
  0
CLASS
  1
ACMTHREADLINESTANDARDJIS
  2
AmdtThreadLineStdJIS
  3
"Amdt_StdImp|Product Description: AutoCAD Mechanical|Company: Autodesk, Inc."
 90
     1024
 91
        0
280
     0
281
     0
  0
CLASS
  1
ACAMGLAYSTD
  2
AcAmgLayStd
  3
"AmgLay|Product Description: AutoCAD Mechanical|Company: Autodesk, Inc."
 90
     1024
 91
        1
280
     0
281
     0
  0
CLASS
  1
ACAMGDIMSTD
  2
AcAmgDimStd
  3
"AmgDim|Product Description: AutoCAD Mechanical|Company: Autodesk, Inc."
 90
     1024
 91
        1
280
     0
281
     0
  0
CLASS
  1
ACAMGTITLESTD
  2
AcAmgTitleStd
  3
"AmgTitle|Product Description: AutoCAD Mechanical|Company: Autodesk, Inc."
 90
     4095
 91
        1
280
     0
281
     0
  0
CLASS
  1
ACMDATADICTIONARY
  2
AcmDataDictionary
  3
"AcmSymBB|Product Description: AutoCAD Mechanical|Company: Autodesk, Inc."
 90
     1024
 91
        1
280
     0
281
     0
  0
CLASS
  1
ACMDATAENTRYBLOCK
  2
AcmDataEntryBlock
  3
AcmSymBB|Product Description: AutoCAD Mechanical|Company: Autodesk, Inc.
 90
     1024
 91
        0
280
     0
281
     0
  0
CLASS
  1
LAYER_INDEX
  2
AcDbLayerIndex
  3
ObjectDBX Classes
 90
        0
 91
        0
280
     0
281
     0
  0
CLASS
  1
IDBUFFER
  2
AcDbIdBuffer
  3
ObjectDBX Classes
 90
        0
 91
        0
280
     0
281
     0
  0
CLASS
  1
ACMNOTESTANDARDJIS
  2
AmdtNoteStdJIS
  3
"Amdt_StdImp|Product Description: AutoCAD Mechanical|Company: Autodesk, Inc."
 90
     1024
 91
        0
280
     0
281
     0
  0
CLASS
  1
ACAMGHOLECHARTSTDJIS
  2
AcAmgHoleChartStdJIS
  3
AmgDim|Product Description: AutoCAD Mechanical|Company: Autodesk, Inc.
 90
     1024
 91
        0
280
     0
281
     0
  0
CLASS
  1
AM_DRAWING_MGR
  2
AcDmDwgMgr
  3
AcMechDwgViewMgmt
 90
     1024
 91
        1
280
     0
281
     0
  0
CLASS
  1
AM_DWG_DOCUMENT
  2
AcDmDwgDocument
  3
AcMechDwgViewMgmt
 90
     1024
 91
        1
280
     0
281
     0
  0
CLASS
  1
AM_DWG_SHEET
  2
AcDmSheet
  3
AcMechDwgViewMgmt
 90
     1024
 91
        2
280
     0
281
     0
  0
CLASS
  1
AM_VIEWDIMPARMAP
  2
AcDmViewDimParMap
  3
AcMechDwgViewMgmt
 90
     1024
 91
        2
280
     0
281
     0
  0
CLASS
  1
AM_DWGMGR_NAME
  2
AcDmDwgMgrName
  3
AcMechDwgViewMgmt
 90
     1024
 91
        1
280
     0
281
     0
  0
CLASS
  1
AMDTMENUSTATEMGR
  2
AmdtMenuStateMgr
  3
McadcomServices
 90
     1024
 91
        1
280
     0
281
     0
  0
CLASS
  1
AMDTMCOMMENUSTATE
  2
AmdtMcomMenuState
  3
McadcomServices
 90
     1024
 91
        1
280
     0
281
     0
  0
CLASS
  1
MAPIAMMOUDLE
  2
MApiAmModule
  3
MApiAmServices
 90
     1024
 91
        1
280
     0
281
     0
  0
CLASS
  1
AMDTADMENUSTATE
  2
AmdtAdMenuState
  3
DesignerServices
 90
     1024
 91
        1
280
     0
281
     0
  0
CLASS
  1
ADAPPL
  2
AcAdAppl
  3
DesignerServices
 90
     1024
 91
        1
280
     0
281
     0
  0
CLASS
  1
DEPMGR
  2
AcAdDepMgr
  3
DesignerServices
 90
     1024
 91
        1
280
     0
281
     0
  0
CLASS
  1
PARAMMGR
  2
AcAdParamMgr
  3
DesignerServices
 90
     1024
 91
        1
280
     0
281
     0
  0
CLASS
  1
PARAMSCOPE
  2
AcAdParamScope
  3
DesignerServices
 90
     1024
 91
        1
280
     0
281
     0
  0
CLASS
  1
NAMEDAPPL
  2
AcAdNamedAppl
  3
DesignerServices
 90
     1024
 91
        1
280
     0
281
     0
  0
CLASS
  1
AMDTDMMENUSTATE
  2
AmdtDmMenuState
  3
AcMechDwgViewMgmt
 90
     1024
 91
        1
280
     0
281
     0
  0
CLASS
  1
AMDTAMMENUSTATE
  2
AmdtAmMenuState
  3
DesignerAssemblies
 90
     1024
 91
        1
280
     0
281
     0
  0
CLASS
  1
ACAMPROJECT
  2
AcAmProject
  3
DesignerAssemblies
 90
     1024
 91
        1
280
     0
281
     0
  0
CLASS
  1
ACAMGRCOMPDEF
  2
AcAmGrCompDef
  3
DesignerAssemblies
 90
     1024
 91
        1
280
     0
281
     0
  0
CLASS
  1
ACCMCONTEXT
  2
AcCmContext
  3
DesignerAssemblies
 90
     1024
 91
        1
280
     0
281
     0
  0
CLASS
  1
ACAMCOMPDEF
  2
AcAmCompDef
  3
DesignerAssemblies
 90
     1024
 91
        1
280
     0
281
     0
  0
CLASS
  1
ACAMCOMPDEFMGR
  2
AcAmCompDefMgr
  3
DesignerAssemblies
 90
     1024
 91
        1
280
     0
281
     0
  0
CLASS
  1
AMCONTEXTMGR
  2
AcAmContextMgr
  3
DesignerAssemblies
 90
     1024
 91
        1
280
     0
281
     0
  0
CLASS
  1
ACAMCONTEXTMODELER
  2
AcAmContextModeler
  3
DesignerAssemblies
 90
     1024
 91
        1
280
     0
281
     0
  0
CLASS
  1
CATALOGSTATE
  2
AcAmCatalogState
  3
DesignerAssemblies
 90
     1024
 91
        1
280
     0
281
     0
  0
CLASS
  1
ACAMGRCOMPDEFSET
  2
AcAmGrCompDefSet
  3
DesignerAssemblies
 90
     1024
 91
        1
280
     0
281
     0
  0
CLASS
  1
AMDTBROWSERDBTAB
  2
AmdtBrowserDbTab
  3
McadcomServices
 90
     1024
 91
        1
280
     0
281
     0
  0
CLASS
  1
CBROWSERAPPOBJECT
  2
CBrowserAppObject
  3
McadcomServices
 90
     1024
 91
        3
280
     0
281
     0
  0
CLASS
  1
DM_PLACEHOLDER
  2
AcDmSelsetPlaceholder
  3
AcMechDwgViewMgmt
 90
     1024
 91
        1
280
     0
281
     0
  0
CLASS
  1
TABLESTYLE
  2
AcDbTableStyle
  3
ObjectDBX Classes
 90
     4095
 91
        1
280
     0
281
     0
  0
CLASS
  1
VAACXREFPANELOBJECT
  2
VaAcXREFPanelObject
  3
VAAC_ADDIN
 90
        0
 91
        0
280
     0
281
     0
  0
CLASS
  1
VAACIMAGEINVENTORY
  2
VaAcImageInventory
  3
VAAC_ADDIN
 90
        0
 91
        0
280
     0
281
     0
  0
CLASS
  1
AMDTNOTETEMPLATEDB
  2
AmdtNoteTemplateDB
  3
AcmSymBB|Product Description: AutoCAD Mechanical|Company: Autodesk, Inc.
 90
     1024
 91
        6
280
     0
281
     0
  0
CLASS
  1
ACAMGFILTERDAT
  2
AcAmgFilterDat
  3
"AcadM|Product Description: AutoCAD Mechanical|Company: Autodesk, Inc."
 90
     1024
 91
        0
280
     0
281
     0
  0
CLASS
  1
MATERIAL
  2
AcDbMaterial
  3
ObjectDBX Classes
 90
     1153
 91
        3
280
     0
281
     0
  0
CLASS
  1
VISUALSTYLE
  2
AcDbVisualStyle
  3
ObjectDBX Classes
 90
     4095
 91
       16
280
     0
281
     0
  0
CLASS
  1
ACRFATTGENMGR
  2
AcRfAttGeneralMgr
  3
AcAttribServices
 90
     1024
 91
        0
280
     0
281
     0
  0
CLASS
  1
ACRFOBJATTMGR
  2
AcRfObjAttGroupMgr
  3
AcAttribServices
 90
     1024
 91
        0
280
     0
281
     0
  0
CLASS
  1
ACRFMCADAPIATTHOLDER
  2
AcRfMCADAPIAttHolder
  3
AcAttribServices
 90
     1024
 91
        0
280
     0
281
     0
  0
CLASS
  1
AMDTSYSATTR
  2
AmdtSystemAttribute
  3
AcAttribServices
 90
     1024
 91
        0
280
     0
281
     0
  0
CLASS
  1
ACMTAPERSTANDARDJIS
  2
AcmTaperStdJIS
  3
"Amdt_StdImp|Product Description: AutoCAD Mechanical|Company: Autodesk, Inc."
 90
     1024
 91
        0
280
     0
281
     0
  0
CLASS
  1
CAMSSTRUCTBTNSTATE
  2
StructBtnState
  3
DesignerAssemblies
 90
     1024
 91
        0
280
     0
281
     0
  0
CLASS
  1
SCALE
  2
AcDbScale
  3
ObjectDBX Classes
 90
     1153
 91
       37
280
     0
281
     0
  0
CLASS
  1
MLEADERSTYLE
  2
AcDbMLeaderStyle
  3
ACDB_MLEADERSTYLE_CLASS
 90
     4095
 91
        1
280
     0
281
     0
  0
CLASS
  1
ACMANOOTATIONVIEWSTANDARDJIS
  2
AmdtAnViewStdJIS
  3
"Amdt_StdImp|Product Description: AutoCAD Mechanical|Company: Autodesk, Inc."
 90
     1024
 91
        0
280
     0
281
     0
  0
CLASS
  1
ACMSURFSTANDARDJIS2003
  2
AcmSurfTextStdJIS2003
  3
"Amdt_StdImp|Product Description: AutoCAD Mechanical|Company: Autodesk, Inc."
 90
     1024
 91
        0
280
     0
281
     0
  0
CLASS
  1
CELLSTYLEMAP
  2
AcDbCellStyleMap
  3
ObjectDBX Classes
 90
     1152
 91
        2
280
     0
281
     0
  0
CLASS
  1
ACMFCFSTANDARDJIS98
  2
AcmFCFStdJIS98
  3
"Amdt_StdImp|Product Description: AutoCAD Mechanical|Company: Autodesk, Inc."
 90
     1024
 91
        0
280
     0
281
     0
  0
CLASS
  1
SORTENTSTABLE
  2
AcDbSortentsTable
  3
ObjectDBX Classes
 90
        0
 91
       14
280
     0
281
     0
  0
CLASS
  1
DIMASSOC
  2
AcDbDimAssoc
  3
"AcDbDimAssoc|Product Desc:     AcDim ARX App For Dimension|Company:          Autodesk, Inc.|WEB Address:      www.autodesk.com"
 90
        0
 91
       15
280
     0
281
     0
  0
CLASS
  1
STDPART2D
  2
AmgStdPart
  3
AmgStdPart|Product Description: AutoCAD Mechanical|Company: Autodesk, Inc.
 90
     4095
 91
        0
280
     0
281
     1
  0
CLASS
  1
ACMDATAENTRYPART
  2
AcmDataEntryPart
  3
AcmSymBB|Product Description: AutoCAD Mechanical|Company: Autodesk, Inc.
 90
     1024
 91
        0
280
     0
281
     0
  0
CLASS
  1
ACMPARTREF
  2
AcmPartRef
  3
"AcmSymBB|Product Description: AutoCAD Mechanical|Company: Autodesk, Inc."
 90
     4095
 91
        0
280
     0
281
     1
  0
CLASS
  1
ACDBSTDPARTRES_LINE
  2
AcDbStdPartRes_Line
  3
AmgStdPart|Product Description: AutoCAD Mechanical|Company: Autodesk, Inc.
 90
     1024
 91
        0
280
     0
281
     0
  0
CLASS
  1
ACMBOM
  2
AcmBom
  3
"AcmSymBB|Product Description: AutoCAD Mechanical|Company: Autodesk, Inc."
 90
     1024
 91
        0
280
     0
281
     0
  0
CLASS
  1
AMDTFORMULAUPDATEDISPATCHER
  2
AmdtFormulaUpdateDispatcher
  3
AcMeServices
 90
     1024
 91
        0
280
     0
281
     0
  0
CLASS
  1
ACMBOMROW
  2
AcmBomRow
  3
"AcmSymBB|Product Description: AutoCAD Mechanical|Company: Autodesk, Inc."
 90
     1024
 91
        0
280
     0
281
     0
  0
CLASS
  1
ACMPARTLIST
  2
AcmPartList
  3
"AcmSymBB|Product Description: AutoCAD Mechanical|Company: Autodesk, Inc."
 90
     4095
 91
        0
280
     0
281
     1
  0
CLASS
  1
ACDBLINERES
  2
AcDbLineRes
  3
AcGrefServices
 90
     1024
 91
        0
280
     0
281
     0
  0
CLASS
  1
ACRFINSADJ
  2
AcRfInsAdjuster
  3
AcMeServices
 90
     1024
 91
        0
280
     0
281
     0
  0
CLASS
  1
ACMSTANDARDISO
  2
AcmStandardISO
  3
"Amdt_StdImp|Product Description: AutoCAD Mechanical|Company: Autodesk, Inc."
 90
     1024
 91
        1
280
     0
281
     0
  0
CLASS
  1
AMDTEDGESTANDARDISO13715
  2
AmdtEdgeStdISO13715
  3
"Amdt_StdImp|Product Description: AutoCAD Mechanical|Company: Autodesk, Inc."
 90
     1024
 91
        1
280
     0
281
     0
  0
CLASS
  1
ACMSURFSTANDARDISO2002
  2
AcmSurfTextStdISO2002
  3
"Amdt_StdImp|Product Description: AutoCAD Mechanical|Company: Autodesk, Inc."
 90
     1024
 91
        1
280
     0
281
     0
  0
CLASS
  1
ACMFCFSTANDARDISO
  2
AcmFCFStdISO
  3
"Amdt_StdImp|Product Description: AutoCAD Mechanical|Company: Autodesk, Inc."
 90
     1024
 91
        1
280
     0
281
     0
  0
CLASS
  1
ACMWELDSTANDARDISO
  2
AcmWeldingStdISO
  3
"Amdt_StdImp|Product Description: AutoCAD Mechanical|Company: Autodesk, Inc."
 90
     1024
 91
        1
280
     0
281
     0
  0
CLASS
  1
ACMIDSTANDARDISO
  2
AcmIdStdISO
  3
"Amdt_StdImp|Product Description: AutoCAD Mechanical|Company: Autodesk, Inc."
 90
     1024
 91
        1
280
     0
281
     0
  0
CLASS
  1
ACMDATUMSTANDARDISO
  2
AcmDatumStdISO
  3
"Amdt_StdImp|Product Description: AutoCAD Mechanical|Company: Autodesk, Inc."
 90
     1024
 91
        1
280
     0
281
     0
  0
CLASS
  1
ACMBOMSTANDARDISO
  2
AcmBOMStdISO
  3
"Amdt_StdImp|Product Description: AutoCAD Mechanical|Company: Autodesk, Inc."
 90
     1024
 91
        1
280
     0
281
     0
  0
CLASS
  1
ACMDETAILSTANDARDISO
  2
AmdtDetailSymStdISO
  3
"Amdt_StdImp|Product Description: AutoCAD Mechanical|Company: Autodesk, Inc."
 90
     1024
 91
        1
280
     0
281
     0
  0
CLASS
  1
ACMSECTIONSTANDARDISO2001
  2
AmdtSectionSymStdISO2001
  3
"Amdt_StdImp|Product Description: AutoCAD Mechanical|Company: Autodesk, Inc."
 90
     1024
 91
        1
280
     0
281
     0
  0
CLASS
  1
ACMCENTERLINESTANDARDISO
  2
AmdtCenterLineStdISO
  3
"Amdt_StdImp|Product Description: AutoCAD Mechanical|Company: Autodesk, Inc."
 90
     1024
 91
        1
280
     0
281
     0
  0
CLASS
  1
ACMTHREADLINESTANDARDISO
  2
AmdtThreadLineStdISO
  3
"Amdt_StdImp|Product Description: AutoCAD Mechanical|Company: Autodesk, Inc."
 90
     1024
 91
        1
280
     0
281
     0
  0
CLASS
  1
ACMNOTESTANDARDISO
  2
AmdtNoteStdISO
  3
"Amdt_StdImp|Product Description: AutoCAD Mechanical|Company: Autodesk, Inc."
 90
     1024
 91
        1
280
     0
281
     0
  0
CLASS
  1
ACMTAPERSTANDARDISO
  2
AcmTaperStdISO
  3
"Amdt_StdImp|Product Description: AutoCAD Mechanical|Company: Autodesk, Inc."
 90
     1024
 91
        1
280
     0
281
     0
  0
CLASS
  1
ACMANOOTATIONVIEWSTANDARDISO
  2
AmdtAnViewStdISO
  3
"Amdt_StdImp|Product Description: AutoCAD Mechanical|Company: Autodesk, Inc."
 90
     1024
 91
        1
280
     0
281
     0
  0
CLASS
  1
ACAMGHOLECHARTSTDISO
  2
AcAmgHoleChartStdISO
  3
AmgDim|Product Description: AutoCAD Mechanical|Company: Autodesk, Inc.
 90
     1024
 91
        1
280
     0
281
     0
  0
CLASS
  1
EXACXREFPANELOBJECT
  2
ExAcXREFPanelObject
  3
EXAC_ESW
 90
     1025
 91
        0
280
     0
281
     0
  0
CLASS
  1
NPOCOLLECTION
  2
AcDbImpNonPersistentObjectsCollection
  3
ObjectDBX Classes
 90
     1153
 91
        0
280
     0
281
     0
  0
CLASS
  1
ACDBSTDPARTRES_ARC
  2
AcDbStdPartRes_Arc
  3
AmgStdPart|Product Description: AutoCAD Mechanical|Company: Autodesk, Inc.
 90
     1024
 91
        0
280
     0
281
     0
  0
CLASS
  1
AMDTNOTE
  2
AmdtNote
  3
"AcmSymBB|Product Description: AutoCAD Mechanical|Company: Autodesk, Inc."
 90
     4095
 91
        0
280
     0
281
     1
  0
CLASS
  1
PLOTSETTINGS
  2
AcDbPlotSettings
  3
ObjectDBX Classes
 90
        0
 91
        1
280
     0
281
     0
  0
CLASS
  1
ACMSTANDARDANSI
  2
AcmStandardANSI
  3
"Amdt_StdImp|Product Description: AutoCAD Mechanical|Company: Autodesk, Inc."
 90
     1024
 91
        0
280
     0
281
     0
  0
CLASS
  1
ACMSURFSTANDARDANSI
  2
AcmSurfTextStdANSI
  3
"Amdt_StdImp|Product Description: AutoCAD Mechanical|Company: Autodesk, Inc."
 90
     1024
 91
        0
280
     0
281
     0
  0
CLASS
  1
ACMFCFSTANDARDANSI
  2
AcmFCFStdANSI
  3
"Amdt_StdImp|Product Description: AutoCAD Mechanical|Company: Autodesk, Inc."
 90
     1024
 91
        0
280
     0
281
     0
  0
CLASS
  1
ACMWELDSTANDARDANSI
  2
AcmWeldingStdANSI
  3
"Amdt_StdImp|Product Description: AutoCAD Mechanical|Company: Autodesk, Inc."
 90
     1024
 91
        0
280
     0
281
     0
  0
CLASS
  1
ACMIDSTANDARDANSI
  2
AcmIdStdANSI
  3
"Amdt_StdImp|Product Description: AutoCAD Mechanical|Company: Autodesk, Inc."
 90
     1024
 91
        0
280
     0
281
     0
  0
CLASS
  1
ACMDATUMSTANDARDANSI
  2
AcmDatumStdANSI
  3
"Amdt_StdImp|Product Description: AutoCAD Mechanical|Company: Autodesk, Inc."
 90
     1024
 91
        0
280
     0
281
     0
  0
CLASS
  1
ACMBOMSTANDARDANSI
  2
AcmBOMStdANSI
  3
"Amdt_StdImp|Product Description: AutoCAD Mechanical|Company: Autodesk, Inc."
 90
     1024
 91
        0
280
     0
281
     0
  0
CLASS
  1
ACMDETAILSTANDARDANSI
  2
AmdtDetailSymStdANSI
  3
"Amdt_StdImp|Product Description: AutoCAD Mechanical|Company: Autodesk, Inc."
 90
     1024
 91
        0
280
     0
281
     0
  0
CLASS
  1
ACMSECTIONSTANDARDANSI
  2
AmdtSectionSymStdANSI
  3
"Amdt_StdImp|Product Description: AutoCAD Mechanical|Company: Autodesk, Inc."
 90
     1024
 91
        0
280
     0
281
     0
  0
CLASS
  1
ACMCENTERLINESTANDARDANSI
  2
AmdtCenterLineStdANSI
  3
"Amdt_StdImp|Product Description: AutoCAD Mechanical|Company: Autodesk, Inc."
 90
     1024
 91
        0
280
     0
281
     0
  0
CLASS
  1
ACMTHREADLINESTANDARDANSI
  2
AmdtThreadLineStdANSI
  3
"Amdt_StdImp|Product Description: AutoCAD Mechanical|Company: Autodesk, Inc."
 90
     1024
 91
        0
280
     0
281
     0
  0
CLASS
  1
ACMNOTESTANDARDANSI
  2
AmdtNoteStdANSI
  3
"Amdt_StdImp|Product Description: AutoCAD Mechanical|Company: Autodesk, Inc."
 90
     1024
 91
        0
280
     0
281
     0
  0
CLASS
  1
ACMTAPERSTANDARDANSI
  2
AcmTaperStdANSI
  3
"Amdt_StdImp|Product Description: AutoCAD Mechanical|Company: Autodesk, Inc."
 90
     1024
 91
        0
280
     0
281
     0
  0
CLASS
  1
ACMANOOTATIONVIEWSTANDARDANSI
  2
AmdtAnViewStdANSI
  3
"Amdt_StdImp|Product Description: AutoCAD Mechanical|Company: Autodesk, Inc."
 90
     1024
 91
        0
280
     0
281
     0
  0
CLASS
  1
ACAMGHOLECHARTSTDANSI
  2
AcAmgHoleChartStdANSI
  3
AmgDim|Product Description: AutoCAD Mechanical|Company: Autodesk, Inc.
 90
     1024
 91
        0
280
     0
281
     0
  0
CLASS
  1
ACMSTANDARDBSI
  2
AcmStandardBSI
  3
"Amdt_StdImp|Product Description: AutoCAD Mechanical|Company: Autodesk, Inc."
 90
     1024
 91
        0
280
     0
281
     0
  0
CLASS
  1
ACMSURFSTANDARDBSI2002
  2
AcmSurfTextStdBSI2002
  3
"Amdt_StdImp|Product Description: AutoCAD Mechanical|Company: Autodesk, Inc."
 90
     1024
 91
        0
280
     0
281
     0
  0
CLASS
  1
ACMFCFSTANDARDBSI
  2
AcmFCFStdBSI
  3
"Amdt_StdImp|Product Description: AutoCAD Mechanical|Company: Autodesk, Inc."
 90
     1024
 91
        0
280
     0
281
     0
  0
CLASS
  1
ACMWELDSTANDARDBSI
  2
AcmWeldingStdBSI
  3
"Amdt_StdImp|Product Description: AutoCAD Mechanical|Company: Autodesk, Inc."
 90
     1024
 91
        0
280
     0
281
     0
  0
CLASS
  1
ACMIDSTANDARDBSI
  2
AcmIdStdBSI
  3
"Amdt_StdImp|Product Description: AutoCAD Mechanical|Company: Autodesk, Inc."
 90
     1024
 91
        0
280
     0
281
     0
  0
CLASS
  1
ACMDATUMSTANDARDBSI
  2
AcmDatumStdBSI
  3
"Amdt_StdImp|Product Description: AutoCAD Mechanical|Company: Autodesk, Inc."
 90
     1024
 91
        0
280
     0
281
     0
  0
CLASS
  1
ACMBOMSTANDARDBSI
  2
AcmBOMStdBSI
  3
"Amdt_StdImp|Product Description: AutoCAD Mechanical|Company: Autodesk, Inc."
 90
     1024
 91
        0
280
     0
281
     0
  0
CLASS
  1
ACMDETAILSTANDARDBSI
  2
AmdtDetailSymStdBSI
  3
"Amdt_StdImp|Product Description: AutoCAD Mechanical|Company: Autodesk, Inc."
 90
     1024
 91
        0
280
     0
281
     0
  0
CLASS
  1
ACMSECTIONSTANDARDBSI2001
  2
AmdtSectionSymStdBSI2001
  3
"Amdt_StdImp|Product Description: AutoCAD Mechanical|Company: Autodesk, Inc."
 90
     1024
 91
        0
280
     0
281
     0
  0
CLASS
  1
ACMCENTERLINESTANDARDBSI
  2
AmdtCenterLineStdBSI
  3
"Amdt_StdImp|Product Description: AutoCAD Mechanical|Company: Autodesk, Inc."
 90
     1024
 91
        0
280
     0
281
     0
  0
CLASS
  1
ACMTHREADLINESTANDARDBSI
  2
AmdtThreadLineStdBSI
  3
"Amdt_StdImp|Product Description: AutoCAD Mechanical|Company: Autodesk, Inc."
 90
     1024
 91
        0
280
     0
281
     0
  0
CLASS
  1
ACMNOTESTANDARDBSI
  2
AmdtNoteStdBSI
  3
"Amdt_StdImp|Product Description: AutoCAD Mechanical|Company: Autodesk, Inc."
 90
     1024
 91
        0
280
     0
281
     0
  0
CLASS
  1
ACMTAPERSTANDARDBSI
  2
AcmTaperStdBSI
  3
"Amdt_StdImp|Product Description: AutoCAD Mechanical|Company: Autodesk, Inc."
 90
     1024
 91
        0
280
     0
281
     0
  0
CLASS
  1
ACMANOOTATIONVIEWSTANDARDBSI
  2
AmdtAnViewStdBSI
  3
"Amdt_StdImp|Product Description: AutoCAD Mechanical|Company: Autodesk, Inc."
 90
     1024
 91
        0
280
     0
281
     0
  0
CLASS
  1
ACAMGHOLECHARTSTDBSI
  2
AcAmgHoleChartStdBSI
  3
AmgDim|Product Description: AutoCAD Mechanical|Company: Autodesk, Inc.
 90
     1024
 91
        0
280
     0
281
     0
  0
CLASS
  1
AMDTEDGESTANDARDJIS
  2
AmdtEdgeStdJIS
  3
"Amdt_StdImp|Product Description: AutoCAD Mechanical|Company: Autodesk, Inc."
 90
     1024
 91
        0
280
     0
281
     0
  0
CLASS
  1
ACDB_BLKREFOBJECTCONTEXTDATA_CLASS
  2
AcDbBlkRefObjectContextData
  3
ObjectDBX Classes
 90
     1153
 91
        0
280
     0
281
     0
  0
CLASS
  1
ACMSURFSYM
  2
AcmSurfaceTexture
  3
"AcmSymBB|Product Description: AutoCAD Mechanical|Company: Autodesk, Inc."
 90
     4095
 91
        0
280
     0
281
     1
  0
CLASS
  1
ACDBDIMENSIONRES
  2
AcDbDimensionRes
  3
AcmSymBB|Product Description: AutoCAD Mechanical|Company: Autodesk, Inc.
 90
     1024
 91
        0
280
     0
281
     0
  0
CLASS
  1
ACDBCIRCARCRES
  2
AcDbCircArcRes
  3
AcGrefServices
 90
     1024
 91
        0
280
     0
281
     0
  0
CLASS
  1
AMDTACMWBLOCKBOMENTITY
  2
AmdtAcmWblockBomEntity
  3
"AcmSymBB|Product Description: AutoCAD Mechanical|Company: Autodesk, Inc."
 90
     4095
 91
        0
280
     0
281
     1
  0
CLASS
  1
ACDBOPPOLYLINERES
  2
AcDbOpPolylineRes
  3
AcGrefServices
 90
     1024
 91
        0
280
     0
281
     0
  0
CLASS
  1
ACMPICKOBJ
  2
AcmPickEnt
  3
"AcmSymBB|Product Description: AutoCAD Mechanical|Company: Autodesk, Inc."
 90
     1024
 91
        0
280
     0
281
     1
  0
CLASS
  1
ACMBALLOON
  2
AcmBalloon
  3
"AcmSymBB|Product Description: AutoCAD Mechanical|Company: Autodesk, Inc."
 90
     4095
 91
        0
280
     0
281
     1
  0
CLASS
  1
ACMDATUMID
  2
AcmDatumId
  3
"AcmSymBB|Product Description: AutoCAD Mechanical|Company: Autodesk, Inc."
 90
     4095
 91
        0
280
     0
281
     1
  0
CLASS
  1
ACMDIMBREAKPERSREACTOR
  2
AcmDimBreakPersReactor
  3
AmgDim|Product Description: AutoCAD Mechanical|Company: Autodesk, Inc.
 90
     4095
 91
        0
280
     0
281
     0
  0
ENDSEC
  0
SECTION
  2
TABLES
  0
TABLE
  2
VPORT
  5
8
330
0
100
AcDbSymbolTable
 70
     1
  0
VPORT
  5
27A
330
8
100
AcDbSymbolTableRecord
100
AcDbViewportTableRecord
  2
*Active
 70
     0
 10
0.0
 20
0.0
 11
1.0
 21
1.0
 12
1563.972371944613
 22
1240.066550350803
 13
0.0
 23
0.0
 14
15.0
 24
15.0
 15
60.0
 25
60.0
 16
0.0
 26
0.0
 36
1.0
 17
0.0
 27
0.0
 37
0.0
 40
1045.492377782004
 41
1.571428571428571
 42
50.0
 43
0.0
 44
0.0
 50
0.0
 51
0.0
 71
     0
 72
 20000
 73
     1
 74
     3
 75
     0
 76
     0
 77
     0
 78
     0
281
     0
 65
     0
110
0.0
120
0.0
130
0.0
111
1.0
121
0.0
131
0.0
112
0.0
122
1.0
132
0.0
 79
     0
146
0.0
348
285
 60
     3
 61
     5
292
     1
282
     0
141
0.0
142
0.0
 63
   250
421
  3355443
  0
ENDTAB
  0
TABLE
  2
LTYPE
  5
5
330
0
100
AcDbSymbolTable
 70
    22
  0
LTYPE
  5
14
330
5
100
AcDbSymbolTableRecord
100
AcDbLinetypeTableRecord
  2
ByBlock
 70
     0
  3

 72
    65
 73
     0
 40
0.0
  0
LTYPE
  5
15
330
5
100
AcDbSymbolTableRecord
100
AcDbLinetypeTableRecord
  2
ByLayer
 70
     0
  3

 72
    65
 73
     0
 40
0.0
  0
LTYPE
  5
16
330
5
100
AcDbSymbolTableRecord
100
AcDbLinetypeTableRecord
  2
Continuous
 70
     0
  3
Solid line
 72
    65
 73
     0
 40
0.0
  0
LTYPE
  5
4D
330
5
100
AcDbSymbolTableRecord
100
AcDbLinetypeTableRecord
  2
AM_ISO02W050
 70
     0
  3
__ __ __ __ __ __ __ __ __ __ __ __ __ __ __
 72
    65
 73
     2
 40
7.5
 49
6.0
 74
     0
 49
-1.5
 74
     0
  0
LTYPE
  5
4E
330
5
100
AcDbSymbolTableRecord
100
AcDbLinetypeTableRecord
  2
AM_ISO08W050
 70
     0
  3
____ . ____ . ____ . ____ . ____ . ____ . ____
 72
    65
 73
     4
 40
18.0
 49
12.0
 74
     0
 49
-1.5
 74
     0
 49
3.0
 74
     0
 49
-1.5
 74
     0
  0
LTYPE
  5
4F
330
5
100
AcDbSymbolTableRecord
100
AcDbLinetypeTableRecord
  2
AM_ISO09W050
 70
     0
  3
_____ . . _____ . . _____ . . ____ .. ____
 72
    65
 73
     6
 40
22.5
 49
12.0
 74
     0
 49
-1.5
 74
     0
 49
3.0
 74
     0
 49
-1.5
 74
     0
 49
3.0
 74
     0
 49
-1.5
 74
     0
  0
LTYPE
  5
50
330
5
100
AcDbSymbolTableRecord
100
AcDbLinetypeTableRecord
  2
Amconstr
 70
     0
  3
_______________________
 72
    65
 73
     2
 40
9999.0
 49
9999.0
 74
     0
 49
0.0
 74
     0
  0
LTYPE
  5
51
330
5
100
AcDbSymbolTableRecord
100
AcDbLinetypeTableRecord
  2
AM_ISO08W050x2
 70
     0
  3
__ . __ . __ . __ . __ . __
 72
    65
 73
     4
 40
9.0
 49
6.0
 74
     0
 49
-0.75
 74
     0
 49
1.5
 74
     0
 49
-0.75
 74
     0
  0
LTYPE
  5
52
330
5
100
AcDbSymbolTableRecord
100
AcDbLinetypeTableRecord
  2
AM_ISO02W050x2
 70
     0
  3
 _ _ _ _ _ _ _ _ _ _ _ _
 72
    65
 73
     2
 40
3.75
 49
3.0
 74
     0
 49
-0.75
 74
     0
  0
LTYPE
  5
55
330
5
100
AcDbSymbolTableRecord
100
AcDbLinetypeTableRecord
  2
Amzigzag
 70
     0
  3
/\/-/\/-/\/-/\/-/\/-/\/
 72
    65
 73
     2
 40
11.0001
 49
0.0001
 74
     4
 75
   136
340
23D
 46
0.04
 50
0.0
 44
0.0
 45
0.0
 49
-11.0
 74
     0
  0
LTYPE
  5
65
330
5
100
AcDbSymbolTableRecord
100
AcDbLinetypeTableRecord
  2
CENTER
 70
     0
  3
__ . __
 72
    65
 73
     4
 40
7.0
 49
4.0
 74
     0
 49
-1.0
 74
     0
 49
1.0
 74
     0
 49
-1.0
 74
     0
  0
LTYPE
  5
E0
330
5
100
AcDbSymbolTableRecord
100
AcDbLinetypeTableRecord
  2
HIDDEN
 70
     0
  3
Hidden __ __ __ __ __ __ __ __ __ __ __ __ __ _
 72
    65
 73
     2
 40
9.524999999999996
 49
6.349999999999998
 74
     0
 49
-3.174999999999998
 74
     0
  0
LTYPE
  5
E1
330
5
100
AcDbSymbolTableRecord
100
AcDbLinetypeTableRecord
  2
PHANTOM2
 70
     0
  3
Phantom (.5x) ___ _ _ ___ _ _ ___ _ _ ___ _ _
 72
    65
 73
     6
 40
31.75
 49
15.875
 74
     0
 49
-3.174999999999998
 74
     0
 49
3.174999999999998
 74
     0
 49
-3.174999999999998
 74
     0
 49
3.174999999999998
 74
     0
 49
-3.174999999999998
 74
     0
  0
LTYPE
  5
5A2
330
5
100
AcDbSymbolTableRecord
100
AcDbLinetypeTableRecord
  2
ACJISWELD
 70
     0
  3
_ _ _ _ _
 72
    65
 73
     2
 40
2.0
 49
2.0
 74
     0
 49
-1.0
 74
     0
  0
LTYPE
  5
A29F
330
5
100
AcDbSymbolTableRecord
100
AcDbLinetypeTableRecord
  2
ACISOWELD
 70
     0
  3
_ _ _ _ _
 72
    65
 73
     2
 40
2.0
 49
2.0
 74
     0
 49
-1.0
 74
     0
  0
LTYPE
  5
A2A0
330
5
100
AcDbSymbolTableRecord
100
AcDbLinetypeTableRecord
  2
ACISOTGB
 70
     0
  3
__ . . __ . .
 72
    65
 73
     6
 40
9.0
 49
4.0
 74
     0
 49
-1.0
 74
     0
 49
1.0
 74
     0
 49
-1.0
 74
     0
 49
1.0
 74
     0
 49
-1.0
 74
     0
  0
LTYPE
  5
A2A1
330
5
100
AcDbSymbolTableRecord
100
AcDbLinetypeTableRecord
  2
ACISOTGL
 70
     0
  3
_ _ _ _ _
 72
    65
 73
     2
 40
3.0
 49
2.0
 74
     0
 49
-1.0
 74
     0
  0
ENDTAB
  0
TABLE
  2
LAYER
  5
2
102
{ACAD_XDICTIONARY
360
BF
102
}
330
0
100
AcDbSymbolTable
 70
    10
  0
LAYER
  5
10
102
{ACAD_XDICTIONARY
360
29F7
102
}
330
2
100
AcDbSymbolTableRecord
100
AcDbLayerTableRecord
  2
0
 70
     0
 62
     7
  6
Continuous
370
    -3
390
F
347
27E
  0
LAYER
  5
81
102
{ACAD_XDICTIONARY
360
29F9
102
}
330
2
100
AcDbSymbolTableRecord
100
AcDbLayerTableRecord
  2
AM_0 外形線1
 70
     0
 62
     7
  6
Continuous
370
    25
390
F
347
27E
  0
LAYER
  5
427
330
2
100
AcDbSymbolTableRecord
100
AcDbLayerTableRecord
  2
Defpoints
 70
     0
 62
     7
  6
Continuous
290
     0
370
    -3
390
F
347
27E
  0
LAYER
  5
3B51
330
2
100
AcDbSymbolTableRecord
100
AcDbLayerTableRecord
  2
AM_5 寸法線
 70
     0
 62
     3
  6
Continuous
370
    13
390
F
347
27E
1001
AcAecLayerStandard
1000

1000

  0
LAYER
  5
3B52
330
2
100
AcDbSymbolTableRecord
100
AcDbLayerTableRecord
  2
AM_4 細線
 70
     0
 62
     4
  6
Continuous
370
    13
390
F
347
27E
1001
AcAecLayerStandard
1000

1000

  0
LAYER
  5
3B53
330
2
100
AcDbSymbolTableRecord
100
AcDbLayerTableRecord
  2
AM_7 中心線
 70
     0
 62
     1
  6
AM_ISO08W050
370
    13
390
F
347
27E
1001
AcAecLayerStandard
1000

1000

  0
LAYER
  5
3B54
330
2
100
AcDbSymbolTableRecord
100
AcDbLayerTableRecord
  2
AM_3 隠れ線
 70
     0
 62
     8
  6
ACJISWELD
370
    13
390
F
347
27E
1001
AcAecLayerStandard
1000

1000

  0
LAYER
  5
3B57
330
2
100
AcDbSymbolTableRecord
100
AcDbLayerTableRecord
  2
AM_6 文字
 70
     0
 62
     2
  6
Continuous
370
    13
390
F
347
27E
1001
AcAecLayerStandard
1000

1000

  0
LAYER
  5
78A6
330
2
100
AcDbSymbolTableRecord
100
AcDbLayerTableRecord
  2
AM_8 ハッチング
 70
     0
 62
     1
  6
Continuous
370
    13
390
F
347
27E
1001
AcAecLayerStandard
1000

1000

  0
ENDTAB
  0
TABLE
  2
STYLE
  5
3
330
0
100
AcDbSymbolTable
 70
    11
  0
STYLE
  5
11
330
3
100
AcDbSymbolTableRecord
100
AcDbTextStyleTableRecord
  2
STANDARD
 70
     0
 40
0.0
 41
1.0
 50
0.0
 71
     0
 42
25.0
  3
ISOCP.SHX
  4
EXTFONT.SHX
  0
STYLE
  5
23D
330
3
100
AcDbSymbolTableRecord
100
AcDbTextStyleTableRecord
  2

 70
     1
 40
0.0
 41
1.0
 50
0.0
 71
     0
 42
2.5
  3
genltshp.shx
  4

  0
STYLE
  5
5D5
330
3
100
AcDbSymbolTableRecord
100
AcDbTextStyleTableRecord
  2
SEISA
 70
     0
 40
0.0
 41
0.9
 50
0.0
 71
     0
 42
25.0
  3
romans.shx
  4
extfont2.shx
  0
STYLE
  5
A28F
330
3
100
AcDbSymbolTableRecord
100
AcDbTextStyleTableRecord
  2
ACISOTS
 70
     0
 40
1.0
 41
1.0
 50
0.0
 71
     0
 42
25.0
  3
isocp.shx
  4
extfont.shx
  0
STYLE
  5
A29E
330
3
100
AcDbSymbolTableRecord
100
AcDbTextStyleTableRecord
  2
ACISOGDT
 70
     0
 40
0.0
 41
1.0
 50
0.0
 71
     0
 42
25.0
  3
amgdt.shx
  4

  0
ENDTAB
  0
TABLE
  2
VIEW
  5
6
330
0
100
AcDbSymbolTable
 70
     6
  0
VIEW
  5
91B
330
6
100
AcDbSymbolTableRecord
100
AcDbViewTableRecord
  2
AM_VIEW1
 70
     0
 40
891.0000000000001
 10
861.373153857963
 20
1336.500002216292
 41
1722.746305418719
 11
0.0
 21
0.0
 31
1.0
 12
0.0
 22
0.0
 32
0.0
 42
50.0
 43
0.0
 44
0.0
 50
0.0
 71
     0
281
     0
 72
     0
 73
     0
  0
VIEW
  5
91C
330
6
100
AcDbSymbolTableRecord
100
AcDbViewTableRecord
  2
AM_VIEW2
 70
     0
 40
891.0000000000001
 10
1658.626848439243
 20
1336.500002216292
 41
1722.746305418719
 11
0.0
 21
0.0
 31
1.0
 12
0.0
 22
0.0
 32
0.0
 42
50.0
 43
0.0
 44
0.0
 50
0.0
 71
     0
281
     0
 72
     0
 73
     0
  0
VIEW
  5
91D
330
6
100
AcDbSymbolTableRecord
100
AcDbViewTableRecord
  2
AM_VIEW3
 70
     0
 40
891.0000000000001
 10
861.373153857963
 20
445.5000022162923
 41
1722.746305418719
 11
0.0
 21
0.0
 31
1.0
 12
0.0
 22
0.0
 32
0.0
 42
50.0
 43
0.0
 44
0.0
 50
0.0
 71
     0
281
     0
 72
     0
 73
     0
  0
VIEW
  5
91E
330
6
100
AcDbSymbolTableRecord
100
AcDbViewTableRecord
  2
AM_VIEW4
 70
     0
 40
891.0000000000001
 10
1658.626848439243
 20
445.5000022162923
 41
1722.746305418719
 11
0.0
 21
0.0
 31
1.0
 12
0.0
 22
0.0
 32
0.0
 42
50.0
 43
0.0
 44
0.0
 50
0.0
 71
     0
281
     0
 72
     0
 73
     0
  0
VIEW
  5
91F
330
6
100
AcDbSymbolTableRecord
100
AcDbViewTableRecord
  2
AM_VIEW5
 70
     0
 40
891.0000000000001
 10
1260.000001148603
 20
891.0000022162925
 41
1722.74630541872
 11
0.0
 21
0.0
 31
1.0
 12
0.0
 22
0.0
 32
0.0
 42
50.0
 43
0.0
 44
0.0
 50
0.0
 71
     0
281
     0
 72
     0
 73
     0
  0
VIEW
  5
920
330
6
100
AcDbSymbolTableRecord
100
AcDbViewTableRecord
  2
AM_VIEW6
 70
     0
 40
1781.98218
 10
1260.000001148603
 20
891.0000022162925
 41
3445.458155911332
 11
0.0
 21
0.0
 31
1.0
 12
0.0
 22
0.0
 32
0.0
 42
50.0
 43
0.0
 44
0.0
 50
0.0
 71
     0
281
     0
 72
     0
 73
     0
  0
ENDTAB
  0
TABLE
  2
UCS
  5
7
330
0
100
AcDbSymbolTable
 70
     0
  0
ENDTAB
  0
TABLE
  2
APPID
  5
9
330
0
100
AcDbSymbolTable
 70
   396
  0
APPID
  5
12
330
9
100
AcDbSymbolTableRecord
100
AcDbRegAppTableRecord
  2
ACAD
 70
     0
  0
APPID
  5
30
330
9
100
AcDbSymbolTableRecord
100
AcDbRegAppTableRecord
  2
MCAD_NO_VIS
 70
     0
  0
APPID
  5
31
330
9
100
AcDbSymbolTableRecord
100
AcDbRegAppTableRecord
  2
ACAD_TEMP_GRAPHIC
 70
     0
  0
APPID
  5
44
330
9
100
AcDbSymbolTableRecord
100
AcDbRegAppTableRecord
  2
ACATTRIBSERVICES
 70
     0
  0
APPID
  5
F6
330
9
100
AcDbSymbolTableRecord
100
AcDbRegAppTableRecord
  2
AD_DRAW
 70
     0
  0
APPID
  5
114
330
9
100
AcDbSymbolTableRecord
100
AcDbRegAppTableRecord
  2
DESIGNERASSEMBLIES
 70
     0
  0
APPID
  5
118
330
9
100
AcDbSymbolTableRecord
100
AcDbRegAppTableRecord
  2
ACADM_DIM_EDIT
 70
     0
  0
APPID
  5
119
330
9
100
AcDbSymbolTableRecord
100
AcDbRegAppTableRecord
  2
AMDT_DM_ADJ
 70
     0
  0
APPID
  5
1AF
330
9
100
AcDbSymbolTableRecord
100
AcDbRegAppTableRecord
  2
ACAD_DSTYLE_DIMARC_LENGTH_SYMBOL
 70
     0
  0
APPID
  5
1B0
330
9
100
AcDbSymbolTableRecord
100
AcDbRegAppTableRecord
  2
ACAD_DSTYLE_DIMJOGGED_JOGANGLE_SYMBOL
 70
     0
  0
APPID
  5
2D7
330
9
100
AcDbSymbolTableRecord
100
AcDbRegAppTableRecord
  2
ACAD_MLEADERVER
 70
     0
  0
APPID
  5
355
330
9
100
AcDbSymbolTableRecord
100
AcDbRegAppTableRecord
  2
AcadAnnoPO
 70
     0
  0
APPID
  5
428
330
9
100
AcDbSymbolTableRecord
100
AcDbRegAppTableRecord
  2
ACAD_DSTYLE_DIMTEXT_FILL
 70
     0
  0
APPID
  5
429
330
9
100
AcDbSymbolTableRecord
100
AcDbRegAppTableRecord
  2
GENIUS_GENSCREG_15
 70
     0
  0
APPID
  5
42A
330
9
100
AcDbSymbolTableRecord
100
AcDbRegAppTableRecord
  2
GENIUS_GENOBJ-N-SDF_13
 70
     0
  0
APPID
  5
42B
330
9
100
AcDbSymbolTableRecord
100
AcDbRegAppTableRecord
  2
GENIUS_GENODEF_13
 70
     0
  0
APPID
  5
42C
330
9
100
AcDbSymbolTableRecord
100
AcDbRegAppTableRecord
  2
ACAD_EXEMPT_FROM_CAD_STANDARDS
 70
     0
  0
APPID
  5
42D
330
9
100
AcDbSymbolTableRecord
100
AcDbRegAppTableRecord
  2
AcAecLayerStandard
 70
     0
  0
APPID
  5
42E
330
9
100
AcDbSymbolTableRecord
100
AcDbRegAppTableRecord
  2
GENIUS_GENOBJ-N-CEN_13
 70
     0
  0
APPID
  5
42F
330
9
100
AcDbSymbolTableRecord
100
AcDbRegAppTableRecord
  2
GENIUS_GENCEN_19
 70
     0
  0
APPID
  5
430
330
9
100
AcDbSymbolTableRecord
100
AcDbRegAppTableRecord
  2
ACAD_DSTYLE_DIMINSPECT
 70
     0
  0
APPID
  5
431
330
9
100
AcDbSymbolTableRecord
100
AcDbRegAppTableRecord
  2
GENIUS_AMGTXT_16
 70
     0
  0
APPID
  5
432
330
9
100
AcDbSymbolTableRecord
100
AcDbRegAppTableRecord
  2
GENIUS_GENFIL_13
 70
     0
  0
APPID
  5
433
330
9
100
AcDbSymbolTableRecord
100
AcDbRegAppTableRecord
  2
GENIUS_GENOLIS_13
 70
     0
  0
APPID
  5
434
330
9
100
AcDbSymbolTableRecord
100
AcDbRegAppTableRecord
  2
GENIUS_GENOBJ-N-CHA_13
 70
     0
  0
APPID
  5
435
330
9
100
AcDbSymbolTableRecord
100
AcDbRegAppTableRecord
  2
GENIUS_GENOENT_13
 70
     0
  0
APPID
  5
436
330
9
100
AcDbSymbolTableRecord
100
AcDbRegAppTableRecord
  2
GENIUS_GENOREF_13
 70
     0
  0
APPID
  5
437
330
9
100
AcDbSymbolTableRecord
100
AcDbRegAppTableRecord
  2
GENIUS_GENOBJ-N-FIL_13
 70
     0
  0
APPID
  5
438
330
9
100
AcDbSymbolTableRecord
100
AcDbRegAppTableRecord
  2
GEVID1208829536
 70
     0
  0
APPID
  5
439
330
9
100
AcDbSymbolTableRecord
100
AcDbRegAppTableRecord
  2
GEVDC
 70
     0
  0
APPID
  5
43A
330
9
100
AcDbSymbolTableRecord
100
AcDbRegAppTableRecord
  2
GEVRADREF
 70
     0
  0
APPID
  5
43B
330
9
100
AcDbSymbolTableRecord
100
AcDbRegAppTableRecord
  2
GENIUS_GENBH_13
 70
     0
  0
APPID
  5
43C
330
9
100
AcDbSymbolTableRecord
100
AcDbRegAppTableRecord
  2
GENIUS_GENOBJ-NBEHI-BHF_13
 70
     0
  0
APPID
  5
43D
330
9
100
AcDbSymbolTableRecord
100
AcDbRegAppTableRecord
  2
GENIUS_GENOBJ-NBEHI-BHB_13
 70
     0
  0
APPID
  5
43E
330
9
100
AcDbSymbolTableRecord
100
AcDbRegAppTableRecord
  2
GEVID1208829537
 70
     0
  0
APPID
  5
43F
330
9
100
AcDbSymbolTableRecord
100
AcDbRegAppTableRecord
  2
ACAD_DSTYLE_DIMJAG
 70
     0
  0
APPID
  5
440
330
9
100
AcDbSymbolTableRecord
100
AcDbRegAppTableRecord
  2
ACAD_DSTYLE_DIMTALN
 70
     0
  0
APPID
  5
441
330
9
100
AcDbSymbolTableRecord
100
AcDbRegAppTableRecord
  2
AMG_2DHIDE
 70
     0
  0
APPID
  5
442
330
9
100
AcDbSymbolTableRecord
100
AcDbRegAppTableRecord
  2
AMG_2DSTRUCT_BTR
 70
     0
  0
APPID
  5
443
330
9
100
AcDbSymbolTableRecord
100
AcDbRegAppTableRecord
  2
GEVID1208845772
 70
     0
  0
APPID
  5
444
330
9
100
AcDbSymbolTableRecord
100
AcDbRegAppTableRecord
  2
GEVID1208845773
 70
     0
  0
APPID
  5
445
330
9
100
AcDbSymbolTableRecord
100
AcDbRegAppTableRecord
  2
ACADM_2DVIEW_IGN_NOTIFY
 70
     0
  0
APPID
  5
446
330
9
100
AcDbSymbolTableRecord
100
AcDbRegAppTableRecord
  2
GEVID1208845774
 70
     0
  0
APPID
  5
447
330
9
100
AcDbSymbolTableRecord
100
AcDbRegAppTableRecord
  2
GEVID1208845775
 70
     0
  0
APPID
  5
448
330
9
100
AcDbSymbolTableRecord
100
AcDbRegAppTableRecord
  2
GEVID1208845776
 70
     0
  0
APPID
  5
449
330
9
100
AcDbSymbolTableRecord
100
AcDbRegAppTableRecord
  2
GEVID1208845777
 70
     0
  0
APPID
  5
44A
330
9
100
AcDbSymbolTableRecord
100
AcDbRegAppTableRecord
  2
GEVCON
 70
     0
  0
APPID
  5
44B
330
9
100
AcDbSymbolTableRecord
100
AcDbRegAppTableRecord
  2
GENIUS_GENOBJ-F-SCPASSM_13
 70
     0
  0
APPID
  5
44C
330
9
100
AcDbSymbolTableRecord
100
AcDbRegAppTableRecord
  2
GEVID1208845778
 70
     0
  0
APPID
  5
44D
330
9
100
AcDbSymbolTableRecord
100
AcDbRegAppTableRecord
  2
GEVID1208845779
 70
     0
  0
APPID
  5
44E
330
9
100
AcDbSymbolTableRecord
100
AcDbRegAppTableRecord
  2
GEVID1208845780
 70
     0
  0
APPID
  5
44F
330
9
100
AcDbSymbolTableRecord
100
AcDbRegAppTableRecord
  2
GEVID1208845781
 70
     0
  0
APPID
  5
450
330
9
100
AcDbSymbolTableRecord
100
AcDbRegAppTableRecord
  2
GEVID1208845782
 70
     0
  0
APPID
  5
451
330
9
100
AcDbSymbolTableRecord
100
AcDbRegAppTableRecord
  2
GEVID1208845783
 70
     0
  0
APPID
  5
452
330
9
100
AcDbSymbolTableRecord
100
AcDbRegAppTableRecord
  2
GEVID1208845784
 70
     0
  0
APPID
  5
453
330
9
100
AcDbSymbolTableRecord
100
AcDbRegAppTableRecord
  2
GEVID1208845785
 70
     0
  0
APPID
  5
454
330
9
100
AcDbSymbolTableRecord
100
AcDbRegAppTableRecord
  2
GEVID1208845787
 70
     0
  0
APPID
  5
455
330
9
100
AcDbSymbolTableRecord
100
AcDbRegAppTableRecord
  2
GEVID1208845788
 70
     0
  0
APPID
  5
456
330
9
100
AcDbSymbolTableRecord
100
AcDbRegAppTableRecord
  2
GEVID1208845789
 70
     0
  0
APPID
  5
457
330
9
100
AcDbSymbolTableRecord
100
AcDbRegAppTableRecord
  2
GEVID1208845790
 70
     0
  0
APPID
  5
458
330
9
100
AcDbSymbolTableRecord
100
AcDbRegAppTableRecord
  2
GEVID1208845791
 70
     0
  0
APPID
  5
459
330
9
100
AcDbSymbolTableRecord
100
AcDbRegAppTableRecord
  2
GEVID1208845792
 70
     0
  0
APPID
  5
45A
330
9
100
AcDbSymbolTableRecord
100
AcDbRegAppTableRecord
  2
GEVID1208845793
 70
     0
  0
APPID
  5
45B
330
9
100
AcDbSymbolTableRecord
100
AcDbRegAppTableRecord
  2
GEVID1208845794
 70
     0
  0
APPID
  5
45C
330
9
100
AcDbSymbolTableRecord
100
AcDbRegAppTableRecord
  2
GEVID1208845795
 70
     0
  0
APPID
  5
45D
330
9
100
AcDbSymbolTableRecord
100
AcDbRegAppTableRecord
  2
GEVID1208845796
 70
     0
  0
APPID
  5
45E
330
9
100
AcDbSymbolTableRecord
100
AcDbRegAppTableRecord
  2
GEVID1208845797
 70
     0
  0
APPID
  5
45F
330
9
100
AcDbSymbolTableRecord
100
AcDbRegAppTableRecord
  2
GEVID1208845798
 70
     0
  0
APPID
  5
460
330
9
100
AcDbSymbolTableRecord
100
AcDbRegAppTableRecord
  2
GEVID1208845799
 70
     0
  0
APPID
  5
461
330
9
100
AcDbSymbolTableRecord
100
AcDbRegAppTableRecord
  2
GEVID1208845800
 70
     0
  0
APPID
  5
462
330
9
100
AcDbSymbolTableRecord
100
AcDbRegAppTableRecord
  2
GEVID1208845801
 70
     0
  0
APPID
  5
463
330
9
100
AcDbSymbolTableRecord
100
AcDbRegAppTableRecord
  2
GEVID1208845802
 70
     0
  0
APPID
  5
464
330
9
100
AcDbSymbolTableRecord
100
AcDbRegAppTableRecord
  2
GENIUS_GENOBJ-N-DIM_13
 70
     0
  0
APPID
  5
465
330
9
100
AcDbSymbolTableRecord
100
AcDbRegAppTableRecord
  2
GENIUS_GENDIM_13
 70
     0
  0
APPID
  5
466
330
9
100
AcDbSymbolTableRecord
100
AcDbRegAppTableRecord
  2
GENIUS_GENDIMSH_14
 70
     0
  0
APPID
  5
467
330
9
100
AcDbSymbolTableRecord
100
AcDbRegAppTableRecord
  2
GEVID1208845803
 70
     0
  0
APPID
  5
468
330
9
100
AcDbSymbolTableRecord
100
AcDbRegAppTableRecord
  2
GEVID1208845804
 70
     0
  0
APPID
  5
469
330
9
100
AcDbSymbolTableRecord
100
AcDbRegAppTableRecord
  2
GEVID1208845805
 70
     0
  0
APPID
  5
46A
330
9
100
AcDbSymbolTableRecord
100
AcDbRegAppTableRecord
  2
GEVID1208845806
 70
     0
  0
APPID
  5
46B
330
9
100
AcDbSymbolTableRecord
100
AcDbRegAppTableRecord
  2
GEVID1208845807
 70
     0
  0
APPID
  5
46C
330
9
100
AcDbSymbolTableRecord
100
AcDbRegAppTableRecord
  2
GEVID1208845808
 70
     0
  0
APPID
  5
46D
330
9
100
AcDbSymbolTableRecord
100
AcDbRegAppTableRecord
  2
GEVID1208845809
 70
     0
  0
APPID
  5
46E
330
9
100
AcDbSymbolTableRecord
100
AcDbRegAppTableRecord
  2
GEVID1208845810
 70
     0
  0
APPID
  5
46F
330
9
100
AcDbSymbolTableRecord
100
AcDbRegAppTableRecord
  2
GEVID1208845811
 70
     0
  0
APPID
  5
470
330
9
100
AcDbSymbolTableRecord
100
AcDbRegAppTableRecord
  2
GEVID1208845813
 70
     0
  0
APPID
  5
471
330
9
100
AcDbSymbolTableRecord
100
AcDbRegAppTableRecord
  2
GEVID1208845814
 70
     0
  0
APPID
  5
472
330
9
100
AcDbSymbolTableRecord
100
AcDbRegAppTableRecord
  2
GEVID1208845815
 70
     0
  0
APPID
  5
473
330
9
100
AcDbSymbolTableRecord
100
AcDbRegAppTableRecord
  2
GEVID1208845816
 70
     0
  0
APPID
  5
474
330
9
100
AcDbSymbolTableRecord
100
AcDbRegAppTableRecord
  2
GEVID1208845817
 70
     0
  0
APPID
  5
475
330
9
100
AcDbSymbolTableRecord
100
AcDbRegAppTableRecord
  2
GEVID1208845818
 70
     0
  0
APPID
  5
476
330
9
100
AcDbSymbolTableRecord
100
AcDbRegAppTableRecord
  2
GEVID1208845819
 70
     0
  0
APPID
  5
477
330
9
100
AcDbSymbolTableRecord
100
AcDbRegAppTableRecord
  2
GEVID1208845820
 70
     0
  0
APPID
  5
478
330
9
100
AcDbSymbolTableRecord
100
AcDbRegAppTableRecord
  2
GENIUS_GENOBJ-F-SHCL_13
 70
     0
  0
APPID
  5
479
330
9
100
AcDbSymbolTableRecord
100
AcDbRegAppTableRecord
  2
GENIUS_GEFMSH_13
 70
     0
  0
APPID
  5
47A
330
9
100
AcDbSymbolTableRecord
100
AcDbRegAppTableRecord
  2
GENIUS_GENOBJ-F-SHCA_13
 70
     0
  0
APPID
  5
47B
330
9
100
AcDbSymbolTableRecord
100
AcDbRegAppTableRecord
  2
GENIUS_GEFSH_13
 70
     0
  0
APPID
  5
47C
330
9
100
AcDbSymbolTableRecord
100
AcDbRegAppTableRecord
  2
GENIUS_GEFSHP_13
 70
     0
  0
APPID
  5
47D
330
9
100
AcDbSymbolTableRecord
100
AcDbRegAppTableRecord
  2
GENIUS_GEFSHP0_13
 70
     0
  0
APPID
  5
47E
330
9
100
AcDbSymbolTableRecord
100
AcDbRegAppTableRecord
  2
GENIUS_GEFSH0_13
 70
     0
  0
APPID
  5
47F
330
9
100
AcDbSymbolTableRecord
100
AcDbRegAppTableRecord
  2
GENIUS_GEFSHP1_13
 70
     0
  0
APPID
  5
480
330
9
100
AcDbSymbolTableRecord
100
AcDbRegAppTableRecord
  2
GENIUS_GEFSH1_13
 70
     0
  0
APPID
  5
481
330
9
100
AcDbSymbolTableRecord
100
AcDbRegAppTableRecord
  2
GEVID1208866337
 70
     0
  0
APPID
  5
482
330
9
100
AcDbSymbolTableRecord
100
AcDbRegAppTableRecord
  2
GEVID1208866338
 70
     0
  0
APPID
  5
483
330
9
100
AcDbSymbolTableRecord
100
AcDbRegAppTableRecord
  2
GEVID1208866339
 70
     0
  0
APPID
  5
484
330
9
100
AcDbSymbolTableRecord
100
AcDbRegAppTableRecord
  2
GEVID1208866340
 70
     0
  0
APPID
  5
485
330
9
100
AcDbSymbolTableRecord
100
AcDbRegAppTableRecord
  2
GEVID1208866341
 70
     0
  0
APPID
  5
486
330
9
100
AcDbSymbolTableRecord
100
AcDbRegAppTableRecord
  2
ACAD_PSEXT
 70
     0
  0
APPID
  5
487
330
9
100
AcDbSymbolTableRecord
100
AcDbRegAppTableRecord
  2
GEVID1208866342
 70
     0
  0
APPID
  5
488
330
9
100
AcDbSymbolTableRecord
100
AcDbRegAppTableRecord
  2
GEVID1208913836
 70
     0
  0
APPID
  5
489
330
9
100
AcDbSymbolTableRecord
100
AcDbRegAppTableRecord
  2
GEVID1208913837
 70
     0
  0
APPID
  5
48A
330
9
100
AcDbSymbolTableRecord
100
AcDbRegAppTableRecord
  2
GEVID1208913838
 70
     0
  0
APPID
  5
48B
330
9
100
AcDbSymbolTableRecord
100
AcDbRegAppTableRecord
  2
GEVID1208913839
 70
     0
  0
APPID
  5
48C
330
9
100
AcDbSymbolTableRecord
100
AcDbRegAppTableRecord
  2
GENIUS_GENDTOL_13
 70
     0
  0
APPID
  5
48D
330
9
100
AcDbSymbolTableRecord
100
AcDbRegAppTableRecord
  2
GEVID1208928889
 70
     0
  0
APPID
  5
48E
330
9
100
AcDbSymbolTableRecord
100
AcDbRegAppTableRecord
  2
GEVID1208928890
 70
     0
  0
APPID
  5
48F
330
9
100
AcDbSymbolTableRecord
100
AcDbRegAppTableRecord
  2
GEVID1208928891
 70
     0
  0
APPID
  5
490
330
9
100
AcDbSymbolTableRecord
100
AcDbRegAppTableRecord
  2
GEVID1208928892
 70
     0
  0
APPID
  5
491
330
9
100
AcDbSymbolTableRecord
100
AcDbRegAppTableRecord
  2
GEVID1208933827
 70
     0
  0
APPID
  5
492
330
9
100
AcDbSymbolTableRecord
100
AcDbRegAppTableRecord
  2
GEVID1208933829
 70
     0
  0
APPID
  5
493
330
9
100
AcDbSymbolTableRecord
100
AcDbRegAppTableRecord
  2
GEVID1208933830
 70
     0
  0
APPID
  5
494
330
9
100
AcDbSymbolTableRecord
100
AcDbRegAppTableRecord
  2
GEVID1208933831
 70
     0
  0
APPID
  5
495
330
9
100
AcDbSymbolTableRecord
100
AcDbRegAppTableRecord
  2
GEVID1208933832
 70
     0
  0
APPID
  5
496
330
9
100
AcDbSymbolTableRecord
100
AcDbRegAppTableRecord
  2
GEVID1208933833
 70
     0
  0
APPID
  5
497
330
9
100
AcDbSymbolTableRecord
100
AcDbRegAppTableRecord
  2
GEVID1208933834
 70
     0
  0
APPID
  5
498
330
9
100
AcDbSymbolTableRecord
100
AcDbRegAppTableRecord
  2
GEVID1208933835
 70
     0
  0
APPID
  5
499
330
9
100
AcDbSymbolTableRecord
100
AcDbRegAppTableRecord
  2
GEVID1208933836
 70
     0
  0
APPID
  5
49A
330
9
100
AcDbSymbolTableRecord
100
AcDbRegAppTableRecord
  2
GEVID1208933837
 70
     0
  0
APPID
  5
49B
330
9
100
AcDbSymbolTableRecord
100
AcDbRegAppTableRecord
  2
GEVID1208933838
 70
     0
  0
APPID
  5
49C
330
9
100
AcDbSymbolTableRecord
100
AcDbRegAppTableRecord
  2
GEVID1208933840
 70
     0
  0
APPID
  5
49D
330
9
100
AcDbSymbolTableRecord
100
AcDbRegAppTableRecord
  2
GEVID1208933842
 70
     0
  0
APPID
  5
49E
330
9
100
AcDbSymbolTableRecord
100
AcDbRegAppTableRecord
  2
GEVID1208933843
 70
     0
  0
APPID
  5
49F
330
9
100
AcDbSymbolTableRecord
100
AcDbRegAppTableRecord
  2
GEVID1208933844
 70
     0
  0
APPID
  5
4A0
330
9
100
AcDbSymbolTableRecord
100
AcDbRegAppTableRecord
  2
GEVID1208933845
 70
     0
  0
APPID
  5
4A1
330
9
100
AcDbSymbolTableRecord
100
AcDbRegAppTableRecord
  2
GEVID1208933846
 70
     0
  0
APPID
  5
4A2
330
9
100
AcDbSymbolTableRecord
100
AcDbRegAppTableRecord
  2
GEVID1208933847
 70
     0
  0
APPID
  5
4A3
330
9
100
AcDbSymbolTableRecord
100
AcDbRegAppTableRecord
  2
GEVID1208933848
 70
     0
  0
APPID
  5
4A4
330
9
100
AcDbSymbolTableRecord
100
AcDbRegAppTableRecord
  2
GEVID1208933849
 70
     0
  0
APPID
  5
4A5
330
9
100
AcDbSymbolTableRecord
100
AcDbRegAppTableRecord
  2
GEVID1208933850
 70
     0
  0
APPID
  5
4A6
330
9
100
AcDbSymbolTableRecord
100
AcDbRegAppTableRecord
  2
GEVID1208933851
 70
     0
  0
APPID
  5
4A7
330
9
100
AcDbSymbolTableRecord
100
AcDbRegAppTableRecord
  2
GEVID1208933852
 70
     0
  0
APPID
  5
4A8
330
9
100
AcDbSymbolTableRecord
100
AcDbRegAppTableRecord
  2
GEVID1208933853
 70
     0
  0
APPID
  5
4A9
330
9
100
AcDbSymbolTableRecord
100
AcDbRegAppTableRecord
  2
GEVID1208933854
 70
     0
  0
APPID
  5
4AA
330
9
100
AcDbSymbolTableRecord
100
AcDbRegAppTableRecord
  2
GEVID1208933855
 70
     0
  0
APPID
  5
4AB
330
9
100
AcDbSymbolTableRecord
100
AcDbRegAppTableRecord
  2
GEVID1208933856
 70
     0
  0
APPID
  5
4AC
330
9
100
AcDbSymbolTableRecord
100
AcDbRegAppTableRecord
  2
GEVID1208933857
 70
     0
  0
APPID
  5
4AD
330
9
100
AcDbSymbolTableRecord
100
AcDbRegAppTableRecord
  2
GEVID1208933858
 70
     0
  0
APPID
  5
4AE
330
9
100
AcDbSymbolTableRecord
100
AcDbRegAppTableRecord
  2
GEVID1208933859
 70
     0
  0
APPID
  5
4AF
330
9
100
AcDbSymbolTableRecord
100
AcDbRegAppTableRecord
  2
GEVID1208933860
 70
     0
  0
APPID
  5
4B0
330
9
100
AcDbSymbolTableRecord
100
AcDbRegAppTableRecord
  2
GEVID1208933861
 70
     0
  0
APPID
  5
4B1
330
9
100
AcDbSymbolTableRecord
100
AcDbRegAppTableRecord
  2
GEVID1208933862
 70
     0
  0
APPID
  5
4B2
330
9
100
AcDbSymbolTableRecord
100
AcDbRegAppTableRecord
  2
GEVID1208933863
 70
     0
  0
APPID
  5
4B3
330
9
100
AcDbSymbolTableRecord
100
AcDbRegAppTableRecord
  2
GEVID1208933864
 70
     0
  0
APPID
  5
4B4
330
9
100
AcDbSymbolTableRecord
100
AcDbRegAppTableRecord
  2
GEVID1208933865
 70
     0
  0
APPID
  5
4B5
330
9
100
AcDbSymbolTableRecord
100
AcDbRegAppTableRecord
  2
GEVID1208933866
 70
     0
  0
APPID
  5
4B6
330
9
100
AcDbSymbolTableRecord
100
AcDbRegAppTableRecord
  2
GEVID1208933867
 70
     0
  0
APPID
  5
4B7
330
9
100
AcDbSymbolTableRecord
100
AcDbRegAppTableRecord
  2
GEVID1208933868
 70
     0
  0
APPID
  5
4B8
330
9
100
AcDbSymbolTableRecord
100
AcDbRegAppTableRecord
  2
GEVID1208933869
 70
     0
  0
APPID
  5
4B9
330
9
100
AcDbSymbolTableRecord
100
AcDbRegAppTableRecord
  2
GEVID1208933870
 70
     0
  0
APPID
  5
4BA
330
9
100
AcDbSymbolTableRecord
100
AcDbRegAppTableRecord
  2
GEVID1208933871
 70
     0
  0
APPID
  5
4BB
330
9
100
AcDbSymbolTableRecord
100
AcDbRegAppTableRecord
  2
GEVID1208933872
 70
     0
  0
APPID
  5
4BC
330
9
100
AcDbSymbolTableRecord
100
AcDbRegAppTableRecord
  2
GEVID1208933873
 70
     0
  0
APPID
  5
4BD
330
9
100
AcDbSymbolTableRecord
100
AcDbRegAppTableRecord
  2
GEVID1208933874
 70
     0
  0
APPID
  5
4BE
330
9
100
AcDbSymbolTableRecord
100
AcDbRegAppTableRecord
  2
GEVID1208933875
 70
     0
  0
APPID
  5
4BF
330
9
100
AcDbSymbolTableRecord
100
AcDbRegAppTableRecord
  2
GEVID1208933876
 70
     0
  0
APPID
  5
4C0
330
9
100
AcDbSymbolTableRecord
100
AcDbRegAppTableRecord
  2
ACAD_DSTYLE_DIMRADIAL_EXTENSION
 70
     0
  0
APPID
  5
4C1
330
9
100
AcDbSymbolTableRecord
100
AcDbRegAppTableRecord
  2
GEVID1208999100
 70
     0
  0
APPID
  5
4C2
330
9
100
AcDbSymbolTableRecord
100
AcDbRegAppTableRecord
  2
GEVID1208999101
 70
     0
  0
APPID
  5
4C3
330
9
100
AcDbSymbolTableRecord
100
AcDbRegAppTableRecord
  2
GEVID1208999102
 70
     0
  0
APPID
  5
4C4
330
9
100
AcDbSymbolTableRecord
100
AcDbRegAppTableRecord
  2
GEVID1208999103
 70
     0
  0
APPID
  5
4C5
330
9
100
AcDbSymbolTableRecord
100
AcDbRegAppTableRecord
  2
GEVID1208999105
 70
     0
  0
APPID
  5
4C6
330
9
100
AcDbSymbolTableRecord
100
AcDbRegAppTableRecord
  2
GEVID1208999106
 70
     0
  0
APPID
  5
4C7
330
9
100
AcDbSymbolTableRecord
100
AcDbRegAppTableRecord
  2
GEVID1208999108
 70
     0
  0
APPID
  5
4C8
330
9
100
AcDbSymbolTableRecord
100
AcDbRegAppTableRecord
  2
GEVID1208999109
 70
     0
  0
APPID
  5
4C9
330
9
100
AcDbSymbolTableRecord
100
AcDbRegAppTableRecord
  2
GEVID1208999110
 70
     0
  0
APPID
  5
4CA
330
9
100
AcDbSymbolTableRecord
100
AcDbRegAppTableRecord
  2
GEVID1208999111
 70
     0
  0
APPID
  5
4CB
330
9
100
AcDbSymbolTableRecord
100
AcDbRegAppTableRecord
  2
GEVID1208999112
 70
     0
  0
APPID
  5
4CC
330
9
100
AcDbSymbolTableRecord
100
AcDbRegAppTableRecord
  2
GEVID1208999113
 70
     0
  0
APPID
  5
4CD
330
9
100
AcDbSymbolTableRecord
100
AcDbRegAppTableRecord
  2
GEVID1208999114
 70
     0
  0
APPID
  5
4CE
330
9
100
AcDbSymbolTableRecord
100
AcDbRegAppTableRecord
  2
GEVID1210218799
 70
     0
  0
APPID
  5
4CF
330
9
100
AcDbSymbolTableRecord
100
AcDbRegAppTableRecord
  2
GEVID1210218800
 70
     0
  0
APPID
  5
4D0
330
9
100
AcDbSymbolTableRecord
100
AcDbRegAppTableRecord
  2
GENIUS_GEFWELD_13
 70
     0
  0
APPID
  5
4D1
330
9
100
AcDbSymbolTableRecord
100
AcDbRegAppTableRecord
  2
GENIUS_GENOBJ-F-WELS_13
 70
     0
  0
APPID
  5
4D2
330
9
100
AcDbSymbolTableRecord
100
AcDbRegAppTableRecord
  2
AcadAnnotative
 70
     0
  0
APPID
  5
4D3
330
9
100
AcDbSymbolTableRecord
100
AcDbRegAppTableRecord
  2
GEVID1210145339
 70
     0
  0
APPID
  5
4D4
330
9
100
AcDbSymbolTableRecord
100
AcDbRegAppTableRecord
  2
ACAD_DSTYLE_DIMBREAK
 70
     0
  0
APPID
  5
4D5
330
9
100
AcDbSymbolTableRecord
100
AcDbRegAppTableRecord
  2
GEVID1210145340
 70
     0
  0
APPID
  5
4D6
330
9
100
AcDbSymbolTableRecord
100
AcDbRegAppTableRecord
  2
GEVID1210145341
 70
     0
  0
APPID
  5
4D7
330
9
100
AcDbSymbolTableRecord
100
AcDbRegAppTableRecord
  2
GEVID1210145342
 70
     0
  0
APPID
  5
4D8
330
9
100
AcDbSymbolTableRecord
100
AcDbRegAppTableRecord
  2
GEVID1210145343
 70
     0
  0
APPID
  5
4D9
330
9
100
AcDbSymbolTableRecord
100
AcDbRegAppTableRecord
  2
GEVID1210145344
 70
     0
  0
APPID
  5
4DA
330
9
100
AcDbSymbolTableRecord
100
AcDbRegAppTableRecord
  2
GEVID1210145345
 70
     0
  0
APPID
  5
4DB
330
9
100
AcDbSymbolTableRecord
100
AcDbRegAppTableRecord
  2
GEVID1210152816
 70
     0
  0
APPID
  5
4DC
330
9
100
AcDbSymbolTableRecord
100
AcDbRegAppTableRecord
  2
GEVID1210153850
 70
     0
  0
APPID
  5
4DD
330
9
100
AcDbSymbolTableRecord
100
AcDbRegAppTableRecord
  2
GEVID1210153851
 70
     0
  0
APPID
  5
4DE
330
9
100
AcDbSymbolTableRecord
100
AcDbRegAppTableRecord
  2
GEVID1210153852
 70
     0
  0
APPID
  5
4DF
330
9
100
AcDbSymbolTableRecord
100
AcDbRegAppTableRecord
  2
GEVID1210549898
 70
     0
  0
APPID
  5
4E0
330
9
100
AcDbSymbolTableRecord
100
AcDbRegAppTableRecord
  2
GEVID1210549899
 70
     0
  0
APPID
  5
4E1
330
9
100
AcDbSymbolTableRecord
100
AcDbRegAppTableRecord
  2
GEVID1210549900
 70
     0
  0
APPID
  5
4E2
330
9
100
AcDbSymbolTableRecord
100
AcDbRegAppTableRecord
  2
GEVID1210549901
 70
     0
  0
APPID
  5
4E3
330
9
100
AcDbSymbolTableRecord
100
AcDbRegAppTableRecord
  2
GEVID1210549902
 70
     0
  0
APPID
  5
4E4
330
9
100
AcDbSymbolTableRecord
100
AcDbRegAppTableRecord
  2
GEVID1210549903
 70
     0
  0
APPID
  5
4E5
330
9
100
AcDbSymbolTableRecord
100
AcDbRegAppTableRecord
  2
GEVID1210549904
 70
     0
  0
APPID
  5
4E6
330
9
100
AcDbSymbolTableRecord
100
AcDbRegAppTableRecord
  2
GEVID1210549905
 70
     0
  0
APPID
  5
4E7
330
9
100
AcDbSymbolTableRecord
100
AcDbRegAppTableRecord
  2
GEVID1210549906
 70
     0
  0
APPID
  5
4E8
330
9
100
AcDbSymbolTableRecord
100
AcDbRegAppTableRecord
  2
GEVID1210549907
 70
     0
  0
APPID
  5
4E9
330
9
100
AcDbSymbolTableRecord
100
AcDbRegAppTableRecord
  2
GEVID1210549908
 70
     0
  0
APPID
  5
4EA
330
9
100
AcDbSymbolTableRecord
100
AcDbRegAppTableRecord
  2
GEVID1210549909
 70
     0
  0
APPID
  5
4EB
330
9
100
AcDbSymbolTableRecord
100
AcDbRegAppTableRecord
  2
GEVID1210549910
 70
     0
  0
APPID
  5
4EC
330
9
100
AcDbSymbolTableRecord
100
AcDbRegAppTableRecord
  2
GEVID1210549911
 70
     0
  0
APPID
  5
4ED
330
9
100
AcDbSymbolTableRecord
100
AcDbRegAppTableRecord
  2
GEVID1210549912
 70
     0
  0
APPID
  5
4EE
330
9
100
AcDbSymbolTableRecord
100
AcDbRegAppTableRecord
  2
GEVID1210549913
 70
     0
  0
APPID
  5
4EF
330
9
100
AcDbSymbolTableRecord
100
AcDbRegAppTableRecord
  2
GEVID1210549914
 70
     0
  0
APPID
  5
4F0
330
9
100
AcDbSymbolTableRecord
100
AcDbRegAppTableRecord
  2
GEVID1210549915
 70
     0
  0
APPID
  5
4F1
330
9
100
AcDbSymbolTableRecord
100
AcDbRegAppTableRecord
  2
GEVID1210549916
 70
     0
  0
APPID
  5
4F2
330
9
100
AcDbSymbolTableRecord
100
AcDbRegAppTableRecord
  2
GEVID1210549917
 70
     0
  0
APPID
  5
4F3
330
9
100
AcDbSymbolTableRecord
100
AcDbRegAppTableRecord
  2
GENIUS_GENOBJ-N-CRS_13
 70
     0
  0
APPID
  5
4F4
330
9
100
AcDbSymbolTableRecord
100
AcDbRegAppTableRecord
  2
GEVID1210549918
 70
     0
  0
APPID
  5
4F5
330
9
100
AcDbSymbolTableRecord
100
AcDbRegAppTableRecord
  2
GENIUS_GENOBJ-N-CRC_13
 70
     0
  0
APPID
  5
4F6
330
9
100
AcDbSymbolTableRecord
100
AcDbRegAppTableRecord
  2
GENIUS_GENCRC_14
 70
     0
  0
APPID
  5
4F7
330
9
100
AcDbSymbolTableRecord
100
AcDbRegAppTableRecord
  2
GEVID1210549919
 70
     0
  0
APPID
  5
4F8
330
9
100
AcDbSymbolTableRecord
100
AcDbRegAppTableRecord
  2
GEVID1210549921
 70
     0
  0
APPID
  5
4F9
330
9
100
AcDbSymbolTableRecord
100
AcDbRegAppTableRecord
  2
GEVID1210549922
 70
     0
  0
APPID
  5
4FA
330
9
100
AcDbSymbolTableRecord
100
AcDbRegAppTableRecord
  2
GEVID1210635173
 70
     0
  0
APPID
  5
4FB
330
9
100
AcDbSymbolTableRecord
100
AcDbRegAppTableRecord
  2
GEVID1210635174
 70
     0
  0
APPID
  5
4FC
330
9
100
AcDbSymbolTableRecord
100
AcDbRegAppTableRecord
  2
GEVID1210635175
 70
     0
  0
APPID
  5
4FD
330
9
100
AcDbSymbolTableRecord
100
AcDbRegAppTableRecord
  2
GEVID1210635176
 70
     0
  0
APPID
  5
4FE
330
9
100
AcDbSymbolTableRecord
100
AcDbRegAppTableRecord
  2
GEVID1210635177
 70
     0
  0
APPID
  5
4FF
330
9
100
AcDbSymbolTableRecord
100
AcDbRegAppTableRecord
  2
GEVID1210635178
 70
     0
  0
APPID
  5
500
330
9
100
AcDbSymbolTableRecord
100
AcDbRegAppTableRecord
  2
GENIUS_GENIUS_GENBHEDTMP_13
 70
     0
  0
APPID
  5
501
330
9
100
AcDbSymbolTableRecord
100
AcDbRegAppTableRecord
  2
GEVID1210635179
 70
     0
  0
APPID
  5
502
330
9
100
AcDbSymbolTableRecord
100
AcDbRegAppTableRecord
  2
GEVID1210635180
 70
     0
  0
APPID
  5
503
330
9
100
AcDbSymbolTableRecord
100
AcDbRegAppTableRecord
  2
GEVID1210635181
 70
     0
  0
APPID
  5
504
330
9
100
AcDbSymbolTableRecord
100
AcDbRegAppTableRecord
  2
GEVID1210635182
 70
     0
  0
APPID
  5
505
330
9
100
AcDbSymbolTableRecord
100
AcDbRegAppTableRecord
  2
GEVID1210635184
 70
     0
  0
APPID
  5
506
330
9
100
AcDbSymbolTableRecord
100
AcDbRegAppTableRecord
  2
GEVID1210635185
 70
     0
  0
APPID
  5
507
330
9
100
AcDbSymbolTableRecord
100
AcDbRegAppTableRecord
  2
GEVID1210635186
 70
     0
  0
APPID
  5
508
330
9
100
AcDbSymbolTableRecord
100
AcDbRegAppTableRecord
  2
GEVID1210635187
 70
     0
  0
APPID
  5
509
330
9
100
AcDbSymbolTableRecord
100
AcDbRegAppTableRecord
  2
GEVID1210635188
 70
     0
  0
APPID
  5
50A
330
9
100
AcDbSymbolTableRecord
100
AcDbRegAppTableRecord
  2
GEVID1210635189
 70
     0
  0
APPID
  5
50B
330
9
100
AcDbSymbolTableRecord
100
AcDbRegAppTableRecord
  2
GEVID1210635190
 70
     0
  0
APPID
  5
50C
330
9
100
AcDbSymbolTableRecord
100
AcDbRegAppTableRecord
  2
GENIUS_GENREC_14
 70
     0
  0
APPID
  5
50D
330
9
100
AcDbSymbolTableRecord
100
AcDbRegAppTableRecord
  2
GENIUS_GENOBJ-N-REC_13
 70
     0
  0
APPID
  5
50E
330
9
100
AcDbSymbolTableRecord
100
AcDbRegAppTableRecord
  2
GEVID1210676655
 70
     0
  0
APPID
  5
50F
330
9
100
AcDbSymbolTableRecord
100
AcDbRegAppTableRecord
  2
GEVID1210676656
 70
     0
  0
APPID
  5
510
330
9
100
AcDbSymbolTableRecord
100
AcDbRegAppTableRecord
  2
GEVID1210676657
 70
     0
  0
APPID
  5
511
330
9
100
AcDbSymbolTableRecord
100
AcDbRegAppTableRecord
  2
GEVID1210676659
 70
     0
  0
APPID
  5
512
330
9
100
AcDbSymbolTableRecord
100
AcDbRegAppTableRecord
  2
GEVID1210676660
 70
     0
  0
APPID
  5
513
330
9
100
AcDbSymbolTableRecord
100
AcDbRegAppTableRecord
  2
GEVID1210676661
 70
     0
  0
APPID
  5
514
330
9
100
AcDbSymbolTableRecord
100
AcDbRegAppTableRecord
  2
GEVID1210676662
 70
     0
  0
APPID
  5
515
330
9
100
AcDbSymbolTableRecord
100
AcDbRegAppTableRecord
  2
GEVID1210721646
 70
     0
  0
APPID
  5
516
330
9
100
AcDbSymbolTableRecord
100
AcDbRegAppTableRecord
  2
GEVID1210721647
 70
     0
  0
APPID
  5
517
330
9
100
AcDbSymbolTableRecord
100
AcDbRegAppTableRecord
  2
GEVID1210721648
 70
     0
  0
APPID
  5
518
330
9
100
AcDbSymbolTableRecord
100
AcDbRegAppTableRecord
  2
GEVID1210721649
 70
     0
  0
APPID
  5
519
330
9
100
AcDbSymbolTableRecord
100
AcDbRegAppTableRecord
  2
GEVID1210721650
 70
     0
  0
APPID
  5
51A
330
9
100
AcDbSymbolTableRecord
100
AcDbRegAppTableRecord
  2
GEVID1210721651
 70
     0
  0
APPID
  5
51B
330
9
100
AcDbSymbolTableRecord
100
AcDbRegAppTableRecord
  2
GEVID1210721652
 70
     0
  0
APPID
  5
51C
330
9
100
AcDbSymbolTableRecord
100
AcDbRegAppTableRecord
  2
GEVID1210721653
 70
     0
  0
APPID
  5
51D
330
9
100
AcDbSymbolTableRecord
100
AcDbRegAppTableRecord
  2
PE_URL
 70
     0
  0
APPID
  5
51E
330
9
100
AcDbSymbolTableRecord
100
AcDbRegAppTableRecord
  2
GEVID1210825555
 70
     0
  0
APPID
  5
51F
330
9
100
AcDbSymbolTableRecord
100
AcDbRegAppTableRecord
  2
GEVID1210825556
 70
     0
  0
APPID
  5
520
330
9
100
AcDbSymbolTableRecord
100
AcDbRegAppTableRecord
  2
GEVID1210825557
 70
     0
  0
APPID
  5
521
330
9
100
AcDbSymbolTableRecord
100
AcDbRegAppTableRecord
  2
GEVID1210825558
 70
     0
  0
APPID
  5
522
330
9
100
AcDbSymbolTableRecord
100
AcDbRegAppTableRecord
  2
GEVID1210825559
 70
     0
  0
APPID
  5
523
330
9
100
AcDbSymbolTableRecord
100
AcDbRegAppTableRecord
  2
GEVID1210825560
 70
     0
  0
APPID
  5
524
330
9
100
AcDbSymbolTableRecord
100
AcDbRegAppTableRecord
  2
GEVID1210825561
 70
     0
  0
APPID
  5
525
330
9
100
AcDbSymbolTableRecord
100
AcDbRegAppTableRecord
  2
GEVID1210825562
 70
     0
  0
APPID
  5
526
330
9
100
AcDbSymbolTableRecord
100
AcDbRegAppTableRecord
  2
GEVID1210825563
 70
     0
  0
APPID
  5
527
330
9
100
AcDbSymbolTableRecord
100
AcDbRegAppTableRecord
  2
GEVID1210825564
 70
     0
  0
APPID
  5
528
330
9
100
AcDbSymbolTableRecord
100
AcDbRegAppTableRecord
  2
GEVID1210825565
 70
     0
  0
APPID
  5
529
330
9
100
AcDbSymbolTableRecord
100
AcDbRegAppTableRecord
  2
GEVID1210825566
 70
     0
  0
APPID
  5
52A
330
9
100
AcDbSymbolTableRecord
100
AcDbRegAppTableRecord
  2
GEVID1210825567
 70
     0
  0
APPID
  5
52B
330
9
100
AcDbSymbolTableRecord
100
AcDbRegAppTableRecord
  2
GENIUS_GENOBJ-N-ZOO_13
 70
     0
  0
APPID
  5
52C
330
9
100
AcDbSymbolTableRecord
100
AcDbRegAppTableRecord
  2
GENIUS_GENZOO_17
 70
     0
  0
APPID
  5
52D
330
9
100
AcDbSymbolTableRecord
100
AcDbRegAppTableRecord
  2
ACADANNOTATIVEDECOMPOSITION
 70
     0
  0
APPID
  5
52E
330
9
100
AcDbSymbolTableRecord
100
AcDbRegAppTableRecord
  2
GENIUS_GENOBJ-N-HTC_13
 70
     0
  0
APPID
  5
52F
330
9
100
AcDbSymbolTableRecord
100
AcDbRegAppTableRecord
  2
GENIUS_GENHATCH_13
 70
     0
  0
APPID
  5
530
330
9
100
AcDbSymbolTableRecord
100
AcDbRegAppTableRecord
  2
GEVID1210896020
 70
     0
  0
APPID
  5
531
330
9
100
AcDbSymbolTableRecord
100
AcDbRegAppTableRecord
  2
GEVID1210896021
 70
     0
  0
APPID
  5
532
330
9
100
AcDbSymbolTableRecord
100
AcDbRegAppTableRecord
  2
GEVID1209083540
 70
     0
  0
APPID
  5
533
330
9
100
AcDbSymbolTableRecord
100
AcDbRegAppTableRecord
  2
GEVMK
 70
     0
  0
APPID
  5
534
330
9
100
AcDbSymbolTableRecord
100
AcDbRegAppTableRecord
  2
GEVID1209083542
 70
     0
  0
APPID
  5
535
330
9
100
AcDbSymbolTableRecord
100
AcDbRegAppTableRecord
  2
GEVID1209083543
 70
     0
  0
APPID
  5
536
330
9
100
AcDbSymbolTableRecord
100
AcDbRegAppTableRecord
  2
GEVID1209083544
 70
     0
  0
APPID
  5
537
330
9
100
AcDbSymbolTableRecord
100
AcDbRegAppTableRecord
  2
GEVID1209083545
 70
     0
  0
APPID
  5
538
330
9
100
AcDbSymbolTableRecord
100
AcDbRegAppTableRecord
  2
GEVID1209083546
 70
     0
  0
APPID
  5
539
330
9
100
AcDbSymbolTableRecord
100
AcDbRegAppTableRecord
  2
GEVID1209083547
 70
     0
  0
APPID
  5
53A
330
9
100
AcDbSymbolTableRecord
100
AcDbRegAppTableRecord
  2
GEVID1209083548
 70
     0
  0
APPID
  5
53B
330
9
100
AcDbSymbolTableRecord
100
AcDbRegAppTableRecord
  2
GEVID1209083549
 70
     0
  0
APPID
  5
53C
330
9
100
AcDbSymbolTableRecord
100
AcDbRegAppTableRecord
  2
GEVID1209083550
 70
     0
  0
APPID
  5
53D
330
9
100
AcDbSymbolTableRecord
100
AcDbRegAppTableRecord
  2
GEVID1209083551
 70
     0
  0
APPID
  5
53E
330
9
100
AcDbSymbolTableRecord
100
AcDbRegAppTableRecord
  2
GEVID1209083552
 70
     0
  0
APPID
  5
53F
330
9
100
AcDbSymbolTableRecord
100
AcDbRegAppTableRecord
  2
GEVID1209083553
 70
     0
  0
APPID
  5
540
330
9
100
AcDbSymbolTableRecord
100
AcDbRegAppTableRecord
  2
GEVID1210896022
 70
     0
  0
APPID
  5
541
330
9
100
AcDbSymbolTableRecord
100
AcDbRegAppTableRecord
  2
GEVID1211508364
 70
     0
  0
APPID
  5
542
330
9
100
AcDbSymbolTableRecord
100
AcDbRegAppTableRecord
  2
GEVID1211414908
 70
     0
  0
APPID
  5
543
330
9
100
AcDbSymbolTableRecord
100
AcDbRegAppTableRecord
  2
GEVID1211414909
 70
     0
  0
APPID
  5
544
330
9
100
AcDbSymbolTableRecord
100
AcDbRegAppTableRecord
  2
GEVID1211508359
 70
     0
  0
APPID
  5
545
330
9
100
AcDbSymbolTableRecord
100
AcDbRegAppTableRecord
  2
GEVID1211508360
 70
     0
  0
APPID
  5
546
330
9
100
AcDbSymbolTableRecord
100
AcDbRegAppTableRecord
  2
GEVID1211508361
 70
     0
  0
APPID
  5
547
330
9
100
AcDbSymbolTableRecord
100
AcDbRegAppTableRecord
  2
GEVID1211508362
 70
     0
  0
APPID
  5
548
330
9
100
AcDbSymbolTableRecord
100
AcDbRegAppTableRecord
  2
GEVID1211508363
 70
     0
  0
APPID
  5
549
330
9
100
AcDbSymbolTableRecord
100
AcDbRegAppTableRecord
  2
GEVID1211878469
 70
     0
  0
APPID
  5
54A
330
9
100
AcDbSymbolTableRecord
100
AcDbRegAppTableRecord
  2
GEVID1212642819
 70
     0
  0
APPID
  5
54B
330
9
100
AcDbSymbolTableRecord
100
AcDbRegAppTableRecord
  2
GEVID1212642820
 70
     0
  0
APPID
  5
54C
330
9
100
AcDbSymbolTableRecord
100
AcDbRegAppTableRecord
  2
GEVID1212642821
 70
     0
  0
APPID
  5
54D
330
9
100
AcDbSymbolTableRecord
100
AcDbRegAppTableRecord
  2
GEVID1212642822
 70
     0
  0
APPID
  5
54E
330
9
100
AcDbSymbolTableRecord
100
AcDbRegAppTableRecord
  2
GEVID1212642823
 70
     0
  0
APPID
  5
54F
330
9
100
AcDbSymbolTableRecord
100
AcDbRegAppTableRecord
  2
GEVID1212642825
 70
     0
  0
APPID
  5
550
330
9
100
AcDbSymbolTableRecord
100
AcDbRegAppTableRecord
  2
GEVID1212642826
 70
     0
  0
APPID
  5
551
330
9
100
AcDbSymbolTableRecord
100
AcDbRegAppTableRecord
  2
GEVID1212642827
 70
     0
  0
APPID
  5
552
330
9
100
AcDbSymbolTableRecord
100
AcDbRegAppTableRecord
  2
GEVID1212642828
 70
     0
  0
APPID
  5
553
330
9
100
AcDbSymbolTableRecord
100
AcDbRegAppTableRecord
  2
GEVID1212642831
 70
     0
  0
APPID
  5
554
330
9
100
AcDbSymbolTableRecord
100
AcDbRegAppTableRecord
  2
GEVID1212642834
 70
     0
  0
APPID
  5
555
330
9
100
AcDbSymbolTableRecord
100
AcDbRegAppTableRecord
  2
GEVID1212642835
 70
     0
  0
APPID
  5
556
330
9
100
AcDbSymbolTableRecord
100
AcDbRegAppTableRecord
  2
GEVID1212642836
 70
     0
  0
APPID
  5
557
330
9
100
AcDbSymbolTableRecord
100
AcDbRegAppTableRecord
  2
GEVID1212642837
 70
     0
  0
APPID
  5
558
330
9
100
AcDbSymbolTableRecord
100
AcDbRegAppTableRecord
  2
GEVID1212642839
 70
     0
  0
APPID
  5
559
330
9
100
AcDbSymbolTableRecord
100
AcDbRegAppTableRecord
  2
GEVID1212642840
 70
     0
  0
APPID
  5
55A
330
9
100
AcDbSymbolTableRecord
100
AcDbRegAppTableRecord
  2
GEVID1212642841
 70
     0
  0
APPID
  5
55B
330
9
100
AcDbSymbolTableRecord
100
AcDbRegAppTableRecord
  2
GEVID1212655312
 70
     0
  0
APPID
  5
55C
330
9
100
AcDbSymbolTableRecord
100
AcDbRegAppTableRecord
  2
GEVID1212655313
 70
     0
  0
APPID
  5
55D
330
9
100
AcDbSymbolTableRecord
100
AcDbRegAppTableRecord
  2
GEVID1212656533
 70
     0
  0
APPID
  5
55E
330
9
100
AcDbSymbolTableRecord
100
AcDbRegAppTableRecord
  2
GEVID1212656534
 70
     0
  0
APPID
  5
55F
330
9
100
AcDbSymbolTableRecord
100
AcDbRegAppTableRecord
  2
GEVID1212656535
 70
     0
  0
APPID
  5
560
330
9
100
AcDbSymbolTableRecord
100
AcDbRegAppTableRecord
  2
GEVID1212656536
 70
     0
  0
APPID
  5
561
330
9
100
AcDbSymbolTableRecord
100
AcDbRegAppTableRecord
  2
GEVID1212656538
 70
     0
  0
APPID
  5
562
330
9
100
AcDbSymbolTableRecord
100
AcDbRegAppTableRecord
  2
GEVID1212656541
 70
     0
  0
APPID
  5
563
330
9
100
AcDbSymbolTableRecord
100
AcDbRegAppTableRecord
  2
GEVID1212656543
 70
     0
  0
APPID
  5
564
330
9
100
AcDbSymbolTableRecord
100
AcDbRegAppTableRecord
  2
GENIUS_GENOBJ-F-PFASSM_13
 70
     0
  0
APPID
  5
565
330
9
100
AcDbSymbolTableRecord
100
AcDbRegAppTableRecord
  2
GEVID1212656544
 70
     0
  0
APPID
  5
566
330
9
100
AcDbSymbolTableRecord
100
AcDbRegAppTableRecord
  2
GEVID1212656545
 70
     0
  0
APPID
  5
567
330
9
100
AcDbSymbolTableRecord
100
AcDbRegAppTableRecord
  2
GEVID1212656546
 70
     0
  0
APPID
  5
568
330
9
100
AcDbSymbolTableRecord
100
AcDbRegAppTableRecord
  2
GEVID1212656547
 70
     0
  0
APPID
  5
569
330
9
100
AcDbSymbolTableRecord
100
AcDbRegAppTableRecord
  2
GEVID1212656548
 70
     0
  0
APPID
  5
56A
330
9
100
AcDbSymbolTableRecord
100
AcDbRegAppTableRecord
  2
GEVID1212656549
 70
     0
  0
APPID
  5
56B
330
9
100
AcDbSymbolTableRecord
100
AcDbRegAppTableRecord
  2
GEVID1212656550
 70
     0
  0
APPID
  5
56C
330
9
100
AcDbSymbolTableRecord
100
AcDbRegAppTableRecord
  2
GEVID1212656552
 70
     0
  0
APPID
  5
56D
330
9
100
AcDbSymbolTableRecord
100
AcDbRegAppTableRecord
  2
GEVID1212656553
 70
     0
  0
APPID
  5
56E
330
9
100
AcDbSymbolTableRecord
100
AcDbRegAppTableRecord
  2
GEVID1212656554
 70
     0
  0
APPID
  5
56F
330
9
100
AcDbSymbolTableRecord
100
AcDbRegAppTableRecord
  2
GEVID1212656555
 70
     0
  0
APPID
  5
570
330
9
100
AcDbSymbolTableRecord
100
AcDbRegAppTableRecord
  2
GEVID1212656556
 70
     0
  0
APPID
  5
571
330
9
100
AcDbSymbolTableRecord
100
AcDbRegAppTableRecord
  2
GEVID1212656557
 70
     0
  0
APPID
  5
572
330
9
100
AcDbSymbolTableRecord
100
AcDbRegAppTableRecord
  2
GEVID1212656559
 70
     0
  0
APPID
  5
573
330
9
100
AcDbSymbolTableRecord
100
AcDbRegAppTableRecord
  2
GEVID1212656560
 70
     0
  0
APPID
  5
574
330
9
100
AcDbSymbolTableRecord
100
AcDbRegAppTableRecord
  2
GEVID1212656561
 70
     0
  0
APPID
  5
575
330
9
100
AcDbSymbolTableRecord
100
AcDbRegAppTableRecord
  2
GEVID1212656562
 70
     0
  0
APPID
  5
576
330
9
100
AcDbSymbolTableRecord
100
AcDbRegAppTableRecord
  2
GEVID1212656563
 70
     0
  0
APPID
  5
577
330
9
100
AcDbSymbolTableRecord
100
AcDbRegAppTableRecord
  2
GEVID1212711781
 70
     0
  0
APPID
  5
578
330
9
100
AcDbSymbolTableRecord
100
AcDbRegAppTableRecord
  2
GEVID1212711782
 70
     0
  0
APPID
  5
579
330
9
100
AcDbSymbolTableRecord
100
AcDbRegAppTableRecord
  2
GEVID1212711783
 70
     0
  0
APPID
  5
57A
330
9
100
AcDbSymbolTableRecord
100
AcDbRegAppTableRecord
  2
GEVID1212711784
 70
     0
  0
APPID
  5
57B
330
9
100
AcDbSymbolTableRecord
100
AcDbRegAppTableRecord
  2
GEVID1212711788
 70
     0
  0
APPID
  5
57C
330
9
100
AcDbSymbolTableRecord
100
AcDbRegAppTableRecord
  2
GEVID1212711789
 70
     0
  0
APPID
  5
57D
330
9
100
AcDbSymbolTableRecord
100
AcDbRegAppTableRecord
  2
GEVID1212711790
 70
     0
  0
APPID
  5
57E
330
9
100
AcDbSymbolTableRecord
100
AcDbRegAppTableRecord
  2
GEVID1212711791
 70
     0
  0
APPID
  5
57F
330
9
100
AcDbSymbolTableRecord
100
AcDbRegAppTableRecord
  2
GEVID1212711792
 70
     0
  0
APPID
  5
580
330
9
100
AcDbSymbolTableRecord
100
AcDbRegAppTableRecord
  2
GEVID1212711793
 70
     0
  0
APPID
  5
581
330
9
100
AcDbSymbolTableRecord
100
AcDbRegAppTableRecord
  2
GEVID1212711794
 70
     0
  0
APPID
  5
582
330
9
100
AcDbSymbolTableRecord
100
AcDbRegAppTableRecord
  2
GEVID1212711795
 70
     0
  0
APPID
  5
583
330
9
100
AcDbSymbolTableRecord
100
AcDbRegAppTableRecord
  2
GEVID1212711797
 70
     0
  0
APPID
  5
584
330
9
100
AcDbSymbolTableRecord
100
AcDbRegAppTableRecord
  2
GEVID1212711798
 70
     0
  0
APPID
  5
585
330
9
100
AcDbSymbolTableRecord
100
AcDbRegAppTableRecord
  2
GEVID1212711799
 70
     0
  0
APPID
  5
586
330
9
100
AcDbSymbolTableRecord
100
AcDbRegAppTableRecord
  2
GEVID1212711800
 70
     0
  0
APPID
  5
587
330
9
100
AcDbSymbolTableRecord
100
AcDbRegAppTableRecord
  2
GEVID1212711801
 70
     0
  0
APPID
  5
588
330
9
100
AcDbSymbolTableRecord
100
AcDbRegAppTableRecord
  2
GEVID1212711802
 70
     0
  0
APPID
  5
589
330
9
100
AcDbSymbolTableRecord
100
AcDbRegAppTableRecord
  2
GEVID1212711803
 70
     0
  0
APPID
  5
58A
330
9
100
AcDbSymbolTableRecord
100
AcDbRegAppTableRecord
  2
GEVID1212711804
 70
     0
  0
APPID
  5
58B
330
9
100
AcDbSymbolTableRecord
100
AcDbRegAppTableRecord
  2
GEVID1212711805
 70
     0
  0
APPID
  5
58C
330
9
100
AcDbSymbolTableRecord
100
AcDbRegAppTableRecord
  2
GEVID1212711806
 70
     0
  0
APPID
  5
58D
330
9
100
AcDbSymbolTableRecord
100
AcDbRegAppTableRecord
  2
GEVID1212711807
 70
     0
  0
APPID
  5
58E
330
9
100
AcDbSymbolTableRecord
100
AcDbRegAppTableRecord
  2
GEVID1212711808
 70
     0
  0
APPID
  5
58F
330
9
100
AcDbSymbolTableRecord
100
AcDbRegAppTableRecord
  2
GEVID1212711809
 70
     0
  0
APPID
  5
590
330
9
100
AcDbSymbolTableRecord
100
AcDbRegAppTableRecord
  2
GEVID1212711810
 70
     0
  0
APPID
  5
591
330
9
100
AcDbSymbolTableRecord
100
AcDbRegAppTableRecord
  2
GEVID1212711811
 70
     0
  0
APPID
  5
90A
330
9
100
AcDbSymbolTableRecord
100
AcDbRegAppTableRecord
  2
GENIUS_GENTRA_14
 70
     0
  0
APPID
  5
919
330
9
100
AcDbSymbolTableRecord
100
AcDbRegAppTableRecord
  2
GENIUS_GENOBJ-N-TIT_13
 70
     0
  0
APPID
  5
91A
330
9
100
AcDbSymbolTableRecord
100
AcDbRegAppTableRecord
  2
GENIUS_GENTITLE_13
 70
     0
  0
APPID
  5
949
330
9
100
AcDbSymbolTableRecord
100
AcDbRegAppTableRecord
  2
GENIUS_GENBLLY_14
 70
     0
  0
APPID
  5
DDD
330
9
100
AcDbSymbolTableRecord
100
AcDbRegAppTableRecord
  2
GEVID1213165152
 70
     0
  0
APPID
  5
12F9
330
9
100
AcDbSymbolTableRecord
100
AcDbRegAppTableRecord
  2
AcDbDynamicBlockTrueName
 70
     0
  0
APPID
  5
12FA
330
9
100
AcDbSymbolTableRecord
100
AcDbRegAppTableRecord
  2
ACDBBLOCKREPETAG
 70
     0
  0
APPID
  5
1C15
330
9
100
AcDbSymbolTableRecord
100
AcDbRegAppTableRecord
  2
GEVID1214872427
 70
     0
  0
APPID
  5
1C2A
330
9
100
AcDbSymbolTableRecord
100
AcDbRegAppTableRecord
  2
GEVID1214872428
 70
     0
  0
APPID
  5
1C2F
330
9
100
AcDbSymbolTableRecord
100
AcDbRegAppTableRecord
  2
GEVID1214872429
 70
     0
  0
APPID
  5
1C33
330
9
100
AcDbSymbolTableRecord
100
AcDbRegAppTableRecord
  2
GEVID1214872430
 70
     0
  0
APPID
  5
1C3F
330
9
100
AcDbSymbolTableRecord
100
AcDbRegAppTableRecord
  2
GEVID1214872432
 70
     0
  0
APPID
  5
1C4E
330
9
100
AcDbSymbolTableRecord
100
AcDbRegAppTableRecord
  2
GEVID1214872433
 70
     0
  0
APPID
  5
20DC
330
9
100
AcDbSymbolTableRecord
100
AcDbRegAppTableRecord
  2
AcDbDynamicBlockGUID
 70
     0
  0
APPID
  5
20FD
330
9
100
AcDbSymbolTableRecord
100
AcDbRegAppTableRecord
  2
GENIUS_GENOBJ-N-REV_13
 70
     0
  0
APPID
  5
20FE
330
9
100
AcDbSymbolTableRecord
100
AcDbRegAppTableRecord
  2
GENIUS_GENOBJ-N-RSSYM_13
 70
     0
  0
APPID
  5
20FF
330
9
100
AcDbSymbolTableRecord
100
AcDbRegAppTableRecord
  2
GENIUS_GENSYMENT_13
 70
     0
  0
APPID
  5
2100
330
9
100
AcDbSymbolTableRecord
100
AcDbRegAppTableRecord
  2
GENIUS_GENSCSYM_13
 70
     0
  0
APPID
  5
57F1
330
9
100
AcDbSymbolTableRecord
100
AcDbRegAppTableRecord
  2
GEVID1239761836
 70
     0
  0
APPID
  5
57F6
330
9
100
AcDbSymbolTableRecord
100
AcDbRegAppTableRecord
  2
GEVID1239761837
 70
     0
  0
APPID
  5
6478
330
9
100
AcDbSymbolTableRecord
100
AcDbRegAppTableRecord
  2
GEVID1239761838
 70
     0
  0
APPID
  5
647D
330
9
100
AcDbSymbolTableRecord
100
AcDbRegAppTableRecord
  2
GEVID1239761839
 70
     0
  0
ENDTAB
  0
TABLE
  2
DIMSTYLE
  5
A
330
0
100
AcDbSymbolTable
 70
    29
100
AcDbDimStyleTable
 71
     1
340
5AB
  0
DIMSTYLE
105
5AB
330
A
100
AcDbSymbolTableRecord
100
AcDbDimStyleTableRecord
  2
SEISA
 70
     0
  4
"
 40
6.0
 41
2.5
 42
0.625
 43
10.0
 44
0.625
 47
0.1
 48
0.1
 73
     0
 74
     0
 77
     3
 78
     8
 79
     2
 90
     1
140
3.5
141
0.0
143
0.0393701
146
0.71
147
1.5
172
     1
176
     3
177
     3
178
     3
271
     2
272
     2
283
     0
286
     8
340
5D5
341
69
342
69
371
    -1
372
    -1
1001
ACAD_DSTYLE_DIMJAG
1070
   388
1040
1.5
1001
ACAD_DSTYLE_DIMTALN
1070
   392
1070
     1
  0
DIMSTYLE
105
5E9
102
{ACAD_REACTORS
330
5836
330
587B
330
58FB
330
592F
330
5A3E
330
5A68
330
5A80
330
5B16
330
5BC0
330
5C1E
330
9114
330
9151
330
918E
330
91FD
330
9DFF
330
9E29
330
9E5C
330
9E8F
330
9F71
102
}
330
A
100
AcDbSymbolTableRecord
100
AcDbDimStyleTableRecord
  2
SEISA$0
 70
     0
  4
"
 40
6.0
 41
2.5
 42
0.625
 43
10.0
 44
0.625
 47
0.1
 48
0.1
 73
     0
 74
     0
 77
     3
 78
     8
 79
     2
 90
     1
140
3.5
141
0.0
143
0.0393701
146
0.71
147
1.5
172
     1
176
     3
177
     3
178
     3
271
     2
272
     2
283
     0
286
     8
340
5D5
341
69
342
69
371
    -1
372
    -1
  0
DIMSTYLE
105
A2AA
330
A
100
AcDbSymbolTableRecord
100
AcDbDimStyleTableRecord
  2
AM_ISO
 70
     0
  4
"
 41
2.5
 42
1.0
 43
10.0
 44
1.0
 47
0.1
 48
0.1
 73
     0
 74
     0
 77
     1
 78
     8
 79
     2
 90
     1
140
3.5
141
0.0
143
0.0393701
146
0.71
147
1.5
172
     1
176
   256
177
   256
178
     2
271
     2
272
     3
274
     4
283
     0
284
     8
340
11
371
    -1
372
    -1
  0
DIMSTYLE
105
A2AB
330
A
100
AcDbSymbolTableRecord
100
AcDbDimStyleTableRecord
  2
AM_ISO$3
 70
     0
  4
"
 41
2.5
 42
1.0
 43
10.0
 44
1.0
 47
0.1
 48
0.1
 73
     0
 77
     1
 78
     8
 79
     2
 90
     1
140
3.5
141
0.0
143
0.0393701
146
0.71
147
1.5
176
   256
177
   256
178
     2
271
     2
272
     3
274
     4
283
     0
284
     8
288
     1
289
     0
340
11
371
    -1
372
    -1
  0
DIMSTYLE
105
A2AC
330
A
100
AcDbSymbolTableRecord
100
AcDbDimStyleTableRecord
  2
AM_ISO$4
 70
     0
  4
"
 41
2.5
 42
1.0
 43
10.0
 44
1.0
 47
0.1
 48
0.1
 73
     0
 77
     1
 78
     8
 79
     2
 90
     1
140
3.5
141
0.0
143
0.0393701
146
0.71
147
1.5
176
   256
177
   256
178
     2
271
     2
272
     3
274
     4
283
     0
284
     8
288
     1
289
     0
340
11
371
    -1
372
    -1
  0
DIMSTYLE
105
A2AD
330
A
100
AcDbSymbolTableRecord
100
AcDbDimStyleTableRecord
  2
AM_ISO$6
 70
     0
  4
"
 41
2.5
 42
1.0
 43
10.0
 44
1.0
 47
0.1
 48
0.1
 73
     0
 74
     0
 78
     8
 79
     2
 90
     1
140
3.5
141
0.0
143
0.0393701
146
0.71
147
1.5
172
     1
176
   256
177
   256
178
     2
271
     2
272
     3
274
     4
283
     0
284
     8
340
11
371
    -1
372
    -1
  0
DIMSTYLE
105
A2AE
330
A
100
AcDbSymbolTableRecord
100
AcDbDimStyleTableRecord
  2
AM_ISO$7
 70
     0
  4
"
 41
2.5
 42
1.0
 43
10.0
 44
1.0
 47
0.1
 48
0.1
 73
     0
 74
     0
 77
     1
 78
     8
 79
     2
 90
     1
140
5.0
141
0.0
143
0.0393701
146
0.71
147
1.5
172
     1
176
   256
177
   256
178
     2
271
     2
272
     3
274
     4
283
     0
284
     8
340
11
371
    -1
372
    -1
  0
DIMSTYLE
105
A2AF
330
A
100
AcDbSymbolTableRecord
100
AcDbDimStyleTableRecord
  2
AM_ISO$SF
 70
     0
  4
"
 41
2.5
 42
1.0
 43
10.0
 44
1.0
 47
0.1
 48
0.1
 73
     0
 74
     0
 75
     1
 76
     1
 77
     1
 78
     8
 79
     2
 90
     1
140
3.5
141
0.0
143
0.0393701
146
0.71
147
1.5
172
     1
176
   256
177
   256
178
     2
271
     2
272
     3
274
     4
283
     0
284
     8
340
11
371
    -1
372
    -1
  0
DIMSTYLE
105
A2B0
330
A
100
AcDbSymbolTableRecord
100
AcDbDimStyleTableRecord
  2
AM_ISO$SH
 70
     0
  4
"
 41
2.5
 42
1.0
 43
10.0
 44
1.0
 47
0.1
 48
0.1
 73
     0
 74
     0
 75
     1
 76
     1
 77
     1
 78
     8
 79
     2
 90
     1
140
3.5
141
0.0
143
0.0393701
144
2.0
146
0.71
147
1.5
172
     1
173
     1
176
   256
177
   256
178
     2
271
     2
272
     3
274
     4
283
     0
284
     8
340
11
343
74
371
    -1
372
    -1
  0
ENDTAB
  0
TABLE
  2
BLOCK_RECORD
  5
1
330
0
100
AcDbSymbolTable
 70
    38
  0
BLOCK_RECORD
  5
1F
102
{ACAD_XDICTIONARY
360
82
102
}
330
1
100
AcDbSymbolTableRecord
100
AcDbBlockTableRecord
  2
*Model_Space
340
22
 70
     0
280
     1
281
     0
  0
BLOCK_RECORD
  5
1B
330
1
100
AcDbSymbolTableRecord
100
AcDbBlockTableRecord
  2
*Paper_Space
340
1E
 70
     0
280
     1
281
     0
  0
BLOCK_RECORD
  5
23
330
1
100
AcDbSymbolTableRecord
100
AcDbBlockTableRecord
  2
*Paper_Space0
340
26
 70
     0
280
     1
281
     0
  0
BLOCK_RECORD
  5
69
330
1
100
AcDbSymbolTableRecord
100
AcDbBlockTableRecord
  2
_Open30
340
0
102
{BLKREFS
331
9614
331
9615
331
9631
331
9632
331
963A
331
963B
331
9643
331
9644
331
964C
331
964D
331
9658
331
9660
331
9661
331
9669
331
966A
331
9703
331
970E
331
9719
331
9729
331
972A
331
9CE8
331
9CE9
331
9CF1
331
9CF2
331
9E23
331
9E24
331
9ED1
331
9ED2
331
9EDC
331
9EDD
331
9F95
331
9F96
331
A116
331
A117
102
}
 70
     0
280
     1
281
     0
  0
BLOCK_RECORD
  5
74
330
1
100
AcDbSymbolTableRecord
100
AcDbBlockTableRecord
  2
GENAXEH
340
0
 70
     0
280
     1
281
     0
  0
BLOCK_RECORD
  5
380C
102
{ACAD_XDICTIONARY
360
380D
102
}
330
1
100
AcDbSymbolTableRecord
100
AcDbBlockTableRecord
  2
ロッカクアナツキプラグA R1／2
340
0
310
2800000020000000200000000100080000000000000400000000000000000000000000000000000000000000000080000080000000808000800000008000800080800000C0C0C000C0DCC000F0CAA6000020400000206000002080000020A0000020C0000020E00000400000004020000040400000406000004080000040A0
310
000040C0000040E00000600000006020000060400000606000006080000060A0000060C0000060E00000800000008020000080400000806000008080000080A0000080C0000080E00000A0000000A0200000A0400000A0600000A0800000A0A00000A0C00000A0E00000C0000000C0200000C0400000C0600000C0800000C0
310
A00000C0C00000C0E00000E0000000E0200000E0400000E0600000E0800000E0A00000E0C00000E0E00040000000400020004000400040006000400080004000A0004000C0004000E00040200000402020004020400040206000402080004020A0004020C0004020E000404000004040200040404000404060004040800040
310
40A0004040C0004040E00040600000406020004060400040606000406080004060A0004060C0004060E00040800000408020004080400040806000408080004080A0004080C0004080E00040A0000040A0200040A0400040A0600040A0800040A0A00040A0C00040A0E00040C0000040C0200040C0400040C0600040C08000
310
40C0A00040C0C00040C0E00040E0000040E0200040E0400040E0600040E0800040E0A00040E0C00040E0E00080000000800020008000400080006000800080008000A0008000C0008000E00080200000802020008020400080206000802080008020A0008020C0008020E00080400000804020008040400080406000804080
310
008040A0008040C0008040E00080600000806020008060400080606000806080008060A0008060C0008060E00080800000808020008080400080806000808080008080A0008080C0008080E00080A0000080A0200080A0400080A0600080A0800080A0A00080A0C00080A0E00080C0000080C0200080C0400080C0600080C0
310
800080C0A00080C0C00080C0E00080E0000080E0200080E0400080E0600080E0800080E0A00080E0C00080E0E000C0000000C0002000C0004000C0006000C0008000C000A000C000C000C000E000C0200000C0202000C0204000C0206000C0208000C020A000C020C000C020E000C0400000C0402000C0404000C0406000C0
310
408000C040A000C040C000C040E000C0600000C0602000C0604000C0606000C0608000C060A000C060C000C060E000C0800000C0802000C0804000C0806000C0808000C080A000C080C000C080E000C0A00000C0A02000C0A04000C0A06000C0A08000C0A0A000C0A0C000C0A0E000C0C00000C0C02000C0C04000C0C06000
310
C0C08000C0C0A000F0FBFF00A4A0A000808080000000FF0000FF000000FFFF00FF000000FF00FF00FFFF0000FFFFFF00000000000000000000000000000000000000000000000000000000000000000000000000000000000000000000000000F9000000000000000000000000000000000000000000000000000000000000
310
00F900000000000000000000000000000000000000000000000000000000000000F900000000000000000000000000000000000000000000000000000000000000F900000000000000000000000000000000000000000000000000000000000000F90000000000000000000000000000000000000000000000000000000000
310
0000F900000000000000000000000000000000000000000000000000000000000000F900000000000000000000000000000000000000000000000000000000000000F9000000000000000000000000000000000000000000000000FFFFFFFFFFFFFFFFFFFFFFFFFFFF00000000000000000000000000000000FFFF00000000
310
000000F9000000000000FFFF000000000000000000000000FFFFFFFFFFFFFFFFFFFFFFFFFFFFFFFFFFFFFFFFFFFF00000000000000000000FFFE000000000000000000F90000000000000000FEFF00000000000000000000FFFE000000000000000000F90000000000000000FEFF00000000000000000000FFFE0000000000
310
00000000F90000000000000000FEFF00000000000000000000FFFE000000000000000000F90000000000000000FEFF00000000000000000000FFFE000000000000000000F90000000000000000FEFF00000000000000000000FFFE000000000000000000F90000000000000000FEFF00000000000000000000FFFE00000000
310
0000000000F90000000000000000FEFF00000000000000000000FFFE000000000000000000F90000000000000000FEFF00000000000000000000FFFE000000000000000000F90000000000000000FEFF00000000000000000000FFFE000000000000000000F90000000000000000FEFF00000000000000000000FFFE000000
310
000000000000F90000000000000000FEFF00000000000000000000FFFFFFFFFFFFFFFFFFFFFFFFFFFFFFFFFFFFFFFFFFFF0000000000000000000000FF000000000000000000F90000000000000000FF00000000000000000000000000000000000000000000F9000000000000000000000000000000000000000000000000
310
00000000000000F900000000000000000000000000000000000000000000000000000000000000F900000000000000000000000000000000000000000000000000000000000000F900000000000000000000000000000000000000000000000000000000000000F90000000000000000000000000000000000000000000000
310
0000000000000000F90000000000000000000000000000000000000000000000000000000000000000000000000000000000000000000000
102
{BLKREFS
331
4D66
102
}
 70
     4
280
     1
281
     0
  0
BLOCK_RECORD
  5
3A85
330
1
100
AcDbSymbolTableRecord
100
AcDbBlockTableRecord
  2
GENDOT
340
0
102
{BLKREFS
331
9657
331
9702
331
970D
331
9718
102
}
 70
     0
280
     1
281
     0
  0
BLOCK_RECORD
  5
4D27
102
{ACAD_XDICTIONARY
360
4DF4
102
}
330
1
100
AcDbSymbolTableRecord
100
AcDbBlockTableRecord
  2
ケースＡ-A CAMHY500
340
0
310
2800000020000000200000000100080000000000000400000000000000000000000000000000000000000000000080000080000000808000800000008000800080800000C0C0C000C0DCC000F0CAA6000020400000206000002080000020A0000020C0000020E00000400000004020000040400000406000004080000040A0
310
000040C0000040E00000600000006020000060400000606000006080000060A0000060C0000060E00000800000008020000080400000806000008080000080A0000080C0000080E00000A0000000A0200000A0400000A0600000A0800000A0A00000A0C00000A0E00000C0000000C0200000C0400000C0600000C0800000C0
310
A00000C0C00000C0E00000E0000000E0200000E0400000E0600000E0800000E0A00000E0C00000E0E00040000000400020004000400040006000400080004000A0004000C0004000E00040200000402020004020400040206000402080004020A0004020C0004020E000404000004040200040404000404060004040800040
310
40A0004040C0004040E00040600000406020004060400040606000406080004060A0004060C0004060E00040800000408020004080400040806000408080004080A0004080C0004080E00040A0000040A0200040A0400040A0600040A0800040A0A00040A0C00040A0E00040C0000040C0200040C0400040C0600040C08000
310
40C0A00040C0C00040C0E00040E0000040E0200040E0400040E0600040E0800040E0A00040E0C00040E0E00080000000800020008000400080006000800080008000A0008000C0008000E00080200000802020008020400080206000802080008020A0008020C0008020E00080400000804020008040400080406000804080
310
008040A0008040C0008040E00080600000806020008060400080606000806080008060A0008060C0008060E00080800000808020008080400080806000808080008080A0008080C0008080E00080A0000080A0200080A0400080A0600080A0800080A0A00080A0C00080A0E00080C0000080C0200080C0400080C0600080C0
310
800080C0A00080C0C00080C0E00080E0000080E0200080E0400080E0600080E0800080E0A00080E0C00080E0E000C0000000C0002000C0004000C0006000C0008000C000A000C000C000C000E000C0200000C0202000C0204000C0206000C0208000C020A000C020C000C020E000C0400000C0402000C0404000C0406000C0
310
408000C040A000C040C000C040E000C0600000C0602000C0604000C0606000C0608000C060A000C060C000C060E000C0800000C0802000C0804000C0806000C0808000C080A000C080C000C080E000C0A00000C0A02000C0A04000C0A06000C0A08000C0A0A000C0A0C000C0A0E000C0C00000C0C02000C0C04000C0C06000
310
C0C08000C0C0A000F0FBFF00A4A0A000808080000000FF0000FF000000FFFF00FF000000FF00FF00FFFF0000FFFFFF000000000000000000000000000000000000000000000000000000000000000000000000000000000000000000FFFFFF0000000000000000000000000000000000000000000000000000000000FF00FF
310
0000000000000000000000000000000000000000000000000000000000FF00FF0000000000000000000000000000000000000000000000000000000000FF00FFFFFFFFFFFFFFFF00000000000000000000000000000000000000000000FF00FF00000000FFFFFF00000000000000000000000000000000000000000000FF00
310
FF00000000FFFFFF00000000000000000000000000000000000000000000FF00FF00000000FFFFFF00000000000000000000000000000000000000000000FF00FF00000000FFFFFF00000000000000000000000000000000000000000000FF00FF00000000FFFFFF00000000000000000000000000000000000000000000FF
310
00FF00000000FFFFFF00000000000000000000000000000000000000000000FF00FF00000000FFFFFF00000000000000000000000000000000000000000000FF00FF00000000FFFFFF00000000000000000000000000000000000000000000FF00FF00000000FFFFFF00000000000000000000000000000000000000000000
310
FF00FF00000000FFFFFF00000000000000000000000000000000000000000000FF00FF00000000FFFFFF00000000000000000000000000000000000000000000FF00FF00000000FFFFFF0000000000000000000000000000000000000000000000000000000000000000000000000000000000000000000000000000000000
310
00000000000000000000000000000000000000000000000000000000000000000000000000000000000000000000000000000000000000000000000000000000000000000000000000000000000000000000000000000000000000000000000000000000000000000000000000000000000000000000000000000000000000
310
000000000000000000000000000000000000000000000000000000000000000000000000000000000000000000000000000000000000000000000000000000000000000000000000000000000000000000000000000000000000000000000000000000000000FFFFA4A4FFFF00000000000000000000000000000000000000
310
000000FFFFFFFFFFF9F9F9F9FF00000000000000000000000000000000000000000000FFFFFFFFFFFFFFFFFFFFFF000000000000000000000000000000000000000000FFFFFF0000000000000000000000000000000000000000000000000000F9F9F9FFFFFFF9000000000000000000000000000000000000000000000000
310
00000000FFFFFF00000000000000000000000000000000000000000000000000000000000000000000000000000000000000000000000000
102
{BLKREFS
331
4D69
102
}
 70
     4
280
     1
281
     0
  0
BLOCK_RECORD
  5
4EC2
102
{ACAD_XDICTIONARY
360
4F73
102
}
330
1
100
AcDbSymbolTableRecord
100
AcDbBlockTableRecord
  2
ケースA-Ｂ CAMHY500
340
0
310
2800000020000000200000000100080000000000000400000000000000000000000000000000000000000000000080000080000000808000800000008000800080800000C0C0C000C0DCC000F0CAA6000020400000206000002080000020A0000020C0000020E00000400000004020000040400000406000004080000040A0
310
000040C0000040E00000600000006020000060400000606000006080000060A0000060C0000060E00000800000008020000080400000806000008080000080A0000080C0000080E00000A0000000A0200000A0400000A0600000A0800000A0A00000A0C00000A0E00000C0000000C0200000C0400000C0600000C0800000C0
310
A00000C0C00000C0E00000E0000000E0200000E0400000E0600000E0800000E0A00000E0C00000E0E00040000000400020004000400040006000400080004000A0004000C0004000E00040200000402020004020400040206000402080004020A0004020C0004020E000404000004040200040404000404060004040800040
310
40A0004040C0004040E00040600000406020004060400040606000406080004060A0004060C0004060E00040800000408020004080400040806000408080004080A0004080C0004080E00040A0000040A0200040A0400040A0600040A0800040A0A00040A0C00040A0E00040C0000040C0200040C0400040C0600040C08000
310
40C0A00040C0C00040C0E00040E0000040E0200040E0400040E0600040E0800040E0A00040E0C00040E0E00080000000800020008000400080006000800080008000A0008000C0008000E00080200000802020008020400080206000802080008020A0008020C0008020E00080400000804020008040400080406000804080
310
008040A0008040C0008040E00080600000806020008060400080606000806080008060A0008060C0008060E00080800000808020008080400080806000808080008080A0008080C0008080E00080A0000080A0200080A0400080A0600080A0800080A0A00080A0C00080A0E00080C0000080C0200080C0400080C0600080C0
310
800080C0A00080C0C00080C0E00080E0000080E0200080E0400080E0600080E0800080E0A00080E0C00080E0E000C0000000C0002000C0004000C0006000C0008000C000A000C000C000C000E000C0200000C0202000C0204000C0206000C0208000C020A000C020C000C020E000C0400000C0402000C0404000C0406000C0
310
408000C040A000C040C000C040E000C0600000C0602000C0604000C0606000C0608000C060A000C060C000C060E000C0800000C0802000C0804000C0806000C0808000C080A000C080C000C080E000C0A00000C0A02000C0A04000C0A06000C0A08000C0A0A000C0A0C000C0A0E000C0C00000C0C02000C0C04000C0C06000
310
C0C08000C0C0A000F0FBFF00A4A0A000808080000000FF0000FF000000FFFF00FF000000FF00FF00FFFF0000FFFFFF000000000000000000000000000000000000000000000000000000000000000000000000000000000000000000000000000000FFFF000000000000000000000000000000000000000000000000000000
310
000000F9F9F9F900000000000000000000000000000000000000000000000000000000FF0000000000000000000000000000000000000000000000FFFFFFFFFFFFFFFFFF000000000000000000000000000000000000000000000000FFFFFF00000000FF000000000000000000000000000000000000000000000000FFFFFF
310
00000000FF000000000000000000000000000000000000000000000000FFFFFF00000000FF000000000000000000000000000000000000000000000000FFFFFF00000000FF000000000000000000000000000000000000000000000000FFFFFF00000000FF000000000000000000000000000000000000000000000000FFFF
310
FF00000000FF000000000000000000000000000000000000000000000000FFFFFF00000000FF000000000000000000000000000000000000000000000000FFFFFF00000000FF000000000000000000000000000000000000000000000000FFFFFF00000000FF000000000000000000000000000000000000000000000000FF
310
FFFF00000000FF000000000000000000000000000000000000000000000000FFFFFF00000000FF000000000000000000000000000000000000000000000000FFFFFF00000000FF0000000000000000000000000000000000000000000000000000000000000000000000000000000000000000000000000000000000000000
310
00000000000000000000000000000000000000000000000000000000000000000000000000000000000000000000000000000000000000000000000000000000000000000000000000000000000000000000000000000000000000000000000000000000000000000000000000000000000000000000000000000000000000
310
00000000000000000000000000000000000000000000000000000000000000000000000000000000000000000000000000000000000000000000000000000000000000000000000000000000000000000000000000000000000000000000000000FFA4A4A4FF00000000000000000000000000000000000000000000000000
310
0000FFF9F9F9FFFFFFFFFF00000000000000000000000000000000000000000000FFFFFFFFFFFFFFFFFFFF000000000000000000000000000000000000000000000000000000000000FFFF000000000000000000000000000000000000000000000000000000000000FFFF0000000000000000000000000000000000000000
310
00000000000000000000FFFF0000000000000000000000000000000000000000000000000000000000000000000000000000000000000000
102
{BLKREFS
331
4EF8
102
}
 70
     4
280
     1
281
     0
  0
BLOCK_RECORD
  5
4FD2
102
{ACAD_XDICTIONARY
360
5049
102
}
330
1
100
AcDbSymbolTableRecord
100
AcDbBlockTableRecord
  2
センタＡ CAMHY500
340
0
310
2800000020000000200000000100080000000000000400000000000000000000000000000000000000000000000080000080000000808000800000008000800080800000C0C0C000C0DCC000F0CAA6000020400000206000002080000020A0000020C0000020E00000400000004020000040400000406000004080000040A0
310
000040C0000040E00000600000006020000060400000606000006080000060A0000060C0000060E00000800000008020000080400000806000008080000080A0000080C0000080E00000A0000000A0200000A0400000A0600000A0800000A0A00000A0C00000A0E00000C0000000C0200000C0400000C0600000C0800000C0
310
A00000C0C00000C0E00000E0000000E0200000E0400000E0600000E0800000E0A00000E0C00000E0E00040000000400020004000400040006000400080004000A0004000C0004000E00040200000402020004020400040206000402080004020A0004020C0004020E000404000004040200040404000404060004040800040
310
40A0004040C0004040E00040600000406020004060400040606000406080004060A0004060C0004060E00040800000408020004080400040806000408080004080A0004080C0004080E00040A0000040A0200040A0400040A0600040A0800040A0A00040A0C00040A0E00040C0000040C0200040C0400040C0600040C08000
310
40C0A00040C0C00040C0E00040E0000040E0200040E0400040E0600040E0800040E0A00040E0C00040E0E00080000000800020008000400080006000800080008000A0008000C0008000E00080200000802020008020400080206000802080008020A0008020C0008020E00080400000804020008040400080406000804080
310
008040A0008040C0008040E00080600000806020008060400080606000806080008060A0008060C0008060E00080800000808020008080400080806000808080008080A0008080C0008080E00080A0000080A0200080A0400080A0600080A0800080A0A00080A0C00080A0E00080C0000080C0200080C0400080C0600080C0
310
800080C0A00080C0C00080C0E00080E0000080E0200080E0400080E0600080E0800080E0A00080E0C00080E0E000C0000000C0002000C0004000C0006000C0008000C000A000C000C000C000E000C0200000C0202000C0204000C0206000C0208000C020A000C020C000C020E000C0400000C0402000C0404000C0406000C0
310
408000C040A000C040C000C040E000C0600000C0602000C0604000C0606000C0608000C060A000C060C000C060E000C0800000C0802000C0804000C0806000C0808000C080A000C080C000C080E000C0A00000C0A02000C0A04000C0A06000C0A08000C0A0A000C0A0C000C0A0E000C0C00000C0C02000C0C04000C0C06000
310
C0C08000C0C0A000F0FBFF00A4A0A000808080000000FF0000FF000000FFFF00FF000000FF00FF00FFFF0000FFFFFF00000000000000000000000000000000000000000000000000000000000000000000000000000000000000000000000000000000FFFFFFFFFFFF00000000000000000000000000000000000000000000
310
0000000000FFFF000000FF0000000000000000000000000000000000000000000000000000FFFF000000FF0000000000000000000000000000000000000000000000000000FFFF000000FF0000000000000000000000000000000000000000000000000000FFFF000000FF0000000000000000000000000000000000000000
310
000000000000FFFF000000FF0000000000000000000000000000000000000000000000000000FFFF000000FF0000000000000000000000000000000000000000000000000000FFFF000000FF0000000000000000000000000000000000000000000000000000FFFF000000FF00000000000000000000000000000000000000
310
00000000000000FFFF000000FF0000000000000000000000000000000000000000000000000000FFFF000000FF0000000000000000000000000000000000000000000000000000FFFF000000FF0000000000000000000000000000000000000000000000000000FFFF000000FF000000000000000000000000000000000000
310
0000000000000000FFFF000000FF000000000000000000000000A4A4A4A4A4A40000000000000000FFFF0000FFFF000000000000000000000000FF0000000000000000000000000000000000FFFF000000000000000000000000FF0000000000000000000000000000000000FFFF000000000000000000000000FF00000000
310
00000000000000000000000000FFFF000000000000000000000000FF0000000000000000000000000000000000FFFF000000000000000000000000FF0000000000000000000000000000000000FFFF000000000000000000000000FF0000000000000000000000000000000000FFFF000000000000000000000000FF000000
310
0000000000000000000000000000FFFF000000000000000000000000FFFFFFFFFFFFFFFFFFFFFFFFFFFFFFFFFFFFFFFF000000000000000000000000FFFFFFFFFFFFFFFFFFFFFFFFFFFFFFFFFFFFFFFF000000000000000000000000FF000000000000000000000000000000000000FF000000000000000000000000FF0000
310
00000000000000000000000000000000FF000000000000000000000000FF000000000000000000000000000000000000FF000000000000000000000000FFFFFFFFFFFFFFFFF9FFFFFFFFFFFFFFFFFFFF000000000000000000000000000000000000F9FFF9F9F9FFFF00000000000000000000000000000000000000000000
310
000000000000F900000000000000000000000000000000000000000000000000000000000000000000000000000000000000000000000000
102
{BLKREFS
331
4FF9
102
}
 70
     4
280
     1
281
     0
  0
BLOCK_RECORD
  5
525A
102
{ACAD_XDICTIONARY
360
52E8
102
}
330
1
100
AcDbSymbolTableRecord
100
AcDbBlockTableRecord
  2
リーマボルト-B CAMHY500 M20
340
0
310
2800000020000000200000000100080000000000000400000000000000000000000000000000000000000000000080000080000000808000800000008000800080800000C0C0C000C0DCC000F0CAA6000020400000206000002080000020A0000020C0000020E00000400000004020000040400000406000004080000040A0
310
000040C0000040E00000600000006020000060400000606000006080000060A0000060C0000060E00000800000008020000080400000806000008080000080A0000080C0000080E00000A0000000A0200000A0400000A0600000A0800000A0A00000A0C00000A0E00000C0000000C0200000C0400000C0600000C0800000C0
310
A00000C0C00000C0E00000E0000000E0200000E0400000E0600000E0800000E0A00000E0C00000E0E00040000000400020004000400040006000400080004000A0004000C0004000E00040200000402020004020400040206000402080004020A0004020C0004020E000404000004040200040404000404060004040800040
310
40A0004040C0004040E00040600000406020004060400040606000406080004060A0004060C0004060E00040800000408020004080400040806000408080004080A0004080C0004080E00040A0000040A0200040A0400040A0600040A0800040A0A00040A0C00040A0E00040C0000040C0200040C0400040C0600040C08000
310
40C0A00040C0C00040C0E00040E0000040E0200040E0400040E0600040E0800040E0A00040E0C00040E0E00080000000800020008000400080006000800080008000A0008000C0008000E00080200000802020008020400080206000802080008020A0008020C0008020E00080400000804020008040400080406000804080
310
008040A0008040C0008040E00080600000806020008060400080606000806080008060A0008060C0008060E00080800000808020008080400080806000808080008080A0008080C0008080E00080A0000080A0200080A0400080A0600080A0800080A0A00080A0C00080A0E00080C0000080C0200080C0400080C0600080C0
310
800080C0A00080C0C00080C0E00080E0000080E0200080E0400080E0600080E0800080E0A00080E0C00080E0E000C0000000C0002000C0004000C0006000C0008000C000A000C000C000C000E000C0200000C0202000C0204000C0206000C0208000C020A000C020C000C020E000C0400000C0402000C0404000C0406000C0
310
408000C040A000C040C000C040E000C0600000C0602000C0604000C0606000C0608000C060A000C060C000C060E000C0800000C0802000C0804000C0806000C0808000C080A000C080C000C080E000C0A00000C0A02000C0A04000C0A06000C0A08000C0A0A000C0A0C000C0A0E000C0C00000C0C02000C0C04000C0C06000
310
C0C08000C0C0A000F0FBFF00A4A0A000808080000000FF0000FF000000FFFF00FF000000FF00FF00FFFF0000FFFFFF0000000000000000000000000000000000000000000000000000000000000000000000000000000000000000000000000000000000000000000000000000000000000000000000000000000000000000
310
00000000000000000000000000000000000000000000000000000000000000000000000000000000000000000000000000000000000000000000000000000000000000000000000000000000000000000000000000000000000000000000000000000000000000000000000000000000000000000000000000000000000000
310
00000000000000000000000000000000000000000000000000000000000000000000000000000000000000000000000000000000000000000000000000000000000000000000000000000000000000000000000000000000000000000000000000000000000000000000000000000000000000000000FFFFFFFFFFFFFF0000
310
00000000000000000000000000FFFFFFFF000000000000FF00000000FF00000000000000000000000000000000000000FFFF000000FFFFFF00000000FFFFFFFF000000000000000000000000FFFF0000FFFF0000FFFFFEFFFFFFFFFFFF0000FF000000000000000000000000FFFFFFFFFFFF0000FFFF00FF00000000FF0000
310
FF000000000000000000000000FF000000FFFF0000FFFF00FF00000000FF0000FF000000000000000000000000FF000000FFFF0000FFFF00FF00000000FFFF00FF000000000000000000000000FF000000FFFF0000FFFF00FF00000000FFFF00FF000000000000000000000000FF000000FFFF0000FFFFFEFFFFFFFFFFFF00
310
00FF000000000000000000000000FFFFFFFFFFFF000000FFFFFF00000000FFFFFFFF000000000000000000000000FFFF0000FFFF0000000000FF00000000FF00000000000000000000000000000000000000FFFF0000000000FFFFFFFFFFFFFF000000000000000000000000000000FFFFFFFF000000000000000000000000
310
00000000000000000000000000000000000000000000000000000000000000000000000000000000000000000000000000000000000000000000000000000000000000000000000000000000000000000000000000000000000000000000000000000000000000000000000000000000000000000000000000000000000000
310
00000000000000000000000000000000000000000000000000000000000000000000000000000000000000000000000000000000000000000000000000000000000000000000000000000000000000000000000000000000000000000000000000000000000000000000000000000000000000000000000000000000000000
310
0000000000000000000000000000000000000000000000000000000000000000000000000000000000000000000000000000000000000000
102
{BLKREFS
331
8149
102
}
 70
     4
280
     1
281
     0
  0
BLOCK_RECORD
  5
53DA
102
{ACAD_XDICTIONARY
360
5480
102
}
330
1
100
AcDbSymbolTableRecord
100
AcDbBlockTableRecord
  2
ＧＣサイドカバ－A CAMHY500
340
0
310
2800000020000000200000000100080000000000000400000000000000000000000000000000000000000000000080000080000000808000800000008000800080800000C0C0C000C0DCC000F0CAA6000020400000206000002080000020A0000020C0000020E00000400000004020000040400000406000004080000040A0
310
000040C0000040E00000600000006020000060400000606000006080000060A0000060C0000060E00000800000008020000080400000806000008080000080A0000080C0000080E00000A0000000A0200000A0400000A0600000A0800000A0A00000A0C00000A0E00000C0000000C0200000C0400000C0600000C0800000C0
310
A00000C0C00000C0E00000E0000000E0200000E0400000E0600000E0800000E0A00000E0C00000E0E00040000000400020004000400040006000400080004000A0004000C0004000E00040200000402020004020400040206000402080004020A0004020C0004020E000404000004040200040404000404060004040800040
310
40A0004040C0004040E00040600000406020004060400040606000406080004060A0004060C0004060E00040800000408020004080400040806000408080004080A0004080C0004080E00040A0000040A0200040A0400040A0600040A0800040A0A00040A0C00040A0E00040C0000040C0200040C0400040C0600040C08000
310
40C0A00040C0C00040C0E00040E0000040E0200040E0400040E0600040E0800040E0A00040E0C00040E0E00080000000800020008000400080006000800080008000A0008000C0008000E00080200000802020008020400080206000802080008020A0008020C0008020E00080400000804020008040400080406000804080
310
008040A0008040C0008040E00080600000806020008060400080606000806080008060A0008060C0008060E00080800000808020008080400080806000808080008080A0008080C0008080E00080A0000080A0200080A0400080A0600080A0800080A0A00080A0C00080A0E00080C0000080C0200080C0400080C0600080C0
310
800080C0A00080C0C00080C0E00080E0000080E0200080E0400080E0600080E0800080E0A00080E0C00080E0E000C0000000C0002000C0004000C0006000C0008000C000A000C000C000C000E000C0200000C0202000C0204000C0206000C0208000C020A000C020C000C020E000C0400000C0402000C0404000C0406000C0
310
408000C040A000C040C000C040E000C0600000C0602000C0604000C0606000C0608000C060A000C060C000C060E000C0800000C0802000C0804000C0806000C0808000C080A000C080C000C080E000C0A00000C0A02000C0A04000C0A06000C0A08000C0A0A000C0A0C000C0A0E000C0C00000C0C02000C0C04000C0C06000
310
C0C08000C0C0A000F0FBFF00A4A0A000808080000000FF0000FF000000FFFF00FF000000FF00FF00FFFF0000FFFFFF000000000000000000000000000000000000000000000000000000000000000000000000000000000000000000000000FFFF0000000000000000000000000000000000000000000000000000000000F9
310
F9FFF9000000000000000000000000000000000000000000000000000000000000FF00000000000000000000000000000000000000000000000000000000000000FF00000000000000000000000000000000000000000000000000000000000000FF0000000000000000000000000000000000000000000000000000000000
310
0000FF00000000000000000000000000000000000000000000000000000000000000FF00000000000000000000000000000000000000000000000000000000000000FF00000000000000000000000000000000000000000000000000000000000000FF00000000000000000000000000000000000000000000000000000000
310
000000FF00000000000000000000000000000000000000000000000000000000000000FF00000000000000000000000000000000000000000000000000000000000000FF00000000000000000000000000000000000000000000000000000000000000FF000000000000000000000000000000000000000000000000000000
310
00000000FF00000000000000000000000000000000000000000000000000000000000000FF00000000000000000000000000000000000000000000000000000000000000FF00000000000000000000000000000000000000000000000000000000000000000000000000000000000000000000000000000000000000000000
310
00000000000000000000000000000000000000000000000000000000000000000000000000000000000000000000000000000000000000000000000000000000000000000000000000000000000000000000000000000000000000000000000000000000000000000000000000000000000000000000000000000000000000
310
00000000000000000000000000000000000000000000000000000000000000000000000000000000000000000000000000000000000000000000000000000000000000000000000000000000000000000000000000000000000000000000000000000000000000000000000000000000000000000000000000000000000000
310
0000000000000000000000000000000000000000000000000000000000000000000000000000FFFF000000000000000000000000000000000000000000000000000000000000FFFFFF00000000000000000000000000000000000000000000000000000000FFFFFFFF00000000000000000000000000000000000000000000
310
000000000000FFFFFFFF00000000000000000000000000000000000000000000000000000000000000000000000000000000000000000000
102
{BLKREFS
331
540F
102
}
 70
     4
280
     1
281
     0
  0
BLOCK_RECORD
  5
54F7
102
{ACAD_XDICTIONARY
360
559C
102
}
330
1
100
AcDbSymbolTableRecord
100
AcDbBlockTableRecord
  2
ＧＣサイドカバ－Ｂ CAMHY500
340
0
310
2800000020000000200000000100080000000000000400000000000000000000000000000000000000000000000080000080000000808000800000008000800080800000C0C0C000C0DCC000F0CAA6000020400000206000002080000020A0000020C0000020E00000400000004020000040400000406000004080000040A0
310
000040C0000040E00000600000006020000060400000606000006080000060A0000060C0000060E00000800000008020000080400000806000008080000080A0000080C0000080E00000A0000000A0200000A0400000A0600000A0800000A0A00000A0C00000A0E00000C0000000C0200000C0400000C0600000C0800000C0
310
A00000C0C00000C0E00000E0000000E0200000E0400000E0600000E0800000E0A00000E0C00000E0E00040000000400020004000400040006000400080004000A0004000C0004000E00040200000402020004020400040206000402080004020A0004020C0004020E000404000004040200040404000404060004040800040
310
40A0004040C0004040E00040600000406020004060400040606000406080004060A0004060C0004060E00040800000408020004080400040806000408080004080A0004080C0004080E00040A0000040A0200040A0400040A0600040A0800040A0A00040A0C00040A0E00040C0000040C0200040C0400040C0600040C08000
310
40C0A00040C0C00040C0E00040E0000040E0200040E0400040E0600040E0800040E0A00040E0C00040E0E00080000000800020008000400080006000800080008000A0008000C0008000E00080200000802020008020400080206000802080008020A0008020C0008020E00080400000804020008040400080406000804080
310
008040A0008040C0008040E00080600000806020008060400080606000806080008060A0008060C0008060E00080800000808020008080400080806000808080008080A0008080C0008080E00080A0000080A0200080A0400080A0600080A0800080A0A00080A0C00080A0E00080C0000080C0200080C0400080C0600080C0
310
800080C0A00080C0C00080C0E00080E0000080E0200080E0400080E0600080E0800080E0A00080E0C00080E0E000C0000000C0002000C0004000C0006000C0008000C000A000C000C000C000E000C0200000C0202000C0204000C0206000C0208000C020A000C020C000C020E000C0400000C0402000C0404000C0406000C0
310
408000C040A000C040C000C040E000C0600000C0602000C0604000C0606000C0608000C060A000C060C000C060E000C0800000C0802000C0804000C0806000C0808000C080A000C080C000C080E000C0A00000C0A02000C0A04000C0A06000C0A08000C0A0A000C0A0C000C0A0E000C0C00000C0C02000C0C04000C0C06000
310
C0C08000C0C0A000F0FBFF00A4A0A000808080000000FF0000FF000000FFFF00FF000000FF00FF00FFFF0000FFFFFF000000000000000000000000000000000000000000000000000000000000000000000000000000000000000000000000FF000000000000000000000000000000000000000000000000000000000000F9
310
FFF9F90000000000000000000000000000000000000000000000000000000000FF00000000000000000000000000000000000000000000000000000000000000FF00000000000000000000000000000000000000000000000000000000000000FF000000000000000000000000000000000000000000000000000000000000
310
00FF00000000000000000000000000000000000000000000000000000000000000FF00000000000000000000000000000000000000000000000000000000000000FF00000000000000000000000000000000000000000000000000000000000000FF0000000000000000000000000000000000000000000000000000000000
310
0000FF00000000000000000000000000000000000000000000000000000000000000FF00000000000000000000000000000000000000000000000000000000000000FF00000000000000000000000000000000000000000000000000000000000000FF00000000000000000000000000000000000000000000000000000000
310
000000FF00000000000000000000000000000000000000000000000000000000000000FF00000000000000000000000000000000000000000000000000000000000000FF0000000000000000000000000000000000000000000000000000000000000000000000000000000000000000000000000000000000000000000000
310
00000000000000000000000000000000000000000000000000000000000000000000000000000000000000000000000000000000000000000000000000000000000000000000000000000000000000000000000000000000000000000000000000000000000000000000000000000000000000000000000000000000000000
310
00000000000000000000000000000000000000000000000000000000000000000000000000000000000000000000000000000000000000000000000000000000000000000000000000000000000000000000000000000000000000000000000000000000000000000000000000000000000000000000000000000000000000
310
0000000000000000000000000000000000000000000000000000000000000000000000000000FFFF0000000000000000000000000000000000000000000000000000000000FFFFFF0000000000000000000000000000000000000000000000000000000000FFFFFFFF00000000000000000000000000000000000000000000
310
000000000000FFFF000000000000000000000000000000000000000000000000000000000000000000000000000000000000000000000000
102
{BLKREFS
331
5529
102
}
 70
     4
280
     1
281
     0
  0
BLOCK_RECORD
  5
5837
330
1
100
AcDbSymbolTableRecord
100
AcDbBlockTableRecord
  2
*D14
340
0
 70
     0
280
     1
281
     0
  0
BLOCK_RECORD
  5
587C
330
1
100
AcDbSymbolTableRecord
100
AcDbBlockTableRecord
  2
*D15
340
0
 70
     0
280
     1
281
     0
  0
BLOCK_RECORD
  5
58FC
330
1
100
AcDbSymbolTableRecord
100
AcDbBlockTableRecord
  2
*D16
340
0
 70
     0
280
     1
281
     0
  0
BLOCK_RECORD
  5
5930
330
1
100
AcDbSymbolTableRecord
100
AcDbBlockTableRecord
  2
*D17
340
0
 70
     0
280
     1
281
     0
  0
BLOCK_RECORD
  5
5A3F
330
1
100
AcDbSymbolTableRecord
100
AcDbBlockTableRecord
  2
*D18
340
0
 70
     0
280
     1
281
     0
  0
BLOCK_RECORD
  5
5A69
330
1
100
AcDbSymbolTableRecord
100
AcDbBlockTableRecord
  2
*D19
340
0
 70
     0
280
     1
281
     0
  0
BLOCK_RECORD
  5
5A81
330
1
100
AcDbSymbolTableRecord
100
AcDbBlockTableRecord
  2
*D20
340
0
 70
     0
280
     1
281
     0
  0
BLOCK_RECORD
  5
5B17
330
1
100
AcDbSymbolTableRecord
100
AcDbBlockTableRecord
  2
*D21
340
0
 70
     0
280
     1
281
     0
  0
BLOCK_RECORD
  5
5BC1
330
1
100
AcDbSymbolTableRecord
100
AcDbBlockTableRecord
  2
*D22
340
0
 70
     0
280
     1
281
     0
  0
BLOCK_RECORD
  5
5C1F
330
1
100
AcDbSymbolTableRecord
100
AcDbBlockTableRecord
  2
*D23
340
0
 70
     0
280
     1
281
     0
  0
BLOCK_RECORD
  5
72FB
102
{ACAD_XDICTIONARY
360
734F
102
}
330
1
100
AcDbSymbolTableRecord
100
AcDbBlockTableRecord
  2
ロッカクアナツキプラグB R1／2
340
0
102
{BLKREFS
331
4EF7
102
}
 70
     0
280
     1
281
     0
  0
BLOCK_RECORD
  5
7F1D
102
{ACAD_XDICTIONARY
360
869A
102
}
330
1
100
AcDbSymbolTableRecord
100
AcDbBlockTableRecord
  2
ＧＣスペーサ CAMHY500
340
0
310
2800000020000000200000000100080000000000000400000000000000000000000000000000000000000000000080000080000000808000800000008000800080800000C0C0C000C0DCC000F0CAA6000020400000206000002080000020A0000020C0000020E00000400000004020000040400000406000004080000040A0
310
000040C0000040E00000600000006020000060400000606000006080000060A0000060C0000060E00000800000008020000080400000806000008080000080A0000080C0000080E00000A0000000A0200000A0400000A0600000A0800000A0A00000A0C00000A0E00000C0000000C0200000C0400000C0600000C0800000C0
310
A00000C0C00000C0E00000E0000000E0200000E0400000E0600000E0800000E0A00000E0C00000E0E00040000000400020004000400040006000400080004000A0004000C0004000E00040200000402020004020400040206000402080004020A0004020C0004020E000404000004040200040404000404060004040800040
310
40A0004040C0004040E00040600000406020004060400040606000406080004060A0004060C0004060E00040800000408020004080400040806000408080004080A0004080C0004080E00040A0000040A0200040A0400040A0600040A0800040A0A00040A0C00040A0E00040C0000040C0200040C0400040C0600040C08000
310
40C0A00040C0C00040C0E00040E0000040E0200040E0400040E0600040E0800040E0A00040E0C00040E0E00080000000800020008000400080006000800080008000A0008000C0008000E00080200000802020008020400080206000802080008020A0008020C0008020E00080400000804020008040400080406000804080
310
008040A0008040C0008040E00080600000806020008060400080606000806080008060A0008060C0008060E00080800000808020008080400080806000808080008080A0008080C0008080E00080A0000080A0200080A0400080A0600080A0800080A0A00080A0C00080A0E00080C0000080C0200080C0400080C0600080C0
310
800080C0A00080C0C00080C0E00080E0000080E0200080E0400080E0600080E0800080E0A00080E0C00080E0E000C0000000C0002000C0004000C0006000C0008000C000A000C000C000C000E000C0200000C0202000C0204000C0206000C0208000C020A000C020C000C020E000C0400000C0402000C0404000C0406000C0
310
408000C040A000C040C000C040E000C0600000C0602000C0604000C0606000C0608000C060A000C060C000C060E000C0800000C0802000C0804000C0806000C0808000C080A000C080C000C080E000C0A00000C0A02000C0A04000C0A06000C0A08000C0A0A000C0A0C000C0A0E000C0C00000C0C02000C0C04000C0C06000
310
C0C08000C0C0A000F0FBFF00A4A0A000808080000000FF0000FF000000FFFF00FF000000FF00FF00FFFF0000FFFFFF000000000000000000000000000000000000000000000000000000000000000000000000000000FFFFFF0000000000000000000000000000FFFFFF000000000000000000000000F9F9FF000000000000
310
0000000000000000FFF9F9000000000000000000000000FF00FF0000000000000000000000000000FF00FF000000000000000000000000FF00FFFEFFFFFFFFFFFFFFFFFFFFFFFFFEFF00FF000000000000000000000000FF00FFFE000000000000000000000000FEFF00FF000000000000000000000000FF00FFFE00000000
310
0000000000000000FEFF00FF000000000000000000000000FF00FFFE000000000000000000000000FEFF00FF000000000000000000000000FF00FFFE000000000000000000000000FEFF00FF000000000000000000000000FF00FFFE000000000000000000000000FEFF00FF000000000000000000000000FF00FFFE000000
310
000000000000000000FEFF00FF000000000000000000000000FF00FFFE000000000000000000000000FEFF00FF000000000000000000000000FF00FFFE000000000000000000000000FEFF00FF000000000000000000000000FF00FFFE000000000000000000000000FEFF00FF000000000000000000000000FF00FFFE0000
310
00000000000000000000FEFF00FF000000000000000000000000FF00FFFE000000000000000000000000FEFF00FF000000000000000000000000FFFFFFFE000000000000000000000000FEFFFFFF00000000000000000000000000FF00FF000000000000000000000000FF00FF0000000000000000000000000000FF00FF00
310
0000000000000000000000FF00FF0000000000000000000000000000FF00FF000000000000000000000000FF00FF0000000000000000000000000000FF00FF000000000000000000000000FF00FF0000000000000000000000000000FF00FF000000000000000000000000FF00FF0000000000000000000000000000FF00FF
310
000000000000000000000000FF00FF0000000000000000000000000000FF00FF000000000000000000000000FF00FF0000000000000000000000000000FF00FF000000000000000000000000FF00FF0000000000000000000000000000FFFFFFFFFFFFFFFFFFFFFFFFFFFFFFFFFFFF0000000000000000000000000000FFFF
310
FF000000000000000000000000F9FFFF00000000000000000000000000FFFFF9F9FFFFFFFFFFFFFFFFFFFFFFFFF9F9FFFF000000000000000000000000FFFFFF0000000000000000000000000000FFFFFF000000000000000000000000FFFFFF0000000000000000000000000000FFFFFF000000000000000000000000FFFF
310
FF0000000000000000000000000000FAFFFF0000000000000000000000000000000000000000000000000000000000000000000000000000
102
{BLKREFS
331
7F6B
102
}
 70
     4
280
     1
281
     0
  0
BLOCK_RECORD
  5
817E
330
1
100
AcDbSymbolTableRecord
100
AcDbBlockTableRecord
  2
リーマボルト-A CAMHY500 M20
340
0
102
{BLKREFS
331
5287
102
}
 70
     0
280
     1
281
     0
  0
BLOCK_RECORD
  5
9115
330
1
100
AcDbSymbolTableRecord
100
AcDbBlockTableRecord
  2
*D27
340
0
 70
     0
280
     1
281
     0
  0
BLOCK_RECORD
  5
9152
330
1
100
AcDbSymbolTableRecord
100
AcDbBlockTableRecord
  2
*D28
340
0
 70
     0
280
     1
281
     0
  0
BLOCK_RECORD
  5
918F
330
1
100
AcDbSymbolTableRecord
100
AcDbBlockTableRecord
  2
*D29
340
0
 70
     0
280
     1
281
     0
  0
BLOCK_RECORD
  5
91FE
330
1
100
AcDbSymbolTableRecord
100
AcDbBlockTableRecord
  2
*D30
340
0
 70
     0
280
     1
281
     0
  0
BLOCK_RECORD
  5
9E00
330
1
100
AcDbSymbolTableRecord
100
AcDbBlockTableRecord
  2
*D31
340
0
 70
     0
280
     1
281
     0
  0
BLOCK_RECORD
  5
9E2A
330
1
100
AcDbSymbolTableRecord
100
AcDbBlockTableRecord
  2
*D32
340
0
 70
     0
280
     1
281
     0
  0
BLOCK_RECORD
  5
9E5D
330
1
100
AcDbSymbolTableRecord
100
AcDbBlockTableRecord
  2
*D33
340
0
 70
     0
280
     1
281
     0
  0
BLOCK_RECORD
  5
9E90
330
1
100
AcDbSymbolTableRecord
100
AcDbBlockTableRecord
  2
*D34
340
0
 70
     0
280
     1
281
     0
  0
BLOCK_RECORD
  5
9F72
330
1
100
AcDbSymbolTableRecord
100
AcDbBlockTableRecord
  2
*D35
340
0
 70
     0
280
     1
281
     0
  0
BLOCK_RECORD
  5
A0F1
102
{ACAD_XDICTIONARY
360
A15F
102
}
330
1
100
AcDbSymbolTableRecord
100
AcDbBlockTableRecord
  2
センタB CAMHY500
340
0
310
2800000020000000200000000100080000000000000400000000000000000000000000000000000000000000000080000080000000808000800000008000800080800000C0C0C000C0DCC000F0CAA6000020400000206000002080000020A0000020C0000020E00000400000004020000040400000406000004080000040A0
310
000040C0000040E00000600000006020000060400000606000006080000060A0000060C0000060E00000800000008020000080400000806000008080000080A0000080C0000080E00000A0000000A0200000A0400000A0600000A0800000A0A00000A0C00000A0E00000C0000000C0200000C0400000C0600000C0800000C0
310
A00000C0C00000C0E00000E0000000E0200000E0400000E0600000E0800000E0A00000E0C00000E0E00040000000400020004000400040006000400080004000A0004000C0004000E00040200000402020004020400040206000402080004020A0004020C0004020E000404000004040200040404000404060004040800040
310
40A0004040C0004040E00040600000406020004060400040606000406080004060A0004060C0004060E00040800000408020004080400040806000408080004080A0004080C0004080E00040A0000040A0200040A0400040A0600040A0800040A0A00040A0C00040A0E00040C0000040C0200040C0400040C0600040C08000
310
40C0A00040C0C00040C0E00040E0000040E0200040E0400040E0600040E0800040E0A00040E0C00040E0E00080000000800020008000400080006000800080008000A0008000C0008000E00080200000802020008020400080206000802080008020A0008020C0008020E00080400000804020008040400080406000804080
310
008040A0008040C0008040E00080600000806020008060400080606000806080008060A0008060C0008060E00080800000808020008080400080806000808080008080A0008080C0008080E00080A0000080A0200080A0400080A0600080A0800080A0A00080A0C00080A0E00080C0000080C0200080C0400080C0600080C0
310
800080C0A00080C0C00080C0E00080E0000080E0200080E0400080E0600080E0800080E0A00080E0C00080E0E000C0000000C0002000C0004000C0006000C0008000C000A000C000C000C000E000C0200000C0202000C0204000C0206000C0208000C020A000C020C000C020E000C0400000C0402000C0404000C0406000C0
310
408000C040A000C040C000C040E000C0600000C0602000C0604000C0606000C0608000C060A000C060C000C060E000C0800000C0802000C0804000C0806000C0808000C080A000C080C000C080E000C0A00000C0A02000C0A04000C0A06000C0A08000C0A0A000C0A0C000C0A0E000C0C00000C0C02000C0C04000C0C06000
310
C0C08000C0C0A000F0FBFF00A4A0A000808080000000FF0000FF000000FFFF00FF000000FF00FF00FFFF0000FFFFFF00000000000000000000000000000000000000000000000000000000000000000000000000000000FFFFFFFFFFFF00000000000000000000000000000000000000000000000000FF000000FFFF000000
310
0000000000000000000000000000000000000000000000FF000000FFFF0000000000000000000000000000000000000000000000000000FF000000FFFF0000000000000000000000000000000000000000000000000000FF000000FFFF0000000000000000000000000000000000000000000000000000FF000000FFFF0000
310
000000000000000000000000000000000000000000000000FF000000FFFF0000000000000000000000000000000000000000000000000000FF000000FFFF0000000000000000000000000000000000000000000000000000FF000000FFFF0000000000000000000000000000000000000000000000000000FF000000FFFF00
310
00000000000000000000000000000000000000000000000000FF000000FFFF0000000000000000000000000000000000000000000000000000FF000000FFFF0000000000000000000000000000000000000000000000000000FF000000FFFF0000000000000000000000000000000000000000000000000000FF000000FFFF
310
0000000000000000000000000000000000000000000000000000FF000000FFFF0000000000000000A4A4A4A4A4A4000000000000000000000000FF000000000000000000000000000000A4A4A4A4000000000000000000000000FF000000000000000000000000000000000000FF000000000000000000000000FF00000000
310
0000000000000000000000000000FF000000000000000000000000FF000000000000000000000000000000000000FF000000000000000000000000FF000000000000000000000000000000000000FF000000000000000000000000FF000000000000000000000000000000000000FF000000000000000000000000FF000000
310
000000000000000000000000000000FF000000000000000000000000FFFFFFFFFFFFFFFFFFFFFFFFFFFFFFFFFFFFFFFF000000000000000000000000FF000000000000000000000000000000000000FF000000000000000000000000FF000000000000000000000000000000000000FF000000000000000000000000FF0000
310
00000000000000000000000000000000FF000000000000000000000000FF000000000000000000000000000000000000FF000000000000000000000000FFFFFFFFFFFFFFFFFFFFFFFFFFFFFFFFFFFFFFFF0000000000000000000000000000000000000000F9F9F9F9F9F9F900000000000000000000000000000000000000
310
0000000000000000000000000000000000000000000000000000000000000000000000000000000000000000000000000000000000000000
102
{BLKREFS
331
A11C
102
}
 70
     4
280
     1
281
     1
  0
ENDTAB
  0
ENDSEC
  0
SECTION
  2
BLOCKS
  0
BLOCK
  5
20
330
1F
100
AcDbEntity
  8
0
100
AcDbBlockBegin
  2
*Model_Space
 70
     0
 10
0.0
 20
0.0
 30
0.0
  3
*Model_Space
  1

  0
ENDBLK
  5
21
330
1F
100
AcDbEntity
  8
0
100
AcDbBlockEnd
  0
BLOCK
  5
1C
330
1B
100
AcDbEntity
 67
     1
  8
0
100
AcDbBlockBegin
  2
*Paper_Space
 70
     0
 10
0.0
 20
0.0
 30
0.0
  3
*Paper_Space
  1

  0
ENDBLK
  5
1D
330
1B
100
AcDbEntity
 67
     1
  8
0
100
AcDbBlockEnd
  0
BLOCK
  5
24
330
23
100
AcDbEntity
 67
     1
  8
0
100
AcDbBlockBegin
  2
*Paper_Space0
 70
     0
 10
0.0
 20
0.0
 30
0.0
  3
*Paper_Space0
  1

  0
ENDBLK
  5
25
330
23
100
AcDbEntity
 67
     1
  8
0
100
AcDbBlockEnd
  0
BLOCK
  5
6D
330
69
100
AcDbEntity
  8
0
100
AcDbBlockBegin
  2
_Open30
 70
     0
 10
0.0
 20
0.0
 30
0.0
  3
_Open30
  1

  0
LINE
  5
6A
330
69
100
AcDbEntity
  8
0
  6
ByBlock
 62
     0
370
    -2
100
AcDbLine
 10
-1.0
 20
0.26794919
 30
0.0
 11
0.0
 21
0.0
 31
0.0
  0
LINE
  5
6B
330
69
100
AcDbEntity
  8
0
  6
ByBlock
 62
     0
370
    -2
100
AcDbLine
 10
0.0
 20
0.0
 30
0.0
 11
-1.0
 21
-0.26794919
 31
0.0
  0
LINE
  5
6C
330
69
100
AcDbEntity
  8
0
  6
ByBlock
 62
     0
370
    -2
100
AcDbLine
 10
0.0
 20
0.0
 30
0.0
 11
-1.0
 21
0.0
 31
0.0
  0
ENDBLK
  5
6E
330
69
100
AcDbEntity
  8
0
100
AcDbBlockEnd
  0
BLOCK
  5
76
330
74
100
AcDbEntity
  8
0
100
AcDbBlockBegin
  2
GENAXEH
 70
     0
 10
0.0
 20
0.0
 30
0.0
  3
GENAXEH
  1

  0
LINE
  5
75
330
74
100
AcDbEntity
  8
0
100
AcDbLine
 10
-1.0
 20
0.0
 30
0.0
 11
1.0
 21
0.0
 31
0.0
  0
ENDBLK
  5
77
330
74
100
AcDbEntity
  8
0
100
AcDbBlockEnd
  0
BLOCK
  5
380F
330
380C
100
AcDbEntity
  8
0
100
AcDbBlockBegin
  2
ロッカクアナツキプラグA R1／2
 70
     0
 10
0.0
 20
0.0
 30
0.0
  3
ロッカクアナツキプラグA R1／2
  1

  0
LINE
  5
4E1D
330
380C
100
AcDbEntity
  8
AM_0 外形線1
100
AcDbLine
 10
10.66397700000016
 20
-1.5
 30
0.0
 11
10.2623880000001
 21
-13.0
 31
0.0
  0
LINE
  5
4E1E
330
380C
100
AcDbEntity
  8
AM_4 細線
100
AcDbLine
 10
9.541186000000379
 20
-0.3772080000001097
 30
0.0
 11
9.076479000000288
 21
-13.68468499999994
 31
0.0
  0
LINE
  5
4E1F
330
380C
100
AcDbEntity
  8
AM_0 外形線1
100
AcDbLine
 10
-10.2623880000001
 20
-13.0
 30
0.0
 11
-10.66397700000016
 21
-1.5
 31
0.0
  0
LINE
  5
4E20
330
380C
100
AcDbEntity
  8
AM_4 細線
100
AcDbLine
 10
-9.541185000000039
 20
-0.3772080000001097
 30
0.0
 11
-9.076477999999953
 21
-13.68468499999994
 31
0.0
  0
LINE
  5
4E21
330
380C
100
AcDbEntity
  8
AM_7 中心線
 48
0.5
100
AcDbLine
 10
0.0
 20
5.364789999999856
 30
0.0
 11
0.0
 21
-22.81425800000011
 31
0.0
  0
LINE
  5
4E22
330
380C
100
AcDbEntity
  8
AM_0 外形線1
100
AcDbLine
 10
6.798287000000073
 20
-15.0
 30
0.0
 11
-6.798286000000188
 21
-15.0
 31
0.0
  0
LINE
  5
4E23
330
380C
100
AcDbEntity
  8
AM_0 外形線1
100
AcDbLine
 10
10.2623880000001
 20
-13.0
 30
0.0
 11
-10.2623880000001
 21
-13.0
 31
0.0
  0
LINE
  5
4E24
330
380C
100
AcDbEntity
  8
AM_0 外形線1
100
AcDbLine
 10
-6.798286000000188
 20
-15.0
 30
0.0
 11
-10.2623880000001
 21
-13.0
 31
0.0
  0
LINE
  5
4E25
330
380C
100
AcDbEntity
  8
AM_0 外形線1
100
AcDbLine
 10
10.2623880000001
 20
-13.0
 30
0.0
 11
6.798287000000073
 21
-15.0
 31
0.0
  0
LINE
  5
4E26
330
380C
100
AcDbEntity
  8
AM_0 外形線1
100
AcDbLine
 10
10.66397700000016
 20
-1.5
 30
0.0
 11
-10.66397700000016
 21
-1.5
 31
0.0
  0
LINE
  5
4E27
330
380C
100
AcDbEntity
  8
AM_0 外形線1
100
AcDbLine
 10
-10.66397700000016
 20
-1.5
 30
0.0
 11
-9.163977000000159
 21
0.0
 31
0.0
  0
LINE
  5
4E28
330
380C
100
AcDbEntity
  8
AM_0 外形線1
100
AcDbLine
 10
9.163977000000159
 20
0.0
 30
0.0
 11
10.66397700000016
 21
-1.5
 31
0.0
  0
LINE
  5
4E47
330
380C
100
AcDbEntity
  8
AM_0 外形線1
100
AcDbLine
 10
-9.163977000000159
 20
0.0
 30
0.0
 11
9.163977000000159
 21
0.0
 31
0.0
  0
ENDBLK
  5
381E
330
380C
100
AcDbEntity
  8
0
100
AcDbBlockEnd
  0
BLOCK
  5
3A86
330
3A85
100
AcDbEntity
  8
0
100
AcDbBlockBegin
  2
GENDOT
 70
     0
 10
0.0
 20
0.0
 30
0.0
  3
GENDOT
  1

  0
LINE
  5
3A87
330
3A85
100
AcDbEntity
  8
0
100
AcDbLine
 10
0.0
 20
0.0
 30
0.0
 11
-1.0
 21
0.0
 31
0.0
  0
LWPOLYLINE
  5
3A88
330
3A85
100
AcDbEntity
  8
0
100
AcDbPolyline
 90
        2
 70
     1
 43
0.25
 10
-0.125
 20
0.0
 42
1.0
 10
0.125
 20
0.0
 42
1.0
  0
ENDBLK
  5
3A89
330
3A85
100
AcDbEntity
  8
0
100
AcDbBlockEnd
  0
BLOCK
  5
4D28
330
4D27
100
AcDbEntity
  8
0
100
AcDbBlockBegin
  2
ケースＡ-A CAMHY500
 70
     0
 10
0.0
 20
0.0
 30
0.0
  3
ケースＡ-A CAMHY500
  1

  0
LINE
  5
4D2A
330
4D27
100
AcDbEntity
  8
AM_0 外形線1
100
AcDbLine
 10
25.0
 20
-249.0
 30
0.0
 11
25.0
 21
0.0
 31
0.0
  0
LINE
  5
4D2B
330
4D27
100
AcDbEntity
  8
AM_0 外形線1
100
AcDbLine
 10
0.0
 20
0.0
 30
0.0
 11
0.0
 21
-249.0
 31
0.0
  0
LINE
  5
4D2C
330
4D27
100
AcDbEntity
  8
AM_0 外形線1
100
AcDbLine
 10
25.0
 20
249.0
 30
0.0
 11
25.0
 21
209.5
 31
0.0
  0
LINE
  5
4D2D
330
4D27
100
AcDbEntity
  8
AM_0 外形線1
100
AcDbLine
 10
0.0
 20
242.0
 30
0.0
 11
0.0
 21
249.0
 31
0.0
  0
LINE
  5
4D2E
330
4D27
100
AcDbEntity
  8
AM_0 外形線1
100
AcDbLine
 10
31.0
 20
-203.5
 30
0.0
 11
118.5
 21
-203.5
 31
0.0
  0
ARC
  5
4D2F
330
4D27
100
AcDbEntity
  8
AM_0 外形線1
100
AcDbCircle
 10
31.0
 20
-209.5
 30
0.0
 40
6.0
100
AcDbArc
 50
90.0
 51
180.0
  0
LINE
  5
4D30
330
4D27
100
AcDbEntity
  8
AM_0 外形線1
100
AcDbLine
 10
118.5
 20
-203.5
 30
0.0
 11
118.5
 21
0.0
 31
0.0
  0
LINE
  5
4D31
330
4D27
100
AcDbEntity
  8
AM_0 外形線1
100
AcDbLine
 10
152.0
 20
-192.8000000000002
 30
0.0
 11
152.0
 21
0.0
 31
0.0
  0
LINE
  5
4D32
330
4D27
100
AcDbEntity
  8
AM_0 外形線1
100
AcDbLine
 10
127.0
 20
-212.0
 30
0.0
 11
152.0
 21
-212.0
 31
0.0
  0
LINE
  5
4D33
330
4D27
100
AcDbEntity
  8
AM_0 外形線1
100
AcDbLine
 10
118.5
 20
-203.5
 30
0.0
 11
127.0
 21
-212.0
 31
0.0
  0
LINE
  5
4D34
330
4D27
100
AcDbEntity
  8
AM_0 外形線1
100
AcDbLine
 10
152.0
 20
-192.8000000000002
 30
0.0
 11
152.0
 21
-212.0
 31
0.0
  0
LINE
  5
4D35
330
4D27
100
AcDbEntity
  8
AM_0 外形線1
100
AcDbLine
 10
72.5
 20
187.5
 30
0.0
 11
-7.0
 21
187.5
 31
0.0
  0
LINE
  5
4D36
330
4D27
100
AcDbEntity
  8
AM_7 中心線
 48
0.5
100
AcDbLine
 10
-44.2754493056018
 20
231.0
 30
0.0
 11
57.83529738654943
 21
231.0
 31
0.0
  0
LINE
  5
4D37
330
4D27
100
AcDbEntity
  8
AM_0 外形線1
100
AcDbLine
 10
-7.0
 20
187.5
 30
0.0
 11
-7.0
 21
199.0
 31
0.0
  0
LINE
  5
4D38
330
4D27
100
AcDbEntity
  8
AM_0 外形線1
100
AcDbLine
 10
39.7376119999999
 20
190.5
 30
0.0
 11
39.84237500000018
 21
187.5
 31
0.0
  0
LINE
  5
4D39
330
4D27
100
AcDbEntity
  8
AM_0 外形線1
100
AcDbLine
 10
22.5
 20
242.0
 30
0.0
 11
0.0
 21
242.0
 31
0.0
  0
LINE
  5
4D3A
330
4D27
100
AcDbEntity
  8
AM_0 外形線1
100
AcDbLine
 10
0.0
 20
220.0
 30
0.0
 11
22.5
 21
220.0
 31
0.0
  0
LINE
  5
4D3B
330
4D27
100
AcDbEntity
  8
AM_0 外形線1
100
AcDbLine
 10
0.0
 20
207.1999999999998
 30
0.0
 11
0.0
 21
220.0
 31
0.0
  0
ARC
  5
4D3C
330
4D27
100
AcDbEntity
  8
AM_0 外形線1
100
AcDbCircle
 10
4.0
 20
200.5
 30
0.0
 40
0.5
100
AcDbArc
 50
270.0
 51
0.0
  0
LINE
  5
4D3D
330
4D27
100
AcDbEntity
  8
AM_0 外形線1
100
AcDbLine
 10
4.5
 20
200.5
 30
0.0
 11
4.5
 21
206.6999999999998
 31
0.0
  0
ARC
  5
4D3E
330
4D27
100
AcDbEntity
  8
AM_0 外形線1
100
AcDbCircle
 10
4.0
 20
206.6999999999998
 30
0.0
 40
0.5
100
AcDbArc
 50
0.0
 51
90.0
  0
LINE
  5
4D3F
330
4D27
100
AcDbEntity
  8
AM_0 外形線1
100
AcDbLine
 10
4.0
 20
207.1999999999998
 30
0.0
 11
0.0
 21
207.1999999999998
 31
0.0
  0
LWPOLYLINE
  5
4D40
330
4D27
100
AcDbEntity
  8
AM_0 外形線1
100
AcDbPolyline
 90
       73
 70
     0
 43
0.0
 10
2.25
 20
207.1999999999998
 10
2.053899999999885
 20
207.1863009999999
 10
1.859292000000094
 20
207.1453079999999
 10
1.667656999999961
 20
207.077333
 10
1.480454999999891
 20
206.9828939999998
 10
1.299109000000044
 20
206.8627079999999
 10
1.125
 20
206.717692
 10
0.9594530000003942
 20
206.5489479999999
 10
0.8037279999998645
 20
206.3577599999999
 10
0.6590100000003078
 20
206.145585
 10
0.5263999999997396
 20
205.9140359999999
 10
0.4069079999999305
 20
205.6648759999998
 10
0.3014430000002903
 20
205.3999999999998
 10
0.2108079999998154
 20
205.1214259999999
 10
0.1356919999998354
 20
204.831273
 10
0.0766670000002705
 20
204.531749
 10
0.0341829999997572
 20
204.2251339999998
 10
0.0085619999999835
 20
203.9137609999998
 10
0.0
 20
203.6
 10
0.0085619999999835
 20
203.2862399999999
 10
0.0341829999997572
 20
202.9748669999999
 10
0.0766670000002705
 20
202.668252
 10
0.1356919999998354
 20
202.3687279999999
 10
0.2108079999998154
 20
202.078575
 10
0.3014430000002903
 20
201.8
 10
0.4069079999999305
 20
201.5351249999999
 10
0.5263999999997396
 20
201.285965
 10
0.6590100000003078
 20
201.0544159999999
 10
0.8037279999998645
 20
200.84224
 10
0.9594530000003942
 20
200.6510529999998
 10
1.125
 20
200.482309
 10
1.299109000000044
 20
200.3372919999999
 10
1.480454999999891
 20
200.2171069999999
 10
1.667656999999961
 20
200.1226669999998
 10
1.859292000000094
 20
200.0546919999999
 10
2.053899999999885
 20
200.0136989999999
 10
2.25
 20
200.0
 10
2.446101000000453
 20
200.0136989999999
 10
2.640709000000241
 20
200.0546919999999
 10
2.832343000000037
 20
200.1226669999998
 10
3.019545999999991
 20
200.2171069999999
 10
3.200890999999955
 20
200.3372919999999
 10
3.375
 20
200.482309
 10
3.54054700000006
 20
200.6510529999998
 10
3.696272000000134
 20
200.84224
 10
3.84099100000003
 20
201.0544159999999
 10
3.97360000000026
 20
201.285965
 10
4.093092000000068
 20
201.5351249999999
 10
4.198558000000048
 20
201.8
 10
4.289193000000068
 20
202.078575
 10
4.364309000000048
 20
202.3687279999999
 10
4.423332999999728
 20
202.668252
 10
4.465818000000125
 20
202.9748669999999
 10
4.491438000000016
 20
203.2862399999999
 10
4.5
 20
203.6
 10
4.491438000000016
 20
203.9137609999998
 10
4.465818000000125
 20
204.2251339999998
 10
4.423332999999728
 20
204.531749
 10
4.364309000000048
 20
204.831273
 10
4.289193000000068
 20
205.1214259999999
 10
4.198558000000048
 20
205.3999999999998
 10
4.093092000000068
 20
205.6648759999998
 10
3.97360000000026
 20
205.9140359999999
 10
3.84099100000003
 20
206.145585
 10
3.696272000000134
 20
206.3577599999999
 10
3.54054700000006
 20
206.5489479999999
 10
3.375
 20
206.717692
 10
3.200890999999955
 20
206.8627079999999
 10
3.019545999999991
 20
206.9828939999998
 10
2.832343000000037
 20
207.077333
 10
2.640709000000241
 20
207.1453079999999
 10
2.446101000000453
 20
207.1863009999999
 10
2.25
 20
207.1999999999998
  0
LINE
  5
4D41
330
4D27
100
AcDbEntity
  8
AM_0 外形線1
100
AcDbLine
 10
-7.0
 20
199.0
 30
0.0
 11
-6.0
 21
200.0
 31
0.0
  0
LINE
  5
4D42
330
4D27
100
AcDbEntity
  8
AM_0 外形線1
100
AcDbLine
 10
-5.999999999999772
 20
200.0000000000002
 30
0.0
 11
4.0
 21
200.0
 31
0.0
  0
ARC
  5
4D44
330
4D27
100
AcDbEntity
  8
AM_0 外形線1
100
AcDbCircle
 10
31.0
 20
209.5
 30
0.0
 40
6.0
100
AcDbArc
 50
180.0
 51
270.0
  0
LINE
  5
4D45
330
4D27
100
AcDbEntity
  8
AM_0 外形線1
100
AcDbLine
 10
40.45881499999995
 20
203.1227919999999
 30
0.0
 11
40.44564199999967
 21
203.5
 31
0.0
  0
LINE
  5
4D46
330
4D27
100
AcDbEntity
  8
AM_0 外形線1
100
AcDbLine
 10
39.33602299999984
 20
202.0
 30
0.0
 11
39.28364199999986
 21
203.5
 31
0.0
  0
LINE
  5
4D47
330
4D27
100
AcDbEntity
  8
AM_0 外形線1
100
AcDbLine
 10
22.5
 20
242.0
 30
0.0
 11
25.0
 21
242.0
 31
0.0
  0
LINE
  5
4D48
330
4D27
100
AcDbEntity
  8
AM_0 外形線1
100
AcDbLine
 10
22.5
 20
220.0
 30
0.0
 11
25.0
 21
220.0
 31
0.0
  0
LINE
  5
4D4A
330
4D27
100
AcDbEntity
  8
AM_0 外形線1
100
AcDbLine
 10
73.0
 20
186.0
 30
0.0
 11
147.0
 21
186.0
 31
0.0
  0
LINE
  5
4D4B
330
4D27
100
AcDbEntity
  8
AM_7 中心線
 48
0.5
100
AcDbLine
 10
71.0
 20
180.0
 30
0.0
 11
149.0
 21
180.0
 31
0.0
  0
LINE
  5
4D4C
330
4D27
100
AcDbEntity
  8
AM_3 隠れ線
100
AcDbLine
 10
142.0
 20
175.1999999999998
 30
0.0
 11
79.0
 21
175.1999999999998
 31
0.0
  0
LINE
  5
4D4D
330
4D27
100
AcDbEntity
  8
AM_0 外形線1
100
AcDbLine
 10
79.0
 20
175.1999999999998
 30
0.0
 11
73.5
 21
175.1999999999998
 31
0.0
  0
ARC
  5
4D4E
330
4D27
100
AcDbEntity
  8
AM_0 外形線1
100
AcDbCircle
 10
72.5
 20
187.0
 30
0.0
 40
0.5
100
AcDbArc
 50
0.0
 51
90.0
  0
LINE
  5
4D4F
330
4D27
100
AcDbEntity
  8
AM_0 外形線1
100
AcDbLine
 10
59.07647900000029
 20
189.815315
 30
0.0
 11
58.99562599999989
 21
187.5
 31
0.0
  0
LINE
  5
4D50
330
4D27
100
AcDbEntity
  8
AM_0 外形線1
100
AcDbLine
 10
60.26238800000011
 20
190.5
 30
0.0
 11
60.15762600000015
 21
187.5
 31
0.0
  0
LINE
  5
4D51
330
4D27
100
AcDbEntity
  8
AM_0 外形線1
100
AcDbLine
 10
73.5
 20
175.1999999999998
 30
0.0
 11
73.0
 21
175.6999999999998
 31
0.0
  0
LINE
  5
4D52
330
4D27
100
AcDbEntity
  8
AM_0 外形線1
100
AcDbLine
 10
73.0
 20
175.6999999999998
 30
0.0
 11
73.0
 21
169.8526300000001
 31
0.0
  0
LINE
  5
4D53
330
4D27
100
AcDbEntity
  8
AM_0 外形線1
100
AcDbLine
 10
73.0
 20
175.6999999999998
 30
0.0
 11
73.0
 21
187.0
 31
0.0
  0
LINE
  5
4D54
330
4D27
100
AcDbEntity
  8
AM_0 外形線1
100
AcDbLine
 10
59.55435799999985
 20
203.5
 30
0.0
 11
59.54118599999993
 21
203.1227919999999
 31
0.0
  0
LINE
  5
4D55
330
4D27
100
AcDbEntity
  8
AM_0 外形線1
100
AcDbLine
 10
60.66397700000015
 20
202.0
 30
0.0
 11
60.71635800000013
 21
203.5
 31
0.0
  0
LINE
  5
4D56
330
4D27
100
AcDbEntity
  8
AM_0 外形線1
100
AcDbLine
 10
118.5
 20
203.5
 30
0.0
 11
127.0
 21
212.0
 31
0.0
  0
LINE
  5
4D57
330
4D27
100
AcDbEntity
  8
AM_0 外形線1
100
AcDbLine
 10
152.0
 20
195.9999999999998
 30
0.0
 11
152.0
 21
187.5
 31
0.0
  0
ARC
  5
4D58
330
4D27
100
AcDbEntity
  8
AM_0 外形線1
100
AcDbCircle
 10
147.5
 20
187.0
 30
0.0
 40
0.5
100
AcDbArc
 50
90.0
 51
180.0
  0
LINE
  5
4D59
330
4D27
100
AcDbEntity
  8
AM_0 外形線1
100
AcDbLine
 10
147.5
 20
187.5
 30
0.0
 11
152.0000000000002
 21
187.5
 31
0.0
  0
LINE
  5
4D5A
330
4D27
100
AcDbEntity
  8
AM_0 外形線1
100
AcDbLine
 10
147.0
 20
175.6999999999998
 30
0.0
 11
146.5
 21
175.1999999999998
 31
0.0
  0
LINE
  5
4D5B
330
4D27
100
AcDbEntity
  8
AM_0 外形線1
100
AcDbLine
 10
142.0
 20
175.1999999999998
 30
0.0
 11
146.5
 21
175.1999999999998
 31
0.0
  0
LINE
  5
4D5C
330
4D27
100
AcDbEntity
  8
AM_0 外形線1
100
AcDbLine
 10
147.0
 20
187.0
 30
0.0
 11
147.0
 21
175.6999999999998
 31
0.0
  0
LINE
  5
4D5D
330
4D27
100
AcDbEntity
  8
AM_0 外形線1
100
AcDbLine
 10
152.0
 20
206.0
 30
0.0
 11
152.0
 21
212.0
 31
0.0
  0
LINE
  5
4D5F
330
4D27
100
AcDbEntity
  8
AM_0 外形線1
100
AcDbLine
 10
1.0
 20
250.0
 30
0.0
 11
24.0
 21
250.0
 31
0.0
  0
LINE
  5
4D60
330
4D27
100
AcDbEntity
  8
AM_0 外形線1
100
AcDbLine
 10
0.0
 20
249.0
 30
0.0
 11
1.0
 21
250.0
 31
0.0
  0
LINE
  5
4D61
330
4D27
100
AcDbEntity
  8
AM_0 外形線1
100
AcDbLine
 10
24.0
 20
250.0
 30
0.0
 11
25.0
 21
249.0
 31
0.0
  0
LINE
  5
4D62
330
4D27
100
AcDbEntity
  8
AM_0 外形線1
100
AcDbLine
 10
1.0
 20
-250.0
 30
0.0
 11
24.0
 21
-250.0
 31
0.0
  0
LINE
  5
4D63
330
4D27
100
AcDbEntity
  8
AM_0 外形線1
100
AcDbLine
 10
0.0
 20
-249.0
 30
0.0
 11
1.0
 21
-250.0
 31
0.0
  0
LINE
  5
4D64
330
4D27
100
AcDbEntity
  8
AM_0 外形線1
100
AcDbLine
 10
24.0
 20
-250.0
 30
0.0
 11
25.0
 21
-249.0
 31
0.0
  0
LINE
  5
4D65
330
4D27
100
AcDbEntity
  8
AM_0 外形線1
100
AcDbLine
 10
130.3626827106964
 20
-212.0
 30
0.0
 11
130.3626827106964
 21
0.0
 31
0.0
  0
INSERT
  5
4D66
330
4D27
100
AcDbEntity
  8
AM_0 外形線1
100
AcDbBlockReference
  2
ロッカクアナツキプラグA R1／2
 10
50.0
 20
203.5
 30
0.0
  0
LINE
  5
4D67
330
4D27
100
AcDbEntity
  8
AM_0 外形線1
100
AcDbLine
 10
40.92352200000004
 20
189.815315
 30
0.0
 11
41.00437499999997
 21
187.5
 31
0.0
  0
LINE
  5
4D68
330
4D27
100
AcDbEntity
  8
AM_0 外形線1
100
AcDbLine
 10
118.5
 20
203.5
 30
0.0
 11
31.0
 21
203.5
 31
0.0
  0
LINE
  5
4DF3
330
4D27
100
AcDbEntity
  8
AM_0 外形線1
100
AcDbLine
 10
152.0
 20
212.0
 30
0.0
 11
127.0
 21
212.0
 31
0.0
  0
ENDBLK
  5
4D29
330
4D27
100
AcDbEntity
  8
0
100
AcDbBlockEnd
  0
BLOCK
  5
4EC3
330
4EC2
100
AcDbEntity
  8
0
100
AcDbBlockBegin
  2
ケースA-Ｂ CAMHY500
 70
     0
 10
0.0
 20
0.0
 30
0.0
  3
ケースA-Ｂ CAMHY500
  1

  0
LINE
  5
4EC5
330
4EC2
100
AcDbEntity
  8
AM_0 外形線1
100
AcDbLine
 10
-25.0
 20
-249.0
 30
0.0
 11
-25.0
 21
0.0
 31
0.0
  0
LINE
  5
4EC6
330
4EC2
100
AcDbEntity
  8
AM_0 外形線1
100
AcDbLine
 10
-73.0
 20
186.0
 30
0.0
 11
-147.0
 21
186.0
 31
0.0
  0
LINE
  5
4EC7
330
4EC2
100
AcDbEntity
  8
AM_0 外形線1
100
AcDbLine
 10
-31.0
 20
-203.5
 30
0.0
 11
-118.5
 21
-203.5
 31
0.0
  0
LINE
  5
4EC8
330
4EC2
100
AcDbEntity
  8
AM_0 外形線1
100
AcDbLine
 10
-31.0
 20
203.5
 30
0.0
 11
-118.5
 21
203.5
 31
0.0
  0
LINE
  5
4EC9
330
4EC2
100
AcDbEntity
  8
AM_7 中心線
 48
0.5
100
AcDbLine
 10
-71.0
 20
180.0
 30
0.0
 11
-149.0
 21
180.0
 31
0.0
  0
LINE
  5
4ECA
330
4EC2
100
AcDbEntity
  8
AM_3 隠れ線
100
AcDbLine
 10
-142.0
 20
175.1999999999998
 30
0.0
 11
-78.90231314499761
 21
175.1999999999998
 31
0.0
  0
LINE
  5
4ECB
330
4EC2
100
AcDbEntity
  8
AM_0 外形線1
100
AcDbLine
 10
-127.0
 20
-212.0
 30
0.0
 11
-127.0
 21
0.0
 31
0.0
  0
LINE
  5
4ECC
330
4EC2
100
AcDbEntity
  8
AM_0 外形線1
100
AcDbLine
 10
-118.5
 20
-203.5
 30
0.0
 11
-118.5
 21
0.0
 31
0.0
  0
LINE
  5
4ECE
330
4EC2
100
AcDbEntity
  8
AM_0 外形線1
100
AcDbLine
 10
-127.0
 20
-212.0
 30
0.0
 11
-152.0
 21
-212.0
 31
0.0
  0
LINE
  5
4ECF
330
4EC2
100
AcDbEntity
  8
AM_0 外形線1
100
AcDbLine
 10
-152.0
 20
0.0
 30
0.0
 11
-152.0
 21
-212.0
 31
0.0
  0
LINE
  5
4ED0
330
4EC2
100
AcDbEntity
  8
AM_0 外形線1
100
AcDbLine
 10
-118.5
 20
-203.5
 30
0.0
 11
-127.0
 21
-212.0
 31
0.0
  0
LINE
  5
4ED1
330
4EC2
100
AcDbEntity
  8
AM_0 外形線1
100
AcDbLine
 10
-152.0
 20
192.7999999999999
 30
0.0
 11
-152.0
 21
187.5
 31
0.0
  0
LINE
  5
4ED2
330
4EC2
100
AcDbEntity
  8
AM_0 外形線1
100
AcDbLine
 10
-147.5
 20
187.5
 30
0.0
 11
-152.0
 21
187.5
 31
0.0
  0
ARC
  5
4ED3
330
4EC2
100
AcDbEntity
  8
AM_0 外形線1
100
AcDbCircle
 10
-147.5
 20
187.0
 30
0.0
 40
0.5
100
AcDbArc
 50
0.0
 51
90.0
  0
LINE
  5
4ED4
330
4EC2
100
AcDbEntity
  8
AM_0 外形線1
100
AcDbLine
 10
-147.0
 20
175.6999999999998
 30
0.0
 11
-146.5
 21
175.1999999999998
 31
0.0
  0
LINE
  5
4ED5
330
4EC2
100
AcDbEntity
  8
AM_0 外形線1
100
AcDbLine
 10
-142.0
 20
175.1999999999998
 30
0.0
 11
-146.5
 21
175.1999999999998
 31
0.0
  0
LINE
  5
4ED6
330
4EC2
100
AcDbEntity
  8
AM_0 外形線1
100
AcDbLine
 10
-147.0
 20
187.0
 30
0.0
 11
-147.0
 21
175.6999999999998
 31
0.0
  0
LINE
  5
4ED7
330
4EC2
100
AcDbEntity
  8
AM_0 外形線1
100
AcDbLine
 10
-127.0
 20
212.0
 30
0.0
 11
-152.0
 21
212.0
 31
0.0
  0
LINE
  5
4ED8
330
4EC2
100
AcDbEntity
  8
AM_0 外形線1
100
AcDbLine
 10
-152.0
 20
206.0
 30
0.0
 11
-152.0
 21
212.0
 31
0.0
  0
LINE
  5
4ED9
330
4EC2
100
AcDbEntity
  8
AM_0 外形線1
100
AcDbLine
 10
-152.0
 20
192.7999999999999
 30
0.0
 11
-152.0
 21
196.0
 31
0.0
  0
LINE
  5
4EDA
330
4EC2
100
AcDbEntity
  8
AM_0 外形線1
100
AcDbLine
 10
-118.5
 20
203.5
 30
0.0
 11
-127.0
 21
212.0
 31
0.0
  0
LINE
  5
4EDB
330
4EC2
100
AcDbEntity
  8
AM_0 外形線1
100
AcDbLine
 10
-25.0
 20
209.5
 30
0.0
 11
-25.0
 21
249.0
 31
0.0
  0
ARC
  5
4EDC
330
4EC2
100
AcDbEntity
  8
AM_0 外形線1
100
AcDbCircle
 10
-31.0
 20
-209.5
 30
0.0
 40
6.0
100
AcDbArc
 50
0.0
 51
90.0
  0
ARC
  5
4EDD
330
4EC2
100
AcDbEntity
  8
AM_0 外形線1
100
AcDbCircle
 10
-31.0
 20
209.5
 30
0.0
 40
6.0
100
AcDbArc
 50
270.0
 51
0.0
  0
LINE
  5
4EDE
330
4EC2
100
AcDbEntity
  8
AM_0 外形線1
100
AcDbLine
 10
-72.5
 20
187.5
 30
0.0
 11
7.0
 21
187.5
 31
0.0
  0
ARC
  5
4EDF
330
4EC2
100
AcDbEntity
  8
AM_0 外形線1
100
AcDbCircle
 10
-72.5
 20
187.0
 30
0.0
 40
0.5
100
AcDbArc
 50
90.0
 51
180.0
  0
LINE
  5
4EE0
330
4EC2
100
AcDbEntity
  8
AM_0 外形線1
100
AcDbLine
 10
-73.5
 20
175.1999999999998
 30
0.0
 11
-73.0
 21
175.6999999999998
 31
0.0
  0
LINE
  5
4EE1
330
4EC2
100
AcDbEntity
  8
AM_0 外形線1
100
AcDbLine
 10
-73.0
 20
175.6999999999998
 30
0.0
 11
-73.0
 21
169.8526300000001
 31
0.0
  0
LINE
  5
4EE2
330
4EC2
100
AcDbEntity
  8
AM_0 外形線1
100
AcDbLine
 10
-73.0
 20
175.6999999999998
 30
0.0
 11
-73.0
 21
187.0
 31
0.0
  0
LINE
  5
4EE3
330
4EC2
100
AcDbEntity
  8
AM_0 外形線1
100
AcDbLine
 10
-59.07647799999995
 20
189.815315
 30
0.0
 11
-58.99562500000001
 21
187.5
 31
0.0
  0
LINE
  5
4EE4
330
4EC2
100
AcDbEntity
  8
AM_0 外形線1
100
AcDbLine
 10
-60.26238800000011
 20
190.5
 30
0.0
 11
-60.15762499999983
 21
187.5
 31
0.0
  0
LINE
  5
4EE5
330
4EC2
100
AcDbEntity
  8
AM_0 外形線1
100
AcDbLine
 10
-40.9235209999997
 20
189.815315
 30
0.0
 11
-41.0043740000001
 21
187.5
 31
0.0
  0
LINE
  5
4EE6
330
4EC2
100
AcDbEntity
  8
AM_0 外形線1
100
AcDbLine
 10
-39.7376119999999
 20
190.5
 30
0.0
 11
-39.84237399999983
 21
187.5
 31
0.0
  0
LINE
  5
4EE7
330
4EC2
100
AcDbEntity
  8
AM_0 外形線1
100
AcDbLine
 10
-59.55435800000032
 20
203.5
 30
0.0
 11
-59.54118500000004
 21
203.1227919999999
 31
0.0
  0
LINE
  5
4EE8
330
4EC2
100
AcDbEntity
  8
AM_0 外形線1
100
AcDbLine
 10
-60.66397700000015
 20
202.0
 30
0.0
 11
-60.71635800000013
 21
203.5
 31
0.0
  0
LINE
  5
4EE9
330
4EC2
100
AcDbEntity
  8
AM_0 外形線1
100
AcDbLine
 10
-40.45881399999962
 20
203.1227919999999
 30
0.0
 11
-40.44564200000013
 21
203.5
 31
0.0
  0
LINE
  5
4EEA
330
4EC2
100
AcDbEntity
  8
AM_0 外形線1
100
AcDbLine
 10
-39.33602299999984
 20
202.0
 30
0.0
 11
-39.28364200000033
 21
203.5
 31
0.0
  0
LINE
  5
4EED
330
4EC2
100
AcDbEntity
  8
AM_0 外形線1
100
AcDbLine
 10
-25.0
 20
242.0
 30
0.0
 11
0.0
 21
242.0
 31
0.0
  0
LINE
  5
4EEE
330
4EC2
100
AcDbEntity
  8
AM_0 外形線1
100
AcDbLine
 10
-25.0
 20
220.0
 30
0.0
 11
0.0
 21
220.0
 31
0.0
  0
LINE
  5
4EEF
330
4EC2
100
AcDbEntity
  8
AM_0 外形線1
100
AcDbLine
 10
-1.0
 20
250.0
 30
0.0
 11
-24.0
 21
250.0
 31
0.0
  0
LINE
  5
4EF0
330
4EC2
100
AcDbEntity
  8
AM_0 外形線1
100
AcDbLine
 10
-24.0
 20
250.0
 30
0.0
 11
-25.0
 21
249.0
 31
0.0
  0
LINE
  5
4EF1
330
4EC2
100
AcDbEntity
  8
AM_0 外形線1
100
AcDbLine
 10
0.0
 20
249.0
 30
0.0
 11
-1.0
 21
250.0
 31
0.0
  0
LINE
  5
4EF3
330
4EC2
100
AcDbEntity
  8
AM_0 外形線1
100
AcDbLine
 10
-1.0
 20
-250.0
 30
0.0
 11
-24.0
 21
-250.0
 31
0.0
  0
LINE
  5
4EF4
330
4EC2
100
AcDbEntity
  8
AM_0 外形線1
100
AcDbLine
 10
-24.0
 20
-250.0
 30
0.0
 11
-25.0
 21
-249.0
 31
0.0
  0
LINE
  5
4EF5
330
4EC2
100
AcDbEntity
  8
AM_0 外形線1
100
AcDbLine
 10
0.0
 20
-249.0
 30
0.0
 11
-1.0
 21
-250.0
 31
0.0
  0
LINE
  5
4EF6
330
4EC2
100
AcDbEntity
  8
AM_0 外形線1
100
AcDbLine
 10
-78.90231314499761
 20
175.1999999999998
 30
0.0
 11
-73.5
 21
175.1999999999998
 31
0.0
  0
INSERT
  5
4EF7
330
4EC2
100
AcDbEntity
  8
AM_0 外形線1
100
AcDbBlockReference
  2
ロッカクアナツキプラグB R1／2
 10
-50.0
 20
203.5
 30
0.0
  0
LINE
  5
4F6F
330
4EC2
100
AcDbEntity
  8
AM_0 外形線1
100
AcDbLine
 10
0.0
 20
-249.0
 30
0.0
 11
0.0
 21
0.0
 31
0.0
  0
LINE
  5
4F72
330
4EC2
100
AcDbEntity
  8
AM_0 外形線1
100
AcDbLine
 10
0.0
 20
249.0
 30
0.0
 11
0.0
 21
242.0
 31
0.0
  0
LINE
  5
8047
330
4EC2
100
AcDbEntity
  8
AM_0 外形線1
100
AcDbLine
 10
7.0
 20
187.5000000000002
 30
0.0
 11
7.0
 21
199.0000000000002
 31
0.0
  0
LINE
  5
8048
330
4EC2
100
AcDbEntity
  8
AM_0 外形線1
100
AcDbLine
 10
0.0
 20
207.2
 30
0.0
 11
0.0
 21
220.0000000000002
 31
0.0
  0
ARC
  5
8049
330
4EC2
100
AcDbEntity
  8
AM_0 外形線1
100
AcDbCircle
 10
-4.0
 20
200.5000000000002
 30
0.0
 40
0.5
100
AcDbArc
 50
180.0
 51
270.0
  0
LINE
  5
804A
330
4EC2
100
AcDbEntity
  8
AM_0 外形線1
100
AcDbLine
 10
-4.5
 20
200.5000000000002
 30
0.0
 11
-4.5
 21
206.7000000000001
 31
0.0
  0
ARC
  5
804B
330
4EC2
100
AcDbEntity
  8
AM_0 外形線1
100
AcDbCircle
 10
-4.0
 20
206.7000000000001
 30
0.0
 40
0.5
100
AcDbArc
 50
90.0
 51
180.0
  0
LINE
  5
804C
330
4EC2
100
AcDbEntity
  8
AM_0 外形線1
100
AcDbLine
 10
-4.0
 20
207.2
 30
0.0
 11
0.0
 21
207.2
 31
0.0
  0
LWPOLYLINE
  5
804D
330
4EC2
100
AcDbEntity
  8
AM_0 外形線1
100
AcDbPolyline
 90
       73
 70
     0
 43
0.0
 10
-2.25
 20
207.2
 10
-2.053899999999885
 20
207.1863010000002
 10
-1.859292000000094
 20
207.1453080000001
 10
-1.667656999999961
 20
207.0773330000002
 10
-1.480454999999891
 20
206.982894
 10
-1.299109000000044
 20
206.8627080000001
 10
-1.125
 20
206.7176920000002
 10
-0.9594530000003942
 20
206.5489480000001
 10
-0.8037279999998645
 20
206.3577600000001
 10
-0.6590100000003078
 20
206.1455850000002
 10
-0.5263999999997396
 20
205.9140360000001
 10
-0.4069079999999305
 20
205.6648760000001
 10
-0.3014430000002903
 20
205.4000000000001
 10
-0.2108079999998154
 20
205.1214260000001
 10
-0.1356919999998354
 20
204.8312730000002
 10
-0.0766670000002705
 20
204.5317490000002
 10
-0.0341829999997572
 20
204.225134
 10
-0.0085619999999835
 20
203.913761
 10
0.0
 20
203.6000000000001
 10
-0.0085619999999835
 20
203.2862400000001
 10
-0.0341829999997572
 20
202.9748670000001
 10
-0.0766670000002705
 20
202.6682520000002
 10
-0.1356919999998354
 20
202.3687280000002
 10
-0.2108079999998154
 20
202.0785750000002
 10
-0.3014430000002903
 20
201.8000000000002
 10
-0.4069079999999305
 20
201.5351250000001
 10
-0.5263999999997396
 20
201.2859650000002
 10
-0.6590100000003078
 20
201.0544160000002
 10
-0.8037279999998645
 20
200.8422400000002
 10
-0.9594530000003942
 20
200.651053
 10
-1.125
 20
200.4823090000002
 10
-1.299109000000044
 20
200.3372920000002
 10
-1.480454999999891
 20
200.2171070000002
 10
-1.667656999999961
 20
200.1226670000001
 10
-1.859292000000094
 20
200.0546920000001
 10
-2.053899999999885
 20
200.0136990000001
 10
-2.25
 20
200.0000000000002
 10
-2.446101000000453
 20
200.0136990000001
 10
-2.640709000000241
 20
200.0546920000001
 10
-2.832343000000037
 20
200.1226670000001
 10
-3.019545999999991
 20
200.2171070000002
 10
-3.200890999999955
 20
200.3372920000002
 10
-3.375
 20
200.4823090000002
 10
-3.54054700000006
 20
200.651053
 10
-3.696272000000134
 20
200.8422400000002
 10
-3.84099100000003
 20
201.0544160000002
 10
-3.97360000000026
 20
201.2859650000002
 10
-4.093092000000068
 20
201.5351250000001
 10
-4.198558000000048
 20
201.8000000000002
 10
-4.289193000000068
 20
202.0785750000002
 10
-4.364309000000048
 20
202.3687280000002
 10
-4.423332999999728
 20
202.6682520000002
 10
-4.465818000000125
 20
202.9748670000001
 10
-4.491438000000016
 20
203.2862400000001
 10
-4.5
 20
203.6000000000001
 10
-4.491438000000016
 20
203.913761
 10
-4.465818000000125
 20
204.225134
 10
-4.423332999999728
 20
204.5317490000002
 10
-4.364309000000048
 20
204.8312730000002
 10
-4.289193000000068
 20
205.1214260000001
 10
-4.198558000000048
 20
205.4000000000001
 10
-4.093092000000068
 20
205.6648760000001
 10
-3.97360000000026
 20
205.9140360000001
 10
-3.84099100000003
 20
206.1455850000002
 10
-3.696272000000134
 20
206.3577600000001
 10
-3.54054700000006
 20
206.5489480000001
 10
-3.375
 20
206.7176920000002
 10
-3.200890999999955
 20
206.8627080000001
 10
-3.019545999999991
 20
206.982894
 10
-2.832343000000037
 20
207.0773330000002
 10
-2.640709000000241
 20
207.1453080000001
 10
-2.446101000000453
 20
207.1863010000002
 10
-2.25
 20
207.2
  0
LINE
  5
804E
330
4EC2
100
AcDbEntity
  8
AM_0 外形線1
100
AcDbLine
 10
7.0
 20
199.0000000000002
 30
0.0
 11
6.0
 21
200.0000000000002
 31
0.0
  0
LINE
  5
804F
330
4EC2
100
AcDbEntity
  8
AM_0 外形線1
100
AcDbLine
 10
6.0
 20
200.0000000000004
 30
0.0
 11
-4.0
 21
200.0000000000002
 31
0.0
  0
LINE
  5
8081
330
4EC2
100
AcDbEntity
  8
AM_7 中心線
 48
0.5
100
AcDbLine
 10
43.0
 20
231.0
 30
0.0
 11
-58.0
 21
231.0
 31
0.0
  0
ENDBLK
  5
4EC4
330
4EC2
100
AcDbEntity
  8
0
100
AcDbBlockEnd
  0
BLOCK
  5
4FD3
330
4FD2
100
AcDbEntity
  8
0
100
AcDbBlockBegin
  2
センタＡ CAMHY500
 70
     0
 10
0.0
 20
0.0
 30
0.0
  3
センタＡ CAMHY500
  1

  0
LINE
  5
4FD5
330
4FD2
100
AcDbEntity
  8
AM_0 外形線1
100
AcDbLine
 10
230.0
 20
166.5
 30
0.0
 11
183.0
 21
166.5
 31
0.0
  0
LINE
  5
4FD6
330
4FD2
100
AcDbEntity
  8
AM_0 外形線1
100
AcDbLine
 10
183.0
 20
-166.5
 30
0.0
 11
230.0
 21
-166.5
 31
0.0
  0
LINE
  5
4FD7
330
4FD2
100
AcDbEntity
  8
AM_0 外形線1
100
AcDbLine
 10
0.0
 20
143.25
 30
0.0
 11
0.0
 21
0.0
 31
0.0
  0
LINE
  5
4FD8
330
4FD2
100
AcDbEntity
  8
AM_3 隠れ線
100
AcDbLine
 10
52.0
 20
8.75
 30
0.0
 11
0.0
 21
8.75
 31
0.0
  0
LINE
  5
4FD9
330
4FD2
100
AcDbEntity
  8
AM_3 隠れ線
100
AcDbLine
 10
0.0
 20
10.0
 30
0.0
 11
36.0
 21
10.0
 31
0.0
  0
LINE
  5
4FDA
330
4FD2
100
AcDbEntity
  8
AM_3 隠れ線
100
AcDbLine
 10
36.0
 20
10.0
 30
0.0
 11
36.72168800000009
 21
8.75
 31
0.0
  0
LINE
  5
4FDB
330
4FD2
100
AcDbEntity
  8
AM_3 隠れ線
100
AcDbLine
 10
36.0
 20
0.0
 30
0.0
 11
36.0
 21
10.0
 31
0.0
  0
LINE
  5
4FDC
330
4FD2
100
AcDbEntity
  8
AM_3 隠れ線
100
AcDbLine
 10
36.72168800000009
 20
8.75
 30
0.0
 11
36.72168800000009
 21
0.0
 31
0.0
  0
LINE
  5
4FDD
330
4FD2
100
AcDbEntity
  8
AM_0 外形線1
100
AcDbLine
 10
180.0
 20
-167.5
 30
0.0
 11
180.0
 21
0.0
 31
0.0
  0
LINE
  5
4FDE
330
4FD2
100
AcDbEntity
  8
AM_0 外形線1
100
AcDbLine
 10
183.0
 20
-166.5
 30
0.0
 11
183.0
 21
0.0
 31
0.0
  0
LINE
  5
4FDF
330
4FD2
100
AcDbEntity
  8
AM_0 外形線1
100
AcDbLine
 10
157.0
 20
-167.5
 30
0.0
 11
180.0
 21
-167.5
 31
0.0
  0
LINE
  5
4FE0
330
4FD2
100
AcDbEntity
  8
AM_0 外形線1
100
AcDbLine
 10
180.0
 20
-167.5
 30
0.0
 11
183.0
 21
-166.5
 31
0.0
  0
LINE
  5
4FE1
330
4FD2
100
AcDbEntity
  8
AM_3 隠れ線
100
AcDbLine
 10
57.0518149999998
 20
0.0
 30
0.0
 11
52.0
 21
8.75
 31
0.0
  0
LINE
  5
4FE2
330
4FD2
100
AcDbEntity
  8
AM_3 隠れ線
100
AcDbLine
 10
52.0
 20
8.75
 30
0.0
 11
52.0
 21
0.0
 31
0.0
  0
LINE
  5
4FE3
330
4FD2
100
AcDbEntity
  8
AM_0 外形線1
100
AcDbLine
 10
67.5
 20
166.0
 30
0.0
 11
1.0
 21
166.0
 31
0.0
  0
LINE
  5
4FE4
330
4FD2
100
AcDbEntity
  8
AM_0 外形線1
100
AcDbLine
 10
0.0
 20
165.0
 30
0.0
 11
0.0
 21
143.25
 31
0.0
  0
LINE
  5
4FE5
330
4FD2
100
AcDbEntity
  8
AM_0 外形線1
100
AcDbLine
 10
1.0
 20
166.0
 30
0.0
 11
0.0
 21
165.0
 31
0.0
  0
ARC
  5
4FE7
330
4FD2
100
AcDbEntity
  8
AM_0 外形線1
100
AcDbCircle
 10
99.50000000000001
 20
0.0
 30
0.0
 40
185.75
100
AcDbArc
 50
80.39289699998731
 51
99.60710300001268
  0
LINE
  5
4FE9
330
4FD2
100
AcDbEntity
  8
AM_0 外形線1
100
AcDbLine
 10
68.5
 20
183.144923
 30
0.0
 11
68.0
 21
182.559588
 31
0.0
  0
ARC
  5
4FEA
330
4FD2
100
AcDbEntity
  8
AM_0 外形線1
100
AcDbCircle
 10
67.5
 20
166.5
 30
0.0
 40
0.5
100
AcDbArc
 50
270.0
 51
0.0
  0
LINE
  5
4FEB
330
4FD2
100
AcDbEntity
  8
AM_0 外形線1
100
AcDbLine
 10
68.0
 20
182.559588
 30
0.0
 11
68.0
 21
166.5
 31
0.0
  0
LINE
  5
4FEC
330
4FD2
100
AcDbEntity
  8
AM_7 中心線
 48
0.5
100
AcDbLine
 10
99.50000000000001
 20
190.75
 30
0.0
 11
99.50000000000001
 21
169.0
 31
0.0
  0
LINE
  5
4FED
330
4FD2
100
AcDbEntity
  8
AM_0 外形線1
100
AcDbLine
 10
180.0
 20
167.5
 30
0.0
 11
131.5
 21
167.5
 31
0.0
  0
LINE
  5
4FEE
330
4FD2
100
AcDbEntity
  8
AM_0 外形線1
100
AcDbLine
 10
131.0
 20
182.559588
 30
0.0
 11
130.5
 21
183.144923
 31
0.0
  0
ARC
  5
4FEF
330
4FD2
100
AcDbEntity
  8
AM_0 外形線1
100
AcDbCircle
 10
131.5
 20
168.0
 30
0.0
 40
0.5
100
AcDbArc
 50
180.0
 51
270.0
  0
LINE
  5
4FF0
330
4FD2
100
AcDbEntity
  8
AM_0 外形線1
100
AcDbLine
 10
131.0
 20
168.0
 30
0.0
 11
131.0
 21
182.559588
 31
0.0
  0
LINE
  5
4FF1
330
4FD2
100
AcDbEntity
  8
AM_0 外形線1
100
AcDbLine
 10
183.0
 20
166.5
 30
0.0
 11
180.0
 21
167.5
 31
0.0
  0
LINE
  5
4FF2
330
4FD2
100
AcDbEntity
  8
AM_0 外形線1
100
AcDbLine
 10
236.0
 20
-160.5
 30
0.0
 11
236.0
 21
160.5
 31
0.0
  0
ARC
  5
4FF3
330
4FD2
100
AcDbEntity
  8
AM_0 外形線1
100
AcDbCircle
 10
230.0
 20
-160.5
 30
0.0
 40
6.0
100
AcDbArc
 50
270.0
 51
0.0
  0
ARC
  5
4FF4
330
4FD2
100
AcDbEntity
  8
AM_0 外形線1
100
AcDbCircle
 10
230.0
 20
160.5
 30
0.0
 40
6.0
100
AcDbArc
 50
0.0
 51
90.0
  0
LINE
  5
4FF5
330
4FD2
100
AcDbEntity
  8
AM_0 外形線1
100
AcDbLine
 10
235.9999999999998
 20
102.4999999999995
 30
0.0
 11
0.0
 21
102.4999999999995
 31
0.0
  0
ARC
  5
9F05
330
4FD2
100
AcDbEntity
  8
AM_0 外形線1
100
AcDbCircle
 10
99.50000000000001
 20
0.0
 30
0.0
 40
174.0
100
AcDbArc
 50
79.5699787089503
 51
100.4300212910497
  0
ARC
  5
9F06
330
4FD2
100
AcDbEntity
  8
AM_7 中心線
 48
0.5
100
AcDbCircle
 10
99.50000000000001
 20
0.0
 30
0.0
 40
180.0
100
AcDbArc
 50
79.05722733957965
 51
102.1186669557548
  0
ENDBLK
  5
4FD4
330
4FD2
100
AcDbEntity
  8
0
100
AcDbBlockEnd
  0
BLOCK
  5
525B
330
525A
100
AcDbEntity
  8
0
100
AcDbBlockBegin
  2
リーマボルト-B CAMHY500 M20
 70
     0
 10
0.0
 20
0.0
 30
0.0
  3
リーマボルト-B CAMHY500 M20
  1

  0
LINE
  5
525D
330
525A
100
AcDbEntity
  8
AM_0 外形線1
100
AcDbLine
 10
-50.0
 20
3.433333999999376
 30
0.0
 11
-55.10000000000037
 21
-1.666666000000532
 31
0.0
  0
LINE
  5
525E
330
525A
100
AcDbEntity
  8
AM_0 外形線1
100
AcDbLine
 10
-50.0
 20
2.099999999999453
 30
0.0
 11
-55.10000000000037
 21
-3.000000000000453
 31
0.0
  0
LINE
  5
525F
330
525A
100
AcDbEntity
  8
AM_0 外形線1
100
AcDbLine
 10
-55.10000000000037
 20
17.04999999999995
 30
0.0
 11
-50.0
 21
17.04999999999995
 31
0.0
  0
LINE
  5
5260
330
525A
100
AcDbEntity
  8
AM_0 外形線1
100
AcDbLine
 10
-50.0
 20
-17.05000000000018
 30
0.0
 11
-55.10000000000037
 21
-17.05000000000018
 31
0.0
  0
LINE
  5
5261
330
525A
100
AcDbEntity
  8
AM_0 外形線1
100
AcDbLine
 10
-71.10000000000036
 20
12.96974599999998
 30
0.0
 11
-71.10000000000036
 21
-12.97000000000003
 31
0.0
  0
LINE
  5
5262
330
525A
100
AcDbEntity
  8
AM_0 外形線1
100
AcDbLine
 10
-55.10000000000037
 20
-17.30000000000018
 30
0.0
 11
-55.10000000000037
 21
17.04999999999995
 31
0.0
  0
ARC
  5
5263
330
525A
100
AcDbEntity
  8
AM_0 外形線1
100
AcDbCircle
 10
-62.61703200000011
 20
-12.96987300000023
 30
0.0
 40
8.482967
100
AcDbArc
 50
149.3062210000045
 51
210.6937789999955
  0
LINE
  5
5264
330
525A
100
AcDbEntity
  8
AM_0 外形線1
100
AcDbLine
 10
-69.91160099999979
 20
-17.30000000000018
 30
0.0
 11
-55.32246299999997
 21
-17.30000000000018
 31
0.0
  0
LINE
  5
5265
330
525A
100
AcDbEntity
  8
AM_0 外形線1
100
AcDbLine
 10
-55.32246299999997
 20
-17.30000000000018
 30
0.0
 11
-55.10000000000037
 21
-17.30000000000018
 31
0.0
  0
LINE
  5
5266
330
525A
100
AcDbEntity
  8
AM_0 外形線1
100
AcDbLine
 10
-71.10000000000036
 20
10.0
 30
0.0
 11
-76.0
 21
10.0
 31
0.0
  0
LINE
  5
5267
330
525A
100
AcDbEntity
  8
AM_0 外形線1
100
AcDbLine
 10
-76.0
 20
-10.0
 30
0.0
 11
-71.10000000000036
 21
-10.0
 31
0.0
  0
LINE
  5
5268
330
525A
100
AcDbEntity
  8
AM_4 細線
100
AcDbLine
 10
-77.80000000000019
 20
8.199999999999818
 30
0.0
 11
-71.10000000000036
 21
8.199999999999818
 31
0.0
  0
LINE
  5
5269
330
525A
100
AcDbEntity
  8
AM_4 細線
100
AcDbLine
 10
-77.80000000000019
 20
-8.200000000000045
 30
0.0
 11
-71.10000000000036
 21
-8.200000000000045
 31
0.0
  0
LINE
  5
526A
330
525A
100
AcDbEntity
  8
AM_0 外形線1
100
AcDbLine
 10
-76.0
 20
10.0
 30
0.0
 11
-78.0
 21
8.0
 31
0.0
  0
LINE
  5
526B
330
525A
100
AcDbEntity
  8
AM_0 外形線1
100
AcDbLine
 10
-78.0
 20
8.0
 30
0.0
 11
-78.0
 21
-8.0
 31
0.0
  0
LINE
  5
526C
330
525A
100
AcDbEntity
  8
AM_0 外形線1
100
AcDbLine
 10
-78.0
 20
-8.0
 30
0.0
 11
-76.0
 21
-10.0
 31
0.0
  0
LINE
  5
526D
330
525A
100
AcDbEntity
  8
AM_0 外形線1
100
AcDbLine
 10
-76.0
 20
-10.0
 30
0.0
 11
-76.0
 21
10.0
 31
0.0
  0
LINE
  5
526E
330
525A
100
AcDbEntity
  8
AM_0 外形線1
100
AcDbLine
 10
-55.10000000000037
 20
17.04999999999995
 30
0.0
 11
-55.10000000000037
 21
17.29999999999995
 31
0.0
  0
LINE
  5
526F
330
525A
100
AcDbEntity
  8
AM_0 外形線1
100
AcDbLine
 10
-55.10000000000037
 20
17.29999999999995
 30
0.0
 11
-69.91160099999979
 21
17.29999999999995
 31
0.0
  0
ARC
  5
5270
330
525A
100
AcDbEntity
  8
AM_0 外形線1
100
AcDbCircle
 10
-62.61703200000011
 20
12.969873
 30
0.0
 40
8.482967
100
AcDbArc
 50
149.3062210000045
 51
210.6937789999955
  0
ARC
  5
5271
330
525A
100
AcDbEntity
  8
AM_0 外形線1
100
AcDbCircle
 10
-39.10000000000037
 20
0.0
 30
0.0
 40
32.0
100
AcDbArc
 50
164.3362059999997
 51
195.6637940000003
  0
LINE
  5
5272
330
525A
100
AcDbEntity
  8
AM_0 外形線1
100
AcDbLine
 10
-69.91160099999979
 20
8.639746000000059
 30
0.0
 11
-55.10000000000037
 21
8.639746000000059
 31
0.0
  0
LINE
  5
5273
330
525A
100
AcDbEntity
  8
AM_0 外形線1
100
AcDbLine
 10
-69.91160099999979
 20
-8.639746000000286
 30
0.0
 11
-55.10000000000037
 21
-8.639746000000286
 31
0.0
  0
LINE
  5
5274
330
525A
100
AcDbEntity
  8
AM_0 外形線1
100
AcDbLine
 10
-42.26794900000004
 20
11.0
 30
0.0
 11
-42.26794900000004
 21
-11.0
 31
0.0
  0
LINE
  5
5275
330
525A
100
AcDbEntity
  8
AM_0 外形線1
100
AcDbLine
 10
-44.0
 20
-10.0
 30
0.0
 11
-44.0
 21
10.0
 31
0.0
  0
LINE
  5
5276
330
525A
100
AcDbEntity
  8
AM_0 外形線1
100
AcDbLine
 10
-42.26794900000004
 20
11.0
 30
0.0
 11
-44.0
 21
10.0
 31
0.0
  0
LINE
  5
5277
330
525A
100
AcDbEntity
  8
AM_0 外形線1
100
AcDbLine
 10
-44.0
 20
-10.0
 30
0.0
 11
-42.26794900000004
 21
-11.0
 31
0.0
  0
LINE
  5
5278
330
525A
100
AcDbEntity
  8
AM_0 外形線1
100
AcDbLine
 10
-44.0
 20
10.0
 30
0.0
 11
-50.0
 21
10.0
 31
0.0
  0
LINE
  5
5279
330
525A
100
AcDbEntity
  8
AM_0 外形線1
100
AcDbLine
 10
-44.0
 20
-10.0
 30
0.0
 11
-50.0
 21
-10.0
 31
0.0
  0
LINE
  5
527A
330
525A
100
AcDbEntity
  8
AM_0 外形線1
100
AcDbLine
 10
13.0
 20
12.96974599999998
 30
0.0
 11
13.0
 21
0.0
 31
0.0
  0
LINE
  5
527D
330
525A
100
AcDbEntity
  8
AM_0 外形線1
100
AcDbLine
 10
0.0
 20
15.0
 30
0.0
 11
11.52253699999983
 21
15.0
 31
0.0
  0
ARC
  5
5280
330
525A
100
AcDbEntity
  8
AM_0 外形線1
100
AcDbCircle
 10
-1.0
 20
11.0
 30
0.0
 40
1.0
100
AcDbArc
 50
270.0
 51
0.0
  0
LINE
  5
5281
330
525A
100
AcDbEntity
  8
AM_0 外形線1
100
AcDbLine
 10
-2.5
 20
11.0
 30
0.0
 11
-1.0
 21
10.0
 31
0.0
  0
ARC
  5
5282
330
525A
100
AcDbEntity
  8
AM_0 外形線1
100
AcDbCircle
 10
-1.0
 20
-11.0
 30
0.0
 40
1.0
100
AcDbArc
 50
0.0
 51
90.0
  0
LINE
  5
5283
330
525A
100
AcDbEntity
  8
AM_0 外形線1
100
AcDbLine
 10
-2.5
 20
-11.0
 30
0.0
 11
-1.0
 21
-10.0
 31
0.0
  0
LINE
  5
5284
330
525A
100
AcDbEntity
  8
AM_0 外形線1
100
AcDbLine
 10
-2.5
 20
11.0
 30
0.0
 11
-2.5
 21
-11.0
 31
0.0
  0
ARC
  5
5285
330
525A
100
AcDbEntity
  8
AM_0 外形線1
100
AcDbCircle
 10
-6.774745527829053
 20
7.500000106223068
 30
0.0
 40
19.77474552782903
100
AcDbArc
 50
337.7114265270103
 51
22.28857347298969
  0
LINE
  5
52E4
330
525A
100
AcDbEntity
  8
AM_0 外形線1
100
AcDbLine
 10
-50.0
 20
17.04999999999995
 30
0.0
 11
-50.0
 21
-17.05000000000018
 31
0.0
  0
LINE
  5
52E5
330
525A
100
AcDbEntity
  8
AM_0 外形線1
100
AcDbLine
 10
-42.26794900000004
 20
11.0
 30
0.0
 11
-2.5
 21
11.0
 31
0.0
  0
LINE
  5
52E6
330
525A
100
AcDbEntity
  8
AM_0 外形線1
100
AcDbLine
 10
-42.26794900000004
 20
-11.0
 30
0.0
 11
-2.5
 21
-11.0
 31
0.0
  0
LINE
  5
52E7
330
525A
100
AcDbEntity
  8
AM_0 外形線1
100
AcDbLine
 10
0.0
 20
15.0
 30
0.0
 11
0.0
 21
-14.99999999999977
 31
0.0
  0
LINE
  5
8139
330
525A
100
AcDbEntity
  8
AM_0 外形線1
100
AcDbLine
 10
11.52253730588859
 20
0.0
 30
0.0
 11
0.0
 21
0.0
 31
0.0
  0
LINE
  5
813A
330
525A
100
AcDbEntity
  8
AM_0 外形線1
100
AcDbLine
 10
13.0
 20
12.96974599999998
 30
0.0
 11
11.52253746996575
 21
15.0
 31
0.0
  0
LINE
  5
813B
330
525A
100
AcDbEntity
  8
AM_0 外形線1
100
AcDbLine
 10
13.0
 20
-12.96974599999998
 30
0.0
 11
13.0
 21
0.0
 31
0.0
  0
LINE
  5
813C
330
525A
100
AcDbEntity
  8
AM_0 外形線1
100
AcDbLine
 10
0.0
 20
-15.0
 30
0.0
 11
11.52253699999983
 21
-15.0
 31
0.0
  0
ARC
  5
813D
330
525A
100
AcDbEntity
  8
AM_0 外形線1
100
AcDbCircle
 10
-6.774745527829053
 20
-7.500000106223068
 30
0.0
 40
19.77474552782903
100
AcDbArc
 50
337.7114265270224
 51
22.28857347297764
  0
LINE
  5
813E
330
525A
100
AcDbEntity
  8
AM_0 外形線1
100
AcDbLine
 10
11.52253730588859
 20
0.0
 30
0.0
 11
0.0
 21
0.0
 31
0.0
  0
LINE
  5
813F
330
525A
100
AcDbEntity
  8
AM_0 外形線1
100
AcDbLine
 10
13.0
 20
-12.96974599999998
 30
0.0
 11
11.52253746996575
 21
-15.0
 31
0.0
  0
ENDBLK
  5
525C
330
525A
100
AcDbEntity
  8
0
100
AcDbBlockEnd
  0
BLOCK
  5
53DB
330
53DA
100
AcDbEntity
  8
0
100
AcDbBlockBegin
  2
ＧＣサイドカバ－A CAMHY500
 70
     0
 10
0.0
 20
0.0
 30
0.0
  3
ＧＣサイドカバ－A CAMHY500
  1

  0
LINE
  5
53DD
330
53DA
100
AcDbEntity
  8
AM_0 外形線1
100
AcDbLine
 10
16.0
 20
-199.5
 30
0.0
 11
16.0
 21
0.0
 31
0.0
  0
LINE
  5
53DE
330
53DA
100
AcDbEntity
  8
AM_7 中心線
 48
0.5
100
AcDbLine
 10
-25.30323300000009
 20
-201.0
 30
0.0
 11
28.32590699999992
 21
-201.0
 31
0.0
  0
LINE
  5
53DF
330
53DA
100
AcDbEntity
  8
AM_0 外形線1
100
AcDbLine
 10
0.0
 20
-212.0
 30
0.0
 11
16.0
 21
-212.0
 31
0.0
  0
LINE
  5
53E0
330
53DA
100
AcDbEntity
  8
AM_0 外形線1
100
AcDbLine
 10
16.0
 20
-212.0
 30
0.0
 11
16.0
 21
-199.5
 31
0.0
  0
LINE
  5
53E1
330
53DA
100
AcDbEntity
  8
AM_0 外形線1
100
AcDbLine
 10
-16.5
 20
205.2999999999999
 30
0.0
 11
-20.0
 21
205.2999999999999
 31
0.0
  0
LINE
  5
53E2
330
53DA
100
AcDbEntity
  8
AM_0 外形線1
100
AcDbLine
 10
-16.5
 20
196.6999999999998
 30
0.0
 11
-20.0
 21
196.6999999999998
 31
0.0
  0
LINE
  5
53E3
330
53DA
100
AcDbEntity
  8
AM_7 中心線
 48
0.5
100
AcDbLine
 10
-26.59299899999997
 20
201.0
 30
0.0
 11
30.93779700000006
 21
201.0
 31
0.0
  0
LINE
  5
53E4
330
53DA
100
AcDbEntity
  8
AM_0 外形線1
100
AcDbLine
 10
-20.0
 20
205.2999999999999
 30
0.0
 11
-22.48260600000003
 21
201.0
 31
0.0
  0
LINE
  5
53E5
330
53DA
100
AcDbEntity
  8
AM_0 外形線1
100
AcDbLine
 10
-22.48260600000003
 20
201.0
 30
0.0
 11
-20.0
 21
196.6999999999998
 31
0.0
  0
LINE
  5
53E6
330
53DA
100
AcDbEntity
  8
AM_0 外形線1
100
AcDbLine
 10
-20.0
 20
196.6999999999998
 30
0.0
 11
-20.0
 21
205.2999999999999
 31
0.0
  0
LINE
  5
53E7
330
53DA
100
AcDbEntity
  8
AM_0 外形線1
100
AcDbLine
 10
3.099999999999908
 20
187.5
 30
0.0
 11
3.099999999999908
 21
192.7999999999999
 31
0.0
  0
LWPOLYLINE
  5
53E8
330
53DA
100
AcDbEntity
  8
AM_0 外形線1
100
AcDbPolyline
 90
       73
 70
     0
 43
0.0
 10
1.550000000000181
 20
187.5
 10
1.685091999999712
 20
187.510084
 10
1.819155000000137
 20
187.5402599999997
 10
1.951170000000274
 20
187.5902969999999
 10
2.080132000000047
 20
187.6598149999999
 10
2.205058999999891
 20
187.7482849999999
 10
2.324999999999818
 20
187.8550329999998
 10
2.439044000000193
 20
187.979247
 10
2.546320999999806
 20
188.1199829999998
 10
2.646015999999689
 20
188.276167
 10
2.737368999999943
 20
188.446613
 10
2.819685999999818
 20
188.6300229999999
 10
2.892339999999876
 20
188.8249999999998
 10
2.954776999999921
 20
189.0300619999998
 10
3.006523999999898
 20
189.243647
 10
3.047185000000353
 20
189.46413
 10
3.076452000000243
 20
189.6898329999999
 10
3.09410200000002
 20
189.919038
 10
3.099999999999908
 20
190.1499999999998
 10
3.09410200000002
 20
190.3809630000001
 10
3.076452000000243
 20
190.6101679999999
 10
3.047185000000353
 20
190.835871
 10
3.006523999999898
 20
191.0563539999998
 10
2.954776999999921
 20
191.269939
 10
2.892339999999876
 20
191.4749999999999
 10
2.819685999999818
 20
191.6699779999999
 10
2.737368999999943
 20
191.853388
 10
2.646015999999689
 20
192.0238329999999
 10
2.546320999999806
 20
192.1800179999998
 10
2.439044000000193
 20
192.3207529999997
 10
2.324999999999818
 20
192.4449679999998
 10
2.205058999999891
 20
192.5517159999999
 10
2.080132000000047
 20
192.6401859999998
 10
1.951170000000274
 20
192.7097039999998
 10
1.819155000000137
 20
192.7597409999998
 10
1.685091999999712
 20
192.7899159999999
 10
1.550000000000181
 20
192.7999999999999
 10
1.414909000000078
 20
192.7899159999999
 10
1.28084600000011
 20
192.7597409999998
 10
1.148830999999971
 20
192.7097039999998
 10
1.019869000000197
 20
192.6401859999998
 10
0.8949419999999006
 20
192.5517159999999
 10
0.775000000000091
 20
192.4449679999998
 10
0.6609570000000531
 20
192.3207529999997
 10
0.5536799999999859
 20
192.1800179999998
 10
0.4539850000001026
 20
192.0238329999999
 10
0.3626309999999648
 20
191.853388
 10
0.2803149999999732
 20
191.6699779999999
 10
0.2076609999999164
 20
191.4749999999999
 10
0.1452229999999872
 20
191.269939
 10
0.0934770000003482
 20
191.0563539999998
 10
0.0528150000000096
 20
190.835871
 10
0.0235480000001189
 20
190.6101679999999
 10
0.0058989999997721
 20
190.3809630000001
 10
0.0
 20
190.1499999999998
 10
0.0058989999997721
 20
189.919038
 10
0.0235480000001189
 20
189.6898329999999
 10
0.0528150000000096
 20
189.46413
 10
0.0934770000003482
 20
189.243647
 10
0.1452229999999872
 20
189.0300619999998
 10
0.2076609999999164
 20
188.8249999999998
 10
0.2803149999999732
 20
188.6300229999999
 10
0.3626309999999648
 20
188.446613
 10
0.4539850000001026
 20
188.276167
 10
0.5536799999999859
 20
188.1199829999998
 10
0.6609570000000531
 20
187.979247
 10
0.775000000000091
 20
187.8550329999998
 10
0.8949419999999006
 20
187.7482849999999
 10
1.019869000000197
 20
187.6598149999999
 10
1.148830999999971
 20
187.5902969999999
 10
1.28084600000011
 20
187.5402599999997
 10
1.414909000000078
 20
187.510084
 10
1.550000000000181
 20
187.5
  0
LINE
  5
53E9
330
53DA
100
AcDbEntity
  8
AM_0 外形線1
100
AcDbLine
 10
16.0
 20
199.5
 30
0.0
 11
16.0
 21
169.0
 31
0.0
  0
LINE
  5
53EA
330
53DA
100
AcDbEntity
  8
AM_0 外形線1
100
AcDbLine
 10
11.59999999999991
 20
174.5499999999999
 30
0.0
 11
0.400000000000091
 21
174.5499999999999
 31
0.0
  0
LWPOLYLINE
  5
53EB
330
53DA
100
AcDbEntity
  8
AM_0 外形線1
100
AcDbPolyline
 90
       73
 70
     0
 43
0.0
 10
11.59999999999991
 20
171.0249999999998
 10
11.57869099999971
 20
171.332224
 10
11.51492400000006
 20
171.6371099999999
 10
11.40918499999998
 20
171.9373379999999
 10
11.26227900000003
 20
172.2306209999999
 10
11.07532399999991
 20
172.5147299999999
 10
10.84974300000022
 20
172.7874999999999
 10
10.58725200000026
 20
173.046857
 10
10.28984899999977
 20
173.2908269999998
 10
9.959797999999862
 20
173.5175519999998
 10
9.599611000000095
 20
173.7253069999999
 10
9.212027999999918
 20
173.9125109999998
 10
8.800000000000181
 20
174.0777399999999
 10
8.366662999999789
 20
174.2197349999999
 10
7.915312999999969
 20
174.3374169999999
 10
7.449387000000115
 20
174.429889
 10
6.972429999999802
 20
174.4964479999999
 10
6.488072999999985
 20
174.5365869999998
 10
6.0
 20
174.5499999999999
 10
5.511927999999898
 20
174.5365869999998
 10
5.027571000000079
 20
174.4964479999999
 10
4.550613999999768
 20
174.429889
 10
4.084687999999913
 20
174.3374169999999
 10
3.633338000000093
 20
174.2197349999999
 10
3.199999999999818
 20
174.0777399999999
 10
2.787972000000081
 20
173.9125109999998
 10
2.400389999999787
 20
173.7253069999999
 10
2.040202000000134
 20
173.5175519999998
 10
1.710151000000223
 20
173.2908269999998
 10
1.412749000000076
 20
173.046857
 10
1.15025800000012
 20
172.7874999999999
 10
0.9246769999999742
 20
172.5147299999999
 10
0.7377219999998488
 20
172.2306209999999
 10
0.5908159999999043
 20
171.9373379999999
 10
0.485077000000274
 20
171.6371099999999
 10
0.4213100000001761
 20
171.332224
 10
0.400000000000091
 20
171.0249999999998
 10
0.4213100000001761
 20
170.7177759999999
 10
0.485077000000274
 20
170.4128909999999
 10
0.5908159999999043
 20
170.1126629999999
 10
0.7377219999998488
 20
169.8193789999998
 10
0.9246769999999742
 20
169.5352709999999
 10
1.15025800000012
 20
169.2624999999998
 10
1.412749000000076
 20
169.0031429999999
 10
1.710151000000223
 20
168.759174
 10
2.040202000000134
 20
168.532449
 10
2.400389999999787
 20
168.3246939999999
 10
2.787972000000081
 20
168.1374889999999
 10
3.199999999999818
 20
167.9722609999999
 10
3.633338000000093
 20
167.830265
 10
4.084687999999913
 20
167.7125839999999
 10
4.550613999999768
 20
167.6201119999998
 10
5.027571000000079
 20
167.5535529999996
 10
5.511927999999898
 20
167.513414
 10
6.0
 20
167.5
 10
6.488072999999985
 20
167.513414
 10
6.972429999999802
 20
167.5535529999996
 10
7.449387000000115
 20
167.6201119999998
 10
7.915312999999969
 20
167.7125839999999
 10
8.366662999999789
 20
167.830265
 10
8.800000000000181
 20
167.9722609999999
 10
9.212027999999918
 20
168.1374889999999
 10
9.599611000000095
 20
168.3246939999999
 10
9.959797999999862
 20
168.532449
 10
10.28984899999977
 20
168.759174
 10
10.58725200000026
 20
169.0031429999999
 10
10.84974300000022
 20
169.2624999999998
 10
11.07532399999991
 20
169.5352709999999
 10
11.26227900000003
 20
169.8193789999998
 10
11.40918499999998
 20
170.1126629999999
 10
11.51492400000006
 20
170.4128909999999
 10
11.57869099999971
 20
170.7177759999999
 10
11.59999999999991
 20
171.0249999999998
  0
LINE
  5
53ED
330
53DA
100
AcDbEntity
  8
AM_0 外形線1
100
AcDbLine
 10
0.400000000000091
 20
169.0
 30
0.0
 11
0.400000000000091
 21
167.5
 31
0.0
  0
LINE
  5
53EE
330
53DA
100
AcDbEntity
  8
AM_0 外形線1
100
AcDbLine
 10
-4.0
 20
169.0
 30
0.0
 11
-4.0
 21
167.5
 31
0.0
  0
LINE
  5
53EF
330
53DA
100
AcDbEntity
  8
AM_0 外形線1
100
AcDbLine
 10
0.400000000000091
 20
174.5499999999999
 30
0.0
 11
0.400000000000091
 21
169.0
 31
0.0
  0
LINE
  5
53F0
330
53DA
100
AcDbEntity
  8
AM_0 外形線1
100
AcDbLine
 10
0.400000000000091
 20
169.0
 30
0.0
 11
-4.0
 21
169.0
 31
0.0
  0
LINE
  5
53F1
330
53DA
100
AcDbEntity
  8
AM_0 外形線1
100
AcDbLine
 10
-4.0
 20
169.0
 30
0.0
 11
-4.0
 21
187.0
 31
0.0
  0
LINE
  5
53F2
330
53DA
100
AcDbEntity
  8
AM_0 外形線1
100
AcDbLine
 10
16.0
 20
169.0
 30
0.0
 11
16.0
 21
167.5
 31
0.0
  0
LINE
  5
53F3
330
53DA
100
AcDbEntity
  8
AM_0 外形線1
100
AcDbLine
 10
11.59999999999991
 20
169.0
 30
0.0
 11
11.59999999999991
 21
167.5
 31
0.0
  0
LINE
  5
53F4
330
53DA
100
AcDbEntity
  8
AM_0 外形線1
100
AcDbLine
 10
11.59999999999991
 20
169.0
 30
0.0
 11
11.59999999999991
 21
174.5499999999999
 31
0.0
  0
LINE
  5
53F5
330
53DA
100
AcDbEntity
  8
AM_0 外形線1
100
AcDbLine
 10
16.0
 20
169.0
 30
0.0
 11
11.59999999999991
 21
169.0
 31
0.0
  0
LINE
  5
53F6
330
53DA
100
AcDbEntity
  8
AM_0 外形線1
100
AcDbLine
 10
18.5
 20
210.8
 30
0.0
 11
24.36435400000029
 21
210.8
 31
0.0
  0
LINE
  5
53F7
330
53DA
100
AcDbEntity
  8
AM_0 外形線1
100
AcDbLine
 10
24.36435400000029
 20
191.1999999999998
 30
0.0
 11
18.5
 21
191.1999999999998
 31
0.0
  0
LINE
  5
53F8
330
53DA
100
AcDbEntity
  8
AM_0 外形線1
100
AcDbLine
 10
24.61728700000004
 20
196.1074779999999
 30
0.0
 11
18.5
 21
196.1074779999999
 31
0.0
  0
LINE
  5
53F9
330
53DA
100
AcDbEntity
  8
AM_0 外形線1
100
AcDbLine
 10
24.61728700000004
 20
205.892523
 30
0.0
 11
18.5
 21
205.892523
 31
0.0
  0
LINE
  5
53FA
330
53DA
100
AcDbEntity
  8
AM_0 外形線1
100
AcDbLine
 10
16.0
 20
195.5
 30
0.0
 11
0.0
 21
195.5
 31
0.0
  0
LINE
  5
53FB
330
53DA
100
AcDbEntity
  8
AM_0 外形線1
100
AcDbLine
 10
16.0
 20
206.5
 30
0.0
 11
0.0
 21
206.5
 31
0.0
  0
LINE
  5
53FC
330
53DA
100
AcDbEntity
  8
AM_4 細線
100
AcDbLine
 10
16.0
 20
196.0
 30
0.0
 11
-16.49999999999954
 21
195.9999999999995
 31
0.0
  0
LINE
  5
53FD
330
53DA
100
AcDbEntity
  8
AM_4 細線
100
AcDbLine
 10
16.0
 20
206.0
 30
0.0
 11
-16.5
 21
206.0
 31
0.0
  0
LINE
  5
53FE
330
53DA
100
AcDbEntity
  8
AM_0 外形線1
100
AcDbLine
 10
16.0
 20
205.2999999999999
 30
0.0
 11
-16.5
 21
205.2999999999999
 31
0.0
  0
LINE
  5
53FF
330
53DA
100
AcDbEntity
  8
AM_0 外形線1
100
AcDbLine
 10
16.0
 20
196.6999999999998
 30
0.0
 11
-16.5
 21
196.7
 31
0.0
  0
LINE
  5
5400
330
53DA
100
AcDbEntity
  8
AM_0 外形線1
100
AcDbLine
 10
3.099999999999908
 20
192.7999999999999
 30
0.0
 11
0.0
 21
192.7999999999999
 31
0.0
  0
LINE
  5
5401
330
53DA
100
AcDbEntity
  8
AM_0 外形線1
100
AcDbLine
 10
-16.5
 20
206.0
 30
0.0
 11
-16.5
 21
196.0
 31
0.0
  0
LINE
  5
5402
330
53DA
100
AcDbEntity
  8
AM_0 外形線1
100
AcDbLine
 10
16.0
 20
212.0
 30
0.0
 11
16.0
 21
199.5
 31
0.0
  0
LINE
  5
5403
330
53DA
100
AcDbEntity
  8
AM_0 外形線1
100
AcDbLine
 10
16.0
 20
210.25
 30
0.0
 11
18.5
 21
210.25
 31
0.0
  0
LINE
  5
5405
330
53DA
100
AcDbEntity
  8
AM_0 外形線1
100
AcDbLine
 10
18.5
 20
191.75
 30
0.0
 11
16.0
 21
191.75
 31
0.0
  0
LINE
  5
5407
330
53DA
100
AcDbEntity
  8
AM_0 外形線1
100
AcDbLine
 10
18.5
 20
203.25
 30
0.0
 11
16.0
 21
200.75
 31
0.0
  0
LINE
  5
5408
330
53DA
100
AcDbEntity
  8
AM_0 外形線1
100
AcDbLine
 10
18.5
 20
201.25
 30
0.0
 11
16.0
 21
198.75
 31
0.0
  0
ARC
  5
5409
330
53DA
100
AcDbEntity
  8
AM_0 外形線1
100
AcDbCircle
 10
22.00150100000019
 20
208.2179609999998
 30
0.0
 40
3.5
100
AcDbArc
 50
318.3628590000148
 51
47.53802600001487
  0
ARC
  5
540A
330
53DA
100
AcDbEntity
  8
AM_0 外形線1
100
AcDbCircle
 10
11.5
 20
201.0
 30
0.0
 40
14.0
100
AcDbArc
 50
339.5453489999912
 51
20.4546510000088
  0
ARC
  5
540B
330
53DA
100
AcDbEntity
  8
AM_0 外形線1
100
AcDbCircle
 10
22.00150100000019
 20
193.78204
 30
0.0
 40
3.5
100
AcDbArc
 50
312.4619739999851
 51
41.63714099998522
  0
LINE
  5
540C
330
53DA
100
AcDbEntity
  8
AM_0 外形線1
100
AcDbLine
 10
25.5
 20
193.6795579999998
 30
0.0
 11
25.5
 21
208.3204419999999
 31
0.0
  0
LINE
  5
540D
330
53DA
100
AcDbEntity
  8
AM_0 外形線1
100
AcDbLine
 10
-17.71243546666665
 20
205.2999999999999
 30
0.0
 11
-17.7124354666671
 21
196.6999999999998
 31
0.0
  0
LINE
  5
540E
330
53DA
100
AcDbEntity
  8
AM_0 外形線1
100
AcDbLine
 10
0.0
 20
211.9999999999998
 30
0.0
 11
16.0
 21
212.0
 31
0.0
  0
LINE
  5
544B
330
53DA
100
AcDbEntity
  8
AM_0 外形線1
100
AcDbLine
 10
18.5
 20
191.1999999999998
 30
0.0
 11
18.5
 21
210.8
 31
0.0
  0
LINE
  5
544C
330
53DA
100
AcDbEntity
  8
AM_0 外形線1
100
AcDbLine
 10
-4.0
 20
187.0
 30
0.0
 11
-3.5
 21
187.5
 31
0.0
1001
GENIUS_GENFIL_13
1070
     0
1040
0.5
1040
0.5
1040
7.999999999999772
1040
45.0
1002
{
1002
}
1001
GENIUS_GENODEF_13
1002
{
1000
HIER
1070
     0
1002
}
1002
{
1000
MANEDIT
1070
     0
1002
}
1002
{
1000
NOSEL
1070
     0
1002
}
1002
{
1000
BEHIND
1070
     0
1002
}
1002
{
1000
OTHER
1070
     0
1002
}
1002
{
1000
REACTOR
1002
}
1001
GENIUS_GENOBJ-N-CHA_13
1002
{
1000
OWNER
1000
GEN
1002
}
  0
LINE
  5
544D
330
53DA
100
AcDbEntity
  8
AM_0 外形線1
100
AcDbLine
 10
0.0
 20
192.7999999999999
 30
0.0
 11
0.0
 21
195.9999999999998
 31
0.0
  0
LINE
  5
544E
330
53DA
100
AcDbEntity
  8
AM_0 外形線1
100
AcDbLine
 10
0.0
 20
206.0
 30
0.0
 11
0.0
 21
212.0
 31
0.0
  0
LINE
  5
547E
330
53DA
100
AcDbEntity
  8
AM_0 外形線1
100
AcDbLine
 10
0.0
 20
0.0
 30
0.0
 11
0.0
 21
-212.0000000000002
 31
0.0
  0
LINE
  5
547F
330
53DA
100
AcDbEntity
  8
AM_0 外形線1
100
AcDbLine
 10
3.099999999999908
 20
187.5
 30
0.0
 11
-3.5
 21
187.5
 31
0.0
  0
ENDBLK
  5
53DC
330
53DA
100
AcDbEntity
  8
0
100
AcDbBlockEnd
  0
BLOCK
  5
54F8
330
54F7
100
AcDbEntity
  8
0
100
AcDbBlockBegin
  2
ＧＣサイドカバ－Ｂ CAMHY500
 70
     0
 10
0.0
 20
0.0
 30
0.0
  3
ＧＣサイドカバ－Ｂ CAMHY500
  1

  0
LINE
  5
54FA
330
54F7
100
AcDbEntity
  8
AM_0 外形線1
100
AcDbLine
 10
-16.0
 20
-199.5
 30
0.0
 11
-16.0
 21
0.0
 31
0.0
  0
LINE
  5
54FB
330
54F7
100
AcDbEntity
  8
AM_7 中心線
 48
0.5
100
AcDbLine
 10
23.80213000000003
 20
-201.0
 30
0.0
 11
-28.32590699999992
 21
-201.0
 31
0.0
  0
LINE
  5
54FC
330
54F7
100
AcDbEntity
  8
AM_0 外形線1
100
AcDbLine
 10
-16.0
 20
-212.0
 30
0.0
 11
-16.0
 21
-199.5
 31
0.0
  0
LINE
  5
54FD
330
54F7
100
AcDbEntity
  8
AM_0 外形線1
100
AcDbLine
 10
-3.100000000000362
 20
187.5
 30
0.0
 11
-3.100000000000362
 21
192.7999999999999
 31
0.0
  0
LINE
  5
54FE
330
54F7
100
AcDbEntity
  8
AM_0 外形線1
100
AcDbLine
 10
-16.0
 20
212.0
 30
0.0
 11
-16.0
 21
169.0
 31
0.0
  0
LINE
  5
54FF
330
54F7
100
AcDbEntity
  8
AM_0 外形線1
100
AcDbLine
 10
-0.400000000000091
 20
169.0
 30
0.0
 11
4.0
 21
169.0
 31
0.0
  0
LINE
  5
5500
330
54F7
100
AcDbEntity
  8
AM_0 外形線1
100
AcDbLine
 10
-0.400000000000091
 20
169.0
 30
0.0
 11
-0.400000000000091
 21
167.5
 31
0.0
  0
LINE
  5
5501
330
54F7
100
AcDbEntity
  8
AM_0 外形線1
100
AcDbLine
 10
-0.400000000000091
 20
174.5499999999999
 30
0.0
 11
-0.400000000000091
 21
169.0
 31
0.0
  0
LINE
  5
5502
330
54F7
100
AcDbEntity
  8
AM_0 外形線1
100
AcDbLine
 10
-16.0
 20
169.0
 30
0.0
 11
-16.0
 21
167.5
 31
0.0
  0
LINE
  5
5503
330
54F7
100
AcDbEntity
  8
AM_0 外形線1
100
AcDbLine
 10
-11.60000000000036
 20
169.0
 30
0.0
 11
-11.60000000000036
 21
167.5
 31
0.0
  0
LINE
  5
5504
330
54F7
100
AcDbEntity
  8
AM_0 外形線1
100
AcDbLine
 10
-16.0
 20
169.0
 30
0.0
 11
-11.60000000000036
 21
169.0
 31
0.0
  0
LINE
  5
5505
330
54F7
100
AcDbEntity
  8
AM_0 外形線1
100
AcDbLine
 10
-11.60000000000036
 20
169.0
 30
0.0
 11
-11.60000000000036
 21
174.5499999999999
 31
0.0
  0
LINE
  5
5506
330
54F7
100
AcDbEntity
  8
AM_0 外形線1
100
AcDbLine
 10
-11.60000000000036
 20
174.5499999999999
 30
0.0
 11
-0.400000000000091
 21
174.5499999999999
 31
0.0
  0
LWPOLYLINE
  5
5507
330
54F7
100
AcDbEntity
  8
AM_0 外形線1
100
AcDbPolyline
 90
       73
 70
     0
 43
0.0
 10
-11.60000000000036
 20
171.0249999999998
 10
-11.57868999999982
 20
170.7177759999999
 10
-11.51492299999972
 20
170.4128909999999
 10
-11.40918400000009
 20
170.1126629999999
 10
-11.26227800000015
 20
169.8193789999998
 10
-11.07532300000002
 20
169.5352709999999
 10
-10.84974200000033
 20
169.2624999999998
 10
-10.58725099999992
 20
169.0031429999999
 10
-10.28984899999977
 20
168.759174
 10
-9.959797999999862
 20
168.532449
 10
-9.599610000000213
 20
168.3246939999999
 10
-9.212027999999918
 20
168.1374889999999
 10
-8.800000000000181
 20
167.9722609999999
 10
-8.366661999999905
 20
167.830265
 10
-7.915312000000084
 20
167.7125839999999
 10
-7.449386000000231
 20
167.6201119999998
 10
-6.97242899999992
 20
167.5535529999996
 10
-6.488072000000101
 20
167.513414
 10
-6.0
 20
167.5
 10
-5.511927000000013
 20
167.513414
 10
-5.027570000000196
 20
167.5535529999996
 10
-4.550612999999883
 20
167.6201119999998
 10
-4.084687000000029
 20
167.7125839999999
 10
-3.633337000000209
 20
167.830265
 10
-3.199999999999818
 20
167.9722609999999
 10
-2.787972000000081
 20
168.1374889999999
 10
-2.400388999999904
 20
168.3246939999999
 10
-2.040202000000134
 20
168.532449
 10
-1.710151000000223
 20
168.759174
 10
-1.412747999999736
 20
169.0031429999999
 10
-1.150256999999782
 20
169.2624999999998
 10
-0.9246760000000904
 20
169.5352709999999
 10
-0.737720999999965
 20
169.8193789999998
 10
-0.5908149999995658
 20
170.1126629999999
 10
-0.4850759999999356
 20
170.4128909999999
 10
-0.4213090000002923
 20
170.7177759999999
 10
-0.400000000000091
 20
171.0249999999998
 10
-0.4213090000002923
 20
171.332224
 10
-0.4850759999999356
 20
171.6371099999999
 10
-0.5908149999995658
 20
171.9373379999999
 10
-0.737720999999965
 20
172.2306209999999
 10
-0.9246760000000904
 20
172.5147299999999
 10
-1.150256999999782
 20
172.7874999999999
 10
-1.412747999999736
 20
173.046857
 10
-1.710151000000223
 20
173.2908269999998
 10
-2.040202000000134
 20
173.5175519999998
 10
-2.400388999999904
 20
173.7253069999999
 10
-2.787972000000081
 20
173.9125109999998
 10
-3.199999999999818
 20
174.0777399999999
 10
-3.633337000000209
 20
174.2197349999999
 10
-4.084687000000029
 20
174.3374169999999
 10
-4.550612999999883
 20
174.429889
 10
-5.027570000000196
 20
174.4964479999999
 10
-5.511927000000013
 20
174.5365869999998
 10
-6.0
 20
174.5499999999999
 10
-6.488072000000101
 20
174.5365869999998
 10
-6.97242899999992
 20
174.4964479999999
 10
-7.449386000000231
 20
174.429889
 10
-7.915312000000084
 20
174.3374169999999
 10
-8.366661999999905
 20
174.2197349999999
 10
-8.800000000000181
 20
174.0777399999999
 10
-9.212027999999918
 20
173.9125109999998
 10
-9.599610000000213
 20
173.7253069999999
 10
-9.959797999999862
 20
173.5175519999998
 10
-10.28984899999977
 20
173.2908269999998
 10
-10.58725099999992
 20
173.046857
 10
-10.84974200000033
 20
172.7874999999999
 10
-11.07532300000002
 20
172.5147299999999
 10
-11.26227800000015
 20
172.2306209999999
 10
-11.40918400000009
 20
171.9373379999999
 10
-11.51492299999972
 20
171.6371099999999
 10
-11.57868999999982
 20
171.332224
 10
-11.60000000000036
 20
171.0249999999998
  0
LINE
  5
5509
330
54F7
100
AcDbEntity
  8
AM_0 外形線1
100
AcDbLine
 10
4.0
 20
169.0
 30
0.0
 11
4.0
 21
167.5
 31
0.0
  0
LINE
  5
550A
330
54F7
100
AcDbEntity
  8
AM_0 外形線1
100
AcDbLine
 10
4.0
 20
169.0
 30
0.0
 11
4.000000000000227
 21
187.0
 31
0.0
  0
LINE
  5
550B
330
54F7
100
AcDbEntity
  8
AM_7 中心線
 48
0.5
100
AcDbLine
 10
26.35421700000006
 20
201.0
 30
0.0
 11
-33.22734799999989
 21
201.0
 31
0.0
  0
LINE
  5
550C
330
54F7
100
AcDbEntity
  8
AM_0 外形線1
100
AcDbLine
 10
-18.5
 20
210.8
 30
0.0
 11
-24.36435299999994
 21
210.8
 31
0.0
  0
LINE
  5
550D
330
54F7
100
AcDbEntity
  8
AM_0 外形線1
100
AcDbLine
 10
-24.36435299999994
 20
191.1999999999998
 30
0.0
 11
-18.5
 21
191.1999999999998
 31
0.0
  0
LINE
  5
550E
330
54F7
100
AcDbEntity
  8
AM_0 外形線1
100
AcDbLine
 10
-24.61728700000004
 20
196.1074779999999
 30
0.0
 11
-18.5
 21
196.1074779999999
 31
0.0
  0
LINE
  5
550F
330
54F7
100
AcDbEntity
  8
AM_0 外形線1
100
AcDbLine
 10
-24.61728700000004
 20
205.892523
 30
0.0
 11
-18.5
 21
205.892523
 31
0.0
  0
LINE
  5
5510
330
54F7
100
AcDbEntity
  8
AM_0 外形線1
100
AcDbLine
 10
-25.5
 20
193.6795579999998
 30
0.0
 11
-25.5
 21
208.3204419999999
 31
0.0
  0
ARC
  5
5511
330
54F7
100
AcDbEntity
  8
AM_0 外形線1
100
AcDbCircle
 10
-22.0015000000003
 20
208.2179609999998
 30
0.0
 40
3.5
100
AcDbArc
 50
132.461973999985
 51
221.6371409999852
  0
ARC
  5
5512
330
54F7
100
AcDbEntity
  8
AM_0 外形線1
100
AcDbCircle
 10
-11.5
 20
201.0
 30
0.0
 40
14.0
100
AcDbArc
 50
159.5453489999911
 51
200.4546510000088
  0
ARC
  5
5513
330
54F7
100
AcDbEntity
  8
AM_0 外形線1
100
AcDbCircle
 10
-22.0015000000003
 20
193.78204
 30
0.0
 40
3.5
100
AcDbArc
 50
138.3628590000147
 51
227.5380260000149
  0
LINE
  5
5515
330
54F7
100
AcDbEntity
  8
AM_0 外形線1
100
AcDbLine
 10
-16.0
 20
210.25
 30
0.0
 11
-18.5
 21
210.25
 31
0.0
  0
LINE
  5
5516
330
54F7
100
AcDbEntity
  8
AM_0 外形線1
100
AcDbLine
 10
-18.5
 20
210.25
 30
0.0
 11
-18.5
 21
191.75
 31
0.0
  0
LINE
  5
5517
330
54F7
100
AcDbEntity
  8
AM_0 外形線1
100
AcDbLine
 10
-18.5
 20
191.75
 30
0.0
 11
-16.0
 21
191.75
 31
0.0
  0
LINE
  5
5518
330
54F7
100
AcDbEntity
  8
AM_0 外形線1
100
AcDbLine
 10
-18.5
 20
210.25
 30
0.0
 11
-18.5
 21
210.8
 31
0.0
  0
LINE
  5
5519
330
54F7
100
AcDbEntity
  8
AM_0 外形線1
100
AcDbLine
 10
-18.5
 20
191.1999999999998
 30
0.0
 11
-18.5
 21
191.75
 31
0.0
  0
LINE
  5
551A
330
54F7
100
AcDbEntity
  8
AM_0 外形線1
100
AcDbLine
 10
-16.0
 20
203.25
 30
0.0
 11
-18.5
 21
200.75
 31
0.0
  0
LINE
  5
551B
330
54F7
100
AcDbEntity
  8
AM_0 外形線1
100
AcDbLine
 10
-16.0
 20
201.25
 30
0.0
 11
-18.5
 21
198.75
 31
0.0
  0
LINE
  5
551C
330
54F7
100
AcDbEntity
  8
AM_0 外形線1
100
AcDbLine
 10
-16.0
 20
195.5
 30
0.0
 11
0.0
 21
195.5
 31
0.0
  0
LINE
  5
551D
330
54F7
100
AcDbEntity
  8
AM_0 外形線1
100
AcDbLine
 10
-16.0
 20
206.5
 30
0.0
 11
0.0
 21
206.5
 31
0.0
  0
LINE
  5
551E
330
54F7
100
AcDbEntity
  8
AM_0 外形線1
100
AcDbLine
 10
-3.100000000000362
 20
192.7999999999999
 30
0.0
 11
0.0
 21
192.7999999999999
 31
0.0
  0
LINE
  5
551F
330
54F7
100
AcDbEntity
  8
AM_0 外形線1
100
AcDbLine
 10
20.0
 20
205.2999999999999
 30
0.0
 11
22.48260699999992
 21
201.0
 31
0.0
  0
LINE
  5
5520
330
54F7
100
AcDbEntity
  8
AM_0 外形線1
100
AcDbLine
 10
22.48260699999992
 20
201.0
 30
0.0
 11
20.0
 21
196.6999999999998
 31
0.0
  0
LINE
  5
5521
330
54F7
100
AcDbEntity
  8
AM_0 外形線1
100
AcDbLine
 10
20.0
 20
196.6999999999998
 30
0.0
 11
20.0
 21
205.2999999999999
 31
0.0
  0
LINE
  5
5522
330
54F7
100
AcDbEntity
  8
AM_0 外形線1
100
AcDbLine
 10
16.5
 20
205.2999999999999
 30
0.0
 11
20.0
 21
205.2999999999999
 31
0.0
  0
LINE
  5
5523
330
54F7
100
AcDbEntity
  8
AM_0 外形線1
100
AcDbLine
 10
16.5
 20
196.6999999999998
 30
0.0
 11
20.0
 21
196.6999999999998
 31
0.0
  0
LINE
  5
5524
330
54F7
100
AcDbEntity
  8
AM_0 外形線1
100
AcDbLine
 10
16.5
 20
206.0
 30
0.0
 11
16.5
 21
196.0
 31
0.0
  0
LINE
  5
5525
330
54F7
100
AcDbEntity
  8
AM_4 細線
100
AcDbLine
 10
-16.0
 20
196.0
 30
0.0
 11
16.49999999999954
 21
195.9999999999995
 31
0.0
  0
LINE
  5
5526
330
54F7
100
AcDbEntity
  8
AM_4 細線
100
AcDbLine
 10
-16.0
 20
206.0
 30
0.0
 11
16.5
 21
206.0
 31
0.0
  0
LINE
  5
5527
330
54F7
100
AcDbEntity
  8
AM_0 外形線1
100
AcDbLine
 10
-16.0
 20
205.2999999999999
 30
0.0
 11
16.5
 21
205.2999999999999
 31
0.0
  0
LINE
  5
5528
330
54F7
100
AcDbEntity
  8
AM_0 外形線1
100
AcDbLine
 10
-16.0
 20
196.6999999999998
 30
0.0
 11
16.5
 21
196.7
 31
0.0
  0
LINE
  5
5594
330
54F7
100
AcDbEntity
  8
AM_0 外形線1
100
AcDbLine
 10
-16.0
 20
-212.0
 30
0.0
 11
0.0
 21
-212.0
 31
0.0
  0
LINE
  5
5595
330
54F7
100
AcDbEntity
  8
AM_0 外形線1
100
AcDbLine
 10
0.0
 20
-212.0
 30
0.0
 11
0.0
 21
0.0
 31
0.0
  0
LINE
  5
5596
330
54F7
100
AcDbEntity
  8
AM_0 外形線1
100
AcDbLine
 10
-16.0
 20
212.0
 30
0.0
 11
0.0
 21
212.0
 31
0.0
  0
LINE
  5
5597
330
54F7
100
AcDbEntity
  8
AM_0 外形線1
100
AcDbLine
 10
0.0
 20
206.0
 30
0.0
 11
0.0
 21
212.0
 31
0.0
  0
LINE
  5
5598
330
54F7
100
AcDbEntity
  8
AM_0 外形線1
100
AcDbLine
 10
0.0
 20
195.9999999999998
 30
0.0
 11
0.0
 21
192.7999999999999
 31
0.0
  0
LINE
  5
5599
330
54F7
100
AcDbEntity
  8
AM_0 外形線1
100
AcDbLine
 10
-3.100000000000362
 20
187.5
 30
0.0
 11
3.500000000000226
 21
187.5
 31
0.0
  0
LINE
  5
559A
330
54F7
100
AcDbEntity
  8
AM_0 外形線1
100
AcDbLine
 10
3.500000000000226
 20
187.5
 30
0.0
 11
4.000000000000227
 21
187.0
 31
0.0
1001
GENIUS_GENFIL_13
1070
     0
1040
0.5
1040
0.5
1040
7.999999999999772
1040
45.0
1002
{
1002
}
1001
GENIUS_GENODEF_13
1002
{
1000
HIER
1070
     0
1002
}
1002
{
1000
MANEDIT
1070
     0
1002
}
1002
{
1000
NOSEL
1070
     0
1002
}
1002
{
1000
BEHIND
1070
     0
1002
}
1002
{
1000
OTHER
1070
     0
1002
}
1002
{
1000
REACTOR
1002
}
1001
GENIUS_GENOBJ-N-CHA_13
1002
{
1000
OWNER
1000
GEN
1002
}
  0
ELLIPSE
  5
559B
330
54F7
100
AcDbEntity
  8
AM_0 外形線1
100
AcDbEllipse
 10
-1.550000000000181
 20
190.15
 30
0.0
 11
0.0
 21
2.649999999999863
 31
0.0
210
0.0
220
0.0
230
1.0
 40
0.5849056603774573
 41
0.0
 42
6.283185307179585
  0
ENDBLK
  5
54F9
330
54F7
100
AcDbEntity
  8
0
100
AcDbBlockEnd
  0
BLOCK
  5
5838
330
5837
100
AcDbEntity
  8
0
100
AcDbBlockBegin
  2
*D14
 70
     1
 10
0.0
 20
0.0
 30
0.0
  3
*D14
  1

  0
LINE
  5
9CE5
330
5837
100
AcDbEntity
  8
AM_5 寸法線
 62
     3
100
AcDbLine
 10
799.703494261529
 20
1478.644792936595
 30
0.0
 11
623.7034942615292
 21
1478.644792936595
 31
0.0
  0
LINE
  5
9CE6
330
5837
100
AcDbEntity
  8
AM_5 寸法線
 62
     3
100
AcDbLine
 10
799.703494261529
 20
1143.644792936595
 30
0.0
 11
623.7034942615292
 21
1143.644792936595
 31
0.0
  0
LINE
  5
9CE7
330
5837
100
AcDbEntity
  8
AM_5 寸法線
 62
     3
100
AcDbLine
 10
627.4534942615292
 20
1463.644792936595
 30
0.0
 11
627.4534942615291
 21
1158.644792936595
 31
0.0
  0
INSERT
  5
9CE8
330
5837
100
AcDbEntity
  8
AM_5 寸法線
 62
     3
100
AcDbBlockReference
  2
_Open30
 10
627.4534942615292
 20
1478.644792936595
 30
0.0
 41
15.0
 42
15.0
 43
15.0
 50
90.0
  0
INSERT
  5
9CE9
330
5837
100
AcDbEntity
  8
AM_5 寸法線
 62
     3
100
AcDbBlockReference
  2
_Open30
 10
627.4534942615291
 20
1143.644792936595
 30
0.0
 41
15.0
 42
15.0
 43
15.0
 50
270.0
  0
MTEXT
  5
9CEA
330
5837
100
AcDbEntity
  8
AM_5 寸法線
 62
     3
100
AcDbMText
 10
607.953494261529
 20
1311.144792936596
 30
0.0
 40
21.0
 41
0.0
 46
0.0
 71
     5
 72
     1
  1
%%c335
  7
SEISA
 11
0.0000000000000001
 21
1.0
 31
0.0
 73
     1
 44
1.0
  0
POINT
  5
9CEB
330
5837
100
AcDbEntity
  8
Defpoints
 62
     0
100
AcDbPoint
 10
803.4534942615291
 20
1478.644792936595
 30
0.0
  0
POINT
  5
9CEC
330
5837
100
AcDbEntity
  8
Defpoints
 62
     0
100
AcDbPoint
 10
803.4534942615291
 20
1143.644792936595
 30
0.0
  0
POINT
  5
9CED
330
5837
100
AcDbEntity
  8
Defpoints
 62
     0
100
AcDbPoint
 10
627.4534942615291
 20
1143.644792936595
 30
0.0
  0
ENDBLK
  5
5839
330
5837
100
AcDbEntity
  8
0
100
AcDbBlockEnd
  0
BLOCK
  5
587D
330
587C
100
AcDbEntity
  8
0
100
AcDbBlockBegin
  2
*D15
 70
     1
 10
0.0
 20
0.0
 30
0.0
  3
*D15
  1

  0
LINE
  5
960F
330
587C
100
AcDbEntity
  8
AM_5 寸法線
 62
     3
100
AcDbLine
 10
852.4534942615289
 20
1475.394792936595
 30
0.0
 11
852.4534942615289
 21
1437.67911489355
 31
0.0
  0
LINE
  5
9610
330
587C
100
AcDbEntity
  8
AM_5 寸法線
 62
     3
100
AcDbLine
 10
846.4534942615291
 20
1474.894792936594
 30
0.0
 11
846.4534942615291
 21
1437.67911489355
 31
0.0
  0
LINE
  5
9611
330
587C
100
AcDbEntity
  8
AM_5 寸法線
 62
     3
100
AcDbLine
 10
867.4534942615293
 20
1441.42911489355
 30
0.0
 11
882.4534942615292
 21
1441.42911489355
 31
0.0
  0
LINE
  5
9612
330
587C
100
AcDbEntity
  8
AM_5 寸法線
 62
     3
100
AcDbLine
 10
831.4534942615292
 20
1441.42911489355
 30
0.0
 11
786.7534942615291
 21
1441.42911489355
 31
0.0
  0
LINE
  5
9613
330
587C
100
AcDbEntity
  8
AM_5 寸法線
 62
     3
100
AcDbLine
 10
852.4534942615289
 20
1441.42911489355
 30
0.0
 11
846.4534942615291
 21
1441.42911489355
 31
0.0
  0
INSERT
  5
9614
330
587C
100
AcDbEntity
  8
AM_5 寸法線
 62
     3
100
AcDbBlockReference
  2
_Open30
 10
852.4534942615289
 20
1441.42911489355
 30
0.0
 41
15.0
 42
15.0
 43
15.0
 50
180.0
  0
INSERT
  5
9615
330
587C
100
AcDbEntity
  8
AM_5 寸法線
 62
     3
100
AcDbBlockReference
  2
_Open30
 10
846.4534942615291
 20
1441.42911489355
 30
0.0
 41
15.0
 42
15.0
 43
15.0
  0
MTEXT
  5
9616
330
587C
100
AcDbEntity
  8
AM_5 寸法線
 62
     3
100
AcDbMText
 10
801.6034942615291
 20
1460.92911489355
 30
0.0
 40
21.0
 41
0.0
 46
0.0
 71
     5
 72
     1
  1
6
  7
SEISA
 73
     1
 44
1.0
  0
POINT
  5
9617
102
{ACAD_REACTORS
330
9E0D
102
}
330
587C
100
AcDbEntity
  8
Defpoints
 62
     0
100
AcDbPoint
 10
852.4534942615289
 20
1479.144792936595
 30
0.0
  0
POINT
  5
9618
330
587C
100
AcDbEntity
  8
Defpoints
 62
     0
100
AcDbPoint
 10
846.4534942615291
 20
1478.644792936595
 30
0.0
  0
POINT
  5
9619
330
587C
100
AcDbEntity
  8
Defpoints
 62
     0
100
AcDbPoint
 10
846.4534942615291
 20
1441.42911489355
 30
0.0
  0
ENDBLK
  5
587E
330
587C
100
AcDbEntity
  8
0
100
AcDbBlockEnd
  0
BLOCK
  5
58FD
330
58FC
100
AcDbEntity
  8
0
100
AcDbBlockBegin
  2
*D16
 70
     1
 10
0.0
 20
0.0
 30
0.0
  3
*D16
  1

  0
LINE
  5
9CEE
330
58FC
100
AcDbEntity
  8
AM_5 寸法線
 62
     3
100
AcDbLine
 10
983.4534942615292
 20
1314.894792936595
 30
0.0
 11
983.4534942615292
 21
1347.240830936595
 31
0.0
  0
LINE
  5
9CEF
330
58FC
100
AcDbEntity
  8
AM_5 寸法線
 62
     3
100
AcDbLine
 10
747.453494261529
 20
1314.894792936595
 30
0.0
 11
747.453494261529
 21
1347.240830936595
 31
0.0
  0
LINE
  5
9CF0
330
58FC
100
AcDbEntity
  8
AM_5 寸法線
 62
     3
100
AcDbLine
 10
968.4534942615293
 20
1343.490830936595
 30
0.0
 11
762.453494261529
 21
1343.490830936595
 31
0.0
  0
INSERT
  5
9CF1
330
58FC
100
AcDbEntity
  8
AM_5 寸法線
 62
     3
100
AcDbBlockReference
  2
_Open30
 10
983.4534942615292
 20
1343.490830936595
 30
0.0
 41
15.0
 42
15.0
 43
15.0
  0
INSERT
  5
9CF2
330
58FC
100
AcDbEntity
  8
AM_5 寸法線
 62
     3
100
AcDbBlockReference
  2
_Open30
 10
747.453494261529
 20
1343.490830936595
 30
0.0
 41
15.0
 42
15.0
 43
15.0
 50
180.0
  0
MTEXT
  5
9CF3
330
58FC
100
AcDbEntity
  8
AM_5 寸法線
 62
     3
100
AcDbMText
 10
865.4534942615292
 20
1362.990830936595
 30
0.0
 40
21.0
 41
0.0
 46
0.0
 71
     5
 72
     1
  1
236
  7
SEISA
 73
     1
 44
1.0
  0
POINT
  5
9CF4
330
58FC
100
AcDbEntity
  8
Defpoints
 62
     0
100
AcDbPoint
 10
983.4534942615292
 20
1311.144792936595
 30
0.0
  0
POINT
  5
9CF5
330
58FC
100
AcDbEntity
  8
Defpoints
 62
     0
100
AcDbPoint
 10
747.453494261529
 20
1311.144792936595
 30
0.0
  0
POINT
  5
9CF6
330
58FC
100
AcDbEntity
  8
Defpoints
 62
     0
100
AcDbPoint
 10
747.453494261529
 20
1343.490830936595
 30
0.0
  0
ENDBLK
  5
58FE
330
58FC
100
AcDbEntity
  8
0
100
AcDbBlockEnd
  0
BLOCK
  5
5931
330
5930
100
AcDbEntity
  8
0
100
AcDbBlockBegin
  2
*D17
 70
     1
 10
0.0
 20
0.0
 30
0.0
  3
*D17
  1

  0
LINE
  5
962E
330
5930
100
AcDbEntity
  8
AM_5 寸法線
 62
     3
100
AcDbLine
 10
1337.453494261529
 20
1314.894792936595
 30
0.0
 11
1337.453494261529
 21
1347.240830936595
 31
0.0
  0
LINE
  5
962F
330
5930
100
AcDbEntity
  8
AM_5 寸法線
 62
     3
100
AcDbLine
 10
1573.453494261529
 20
1314.894792936595
 30
0.0
 11
1573.453494261529
 21
1347.240830936595
 31
0.0
  0
LINE
  5
9630
330
5930
100
AcDbEntity
  8
AM_5 寸法線
 62
     3
100
AcDbLine
 10
1352.453494261529
 20
1343.490830936595
 30
0.0
 11
1558.453494261529
 21
1343.490830936595
 31
0.0
  0
INSERT
  5
9631
330
5930
100
AcDbEntity
  8
AM_5 寸法線
 62
     3
100
AcDbBlockReference
  2
_Open30
 10
1337.453494261529
 20
1343.490830936595
 30
0.0
 41
15.0
 42
15.0
 43
15.0
 50
180.0
  0
INSERT
  5
9632
330
5930
100
AcDbEntity
  8
AM_5 寸法線
 62
     3
100
AcDbBlockReference
  2
_Open30
 10
1573.453494261529
 20
1343.490830936595
 30
0.0
 41
15.0
 42
15.0
 43
15.0
  0
MTEXT
  5
9633
330
5930
100
AcDbEntity
  8
AM_5 寸法線
 62
     3
100
AcDbMText
 10
1455.453494261529
 20
1362.990830936595
 30
0.0
 40
21.0
 41
0.0
 46
0.0
 71
     5
 72
     1
  1
236
  7
SEISA
 73
     1
 44
1.0
  0
POINT
  5
9634
330
5930
100
AcDbEntity
  8
Defpoints
 62
     0
100
AcDbPoint
 10
1337.453494261529
 20
1311.144792936595
 30
0.0
  0
POINT
  5
9635
330
5930
100
AcDbEntity
  8
Defpoints
 62
     0
100
AcDbPoint
 10
1573.453494261529
 20
1311.144792936595
 30
0.0
  0
POINT
  5
9636
330
5930
100
AcDbEntity
  8
Defpoints
 62
     0
100
AcDbPoint
 10
1573.453494261529
 20
1343.490830936595
 30
0.0
  0
ENDBLK
  5
5932
330
5930
100
AcDbEntity
  8
0
100
AcDbBlockEnd
  0
BLOCK
  5
5A40
330
5A3F
100
AcDbEntity
  8
0
100
AcDbBlockBegin
  2
*D18
 70
     1
 10
0.0
 20
0.0
 30
0.0
  3
*D18
  1

  0
LINE
  5
9637
330
5A3F
100
AcDbEntity
  8
AM_5 寸法線
 62
     3
100
AcDbLine
 10
1521.203494261529
 20
1478.644792936595
 30
0.0
 11
1667.203494261529
 21
1478.644792936595
 31
0.0
  0
LINE
  5
9638
330
5A3F
100
AcDbEntity
  8
AM_5 寸法線
 62
     3
100
AcDbLine
 10
1521.203494261529
 20
1143.644792936595
 30
0.0
 11
1667.203494261529
 21
1143.644792936595
 31
0.0
  0
LINE
  5
9639
330
5A3F
100
AcDbEntity
  8
AM_5 寸法線
 62
     3
100
AcDbLine
 10
1663.453494261529
 20
1463.644792936595
 30
0.0
 11
1663.453494261529
 21
1158.644792936595
 31
0.0
  0
INSERT
  5
963A
330
5A3F
100
AcDbEntity
  8
AM_5 寸法線
 62
     3
100
AcDbBlockReference
  2
_Open30
 10
1663.453494261529
 20
1478.644792936595
 30
0.0
 41
15.0
 42
15.0
 43
15.0
 50
90.0
  0
INSERT
  5
963B
330
5A3F
100
AcDbEntity
  8
AM_5 寸法線
 62
     3
100
AcDbBlockReference
  2
_Open30
 10
1663.453494261529
 20
1143.644792936595
 30
0.0
 41
15.0
 42
15.0
 43
15.0
 50
270.0
  0
MTEXT
  5
963C
330
5A3F
100
AcDbEntity
  8
AM_5 寸法線
 62
     3
100
AcDbMText
 10
1643.953494261529
 20
1311.144792936596
 30
0.0
 40
21.0
 41
0.0
 46
0.0
 71
     5
 72
     1
  1
%%c335
  7
SEISA
 11
0.0000000000000001
 21
1.0
 31
0.0
 73
     1
 44
1.0
  0
POINT
  5
963D
330
5A3F
100
AcDbEntity
  8
Defpoints
 62
     0
100
AcDbPoint
 10
1517.453494261529
 20
1478.644792936595
 30
0.0
  0
POINT
  5
963E
330
5A3F
100
AcDbEntity
  8
Defpoints
 62
     0
100
AcDbPoint
 10
1517.453494261529
 20
1143.644792936595
 30
0.0
  0
POINT
  5
963F
330
5A3F
100
AcDbEntity
  8
Defpoints
 62
     0
100
AcDbPoint
 10
1663.453494261529
 20
1143.644792936595
 30
0.0
  0
ENDBLK
  5
5A41
330
5A3F
100
AcDbEntity
  8
0
100
AcDbBlockEnd
  0
BLOCK
  5
5A6A
330
5A69
100
AcDbEntity
  8
0
100
AcDbBlockBegin
  2
*D19
 70
     1
 10
0.0
 20
0.0
 30
0.0
  3
*D19
  1

  0
LINE
  5
9640
330
5A69
100
AcDbEntity
  8
AM_5 寸法線
 62
     3
100
AcDbLine
 10
1498.203494261529
 20
1523.144792936595
 30
0.0
 11
1715.203494261529
 21
1523.144792936595
 31
0.0
  0
LINE
  5
9641
330
5A69
100
AcDbEntity
  8
AM_5 寸法線
 62
     3
100
AcDbLine
 10
1498.203494261526
 20
1099.144792936595
 30
0.0
 11
1715.203494261529
 21
1099.144792936595
 31
0.0
  0
LINE
  5
9642
330
5A69
100
AcDbEntity
  8
AM_5 寸法線
 62
     3
100
AcDbLine
 10
1711.453494261529
 20
1508.144792936595
 30
0.0
 11
1711.453494261529
 21
1114.144792936595
 31
0.0
  0
INSERT
  5
9643
330
5A69
100
AcDbEntity
  8
AM_5 寸法線
 62
     3
100
AcDbBlockReference
  2
_Open30
 10
1711.453494261529
 20
1523.144792936595
 30
0.0
 41
15.0
 42
15.0
 43
15.0
 50
90.0
  0
INSERT
  5
9644
330
5A69
100
AcDbEntity
  8
AM_5 寸法線
 62
     3
100
AcDbBlockReference
  2
_Open30
 10
1711.453494261529
 20
1099.144792936595
 30
0.0
 41
15.0
 42
15.0
 43
15.0
 50
270.0
  0
MTEXT
  5
9645
330
5A69
100
AcDbEntity
  8
AM_5 寸法線
 62
     3
100
AcDbMText
 10
1691.953494261529
 20
1311.144792936596
 30
0.0
 40
21.0
 41
0.0
 46
0.0
 71
     5
 72
     1
  1
%%c424
  7
SEISA
 11
0.0000000000000001
 21
1.0
 31
0.0
 73
     1
 44
1.0
  0
POINT
  5
9646
330
5A69
100
AcDbEntity
  8
Defpoints
 62
     0
100
AcDbPoint
 10
1494.453494261529
 20
1523.144792936595
 30
0.0
  0
POINT
  5
9647
330
5A69
100
AcDbEntity
  8
Defpoints
 62
     0
100
AcDbPoint
 10
1494.453494261526
 20
1099.144792936595
 30
0.0
  0
POINT
  5
9648
330
5A69
100
AcDbEntity
  8
Defpoints
 62
     0
100
AcDbPoint
 10
1711.453494261529
 20
1099.144792936595
 30
0.0
  0
ENDBLK
  5
5A6B
330
5A69
100
AcDbEntity
  8
0
100
AcDbBlockEnd
  0
BLOCK
  5
5A82
330
5A81
100
AcDbEntity
  8
0
100
AcDbBlockBegin
  2
*D20
 70
     1
 10
0.0
 20
0.0
 30
0.0
  3
*D20
  1

  0
LINE
  5
9649
330
5A81
100
AcDbEntity
  8
AM_5 寸法線
 62
     3
100
AcDbLine
 10
1354.203494261529
 20
1561.144792936595
 30
0.0
 11
1763.20349426153
 21
1561.144792936595
 31
0.0
  0
LINE
  5
964A
330
5A81
100
AcDbEntity
  8
AM_5 寸法線
 62
     3
100
AcDbLine
 10
1354.203494261529
 20
1061.144792936595
 30
0.0
 11
1763.203494261529
 21
1061.144792936595
 31
0.0
  0
LINE
  5
964B
330
5A81
100
AcDbEntity
  8
AM_5 寸法線
 62
     3
100
AcDbLine
 10
1759.45349426153
 20
1546.144792936595
 30
0.0
 11
1759.45349426153
 21
1076.144792936595
 31
0.0
  0
INSERT
  5
964C
330
5A81
100
AcDbEntity
  8
AM_5 寸法線
 62
     3
100
AcDbBlockReference
  2
_Open30
 10
1759.45349426153
 20
1561.144792936595
 30
0.0
 41
15.0
 42
15.0
 43
15.0
 50
90.0
  0
INSERT
  5
964D
330
5A81
100
AcDbEntity
  8
AM_5 寸法線
 62
     3
100
AcDbBlockReference
  2
_Open30
 10
1759.45349426153
 20
1061.144792936595
 30
0.0
 41
15.0
 42
15.0
 43
15.0
 50
270.0
  0
MTEXT
  5
964E
330
5A81
100
AcDbEntity
  8
AM_5 寸法線
 62
     3
100
AcDbMText
 10
1739.953494261529
 20
1311.144792936596
 30
0.0
 40
21.0
 41
0.0
 46
0.0
 71
     5
 72
     1
  1
%%c500
  7
SEISA
 11
0.0000000000000001
 21
1.0
 31
0.0
 73
     1
 44
1.0
  0
POINT
  5
964F
330
5A81
100
AcDbEntity
  8
Defpoints
 62
     0
100
AcDbPoint
 10
1350.453494261529
 20
1561.144792936595
 30
0.0
  0
POINT
  5
9650
330
5A81
100
AcDbEntity
  8
Defpoints
 62
     0
100
AcDbPoint
 10
1350.453494261529
 20
1061.144792936595
 30
0.0
  0
POINT
  5
9651
330
5A81
100
AcDbEntity
  8
Defpoints
 62
     0
100
AcDbPoint
 10
1759.45349426153
 20
1061.144792936595
 30
0.0
  0
ENDBLK
  5
5A83
330
5A81
100
AcDbEntity
  8
0
100
AcDbBlockEnd
  0
BLOCK
  5
5B18
330
5B17
100
AcDbEntity
  8
0
100
AcDbBlockBegin
  2
*D21
 70
     1
 10
0.0
 20
0.0
 30
0.0
  3
*D21
  1

  0
LINE
  5
9652
330
5B17
100
AcDbEntity
  8
AM_5 寸法線
 62
     3
100
AcDbLine
 10
994.4534942615293
 20
1058.394792936595
 30
0.0
 11
994.4534942615293
 21
967.2663116349477
 31
0.0
  0
LINE
  5
9653
330
5B17
100
AcDbEntity
  8
AM_5 寸法線
 62
     3
100
AcDbLine
 10
969.4534942615293
 20
1058.394792936595
 30
0.0
 11
969.4534942615293
 21
967.2663116349477
 31
0.0
  0
LINE
  5
9654
330
5B17
100
AcDbEntity
  8
AM_5 寸法線
 62
     3
100
AcDbLine
 10
1009.453494261529
 20
971.0163116349477
 30
0.0
 11
1024.453494261529
 21
971.0163116349477
 31
0.0
  0
LINE
  5
9655
330
5B17
100
AcDbEntity
  8
AM_5 寸法線
 62
     3
100
AcDbLine
 10
954.4534942615293
 20
971.0163116349477
 30
0.0
 11
890.8534942615291
 21
971.0163116349477
 31
0.0
  0
LINE
  5
9656
330
5B17
100
AcDbEntity
  8
AM_5 寸法線
 62
     3
100
AcDbLine
 10
994.4534942615293
 20
971.0163116349477
 30
0.0
 11
969.4534942615293
 21
971.0163116349477
 31
0.0
  0
INSERT
  5
9657
330
5B17
100
AcDbEntity
  8
AM_5 寸法線
 62
     3
100
AcDbBlockReference
  2
GENDOT
 10
994.4534942615293
 20
971.0163116349477
 30
0.0
 41
15.0
 42
15.0
 43
15.0
 50
180.0
  0
INSERT
  5
9658
330
5B17
100
AcDbEntity
  8
AM_5 寸法線
 62
     3
100
AcDbBlockReference
  2
_Open30
 10
969.4534942615293
 20
971.0163116349477
 30
0.0
 41
15.0
 42
15.0
 43
15.0
  0
MTEXT
  5
9659
330
5B17
100
AcDbEntity
  8
AM_5 寸法線
 62
     3
100
AcDbMText
 10
915.1534942615292
 20
990.5163116349477
 30
0.0
 40
21.0
 41
0.0
 46
0.0
 71
     5
 72
     1
  1
25
  7
SEISA
 73
     1
 44
1.0
  0
POINT
  5
965A
330
5B17
100
AcDbEntity
  8
Defpoints
 62
     0
100
AcDbPoint
 10
994.4534942615293
 20
1062.144792936595
 30
0.0
  0
POINT
  5
965B
330
5B17
100
AcDbEntity
  8
Defpoints
 62
     0
100
AcDbPoint
 10
969.4534942615293
 20
1062.144792936595
 30
0.0
  0
POINT
  5
965C
330
5B17
100
AcDbEntity
  8
Defpoints
 62
     0
100
AcDbPoint
 10
969.4534942615293
 20
971.0163116349477
 30
0.0
  0
ENDBLK
  5
5B19
330
5B17
100
AcDbEntity
  8
0
100
AcDbBlockEnd
  0
BLOCK
  5
5BC2
330
5BC1
100
AcDbEntity
  8
0
100
AcDbBlockBegin
  2
*D22
 70
     1
 10
0.0
 20
0.0
 30
0.0
  3
*D22
  1

  0
LINE
  5
965D
330
5BC1
100
AcDbEntity
  8
AM_5 寸法線
 62
     3
100
AcDbLine
 10
994.4534942615293
 20
1058.394792936595
 30
0.0
 11
994.4534942615293
 21
919.2663116349477
 31
0.0
  0
LINE
  5
965E
330
5BC1
100
AcDbEntity
  8
AM_5 寸法線
 62
     3
100
AcDbLine
 10
826.453494261529
 20
1095.394792936595
 30
0.0
 11
826.453494261529
 21
919.2663116349477
 31
0.0
  0
LINE
  5
965F
330
5BC1
100
AcDbEntity
  8
AM_5 寸法線
 62
     3
100
AcDbLine
 10
979.4534942615293
 20
923.0163116349478
 30
0.0
 11
841.4534942615292
 21
923.0163116349478
 31
0.0
  0
INSERT
  5
9660
330
5BC1
100
AcDbEntity
  8
AM_5 寸法線
 62
     3
100
AcDbBlockReference
  2
_Open30
 10
994.4534942615293
 20
923.0163116349478
 30
0.0
 41
15.0
 42
15.0
 43
15.0
  0
INSERT
  5
9661
330
5BC1
100
AcDbEntity
  8
AM_5 寸法線
 62
     3
100
AcDbBlockReference
  2
_Open30
 10
826.453494261529
 20
923.0163116349478
 30
0.0
 41
15.0
 42
15.0
 43
15.0
 50
180.0
  0
MTEXT
  5
9662
330
5BC1
100
AcDbEntity
  8
AM_5 寸法線
 62
     3
100
AcDbMText
 10
910.4534942615293
 20
942.5163116349478
 30
0.0
 40
21.0
 41
0.0
 46
0.0
 71
     5
 72
     1
  1
168
  7
SEISA
 73
     1
 44
1.0
  0
POINT
  5
9663
330
5BC1
100
AcDbEntity
  8
Defpoints
 62
     0
100
AcDbPoint
 10
994.4534942615293
 20
1062.144792936595
 30
0.0
  0
POINT
  5
9664
330
5BC1
100
AcDbEntity
  8
Defpoints
 62
     0
100
AcDbPoint
 10
826.453494261529
 20
1099.144792936595
 30
0.0
  0
POINT
  5
9665
330
5BC1
100
AcDbEntity
  8
Defpoints
 62
     0
100
AcDbPoint
 10
826.453494261529
 20
923.0163116349478
 30
0.0
  0
ENDBLK
  5
5BC3
330
5BC1
100
AcDbEntity
  8
0
100
AcDbBlockEnd
  0
BLOCK
  5
5C20
330
5C1F
100
AcDbEntity
  8
0
100
AcDbBlockBegin
  2
*D23
 70
     1
 10
0.0
 20
0.0
 30
0.0
  3
*D23
  1

  0
LINE
  5
9666
330
5C1F
100
AcDbEntity
  8
AM_5 寸法線
 62
     3
100
AcDbLine
 10
826.453494261529
 20
1095.394792936595
 30
0.0
 11
826.453494261529
 21
919.2663116349477
 31
0.0
  0
LINE
  5
9667
330
5C1F
100
AcDbEntity
  8
AM_5 寸法線
 62
     3
100
AcDbLine
 10
747.453494261529
 20
1146.894792936595
 30
0.0
 11
747.453494261529
 21
919.2663116349477
 31
0.0
  0
LINE
  5
9668
330
5C1F
100
AcDbEntity
  8
AM_5 寸法線
 62
     3
100
AcDbLine
 10
811.4534942615289
 20
923.0163116349478
 30
0.0
 11
762.453494261529
 21
923.0163116349478
 31
0.0
  0
INSERT
  5
9669
330
5C1F
100
AcDbEntity
  8
AM_5 寸法線
 62
     3
100
AcDbBlockReference
  2
_Open30
 10
826.453494261529
 20
923.0163116349478
 30
0.0
 41
15.0
 42
15.0
 43
15.0
  0
INSERT
  5
966A
330
5C1F
100
AcDbEntity
  8
AM_5 寸法線
 62
     3
100
AcDbBlockReference
  2
_Open30
 10
747.453494261529
 20
923.0163116349478
 30
0.0
 41
15.0
 42
15.0
 43
15.0
 50
180.0
  0
MTEXT
  5
966B
330
5C1F
100
AcDbEntity
  8
AM_5 寸法線
 62
     3
100
AcDbMText
 10
786.953494261529
 20
942.5163116349478
 30
0.0
 40
21.0
 41
0.0
 46
0.0
 71
     5
 72
     1
  1
79
  7
SEISA
 73
     1
 44
1.0
  0
POINT
  5
966C
330
5C1F
100
AcDbEntity
  8
Defpoints
 62
     0
100
AcDbPoint
 10
826.453494261529
 20
1099.144792936595
 30
0.0
  0
POINT
  5
966D
330
5C1F
100
AcDbEntity
  8
Defpoints
 62
     0
100
AcDbPoint
 10
747.453494261529
 20
1150.644792936595
 30
0.0
  0
POINT
  5
966E
330
5C1F
100
AcDbEntity
  8
Defpoints
 62
     0
100
AcDbPoint
 10
747.453494261529
 20
923.0163116349478
 30
0.0
  0
ENDBLK
  5
5C21
330
5C1F
100
AcDbEntity
  8
0
100
AcDbBlockEnd
  0
BLOCK
  5
72FC
330
72FB
100
AcDbEntity
  8
0
100
AcDbBlockBegin
  2
ロッカクアナツキプラグB R1／2
 70
     0
 10
0.0
 20
0.0
 30
0.0
  3
ロッカクアナツキプラグB R1／2
  1

  0
LINE
  5
72FE
330
72FB
100
AcDbEntity
  8
AM_0 外形線1
100
AcDbLine
 10
10.66397700000016
 20
-1.5
 30
0.0
 11
10.2623880000001
 21
-13.0
 31
0.0
  0
LINE
  5
72FF
330
72FB
100
AcDbEntity
  8
AM_4 細線
100
AcDbLine
 10
9.541186000000379
 20
-0.3772080000001097
 30
0.0
 11
9.076479000000288
 21
-13.68468499999994
 31
0.0
  0
LINE
  5
7300
330
72FB
100
AcDbEntity
  8
AM_0 外形線1
100
AcDbLine
 10
-10.2623880000001
 20
-13.0
 30
0.0
 11
-10.66397700000016
 21
-1.5
 31
0.0
  0
LINE
  5
7301
330
72FB
100
AcDbEntity
  8
AM_4 細線
100
AcDbLine
 10
-9.541185000000039
 20
-0.3772080000001097
 30
0.0
 11
-9.076477999999953
 21
-13.68468499999994
 31
0.0
  0
LINE
  5
7302
330
72FB
100
AcDbEntity
  8
AM_7 中心線
 48
0.5
100
AcDbLine
 10
0.0
 20
5.364789999999856
 30
0.0
 11
0.0
 21
-22.81425800000011
 31
0.0
  0
LINE
  5
7303
330
72FB
100
AcDbEntity
  8
AM_0 外形線1
100
AcDbLine
 10
6.798287000000073
 20
-15.0
 30
0.0
 11
-6.798286000000188
 21
-15.0
 31
0.0
  0
LINE
  5
7304
330
72FB
100
AcDbEntity
  8
AM_0 外形線1
100
AcDbLine
 10
10.2623880000001
 20
-13.0
 30
0.0
 11
-10.2623880000001
 21
-13.0
 31
0.0
  0
LINE
  5
7305
330
72FB
100
AcDbEntity
  8
AM_0 外形線1
100
AcDbLine
 10
-6.798286000000188
 20
-15.0
 30
0.0
 11
-10.2623880000001
 21
-13.0
 31
0.0
  0
LINE
  5
7306
330
72FB
100
AcDbEntity
  8
AM_0 外形線1
100
AcDbLine
 10
10.2623880000001
 20
-13.0
 30
0.0
 11
6.798287000000073
 21
-15.0
 31
0.0
  0
LINE
  5
7307
330
72FB
100
AcDbEntity
  8
AM_0 外形線1
100
AcDbLine
 10
10.66397700000016
 20
-1.5
 30
0.0
 11
-10.66397700000016
 21
-1.5
 31
0.0
  0
LINE
  5
7308
330
72FB
100
AcDbEntity
  8
AM_0 外形線1
100
AcDbLine
 10
-10.66397700000016
 20
-1.5
 30
0.0
 11
-9.163977000000159
 21
0.0
 31
0.0
  0
LINE
  5
7309
330
72FB
100
AcDbEntity
  8
AM_0 外形線1
100
AcDbLine
 10
9.163977000000159
 20
0.0
 30
0.0
 11
10.66397700000016
 21
-1.5
 31
0.0
  0
LINE
  5
730A
330
72FB
100
AcDbEntity
  8
AM_0 外形線1
100
AcDbLine
 10
-9.163977000000159
 20
0.0
 30
0.0
 11
9.163977000000159
 21
0.0
 31
0.0
  0
ENDBLK
  5
72FD
330
72FB
100
AcDbEntity
  8
0
100
AcDbBlockEnd
  0
BLOCK
  5
7F1E
330
7F1D
100
AcDbEntity
  8
0
100
AcDbBlockBegin
  2
ＧＣスペーサ CAMHY500
 70
     0
 10
0.0
 20
0.0
 30
0.0
  3
ＧＣスペーサ CAMHY500
  1

  0
LINE
  5
7F20
330
7F1D
100
AcDbEntity
  8
AM_0 外形線1
100
AcDbLine
 10
-0.0000000000002274
 20
-248.9999999999995
 30
0.0
 11
0.0
 21
0.0
 31
0.0
  0
LINE
  5
7F21
330
7F1D
100
AcDbEntity
  8
AM_0 外形線1
100
AcDbLine
 10
-1.000000000000227
 20
-249.9999999999996
 30
0.0
 11
-0.0000000000002274
 21
-248.9999999999995
 31
0.0
1001
GENIUS_GENFIL_13
1070
     0
1040
1.0
1040
1.0
1040
1.000000000000227
1040
45.00000000000325
1000
~T
1001
GENIUS_GENOREF_13
1005
7F6A
  0
LINE
  5
7F22
330
7F1D
100
AcDbEntity
  8
AM_0 外形線1
100
AcDbLine
 10
-273.0
 20
-203.2000000000003
 30
0.0
 11
-163.446941772173
 21
-203.2000000000005
 31
0.0
  0
LINE
  5
7F23
330
7F1D
100
AcDbEntity
  8
AM_7 中心線
 48
0.5
100
AcDbLine
 10
-35.0
 20
-231.0
 30
0.0
 11
35.0
 21
-231.0
 31
0.0
  0
LINE
  5
7F24
330
7F1D
100
AcDbEntity
  8
AM_0 外形線1
100
AcDbLine
 10
-1.000000000000227
 20
-249.9999999999996
 30
0.0
 11
-24.0
 21
-249.9999999999991
 31
0.0
  0
LINE
  5
7F25
330
7F1D
100
AcDbEntity
  8
AM_0 外形線1
100
AcDbLine
 10
-25.0
 20
-248.9999999999991
 30
0.0
 11
-24.0
 21
-249.9999999999991
 31
0.0
1001
GENIUS_GENFIL_13
1070
     0
1040
1.0
1040
1.0
1040
1.000000000000227
1040
44.99999999998697
1000
~T
1001
GENIUS_GENOREF_13
1005
7F69
  0
LINE
  5
7F26
330
7F1D
100
AcDbEntity
  8
AM_0 外形線1
100
AcDbLine
 10
-299.0
 20
203.1999999999998
 30
0.0
 11
-163.446941772173
 21
203.1999999999998
 31
0.0
  0
LINE
  5
7F27
330
7F1D
100
AcDbEntity
  8
AM_0 外形線1
100
AcDbLine
 10
0.0000000000002274
 20
249.0
 30
0.0
 11
0.0
 21
242.0
 31
0.0
  0
LINE
  5
7F28
330
7F1D
100
AcDbEntity
  8
AM_0 外形線1
100
AcDbLine
 10
0.0
 20
220.0
 30
0.0
 11
0.0
 21
201.0000000000013
 31
0.0
  0
LINE
  5
7F29
330
7F1D
100
AcDbEntity
  8
AM_0 外形線1
100
AcDbLine
 10
-0.9999999999995452
 20
200.0000000000014
 30
0.0
 11
0.0000000000004547
 21
201.0000000000013
 31
0.0
1001
GENIUS_GENFIL_13
1070
     0
1040
1.0
1040
1.0
1040
1.000000000000227
1040
45.0
1000
~T
1001
GENIUS_GENOREF_13
1005
7F68
  0
LINE
  5
7F2A
330
7F1D
100
AcDbEntity
  8
AM_0 外形線1
100
AcDbLine
 10
-0.9999999999997726
 20
250.0
 30
0.0
 11
0.0000000000002274
 21
249.0
 31
0.0
1001
GENIUS_GENFIL_13
1070
     0
1040
1.0
1040
1.0
1040
1.000000000000227
1040
45.0
1000
~T
1001
GENIUS_GENOREF_13
1005
7F67
  0
LINE
  5
7F2B
330
7F1D
100
AcDbEntity
  8
AM_0 外形線1
100
AcDbLine
 10
-25.0
 20
220.0
 30
0.0
 11
0.0
 21
220.0
 31
0.0
  0
LINE
  5
7F2C
330
7F1D
100
AcDbEntity
  8
AM_0 外形線1
100
AcDbLine
 10
-25.0
 20
242.0
 30
0.0
 11
0.0
 21
242.0
 31
0.0
  0
LINE
  5
7F2D
330
7F1D
100
AcDbEntity
  8
AM_0 外形線1
100
AcDbLine
 10
-293.9999999999982
 20
176.9999999999991
 30
0.0
 11
-171.3756772475717
 21
177.0000000000002
 31
0.0
  0
LINE
  5
7F2E
330
7F1D
100
AcDbEntity
  8
AM_0 外形線1
100
AcDbLine
 10
-33.0
 20
-215.0
 30
0.0
 11
-33.0
 21
0.0
 31
0.0
  0
LINE
  5
7F2F
330
7F1D
100
AcDbEntity
  8
AM_0 外形線1
100
AcDbLine
 10
-33.0
 20
-215.0
 30
0.0
 11
-25.0
 21
-215.0
 31
0.0
  0
LINE
  5
7F30
330
7F1D
100
AcDbEntity
  8
AM_0 外形線1
100
AcDbLine
 10
-25.0
 20
0.0
 30
0.0
 11
-25.0
 21
-248.9999999999991
 31
0.0
  0
ARC
  5
7F31
330
7F1D
100
AcDbEntity
  8
AM_0 外形線1
100
AcDbCircle
 10
-59.0
 20
-213.1999999999998
 30
0.0
 40
10.0
100
AcDbArc
 50
63.47681760492553
 51
90.0
  0
LINE
  5
7F32
330
7F1D
100
AcDbEntity
  8
AM_0 外形線1
100
AcDbLine
 10
-33.0
 20
-215.0
 30
0.0
 11
-54.53440124816779
 21
-204.2524624735283
 31
0.0
  0
LINE
  5
7F33
330
7F1D
100
AcDbEntity
  8
AM_0 外形線1
100
AcDbLine
 10
-43.00000000000159
 20
177.0000000000009
 30
0.0
 11
-43.0
 21
0.0000000000009095
 31
0.0
  0
LINE
  5
7F34
330
7F1D
100
AcDbEntity
  8
AM_0 外形線1
100
AcDbLine
 10
-8.000000000001817
 20
200.0000000000014
 30
0.0
 11
-8.0
 21
0.0000000000009095
 31
0.0
  0
HATCH
  5
7F35
330
7F1D
100
AcDbEntity
  8
AM_8 ハッチング
100
AcDbHatch
 10
0.0
 20
0.0
 30
0.0
210
0.0
220
0.0
230
1.0
  2
_U
 70
     0
 71
     0
 91
        1
 92
        7
 72
     1
 73
     1
 93
        5
 10
-33.00000000000182
 20
182.0000000000009
 42
-0.4142135623730886
 10
-38.00000000000159
 20
177.0000000000009
 42
0.0
 10
-41.00000000000159
 20
177.0000000000009
 42
0.0
 10
-56.12657705276935
 20
203.2000000000007
 42
0.0
 10
-33.00000000000137
 20
203.2000000000007
 42
0.0
 97
        0
 75
     0
 76
     0
 52
45.0
 41
1.0
 77
     0
 78
     1
 53
315.0000000000005
 43
-2564.346040829267
 44
653.2490785689177
 45
-0.7071067811865409
 46
-0.7071067811865542
 79
     0
 47
0.070754626991645
 98
        1
 10
-40.99531588489297
 20
193.378681515513
1001
ACAD
1010
0.0
1020
0.0
1030
0.0
  0
LINE
  5
7F36
330
7F1D
100
AcDbEntity
  8
AM_0 外形線1
100
AcDbLine
 10
-33.00000000000205
 20
215.0000000000009
 30
0.0
 11
-33.00000000000182
 21
182.0000000000009
 31
0.0
  0
ARC
  5
7F37
330
7F1D
100
AcDbEntity
  8
AM_0 外形線1
100
AcDbCircle
 10
-38.00000000000182
 20
182.0000000000009
 30
0.0
 40
5.0
100
AcDbArc
 50
270.0
 51
0.0
1001
GENIUS_GENODEF_13
1002
{
1000
HIER
1070
     0
1002
}
1002
{
1000
MANEDIT
1070
     0
1002
}
1002
{
1000
NOSEL
1070
     0
1002
}
1002
{
1000
BEHIND
1070
     0
1002
}
1002
{
1000
OTHER
1070
     0
1002
}
1002
{
1000
REACTOR
1002
}
1001
GENIUS_GENOBJ-N-FIL_13
1002
{
1000
OWNER
1000
GEN
1002
}
  0
LINE
  5
7F38
330
7F1D
100
AcDbEntity
  8
AM_0 外形線1
100
AcDbLine
 10
-33.00000000000205
 20
215.0000000000009
 30
0.0
 11
-25.00000000000205
 21
215.0000000000009
 31
0.0
  0
LINE
  5
7F39
330
7F1D
100
AcDbEntity
  8
AM_0 外形線1
100
AcDbLine
 10
-8.000000000001817
 20
200.0000000000014
 30
0.0
 11
-0.9999999999995452
 21
200.0000000000014
 31
0.0
  0
LINE
  5
7F3A
330
7F1D
100
AcDbEntity
  8
AM_0 外形線1
100
AcDbLine
 10
-41.00000000000159
 20
177.0000000000009
 30
0.0
 11
-56.12657705276978
 21
203.2000000000007
 31
0.0
  0
ARC
  5
7F3B
330
7F1D
100
AcDbEntity
  8
AM_0 外形線1
100
AcDbCircle
 10
-59.00000000000204
 20
213.2000000000007
 30
0.0
 40
10.0
100
AcDbArc
 50
270.0
 51
296.5231823950745
  0
LINE
  5
7F3C
330
7F1D
100
AcDbEntity
  8
AM_0 外形線1
100
AcDbLine
 10
-33.00000000000205
 20
215.0000000000009
 30
0.0
 11
-54.53440124816915
 21
204.2524624735283
 31
0.0
  0
HATCH
  5
7F3D
330
7F1D
100
AcDbEntity
  8
AM_8 ハッチング
100
AcDbHatch
 10
0.0
 20
0.0
 30
0.0
210
0.0
220
0.0
230
1.0
  2
_U
 70
     0
 71
     0
 91
        1
 92
        1
 93
        4
 72
     1
 10
-33.00000000000228
 20
203.2000000000007
 11
-59.00000000000182
 21
203.2000000000007
 72
     2
 10
-59.00000000000204
 20
213.2000000000007
 40
10.0
 50
270.0000000000005
 51
296.523182395059
 73
     1
 72
     1
 10
-54.53440124816915
 20
204.2524624735283
 11
-33.00000000000182
 21
215.0000000000009
 72
     1
 10
-33.00000000000205
 20
215.0000000000009
 11
-33.0000000000025
 21
203.2000000000007
 97
        0
 75
     0
 76
     0
 52
45.0
 41
1.0
 77
     0
 78
     1
 53
315.0000000000005
 43
-2040.231321698633
 44
665.1309309816506
 45
-0.7071067811865409
 46
-0.7071067811865542
 79
     0
 98
        1
 10
-2040.231321698633
 20
665.1309309816506
1001
GENIUS_GENOBJ-N-HTC_13
1002
{
1000
OWNER
1000
GEN
1002
}
1001
GENIUS_GENODEF_13
1002
{
1000
HIER
1070
     0
1002
}
1002
{
1000
MANEDIT
1070
     0
1002
}
1002
{
1000
NOSEL
1070
     0
1002
}
1002
{
1000
BEHIND
1070
     0
1002
}
1002
{
1000
OTHER
1070
     0
1002
}
1002
{
1000
REACTOR
1002
}
1001
GENIUS_GENHATCH_13
1002
{
1000
DATA
1040
45.0
1042
-0.5
1000
_U
1070
     0
1011
-36.85926320445719
1021
209.1706480083735
1031
0.0
1002
}
1002
{
1000
UCS
1010
0.0
1020
0.0
1030
0.0
1010
1.0
1020
0.0
1030
0.0
1010
0.0
1020
1.0
1030
0.0
1002
}
  0
LINE
  5
7F3E
330
7F1D
100
AcDbEntity
  8
AM_0 外形線1
100
AcDbLine
 10
-25.00000000000091
 20
215.0000000000009
 30
0.0
 11
-25.00000000000091
 21
248.9999999999995
 31
0.0
  0
LINE
  5
7F3F
330
7F1D
100
AcDbEntity
  8
AM_5 寸法線
100
AcDbLine
 10
-24.00000000000091
 20
249.9999999999996
 30
0.0
 11
-25.00000000000091
 21
248.9999999999995
 31
0.0
1001
GENIUS_GENFIL_13
1070
     0
1040
1.0
1040
1.0
1040
1.000000000000227
1040
45.0
1000
~T
1001
GENIUS_GENOREF_13
1005
7F66
  0
LINE
  5
7F40
330
7F1D
100
AcDbEntity
  8
AM_0 外形線1
100
AcDbLine
 10
-0.9999999999997726
 20
250.0
 30
0.0
 11
-24.00000000000091
 21
249.9999999999996
 31
0.0
  0
LINE
  5
7F41
330
7F1D
100
AcDbEntity
  8
AM_0 外形線1
100
AcDbLine
 10
-331.9999999999998
 20
-248.9999999999991
 30
0.0
 11
-332.0
 21
0.0
 31
0.0
  0
LINE
  5
7F42
330
7F1D
100
AcDbEntity
  8
AM_7 中心線
 48
0.5
100
AcDbLine
 10
-297.0
 20
-231.0
 30
0.0
 11
-367.0
 21
-231.0
 31
0.0
  0
LINE
  5
7F43
330
7F1D
100
AcDbEntity
  8
AM_0 外形線1
100
AcDbLine
 10
-330.9999999999998
 20
-249.9999999999991
 30
0.0
 11
-308.0
 21
-249.9999999999991
 31
0.0
  0
LINE
  5
7F44
330
7F1D
100
AcDbEntity
  8
AM_0 外形線1
100
AcDbLine
 10
-331.9999999999998
 20
-248.9999999999991
 30
0.0
 11
-330.9999999999998
 21
-249.9999999999991
 31
0.0
1001
GENIUS_GENFIL_13
1070
     0
1040
1.0
1040
1.0
1040
1.000000000000227
1040
45.00000000000325
1000
~T
1001
GENIUS_GENOREF_13
1005
7F65
  0
LINE
  5
7F45
330
7F1D
100
AcDbEntity
  8
AM_0 外形線1
100
AcDbLine
 10
-332.0
 20
249.0
 30
0.0
 11
-332.0
 21
242.0
 31
0.0
  0
LINE
  5
7F46
330
7F1D
100
AcDbEntity
  8
AM_0 外形線1
100
AcDbLine
 10
-332.0
 20
220.0
 30
0.0
 11
-332.0
 21
201.0000000000018
 31
0.0
  0
LINE
  5
7F47
330
7F1D
100
AcDbEntity
  8
AM_0 外形線1
100
AcDbLine
 10
-331.0
 20
200.0000000000014
 30
0.0
 11
-332.0
 21
201.0000000000013
 31
0.0
1001
GENIUS_GENFIL_13
1070
     0
1040
1.0
1040
1.0
1040
1.000000000000227
1040
45.0
1000
~T
1001
GENIUS_GENOREF_13
1005
7F64
  0
LINE
  5
7F48
330
7F1D
100
AcDbEntity
  8
AM_0 外形線1
100
AcDbLine
 10
-307.0
 20
220.0
 30
0.0
 11
-332.0
 21
220.0
 31
0.0
  0
LINE
  5
7F49
330
7F1D
100
AcDbEntity
  8
AM_0 外形線1
100
AcDbLine
 10
-307.0
 20
242.0
 30
0.0
 11
-332.0
 21
242.0
 31
0.0
  0
LINE
  5
7F4A
330
7F1D
100
AcDbEntity
  8
AM_0 外形線1
100
AcDbLine
 10
-299.0
 20
-215.0
 30
0.0
 11
-299.0
 21
0.0
 31
0.0
  0
LINE
  5
7F4B
330
7F1D
100
AcDbEntity
  8
AM_0 外形線1
100
AcDbLine
 10
-299.0
 20
-215.0
 30
0.0
 11
-307.0
 21
-215.0
 31
0.0
  0
LINE
  5
7F4C
330
7F1D
100
AcDbEntity
  8
AM_0 外形線1
100
AcDbLine
 10
-306.9999999999993
 20
0.0
 30
0.0
 11
-307.0
 21
-248.9999999999991
 31
0.0
  0
LINE
  5
7F4D
330
7F1D
100
AcDbEntity
  8
AM_0 外形線1
100
AcDbLine
 10
-308.0
 20
-249.9999999999991
 30
0.0
 11
-307.0
 21
-248.9999999999991
 31
0.0
1001
GENIUS_GENFIL_13
1070
     0
1040
1.0
1040
1.0
1040
1.000000000000227
1040
45.0
1000
~T
1001
GENIUS_GENOREF_13
1005
7F63
  0
ARC
  5
7F4E
330
7F1D
100
AcDbEntity
  8
AM_0 外形線1
100
AcDbCircle
 10
-273.0
 20
-213.1999999999998
 30
0.0
 40
10.0
100
AcDbArc
 50
90.0
 51
116.5231823950744
  0
LINE
  5
7F4F
330
7F1D
100
AcDbEntity
  8
AM_0 外形線1
100
AcDbLine
 10
-299.0
 20
-215.0
 30
0.0
 11
-277.4655987518322
 21
-204.2524624735279
 31
0.0
  0
LINE
  5
7F50
330
7F1D
100
AcDbEntity
  8
AM_0 外形線1
100
AcDbLine
 10
-288.9999999999984
 20
177.0000000000009
 30
0.0
 11
-289.0
 21
0.0000000000009095
 31
0.0
  0
LINE
  5
7F51
330
7F1D
100
AcDbEntity
  8
AM_0 外形線1
100
AcDbLine
 10
-323.9999999999982
 20
200.0000000000014
 30
0.0
 11
-324.0
 21
0.0000000000009095
 31
0.0
  0
HATCH
  5
7F52
330
7F1D
100
AcDbEntity
  8
AM_8 ハッチング
100
AcDbHatch
 10
0.0
 20
0.0
 30
0.0
210
0.0
220
0.0
230
1.0
  2
_U
 70
     0
 71
     0
 91
        1
 92
        7
 72
     1
 73
     1
 93
        5
 10
-298.9999999999982
 20
182.0000000000009
 42
0.4142135623730886
 10
-293.9999999999983
 20
177.0000000000009
 42
0.0
 10
-290.9999999999984
 20
177.0000000000009
 42
0.0
 10
-275.8734229472306
 20
203.2000000000007
 42
0.0
 10
-298.9999999999986
 20
203.2000000000007
 42
0.0
 97
        0
 75
     0
 76
     0
 52
45.0
 41
1.0
 77
     0
 78
     1
 53
224.9999999999995
 43
2232.346040829265
 44
653.2490785689177
 45
0.7071067811865409
 46
-0.7071067811865542
 79
     0
 47
0.070754626991645
 98
        1
 10
-291.004684115107
 20
193.378681515513
1001
ACAD
1010
0.0
1020
0.0
1030
0.0
  0
LINE
  5
7F53
330
7F1D
100
AcDbEntity
  8
AM_0 外形線1
100
AcDbLine
 10
-298.999999999998
 20
215.0000000000009
 30
0.0
 11
-298.9999999999982
 21
182.0000000000009
 31
0.0
  0
ARC
  5
7F54
330
7F1D
100
AcDbEntity
  8
AM_0 外形線1
100
AcDbCircle
 10
-293.9999999999982
 20
182.0000000000009
 30
0.0
 40
5.0
100
AcDbArc
 50
180.0
 51
270.0
1001
GENIUS_GENODEF_13
1002
{
1000
HIER
1070
     0
1002
}
1002
{
1000
MANEDIT
1070
     0
1002
}
1002
{
1000
NOSEL
1070
     0
1002
}
1002
{
1000
BEHIND
1070
     0
1002
}
1002
{
1000
OTHER
1070
     0
1002
}
1002
{
1000
REACTOR
1002
}
1001
GENIUS_GENOBJ-N-FIL_13
1002
{
1000
OWNER
1000
GEN
1002
}
  0
LINE
  5
7F55
330
7F1D
100
AcDbEntity
  8
AM_0 外形線1
100
AcDbLine
 10
-298.999999999998
 20
215.0000000000009
 30
0.0
 11
-306.9999999999978
 21
215.0000000000009
 31
0.0
  0
LINE
  5
7F56
330
7F1D
100
AcDbEntity
  8
AM_0 外形線1
100
AcDbLine
 10
-323.9999999999982
 20
200.0000000000014
 30
0.0
 11
-331.0
 21
200.0000000000014
 31
0.0
  0
LINE
  5
7F57
330
7F1D
100
AcDbEntity
  8
AM_0 外形線1
100
AcDbLine
 10
-290.9999999999984
 20
177.0000000000009
 30
0.0
 11
-275.8734229472302
 21
203.2000000000007
 31
0.0
  0
ARC
  5
7F58
330
7F1D
100
AcDbEntity
  8
AM_0 外形線1
100
AcDbCircle
 10
-272.9999999999979
 20
213.2000000000007
 30
0.0
 40
10.0
100
AcDbArc
 50
243.4768176049256
 51
270.0
  0
LINE
  5
7F59
330
7F1D
100
AcDbEntity
  8
AM_0 外形線1
100
AcDbLine
 10
-298.999999999998
 20
215.0000000000009
 30
0.0
 11
-277.4655987518308
 21
204.2524624735283
 31
0.0
  0
HATCH
  5
7F5A
330
7F1D
100
AcDbEntity
  8
AM_8 ハッチング
100
AcDbHatch
 10
0.0
 20
0.0
 30
0.0
210
0.0
220
0.0
230
1.0
  2
_U
 70
     0
 71
     0
 91
        1
 92
        1
 93
        4
 72
     1
 10
-298.9999999999977
 20
203.2000000000007
 11
-272.9999999999982
 21
203.2000000000007
 72
     2
 10
-272.9999999999979
 20
213.2000000000007
 40
10.0
 50
90.00000000000051
 51
116.523182395059
 73
     0
 72
     1
 10
-277.4655987518308
 20
204.2524624735283
 11
-298.9999999999982
 21
215.0000000000009
 72
     1
 10
-298.999999999998
 20
215.0000000000009
 11
-298.9999999999975
 21
203.2000000000007
 97
        0
 75
     0
 76
     0
 52
45.0
 41
1.0
 77
     0
 78
     1
 53
224.9999999999995
 43
1708.231321698633
 44
665.1309309816506
 45
0.7071067811865409
 46
-0.7071067811865542
 79
     0
 98
        1
 10
1708.231321698633
 20
665.1309309816506
1001
GENIUS_GENOBJ-N-HTC_13
1002
{
1000
OWNER
1000
GEN
1002
}
1001
GENIUS_GENODEF_13
1002
{
1000
HIER
1070
     0
1002
}
1002
{
1000
MANEDIT
1070
     0
1002
}
1002
{
1000
NOSEL
1070
     0
1002
}
1002
{
1000
BEHIND
1070
     0
1002
}
1002
{
1000
OTHER
1070
     0
1002
}
1002
{
1000
REACTOR
1002
}
1001
GENIUS_GENHATCH_13
1002
{
1000
DATA
1040
45.0
1042
0.5
1000
_U
1070
     0
1011
-295.1407367955428
1021
209.1706480083735
1031
0.0
1002
}
1002
{
1000
UCS
1010
0.0
1020
0.0
1030
0.0
1010
1.0
1020
0.0
1030
0.0
1010
0.0
1020
1.0
1030
0.0
1002
}
  0
LINE
  5
7F5B
330
7F1D
100
AcDbEntity
  8
AM_0 外形線1
100
AcDbLine
 10
-306.9999999999991
 20
215.0000000000009
 30
0.0
 11
-306.9999999999991
 21
249.0
 31
0.0
  0
LINE
  5
7F5C
330
7F1D
100
AcDbEntity
  8
AM_0 外形線1
100
AcDbLine
 10
-307.9999999999992
 20
250.0
 30
0.0
 11
-306.9999999999991
 21
249.0
 31
0.0
1001
GENIUS_GENFIL_13
1070
     0
1040
1.0
1040
1.0
1040
1.000000000000227
1040
45.0
1000
~T
1001
GENIUS_GENOREF_13
1005
7F62
  0
LINE
  5
7F5D
330
7F1D
100
AcDbEntity
  8
AM_0 外形線1
100
AcDbLine
 10
-331.0000000000002
 20
250.0
 30
0.0
 11
-307.9999999999992
 21
250.0
 31
0.0
  0
LINE
  5
7F5E
330
7F1D
100
AcDbEntity
  8
AM_0 外形線1
100
AcDbLine
 10
-332.0
 20
249.0
 30
0.0
 11
-331.0
 21
250.0
 31
0.0
1001
GENIUS_GENFIL_13
1070
     0
1040
1.0
1040
1.0
1040
1.000000000000227
1040
45.0
1000
~T
1001
GENIUS_GENOREF_13
1005
7F61
  0
LINE
  5
7F5F
330
7F1D
100
AcDbEntity
  8
AM_0 外形線1
100
AcDbLine
 10
-275.3568227510259
 20
-202.1999999999998
 30
0.0
 11
-275.3568227510257
 21
0.0
 31
0.0
  0
LINE
  5
7F60
330
7F1D
100
AcDbEntity
  8
AM_0 外形線1
100
AcDbLine
 10
-56.64317724897411
 20
-202.1999999999998
 30
0.0
 11
-56.64317724897433
 21
0.0
 31
0.0
  0
POINT
  5
7F61
330
7F1D
100
AcDbEntity
  8
0
 60
     1
100
AcDbPoint
 10
8187.404489887617
 20
8134.041064889308
 30
0.0
1001
GENIUS_GENOBJ-N-CHA_13
1002
{
1000
OWNER
1000
GEN
1002
}
1001
GENIUS_GENOENT_13
1002
{
1000
MYREF
1005
7F61
1002
}
1002
{
1000
GRP
1005
0
1002
}
1001
GENIUS_GENODEF_13
1002
{
1000
HIER
1070
     1
1002
}
1002
{
1000
MANEDIT
1070
     1
1002
}
1002
{
1000
NOSEL
1070
     0
1002
}
1002
{
1000
BEHIND
1070
     0
1002
}
1002
{
1000
OTHER
1070
     0
1002
}
1002
{
1000
REACTOR
1002
}
1001
GENIUS_GENOLIS_13
1002
{
1000
ENT
1005
7F5E
1002
}
  0
POINT
  5
7F62
330
7F1D
100
AcDbEntity
  8
0
 60
     1
100
AcDbPoint
 10
8187.404489887617
 20
8134.041064889308
 30
0.0
1001
GENIUS_GENOBJ-N-CHA_13
1002
{
1000
OWNER
1000
GEN
1002
}
1001
GENIUS_GENOENT_13
1002
{
1000
MYREF
1005
7F62
1002
}
1002
{
1000
GRP
1005
0
1002
}
1001
GENIUS_GENODEF_13
1002
{
1000
HIER
1070
     1
1002
}
1002
{
1000
MANEDIT
1070
     1
1002
}
1002
{
1000
NOSEL
1070
     0
1002
}
1002
{
1000
BEHIND
1070
     0
1002
}
1002
{
1000
OTHER
1070
     0
1002
}
1002
{
1000
REACTOR
1002
}
1001
GENIUS_GENOLIS_13
1002
{
1000
ENT
1005
7F5C
1002
}
  0
POINT
  5
7F63
330
7F1D
100
AcDbEntity
  8
0
 60
     1
100
AcDbPoint
 10
8187.404489887617
 20
8134.041064889308
 30
0.0
1001
GENIUS_GENODEF_13
1002
{
1000
HIER
1070
     1
1002
}
1002
{
1000
MANEDIT
1070
     0
1002
}
1002
{
1000
NOSEL
1070
     0
1002
}
1002
{
1000
BEHIND
1070
     0
1002
}
1002
{
1000
OTHER
1070
     0
1002
}
1002
{
1000
REACTOR
1002
}
1001
GENIUS_GENOBJ-N-CHA_13
1002
{
1000
OWNER
1000
GEN
1002
}
1001
GENIUS_GENOENT_13
1002
{
1000
MYREF
1005
7F63
1002
}
1002
{
1000
GRP
1005
0
1002
}
1001
GENIUS_GENOLIS_13
1002
{
1000
ENT
1005
7F4D
1002
}
  0
POINT
  5
7F64
330
7F1D
100
AcDbEntity
  8
0
 60
     1
100
AcDbPoint
 10
8187.404489887617
 20
8134.041064889308
 30
0.0
1001
GENIUS_GENOBJ-N-CHA_13
1002
{
1000
OWNER
1000
GEN
1002
}
1001
GENIUS_GENOENT_13
1002
{
1000
MYREF
1005
7F64
1002
}
1002
{
1000
GRP
1005
0
1002
}
1001
GENIUS_GENODEF_13
1002
{
1000
HIER
1070
     1
1002
}
1002
{
1000
MANEDIT
1070
     1
1002
}
1002
{
1000
NOSEL
1070
     0
1002
}
1002
{
1000
BEHIND
1070
     0
1002
}
1002
{
1000
OTHER
1070
     0
1002
}
1002
{
1000
REACTOR
1002
}
1001
GENIUS_GENOLIS_13
1002
{
1000
ENT
1005
7F47
1002
}
  0
POINT
  5
7F65
330
7F1D
100
AcDbEntity
  8
0
 60
     1
100
AcDbPoint
 10
8187.404489887617
 20
8134.041064889308
 30
0.0
1001
GENIUS_GENODEF_13
1002
{
1000
HIER
1070
     1
1002
}
1002
{
1000
MANEDIT
1070
     0
1002
}
1002
{
1000
NOSEL
1070
     0
1002
}
1002
{
1000
BEHIND
1070
     0
1002
}
1002
{
1000
OTHER
1070
     0
1002
}
1002
{
1000
REACTOR
1002
}
1001
GENIUS_GENOBJ-N-CHA_13
1002
{
1000
OWNER
1000
GEN
1002
}
1001
GENIUS_GENOENT_13
1002
{
1000
MYREF
1005
7F65
1002
}
1002
{
1000
GRP
1005
0
1002
}
1001
GENIUS_GENOLIS_13
1002
{
1000
ENT
1005
7F44
1002
}
  0
POINT
  5
7F66
330
7F1D
100
AcDbEntity
  8
0
 60
     1
100
AcDbPoint
 10
8187.404489887617
 20
8134.041064889308
 30
0.0
1001
GENIUS_GENOBJ-N-CHA_13
1002
{
1000
OWNER
1000
GEN
1002
}
1001
GENIUS_GENOENT_13
1002
{
1000
MYREF
1005
7F66
1002
}
1002
{
1000
GRP
1005
0
1002
}
1001
GENIUS_GENODEF_13
1002
{
1000
HIER
1070
     1
1002
}
1002
{
1000
MANEDIT
1070
     1
1002
}
1002
{
1000
NOSEL
1070
     0
1002
}
1002
{
1000
BEHIND
1070
     0
1002
}
1002
{
1000
OTHER
1070
     0
1002
}
1002
{
1000
REACTOR
1002
}
1001
GENIUS_GENOLIS_13
1002
{
1000
ENT
1005
7F3F
1002
}
  0
POINT
  5
7F67
330
7F1D
100
AcDbEntity
  8
0
 60
     1
100
AcDbPoint
 10
8187.404489887617
 20
8134.041064889308
 30
0.0
1001
GENIUS_GENOBJ-N-CHA_13
1002
{
1000
OWNER
1000
GEN
1002
}
1001
GENIUS_GENOENT_13
1002
{
1000
MYREF
1005
7F67
1002
}
1002
{
1000
GRP
1005
0
1002
}
1001
GENIUS_GENODEF_13
1002
{
1000
HIER
1070
     1
1002
}
1002
{
1000
MANEDIT
1070
     1
1002
}
1002
{
1000
NOSEL
1070
     0
1002
}
1002
{
1000
BEHIND
1070
     0
1002
}
1002
{
1000
OTHER
1070
     0
1002
}
1002
{
1000
REACTOR
1002
}
1001
GENIUS_GENOLIS_13
1002
{
1000
ENT
1005
7F2A
1002
}
  0
POINT
  5
7F68
330
7F1D
100
AcDbEntity
  8
0
 60
     1
100
AcDbPoint
 10
8187.404489887617
 20
8134.041064889308
 30
0.0
1001
GENIUS_GENOBJ-N-CHA_13
1002
{
1000
OWNER
1000
GEN
1002
}
1001
GENIUS_GENOENT_13
1002
{
1000
MYREF
1005
7F68
1002
}
1002
{
1000
GRP
1005
0
1002
}
1001
GENIUS_GENODEF_13
1002
{
1000
HIER
1070
     1
1002
}
1002
{
1000
MANEDIT
1070
     1
1002
}
1002
{
1000
NOSEL
1070
     0
1002
}
1002
{
1000
BEHIND
1070
     0
1002
}
1002
{
1000
OTHER
1070
     0
1002
}
1002
{
1000
REACTOR
1002
}
1001
GENIUS_GENOLIS_13
1002
{
1000
ENT
1005
7F29
1002
}
  0
POINT
  5
7F69
330
7F1D
100
AcDbEntity
  8
0
 60
     1
100
AcDbPoint
 10
8187.404489887617
 20
8134.041064889308
 30
0.0
1001
GENIUS_GENOLIS_13
1002
{
1000
ENT
1005
7F25
1002
}
1001
GENIUS_GENODEF_13
1002
{
1000
HIER
1070
     1
1002
}
1002
{
1000
MANEDIT
1070
     0
1002
}
1002
{
1000
NOSEL
1070
     0
1002
}
1002
{
1000
BEHIND
1070
     0
1002
}
1002
{
1000
OTHER
1070
     0
1002
}
1002
{
1000
REACTOR
1002
}
1001
GENIUS_GENOENT_13
1002
{
1000
MYREF
1005
7F69
1002
}
1002
{
1000
GRP
1005
0
1002
}
1001
GENIUS_GENOBJ-N-CHA_13
1002
{
1000
OWNER
1000
GEN
1002
}
  0
POINT
  5
7F6A
330
7F1D
100
AcDbEntity
  8
0
 60
     1
100
AcDbPoint
 10
8187.404489887617
 20
8134.041064889308
 30
0.0
1001
GENIUS_GENODEF_13
1002
{
1000
HIER
1070
     1
1002
}
1002
{
1000
MANEDIT
1070
     0
1002
}
1002
{
1000
NOSEL
1070
     0
1002
}
1002
{
1000
BEHIND
1070
     0
1002
}
1002
{
1000
OTHER
1070
     0
1002
}
1002
{
1000
REACTOR
1002
}
1001
GENIUS_GENOBJ-N-CHA_13
1002
{
1000
OWNER
1000
GEN
1002
}
1001
GENIUS_GENOENT_13
1002
{
1000
MYREF
1005
7F6A
1002
}
1002
{
1000
GRP
1005
0
1002
}
1001
GENIUS_GENOLIS_13
1002
{
1000
ENT
1005
7F21
1002
}
  0
SPLINE
  5
99FE
330
7F1D
100
AcDbEntity
  8
AM_4 細線
100
AcDbSpline
210
0.0
220
0.0
230
1.0
 70
     8
 71
     3
 72
    15
 73
    11
 74
     9
 42
0.0000000001
 43
0.0000000001
 44
0.0000000001
 13
0.0
 23
-1.0
 33
0.0
 40
0.0
 40
0.0
 40
0.0
 40
0.0
 40
51.77489739246231
 40
103.5497947849245
 40
155.3246921773867
 40
207.099589569849
 40
258.8744869623115
 40
310.6493843547739
 40
362.4242817472364
 40
414.1991791396987
 40
414.1991791396987
 40
414.1991791396987
 40
414.1991791396987
 10
-163.446941772173
 20
203.1999999999998
 30
0.0
 10
-169.2204444559164
 20
186.266649396868
 30
0.0
 10
-180.7674498234033
 20
152.3999481906044
 30
0.0
 10
-154.1649095672519
 20
101.6002072375813
 30
0.0
 10
-183.2545625406271
 20
50.79922285906957
 30
0.0
 10
-153.4984909032778
 20
0.0029013261400266
 30
0.0
 10
-183.4331244792996
 20
-50.81082816363012
 30
0.0
 10
-153.450661812562
 20
-101.5595886716206
 30
0.0
 10
-183.4458789034904
 20
-152.5508171498892
 30
0.0
 10
-163.446941772173
 20
-185.9417008691797
 30
0.0
 10
-163.446941772173
 20
-203.2000000000005
 30
0.0
 11
-163.446941772173
 21
203.1999999999998
 31
0.0
 11
-173.446941772173
 21
152.3999999999998
 31
0.0
 11
-163.446941772173
 21
101.5999999999999
 31
0.0
 11
-173.446941772173
 21
50.79999999999995
 31
0.0
 11
-163.446941772173
 21
0.0
 31
0.0
 11
-173.446941772173
 21
-50.80000000000018
 31
0.0
 11
-163.446941772173
 21
-101.6000000000003
 31
0.0
 11
-173.446941772173
 21
-152.4000000000005
 31
0.0
 11
-163.446941772173
 21
-203.2000000000005
 31
0.0
  0
SPLINE
  5
99FF
330
7F1D
100
AcDbEntity
  8
AM_4 細線
100
AcDbSpline
210
0.0
220
0.0
230
1.0
 70
     8
 71
     3
 72
    15
 73
    11
 74
     9
 42
0.0000000001
 43
0.0000000001
 44
0.0000000001
 13
0.0
 23
-1.0
 33
0.0
 40
0.0
 40
0.0
 40
0.0
 40
0.0
 40
51.77489739246233
 40
103.5497947849245
 40
155.3246921773868
 40
207.0995895698491
 40
258.8744869623116
 40
310.649384354774
 40
362.4242817472365
 40
414.1991791396988
 40
414.1991791396988
 40
414.1991791396988
 40
414.1991791396988
 10
-153.4469417721729
 20
203.1999999999998
 30
0.0
 10
-159.2204444559164
 20
186.266649396868
 30
0.0
 10
-170.7674498234033
 20
152.3999481906044
 30
0.0
 10
-144.1649095672518
 20
101.6002072375813
 30
0.0
 10
-173.2545625406271
 20
50.7992228590696
 30
0.0
 10
-143.4984909032777
 20
0.0029013261400017
 30
0.0
 10
-173.4331244792996
 20
-50.81082816363009
 30
0.0
 10
-143.4506618125618
 20
-101.5595886716206
 30
0.0
 10
-173.4458789034905
 20
-152.5508171498892
 30
0.0
 10
-153.4469417721729
 20
-185.9417008691797
 30
0.0
 10
-153.4469417721729
 20
-203.2000000000005
 30
0.0
 11
-153.4469417721729
 21
203.1999999999998
 31
0.0
 11
-163.446941772173
 21
152.3999999999998
 31
0.0
 11
-153.4469417721729
 21
101.5999999999999
 31
0.0
 11
-163.446941772173
 21
50.79999999999995
 31
0.0
 11
-153.4469417721729
 21
0.0
 31
0.0
 11
-163.446941772173
 21
-50.80000000000018
 31
0.0
 11
-153.4469417721729
 21
-101.6000000000003
 31
0.0
 11
-163.446941772173
 21
-152.4000000000005
 31
0.0
 11
-153.4469417721729
 21
-203.2000000000005
 31
0.0
  0
LINE
  5
9A00
330
7F1D
100
AcDbEntity
  8
AM_0 外形線1
100
AcDbLine
 10
-161.3756772475716
 20
177.0000000000002
 30
0.0
 11
-38.00000000000182
 21
177.0000000000013
 31
0.0
  0
LINE
  5
9A01
330
7F1D
100
AcDbEntity
  8
AM_0 外形線1
100
AcDbLine
 10
-153.4469417721729
 20
203.1999999999998
 30
0.0
 11
-33.00000000000046
 21
203.1999999999998
 31
0.0
  0
LINE
  5
9A02
330
7F1D
100
AcDbEntity
  8
AM_0 外形線1
100
AcDbLine
 10
-153.4469417721729
 20
-203.2000000000005
 30
0.0
 11
-59.0
 21
-203.2000000000007
 31
0.0
  0
ENDBLK
  5
7F1F
330
7F1D
100
AcDbEntity
  8
0
100
AcDbBlockEnd
  0
BLOCK
  5
817F
330
817E
100
AcDbEntity
  8
0
100
AcDbBlockBegin
  2
リーマボルト-A CAMHY500 M20
 70
     0
 10
0.0
 20
0.0
 30
0.0
  3
リーマボルト-A CAMHY500 M20
  1

  0
LINE
  5
8181
330
817E
100
AcDbEntity
  8
AM_0 外形線1
100
AcDbLine
 10
-50.0
 20
-3.433333999999376
 30
0.0
 11
-55.10000000000037
 21
1.666666000000532
 31
0.0
  0
LINE
  5
8182
330
817E
100
AcDbEntity
  8
AM_0 外形線1
100
AcDbLine
 10
-50.0
 20
-2.099999999999453
 30
0.0
 11
-55.10000000000037
 21
3.000000000000453
 31
0.0
  0
LINE
  5
8183
330
817E
100
AcDbEntity
  8
AM_0 外形線1
100
AcDbLine
 10
-55.10000000000037
 20
17.04999999999995
 30
0.0
 11
-50.0
 21
17.04999999999995
 31
0.0
  0
LINE
  5
8184
330
817E
100
AcDbEntity
  8
AM_0 外形線1
100
AcDbLine
 10
-50.0
 20
-17.05000000000018
 30
0.0
 11
-55.10000000000037
 21
-17.05000000000018
 31
0.0
  0
LINE
  5
8185
330
817E
100
AcDbEntity
  8
AM_0 外形線1
100
AcDbLine
 10
-71.10000000000036
 20
12.96974599999998
 30
0.0
 11
-71.10000000000036
 21
-12.97000000000003
 31
0.0
  0
LINE
  5
8186
330
817E
100
AcDbEntity
  8
AM_0 外形線1
100
AcDbLine
 10
-55.10000000000037
 20
-17.30000000000018
 30
0.0
 11
-55.10000000000037
 21
17.04999999999995
 31
0.0
  0
ARC
  5
8187
330
817E
100
AcDbEntity
  8
AM_0 外形線1
100
AcDbCircle
 10
-62.61703200000011
 20
-12.96987300000023
 30
0.0
 40
8.482967
100
AcDbArc
 50
149.3062210000045
 51
210.6937789999955
  0
LINE
  5
8188
330
817E
100
AcDbEntity
  8
AM_0 外形線1
100
AcDbLine
 10
-69.91160099999979
 20
-17.30000000000018
 30
0.0
 11
-55.32246299999997
 21
-17.30000000000018
 31
0.0
  0
LINE
  5
8189
330
817E
100
AcDbEntity
  8
AM_0 外形線1
100
AcDbLine
 10
-55.32246299999997
 20
-17.30000000000018
 30
0.0
 11
-55.10000000000037
 21
-17.30000000000018
 31
0.0
  0
LINE
  5
818A
330
817E
100
AcDbEntity
  8
AM_0 外形線1
100
AcDbLine
 10
-71.10000000000036
 20
10.0
 30
0.0
 11
-76.0
 21
10.0
 31
0.0
  0
LINE
  5
818B
330
817E
100
AcDbEntity
  8
AM_0 外形線1
100
AcDbLine
 10
-76.0
 20
-10.0
 30
0.0
 11
-71.10000000000036
 21
-10.0
 31
0.0
  0
LINE
  5
818C
330
817E
100
AcDbEntity
  8
AM_4 細線
100
AcDbLine
 10
-77.80000000000019
 20
8.199999999999818
 30
0.0
 11
-71.10000000000036
 21
8.199999999999818
 31
0.0
  0
LINE
  5
818D
330
817E
100
AcDbEntity
  8
AM_4 細線
100
AcDbLine
 10
-77.80000000000019
 20
-8.200000000000045
 30
0.0
 11
-71.10000000000036
 21
-8.200000000000045
 31
0.0
  0
LINE
  5
818E
330
817E
100
AcDbEntity
  8
AM_0 外形線1
100
AcDbLine
 10
-76.0
 20
10.0
 30
0.0
 11
-78.0
 21
8.0
 31
0.0
  0
LINE
  5
818F
330
817E
100
AcDbEntity
  8
AM_0 外形線1
100
AcDbLine
 10
-78.0
 20
8.0
 30
0.0
 11
-78.0
 21
-8.0
 31
0.0
  0
LINE
  5
8190
330
817E
100
AcDbEntity
  8
AM_0 外形線1
100
AcDbLine
 10
-78.0
 20
-8.0
 30
0.0
 11
-76.0
 21
-10.0
 31
0.0
  0
LINE
  5
8191
330
817E
100
AcDbEntity
  8
AM_0 外形線1
100
AcDbLine
 10
-76.0
 20
-10.0
 30
0.0
 11
-76.0
 21
10.0
 31
0.0
  0
LINE
  5
8192
330
817E
100
AcDbEntity
  8
AM_0 外形線1
100
AcDbLine
 10
-55.10000000000037
 20
17.04999999999995
 30
0.0
 11
-55.10000000000037
 21
17.29999999999995
 31
0.0
  0
LINE
  5
8193
330
817E
100
AcDbEntity
  8
AM_0 外形線1
100
AcDbLine
 10
-55.10000000000037
 20
17.29999999999995
 30
0.0
 11
-69.91160099999979
 21
17.29999999999995
 31
0.0
  0
ARC
  5
8194
330
817E
100
AcDbEntity
  8
AM_0 外形線1
100
AcDbCircle
 10
-62.61703200000011
 20
12.969873
 30
0.0
 40
8.482967
100
AcDbArc
 50
149.3062210000045
 51
210.6937789999955
  0
ARC
  5
8195
330
817E
100
AcDbEntity
  8
AM_0 外形線1
100
AcDbCircle
 10
-39.10000000000037
 20
0.0
 30
0.0
 40
32.0
100
AcDbArc
 50
164.3362059999997
 51
195.6637940000003
  0
LINE
  5
8196
330
817E
100
AcDbEntity
  8
AM_0 外形線1
100
AcDbLine
 10
-69.91160099999979
 20
8.639746000000059
 30
0.0
 11
-55.10000000000037
 21
8.639746000000059
 31
0.0
  0
LINE
  5
8197
330
817E
100
AcDbEntity
  8
AM_0 外形線1
100
AcDbLine
 10
-69.91160099999979
 20
-8.639746000000286
 30
0.0
 11
-55.10000000000037
 21
-8.639746000000286
 31
0.0
  0
LINE
  5
8198
330
817E
100
AcDbEntity
  8
AM_0 外形線1
100
AcDbLine
 10
-42.26794900000004
 20
11.0
 30
0.0
 11
-42.26794900000004
 21
-11.0
 31
0.0
  0
LINE
  5
8199
330
817E
100
AcDbEntity
  8
AM_0 外形線1
100
AcDbLine
 10
-44.0
 20
-10.0
 30
0.0
 11
-44.0
 21
10.0
 31
0.0
  0
LINE
  5
819A
330
817E
100
AcDbEntity
  8
AM_0 外形線1
100
AcDbLine
 10
-42.26794900000004
 20
11.0
 30
0.0
 11
-44.0
 21
10.0
 31
0.0
  0
LINE
  5
819B
330
817E
100
AcDbEntity
  8
AM_0 外形線1
100
AcDbLine
 10
-44.0
 20
-10.0
 30
0.0
 11
-42.26794900000004
 21
-11.0
 31
0.0
  0
LINE
  5
819C
330
817E
100
AcDbEntity
  8
AM_0 外形線1
100
AcDbLine
 10
-44.0
 20
10.0
 30
0.0
 11
-50.0
 21
10.0
 31
0.0
  0
LINE
  5
819D
330
817E
100
AcDbEntity
  8
AM_0 外形線1
100
AcDbLine
 10
-44.0
 20
-10.0
 30
0.0
 11
-50.0
 21
-10.0
 31
0.0
  0
LINE
  5
819E
330
817E
100
AcDbEntity
  8
AM_0 外形線1
100
AcDbLine
 10
13.0
 20
12.96974599999998
 30
0.0
 11
13.0
 21
0.0
 31
0.0
  0
LINE
  5
819F
330
817E
100
AcDbEntity
  8
AM_0 外形線1
100
AcDbLine
 10
0.0
 20
15.0
 30
0.0
 11
11.52253699999983
 21
15.0
 31
0.0
  0
ARC
  5
81A0
330
817E
100
AcDbEntity
  8
AM_0 外形線1
100
AcDbCircle
 10
-1.0
 20
11.0
 30
0.0
 40
1.0
100
AcDbArc
 50
270.0
 51
0.0
  0
LINE
  5
81A1
330
817E
100
AcDbEntity
  8
AM_0 外形線1
100
AcDbLine
 10
-2.5
 20
11.0
 30
0.0
 11
-1.0
 21
10.0
 31
0.0
  0
ARC
  5
81A2
330
817E
100
AcDbEntity
  8
AM_0 外形線1
100
AcDbCircle
 10
-1.0
 20
-11.0
 30
0.0
 40
1.0
100
AcDbArc
 50
0.0
 51
90.0
  0
LINE
  5
81A3
330
817E
100
AcDbEntity
  8
AM_0 外形線1
100
AcDbLine
 10
-2.5
 20
-11.0
 30
0.0
 11
-1.0
 21
-10.0
 31
0.0
  0
LINE
  5
81A4
330
817E
100
AcDbEntity
  8
AM_0 外形線1
100
AcDbLine
 10
-2.5
 20
11.0
 30
0.0
 11
-2.5
 21
-11.0
 31
0.0
  0
ARC
  5
81A5
330
817E
100
AcDbEntity
  8
AM_0 外形線1
100
AcDbCircle
 10
-6.774745527829053
 20
7.500000106223068
 30
0.0
 40
19.77474552782903
100
AcDbArc
 50
337.7114265270103
 51
22.28857347298969
  0
LINE
  5
81A6
330
817E
100
AcDbEntity
  8
AM_0 外形線1
100
AcDbLine
 10
-50.0
 20
17.04999999999995
 30
0.0
 11
-50.0
 21
-17.05000000000018
 31
0.0
  0
LINE
  5
81A7
330
817E
100
AcDbEntity
  8
AM_0 外形線1
100
AcDbLine
 10
-42.26794900000004
 20
11.0
 30
0.0
 11
-2.5
 21
11.0
 31
0.0
  0
LINE
  5
81A8
330
817E
100
AcDbEntity
  8
AM_0 外形線1
100
AcDbLine
 10
-42.26794900000004
 20
-11.0
 30
0.0
 11
-2.5
 21
-11.0
 31
0.0
  0
LINE
  5
81A9
330
817E
100
AcDbEntity
  8
AM_0 外形線1
100
AcDbLine
 10
0.0
 20
15.0
 30
0.0
 11
0.0
 21
-14.99999999999977
 31
0.0
  0
LINE
  5
81AA
330
817E
100
AcDbEntity
  8
AM_0 外形線1
100
AcDbLine
 10
11.52253730588859
 20
0.0
 30
0.0
 11
0.0
 21
0.0
 31
0.0
  0
LINE
  5
81AB
330
817E
100
AcDbEntity
  8
AM_0 外形線1
100
AcDbLine
 10
13.0
 20
12.96974599999998
 30
0.0
 11
11.52253746996575
 21
15.0
 31
0.0
  0
LINE
  5
81AC
330
817E
100
AcDbEntity
  8
AM_0 外形線1
100
AcDbLine
 10
13.0
 20
-12.96974599999998
 30
0.0
 11
13.0
 21
0.0
 31
0.0
  0
LINE
  5
81AD
330
817E
100
AcDbEntity
  8
AM_0 外形線1
100
AcDbLine
 10
0.0
 20
-15.0
 30
0.0
 11
11.52253699999983
 21
-15.0
 31
0.0
  0
ARC
  5
81AE
330
817E
100
AcDbEntity
  8
AM_0 外形線1
100
AcDbCircle
 10
-6.774745527829053
 20
-7.500000106223068
 30
0.0
 40
19.77474552782903
100
AcDbArc
 50
337.7114265270224
 51
22.28857347297764
  0
LINE
  5
81AF
330
817E
100
AcDbEntity
  8
AM_0 外形線1
100
AcDbLine
 10
11.52253730588859
 20
0.0
 30
0.0
 11
0.0
 21
0.0
 31
0.0
  0
LINE
  5
81B0
330
817E
100
AcDbEntity
  8
AM_0 外形線1
100
AcDbLine
 10
13.0
 20
-12.96974599999998
 30
0.0
 11
11.52253746996575
 21
-15.0
 31
0.0
  0
ENDBLK
  5
8180
330
817E
100
AcDbEntity
  8
0
100
AcDbBlockEnd
  0
BLOCK
  5
9116
330
9115
100
AcDbEntity
  8
0
100
AcDbBlockBegin
  2
*D27
 70
     1
 10
0.0
 20
0.0
 30
0.0
  3
*D27
  1

  0
LINE
  5
96FD
330
9115
100
AcDbEntity
  8
AM_5 寸法線
 62
     3
100
AcDbLine
 10
994.4534942615293
 20
1058.394792936596
 30
0.0
 11
994.4534942615293
 21
967.2663116349472
 31
0.0
  0
LINE
  5
96FE
330
9115
100
AcDbEntity
  8
AM_5 寸法線
 62
     3
100
AcDbLine
 10
1019.453494261529
 20
1058.394792936596
 30
0.0
 11
1019.453494261529
 21
967.2663116349472
 31
0.0
  0
LINE
  5
96FF
330
9115
100
AcDbEntity
  8
AM_5 寸法線
 62
     3
100
AcDbLine
 10
979.4534942615294
 20
971.0163116349471
 30
0.0
 11
964.4534942615294
 21
971.0163116349471
 31
0.0
  0
LINE
  5
9700
330
9115
100
AcDbEntity
  8
AM_5 寸法線
 62
     3
100
AcDbLine
 10
1034.453494261529
 20
971.0163116349471
 30
0.0
 11
1098.053494261529
 21
971.0163116349471
 31
0.0
  0
LINE
  5
9701
330
9115
100
AcDbEntity
  8
AM_5 寸法線
 62
     3
100
AcDbLine
 10
994.4534942615293
 20
971.0163116349471
 30
0.0
 11
1019.453494261529
 21
971.0163116349471
 31
0.0
  0
INSERT
  5
9702
330
9115
100
AcDbEntity
  8
AM_5 寸法線
 62
     3
100
AcDbBlockReference
  2
GENDOT
 10
994.4534942615293
 20
971.0163116349471
 30
0.0
 41
15.0
 42
15.0
 43
15.0
  0
INSERT
  5
9703
330
9115
100
AcDbEntity
  8
AM_5 寸法線
 62
     3
100
AcDbBlockReference
  2
_Open30
 10
1019.453494261529
 20
971.0163116349471
 30
0.0
 41
15.0
 42
15.0
 43
15.0
 50
180.0
  0
MTEXT
  5
9704
330
9115
100
AcDbEntity
  8
AM_5 寸法線
 62
     3
100
AcDbMText
 10
1073.753494261529
 20
990.5163116349472
 30
0.0
 40
21.0
 41
0.0
 46
0.0
 71
     5
 72
     1
  1
25
  7
SEISA
 73
     1
 44
1.0
  0
POINT
  5
9705
330
9115
100
AcDbEntity
  8
Defpoints
 62
     0
100
AcDbPoint
 10
994.4534942615293
 20
1062.144792936596
 30
0.0
  0
POINT
  5
9706
330
9115
100
AcDbEntity
  8
Defpoints
 62
     0
100
AcDbPoint
 10
1019.453494261529
 20
1062.144792936596
 30
0.0
  0
POINT
  5
9707
330
9115
100
AcDbEntity
  8
Defpoints
 62
     0
100
AcDbPoint
 10
1019.453494261529
 20
971.0163116349471
 30
0.0
  0
ENDBLK
  5
9117
330
9115
100
AcDbEntity
  8
0
100
AcDbBlockEnd
  0
BLOCK
  5
9153
330
9152
100
AcDbEntity
  8
0
100
AcDbBlockBegin
  2
*D28
 70
     1
 10
0.0
 20
0.0
 30
0.0
  3
*D28
  1

  0
LINE
  5
9708
330
9152
100
AcDbEntity
  8
AM_5 寸法線
 62
     3
100
AcDbLine
 10
1326.453494261528
 20
1058.394792936596
 30
0.0
 11
1326.453494261528
 21
967.2663116349466
 31
0.0
  0
LINE
  5
9709
330
9152
100
AcDbEntity
  8
AM_5 寸法線
 62
     3
100
AcDbLine
 10
1301.453494261529
 20
1058.394792936596
 30
0.0
 11
1301.453494261529
 21
967.2663116349466
 31
0.0
  0
LINE
  5
970A
330
9152
100
AcDbEntity
  8
AM_5 寸法線
 62
     3
100
AcDbLine
 10
1341.453494261529
 20
971.0163116349466
 30
0.0
 11
1356.453494261528
 21
971.0163116349466
 31
0.0
  0
LINE
  5
970B
330
9152
100
AcDbEntity
  8
AM_5 寸法線
 62
     3
100
AcDbLine
 10
1286.453494261529
 20
971.0163116349466
 30
0.0
 11
1222.853494261529
 21
971.0163116349466
 31
0.0
  0
LINE
  5
970C
330
9152
100
AcDbEntity
  8
AM_5 寸法線
 62
     3
100
AcDbLine
 10
1326.453494261528
 20
971.0163116349466
 30
0.0
 11
1301.453494261529
 21
971.0163116349466
 31
0.0
  0
INSERT
  5
970D
330
9152
100
AcDbEntity
  8
AM_5 寸法線
 62
     3
100
AcDbBlockReference
  2
GENDOT
 10
1326.453494261528
 20
971.0163116349466
 30
0.0
 41
15.0
 42
15.0
 43
15.0
 50
180.0
  0
INSERT
  5
970E
330
9152
100
AcDbEntity
  8
AM_5 寸法線
 62
     3
100
AcDbBlockReference
  2
_Open30
 10
1301.453494261529
 20
971.0163116349466
 30
0.0
 41
15.0
 42
15.0
 43
15.0
  0
MTEXT
  5
970F
330
9152
100
AcDbEntity
  8
AM_5 寸法線
 62
     3
100
AcDbMText
 10
1247.153494261529
 20
990.5163116349466
 30
0.0
 40
21.0
 41
0.0
 46
0.0
 71
     5
 72
     1
  1
25
  7
SEISA
 73
     1
 44
1.0
  0
POINT
  5
9710
330
9152
100
AcDbEntity
  8
Defpoints
 62
     0
100
AcDbPoint
 10
1326.453494261528
 20
1062.144792936596
 30
0.0
  0
POINT
  5
9711
330
9152
100
AcDbEntity
  8
Defpoints
 62
     0
100
AcDbPoint
 10
1301.453494261529
 20
1062.144792936596
 30
0.0
  0
POINT
  5
9712
330
9152
100
AcDbEntity
  8
Defpoints
 62
     0
100
AcDbPoint
 10
1301.453494261529
 20
971.0163116349466
 30
0.0
  0
ENDBLK
  5
9154
330
9152
100
AcDbEntity
  8
0
100
AcDbBlockEnd
  0
BLOCK
  5
9190
330
918F
100
AcDbEntity
  8
0
100
AcDbBlockBegin
  2
*D29
 70
     1
 10
0.0
 20
0.0
 30
0.0
  3
*D29
  1

  0
LINE
  5
9713
330
918F
100
AcDbEntity
  8
AM_5 寸法線
 62
     3
100
AcDbLine
 10
1326.453494261529
 20
1058.394792936595
 30
0.0
 11
1326.453494261529
 21
967.2663116349459
 31
0.0
  0
LINE
  5
9714
330
918F
100
AcDbEntity
  8
AM_5 寸法線
 62
     3
100
AcDbLine
 10
1351.453494261529
 20
1058.394792936595
 30
0.0
 11
1351.453494261529
 21
967.2663116349459
 31
0.0
  0
LINE
  5
9715
330
918F
100
AcDbEntity
  8
AM_5 寸法線
 62
     3
100
AcDbLine
 10
1311.453494261529
 20
971.0163116349459
 30
0.0
 11
1296.453494261529
 21
971.0163116349459
 31
0.0
  0
LINE
  5
9716
330
918F
100
AcDbEntity
  8
AM_5 寸法線
 62
     3
100
AcDbLine
 10
1366.453494261529
 20
971.0163116349459
 30
0.0
 11
1430.053494261529
 21
971.0163116349459
 31
0.0
  0
LINE
  5
9717
330
918F
100
AcDbEntity
  8
AM_5 寸法線
 62
     3
100
AcDbLine
 10
1326.453494261529
 20
971.0163116349459
 30
0.0
 11
1351.453494261529
 21
971.0163116349459
 31
0.0
  0
INSERT
  5
9718
330
918F
100
AcDbEntity
  8
AM_5 寸法線
 62
     3
100
AcDbBlockReference
  2
GENDOT
 10
1326.453494261529
 20
971.0163116349459
 30
0.0
 41
15.0
 42
15.0
 43
15.0
  0
INSERT
  5
9719
330
918F
100
AcDbEntity
  8
AM_5 寸法線
 62
     3
100
AcDbBlockReference
  2
_Open30
 10
1351.453494261529
 20
971.0163116349459
 30
0.0
 41
15.0
 42
15.0
 43
15.0
 50
180.0
  0
MTEXT
  5
971A
330
918F
100
AcDbEntity
  8
AM_5 寸法線
 62
     3
100
AcDbMText
 10
1405.753494261529
 20
990.5163116349459
 30
0.0
 40
21.0
 41
0.0
 46
0.0
 71
     5
 72
     1
  1
25
  7
SEISA
 73
     1
 44
1.0
  0
POINT
  5
971B
330
918F
100
AcDbEntity
  8
Defpoints
 62
     0
100
AcDbPoint
 10
1326.453494261529
 20
1062.144792936595
 30
0.0
  0
POINT
  5
971C
330
918F
100
AcDbEntity
  8
Defpoints
 62
     0
100
AcDbPoint
 10
1351.453494261529
 20
1062.144792936595
 30
0.0
  0
POINT
  5
971D
330
918F
100
AcDbEntity
  8
Defpoints
 62
     0
100
AcDbPoint
 10
1351.453494261529
 20
971.0163116349459
 30
0.0
  0
ENDBLK
  5
9191
330
918F
100
AcDbEntity
  8
0
100
AcDbBlockEnd
  0
BLOCK
  5
91FF
330
91FE
100
AcDbEntity
  8
0
100
AcDbBlockBegin
  2
*D30
 70
     1
 10
0.0
 20
0.0
 30
0.0
  3
*D30
  1

  0
LINE
  5
9726
330
91FE
100
AcDbEntity
  8
AM_5 寸法線
 62
     3
100
AcDbLine
 10
1326.453494261529
 20
1058.394792936595
 30
0.0
 11
1326.453494261529
 21
919.2663116349471
 31
0.0
  0
LINE
  5
9727
330
91FE
100
AcDbEntity
  8
AM_5 寸法線
 62
     3
100
AcDbLine
 10
1494.453494261529
 20
1095.394792936595
 30
0.0
 11
1494.453494261529
 21
919.2663116349471
 31
0.0
  0
LINE
  5
9728
330
91FE
100
AcDbEntity
  8
AM_5 寸法線
 62
     3
100
AcDbLine
 10
1341.453494261529
 20
923.0163116349467
 30
0.0
 11
1479.453494261529
 21
923.0163116349467
 31
0.0
  0
INSERT
  5
9729
330
91FE
100
AcDbEntity
  8
AM_5 寸法線
 62
     3
100
AcDbBlockReference
  2
_Open30
 10
1326.453494261529
 20
923.0163116349467
 30
0.0
 41
15.0
 42
15.0
 43
15.0
 50
180.0
  0
INSERT
  5
972A
330
91FE
100
AcDbEntity
  8
AM_5 寸法線
 62
     3
100
AcDbBlockReference
  2
_Open30
 10
1494.453494261529
 20
923.0163116349467
 30
0.0
 41
15.0
 42
15.0
 43
15.0
  0
MTEXT
  5
972B
330
91FE
100
AcDbEntity
  8
AM_5 寸法線
 62
     3
100
AcDbMText
 10
1410.453494261529
 20
942.5163116349471
 30
0.0
 40
21.0
 41
0.0
 46
0.0
 71
     5
 72
     1
  1
168
  7
SEISA
 73
     1
 44
1.0
  0
POINT
  5
972C
330
91FE
100
AcDbEntity
  8
Defpoints
 62
     0
100
AcDbPoint
 10
1326.453494261529
 20
1062.144792936595
 30
0.0
  0
POINT
  5
972D
102
{ACAD_REACTORS
330
9F7F
102
}
330
91FE
100
AcDbEntity
  8
Defpoints
 62
     0
100
AcDbPoint
 10
1494.453494261529
 20
1099.144792936595
 30
0.0
  0
POINT
  5
972E
330
91FE
100
AcDbEntity
  8
Defpoints
 62
     0
100
AcDbPoint
 10
1494.453494261529
 20
923.0163116349467
 30
0.0
  0
ENDBLK
  5
9200
330
91FE
100
AcDbEntity
  8
0
100
AcDbBlockEnd
  0
BLOCK
  5
9E01
330
9E00
100
AcDbEntity
  8
0
100
AcDbBlockBegin
  2
*D31
 70
     1
 10
0.0
 20
0.0
 30
0.0
  3
*D31
  1

  0
LINE
  5
9E20
330
9E00
100
AcDbEntity
  8
AM_5 寸法線
 62
     3
100
AcDbLine
 10
852.4534942615289
 20
1475.394792936595
 30
0.0
 11
852.4534942615289
 21
1437.679114893551
 31
0.0
  0
LINE
  5
9E21
330
9E00
100
AcDbEntity
  8
AM_5 寸法線
 62
     3
100
AcDbLine
 10
915.4534942615292
 20
1475.394792936595
 30
0.0
 11
915.4534942615292
 21
1437.679114893551
 31
0.0
  0
LINE
  5
9E22
330
9E00
100
AcDbEntity
  8
AM_5 寸法線
 62
     3
100
AcDbLine
 10
867.4534942615293
 20
1441.429114893551
 30
0.0
 11
900.4534942615292
 21
1441.429114893551
 31
0.0
  0
INSERT
  5
9E23
330
9E00
100
AcDbEntity
  8
AM_5 寸法線
 62
     3
100
AcDbBlockReference
  2
_Open30
 10
852.4534942615289
 20
1441.429114893551
 30
0.0
 41
15.0
 42
15.0
 43
15.0
 50
180.0
  0
INSERT
  5
9E24
330
9E00
100
AcDbEntity
  8
AM_5 寸法線
 62
     3
100
AcDbBlockReference
  2
_Open30
 10
915.4534942615292
 20
1441.429114893551
 30
0.0
 41
15.0
 42
15.0
 43
15.0
  0
MTEXT
  5
9E25
330
9E00
100
AcDbEntity
  8
AM_5 寸法線
 62
     3
100
AcDbMText
 10
883.9534942615291
 20
1460.929114893551
 30
0.0
 40
21.0
 41
0.0
 46
0.0
 71
     5
 72
     1
  1
63
  7
SEISA
 73
     1
 44
1.0
  0
POINT
  5
9E26
330
9E00
100
AcDbEntity
  8
Defpoints
 62
     0
100
AcDbPoint
 10
852.4534942615289
 20
1479.144792936595
 30
0.0
  0
POINT
  5
9E27
330
9E00
100
AcDbEntity
  8
Defpoints
 62
     0
100
AcDbPoint
 10
915.4534942615292
 20
1479.144792936595
 30
0.0
  0
POINT
  5
9E28
330
9E00
100
AcDbEntity
  8
Defpoints
 62
     0
100
AcDbPoint
 10
915.4534942615292
 20
1441.429114893551
 30
0.0
  0
ENDBLK
  5
9E02
330
9E00
100
AcDbEntity
  8
0
100
AcDbBlockEnd
  0
BLOCK
  5
9E2B
330
9E2A
100
AcDbEntity
  8
0
100
AcDbBlockBegin
  2
*D32
 70
     1
 10
0.0
 20
0.0
 30
0.0
  3
*D32
  1

  0
LINE
  5
A113
330
9E2A
100
AcDbEntity
  8
AM_5 寸法線
 62
     3
100
AcDbLine
 10
915.4534942615292
 20
1473.894792936595
 30
0.0
 11
915.4534942615292
 21
1437.679114893551
 31
0.0
  0
LINE
  5
A114
330
9E2A
100
AcDbEntity
  8
AM_5 寸法線
 62
     3
100
AcDbLine
 10
983.4534942615292
 20
1472.394792936595
 30
0.0
 11
983.4534942615292
 21
1437.679114893551
 31
0.0
  0
LINE
  5
A115
330
9E2A
100
AcDbEntity
  8
AM_5 寸法線
 62
     3
100
AcDbLine
 10
930.4534942615292
 20
1441.429114893551
 30
0.0
 11
968.4534942615293
 21
1441.429114893551
 31
0.0
  0
INSERT
  5
A116
330
9E2A
100
AcDbEntity
  8
AM_5 寸法線
 62
     3
100
AcDbBlockReference
  2
_Open30
 10
915.4534942615292
 20
1441.429114893551
 30
0.0
 41
15.0
 42
15.0
 43
15.0
 50
180.0
  0
INSERT
  5
A117
330
9E2A
100
AcDbEntity
  8
AM_5 寸法線
 62
     3
100
AcDbBlockReference
  2
_Open30
 10
983.4534942615292
 20
1441.429114893551
 30
0.0
 41
15.0
 42
15.0
 43
15.0
  0
MTEXT
  5
A118
330
9E2A
100
AcDbEntity
  8
AM_5 寸法線
 62
     3
100
AcDbMText
 10
949.4534942615292
 20
1460.929114893551
 30
0.0
 40
21.0
 41
0.0
 46
0.0
 71
     5
 72
     1
  1
68
  7
SEISA
 73
     1
 44
1.0
  0
POINT
  5
A119
330
9E2A
100
AcDbEntity
  8
Defpoints
 62
     0
100
AcDbPoint
 10
915.4534942615292
 20
1477.644792936595
 30
0.0
  0
POINT
  5
A11A
330
9E2A
100
AcDbEntity
  8
Defpoints
 62
     0
100
AcDbPoint
 10
983.4534942615292
 20
1476.144792936595
 30
0.0
  0
POINT
  5
A11B
330
9E2A
100
AcDbEntity
  8
Defpoints
 62
     0
100
AcDbPoint
 10
983.4534942615292
 20
1441.429114893551
 30
0.0
  0
ENDBLK
  5
9E2C
330
9E2A
100
AcDbEntity
  8
0
100
AcDbBlockEnd
  0
BLOCK
  5
9E5E
330
9E5D
100
AcDbEntity
  8
0
100
AcDbBlockBegin
  2
*D33
 70
     1
 10
0.0
 20
0.0
 30
0.0
  3
*D33
  1

  0
LINE
  5
9ECC
330
9E5D
100
AcDbEntity
  8
AM_5 寸法線
 62
     3
100
AcDbLine
 10
994.4534942615293
 20
1508.394792936597
 30
0.0
 11
994.4534942615293
 21
1369.552438331829
 31
0.0
  0
LINE
  5
9ECD
330
9E5D
100
AcDbEntity
  8
AM_5 寸法線
 62
     3
100
AcDbLine
 10
983.4534942615292
 20
1472.394792936595
 30
0.0
 11
983.4534942615292
 21
1369.552438331829
 31
0.0
  0
LINE
  5
9ECE
330
9E5D
100
AcDbEntity
  8
AM_5 寸法線
 62
     3
100
AcDbLine
 10
1009.453494261529
 20
1373.302438331829
 30
0.0
 11
1024.453494261529
 21
1373.302438331829
 31
0.0
  0
LINE
  5
9ECF
330
9E5D
100
AcDbEntity
  8
AM_5 寸法線
 62
     3
100
AcDbLine
 10
968.4534942615293
 20
1373.302438331829
 30
0.0
 11
912.9534942615292
 21
1373.302438331829
 31
0.0
  0
LINE
  5
9ED0
330
9E5D
100
AcDbEntity
  8
AM_5 寸法線
 62
     3
100
AcDbLine
 10
994.4534942615293
 20
1373.302438331829
 30
0.0
 11
983.4534942615292
 21
1373.302438331829
 31
0.0
  0
INSERT
  5
9ED1
330
9E5D
100
AcDbEntity
  8
AM_5 寸法線
 62
     3
100
AcDbBlockReference
  2
_Open30
 10
994.4534942615293
 20
1373.302438331829
 30
0.0
 41
15.0
 42
15.0
 43
15.0
 50
180.0
  0
INSERT
  5
9ED2
330
9E5D
100
AcDbEntity
  8
AM_5 寸法線
 62
     3
100
AcDbBlockReference
  2
_Open30
 10
983.4534942615292
 20
1373.302438331829
 30
0.0
 41
15.0
 42
15.0
 43
15.0
  0
MTEXT
  5
9ED3
330
9E5D
100
AcDbEntity
  8
AM_5 寸法線
 62
     3
100
AcDbMText
 10
933.2034942615292
 20
1392.802438331829
 30
0.0
 40
21.0
 41
0.0
 46
0.0
 71
     5
 72
     1
  1
11
  7
SEISA
 73
     1
 44
1.0
  0
POINT
  5
9ED4
330
9E5D
100
AcDbEntity
  8
Defpoints
 62
     0
100
AcDbPoint
 10
994.4534942615293
 20
1512.144792936597
 30
0.0
  0
POINT
  5
9ED5
330
9E5D
100
AcDbEntity
  8
Defpoints
 62
     0
100
AcDbPoint
 10
983.4534942615292
 20
1476.144792936595
 30
0.0
  0
POINT
  5
9ED6
330
9E5D
100
AcDbEntity
  8
Defpoints
 62
     0
100
AcDbPoint
 10
983.4534942615292
 20
1373.302438331829
 30
0.0
  0
ENDBLK
  5
9E5F
330
9E5D
100
AcDbEntity
  8
0
100
AcDbBlockEnd
  0
BLOCK
  5
9E91
330
9E90
100
AcDbEntity
  8
0
100
AcDbBlockBegin
  2
*D34
 70
     1
 10
0.0
 20
0.0
 30
0.0
  3
*D34
  1

  0
LINE
  5
9ED7
330
9E90
100
AcDbEntity
  8
AM_5 寸法線
 62
     3
100
AcDbLine
 10
1326.453494261529
 20
1508.394792936597
 30
0.0
 11
1326.453494261529
 21
1369.552438331829
 31
0.0
  0
LINE
  5
9ED8
330
9E90
100
AcDbEntity
  8
AM_5 寸法線
 62
     3
100
AcDbLine
 10
1337.453494261529
 20
1472.394792936595
 30
0.0
 11
1337.453494261529
 21
1369.552438331829
 31
0.0
  0
LINE
  5
9ED9
330
9E90
100
AcDbEntity
  8
AM_5 寸法線
 62
     3
100
AcDbLine
 10
1311.453494261529
 20
1373.302438331829
 30
0.0
 11
1296.453494261529
 21
1373.302438331829
 31
0.0
  0
LINE
  5
9EDA
330
9E90
100
AcDbEntity
  8
AM_5 寸法線
 62
     3
100
AcDbLine
 10
1352.453494261529
 20
1373.302438331829
 30
0.0
 11
1407.953494261529
 21
1373.302438331829
 31
0.0
  0
LINE
  5
9EDB
330
9E90
100
AcDbEntity
  8
AM_5 寸法線
 62
     3
100
AcDbLine
 10
1326.453494261529
 20
1373.302438331829
 30
0.0
 11
1337.453494261529
 21
1373.302438331829
 31
0.0
  0
INSERT
  5
9EDC
330
9E90
100
AcDbEntity
  8
AM_5 寸法線
 62
     3
100
AcDbBlockReference
  2
_Open30
 10
1326.453494261529
 20
1373.302438331829
 30
0.0
 41
15.0
 42
15.0
 43
15.0
  0
INSERT
  5
9EDD
330
9E90
100
AcDbEntity
  8
AM_5 寸法線
 62
     3
100
AcDbBlockReference
  2
_Open30
 10
1337.453494261529
 20
1373.302438331829
 30
0.0
 41
15.0
 42
15.0
 43
15.0
 50
180.0
  0
MTEXT
  5
9EDE
330
9E90
100
AcDbEntity
  8
AM_5 寸法線
 62
     3
100
AcDbMText
 10
1387.703494261529
 20
1392.802438331829
 30
0.0
 40
21.0
 41
0.0
 46
0.0
 71
     5
 72
     1
  1
11
  7
SEISA
 73
     1
 44
1.0
  0
POINT
  5
9EDF
330
9E90
100
AcDbEntity
  8
Defpoints
 62
     0
100
AcDbPoint
 10
1326.453494261529
 20
1512.144792936597
 30
0.0
  0
POINT
  5
9EE0
330
9E90
100
AcDbEntity
  8
Defpoints
 62
     0
100
AcDbPoint
 10
1337.453494261529
 20
1476.144792936595
 30
0.0
  0
POINT
  5
9EE1
330
9E90
100
AcDbEntity
  8
Defpoints
 62
     0
100
AcDbPoint
 10
1337.453494261529
 20
1373.302438331829
 30
0.0
  0
ENDBLK
  5
9E92
330
9E90
100
AcDbEntity
  8
0
100
AcDbBlockEnd
  0
BLOCK
  5
9F73
330
9F72
100
AcDbEntity
  8
0
100
AcDbBlockBegin
  2
*D35
 70
     1
 10
0.0
 20
0.0
 30
0.0
  3
*D35
  1

  0
LINE
  5
9F92
330
9F72
100
AcDbEntity
  8
AM_5 寸法線
 62
     3
100
AcDbLine
 10
1494.453494261529
 20
1095.394792936595
 30
0.0
 11
1494.453494261529
 21
919.2663116349487
 31
0.0
  0
LINE
  5
9F93
330
9F72
100
AcDbEntity
  8
AM_5 寸法線
 62
     3
100
AcDbLine
 10
1573.453494261529
 20
1146.894792936595
 30
0.0
 11
1573.453494261529
 21
919.2663116349487
 31
0.0
  0
LINE
  5
9F94
330
9F72
100
AcDbEntity
  8
AM_5 寸法線
 62
     3
100
AcDbLine
 10
1509.453494261529
 20
923.0163116349487
 30
0.0
 11
1558.453494261529
 21
923.0163116349487
 31
0.0
  0
INSERT
  5
9F95
330
9F72
100
AcDbEntity
  8
AM_5 寸法線
 62
     3
100
AcDbBlockReference
  2
_Open30
 10
1494.453494261529
 20
923.0163116349487
 30
0.0
 41
15.0
 42
15.0
 43
15.0
 50
180.0
  0
INSERT
  5
9F96
330
9F72
100
AcDbEntity
  8
AM_5 寸法線
 62
     3
100
AcDbBlockReference
  2
_Open30
 10
1573.453494261529
 20
923.0163116349487
 30
0.0
 41
15.0
 42
15.0
 43
15.0
  0
MTEXT
  5
9F97
330
9F72
100
AcDbEntity
  8
AM_5 寸法線
 62
     3
100
AcDbMText
 10
1533.953494261529
 20
942.5163116349487
 30
0.0
 40
21.0
 41
0.0
 46
0.0
 71
     5
 72
     1
  1
79
  7
SEISA
 73
     1
 44
1.0
  0
POINT
  5
9F98
330
9F72
100
AcDbEntity
  8
Defpoints
 62
     0
100
AcDbPoint
 10
1494.453494261529
 20
1099.144792936595
 30
0.0
  0
POINT
  5
9F99
330
9F72
100
AcDbEntity
  8
Defpoints
 62
     0
100
AcDbPoint
 10
1573.453494261529
 20
1150.644792936595
 30
0.0
  0
POINT
  5
9F9A
330
9F72
100
AcDbEntity
  8
Defpoints
 62
     0
100
AcDbPoint
 10
1573.453494261529
 20
923.0163116349487
 30
0.0
  0
ENDBLK
  5
9F74
330
9F72
100
AcDbEntity
  8
0
100
AcDbBlockEnd
  0
BLOCK
  5
A0F2
330
A0F1
100
AcDbEntity
  8
0
100
AcDbBlockBegin
  2
センタB CAMHY500
 70
     0
 10
0.0
 20
0.0
 30
0.0
  3
センタB CAMHY500
  1

  0
ARC
  5
A0F4
330
A0F1
100
AcDbEntity
  8
AM_0 外形線1
100
AcDbCircle
 10
-99.50000000000001
 20
-102.4999999999997
 30
0.0
 40
185.75
100
AcDbArc
 50
80.39289699998731
 51
99.60710300001268
  0
LINE
  5
A0F5
330
A0F1
100
AcDbEntity
  8
AM_0 外形線1
100
AcDbLine
 10
-236.0
 20
-262.9999999999999
 30
0.0
 11
-236.0
 21
58.00000000000022
 31
0.0
  0
LINE
  5
A0F6
330
A0F1
100
AcDbEntity
  8
AM_0 外形線1
100
AcDbLine
 10
-180.0
 20
-269.9999999999998
 30
0.0
 11
-180.0
 21
-102.4999999999997
 31
0.0
  0
LINE
  5
A0F7
330
A0F1
100
AcDbEntity
  8
AM_0 外形線1
100
AcDbLine
 10
-183.0
 20
-268.9999999999998
 30
0.0
 11
-183.0
 21
-102.4999999999997
 31
0.0
  0
LINE
  5
A0F8
330
A0F1
100
AcDbEntity
  8
AM_0 外形線1
100
AcDbLine
 10
-180.0
 20
-269.9999999999998
 30
0.0
 11
-183.0
 21
-268.9999999999998
 31
0.0
  0
LINE
  5
A0F9
330
A0F1
100
AcDbEntity
  8
AM_0 外形線1
100
AcDbLine
 10
-183.0
 20
-268.9999999999998
 30
0.0
 11
-230.0
 21
-268.9999999999998
 31
0.0
  0
ARC
  5
A0FA
330
A0F1
100
AcDbEntity
  8
AM_0 外形線1
100
AcDbCircle
 10
-230.0
 20
-262.9999999999999
 30
0.0
 40
6.0
100
AcDbArc
 50
180.0
 51
270.0
  0
LINE
  5
A0FB
330
A0F1
100
AcDbEntity
  8
AM_0 外形線1
100
AcDbLine
 10
-157.0
 20
-269.9999999999998
 30
0.0
 11
-180.0
 21
-269.9999999999998
 31
0.0
  0
LINE
  5
A0FC
330
A0F1
100
AcDbEntity
  8
AM_0 外形線1
100
AcDbLine
 10
-183.0
 20
64.00000000000023
 30
0.0
 11
-180.0
 21
65.00000000000023
 31
0.0
  0
LINE
  5
A0FD
330
A0F1
100
AcDbEntity
  8
AM_0 外形線1
100
AcDbLine
 10
-230.0
 20
64.00000000000023
 30
0.0
 11
-183.0
 21
64.00000000000023
 31
0.0
  0
ARC
  5
A0FE
330
A0F1
100
AcDbEntity
  8
AM_0 外形線1
100
AcDbCircle
 10
-230.0
 20
58.00000000000022
 30
0.0
 40
6.0
100
AcDbArc
 50
90.0
 51
180.0
  0
LINE
  5
A0FF
330
A0F1
100
AcDbEntity
  8
AM_0 外形線1
100
AcDbLine
 10
-180.0
 20
65.00000000000023
 30
0.0
 11
-131.5
 21
65.00000000000023
 31
0.0
  0
LINE
  5
A100
330
A0F1
100
AcDbEntity
  8
AM_0 外形線1
100
AcDbLine
 10
-131.0
 20
80.05958800000028
 30
0.0
 11
-130.5
 21
80.64492300000029
 31
0.0
  0
ARC
  5
A101
330
A0F1
100
AcDbEntity
  8
AM_0 外形線1
100
AcDbCircle
 10
-131.5
 20
65.50000000000022
 30
0.0
 40
0.5
100
AcDbArc
 50
270.0
 51
0.0
  0
LINE
  5
A102
330
A0F1
100
AcDbEntity
  8
AM_0 外形線1
100
AcDbLine
 10
-131.0
 20
65.50000000000022
 30
0.0
 11
-131.0
 21
80.05958800000028
 31
0.0
  0
LINE
  5
A103
330
A0F1
100
AcDbEntity
  8
AM_0 外形線1
100
AcDbLine
 10
0.0
 20
62.50000000000023
 30
0.0
 11
0.0
 21
-102.4999999999997
 31
0.0
  0
LINE
  5
A104
330
A0F1
100
AcDbEntity
  8
AM_3 隠れ線
100
AcDbLine
 10
0.0
 20
-92.49999999999976
 30
0.0
 11
-36.0
 21
-92.49999999999976
 31
0.0
  0
LINE
  5
A105
330
A0F1
100
AcDbEntity
  8
AM_3 隠れ線
100
AcDbLine
 10
-52.0
 20
-93.74999999999976
 30
0.0
 11
0.0
 21
-93.74999999999976
 31
0.0
  0
LINE
  5
A106
330
A0F1
100
AcDbEntity
  8
AM_3 隠れ線
100
AcDbLine
 10
-52.0
 20
-93.74999999999976
 30
0.0
 11
-52.0
 21
-102.4999999999997
 31
0.0
  0
LINE
  5
A107
330
A0F1
100
AcDbEntity
  8
AM_3 隠れ線
100
AcDbLine
 10
-57.0518149999998
 20
-102.4999999999997
 30
0.0
 11
-52.0
 21
-93.74999999999976
 31
0.0
  0
LINE
  5
A108
330
A0F1
100
AcDbEntity
  8
AM_3 隠れ線
100
AcDbLine
 10
-36.0
 20
-92.49999999999976
 30
0.0
 11
-36.7216870000002
 21
-93.74999999999976
 31
0.0
  0
LINE
  5
A109
330
A0F1
100
AcDbEntity
  8
AM_3 隠れ線
100
AcDbLine
 10
-36.7216870000002
 20
-93.74999999999976
 30
0.0
 11
-36.7216870000002
 21
-102.4999999999997
 31
0.0
  0
LINE
  5
A10A
330
A0F1
100
AcDbEntity
  8
AM_3 隠れ線
100
AcDbLine
 10
-36.0
 20
-102.4999999999997
 30
0.0
 11
-36.0
 21
-92.49999999999976
 31
0.0
  0
LINE
  5
A10B
330
A0F1
100
AcDbEntity
  8
AM_0 外形線1
100
AcDbLine
 10
-67.5
 20
63.50000000000022
 30
0.0
 11
-1.0
 21
63.50000000000022
 31
0.0
  0
LINE
  5
A10C
330
A0F1
100
AcDbEntity
  8
AM_0 外形線1
100
AcDbLine
 10
-68.5
 20
80.64492300000029
 30
0.0
 11
-68.0
 21
80.05958800000028
 31
0.0
  0
LINE
  5
A10D
330
A0F1
100
AcDbEntity
  8
AM_0 外形線1
100
AcDbLine
 10
-68.0
 20
80.05958800000028
 30
0.0
 11
-68.0
 21
64.00000000000023
 31
0.0
  0
ARC
  5
A10E
330
A0F1
100
AcDbEntity
  8
AM_0 外形線1
100
AcDbCircle
 10
-67.5
 20
64.00000000000023
 30
0.0
 40
0.5
100
AcDbArc
 50
180.0
 51
270.0
  0
LINE
  5
A10F
330
A0F1
100
AcDbEntity
  8
AM_0 外形線1
100
AcDbLine
 10
-1.0
 20
63.50000000000022
 30
0.0
 11
0.0
 21
62.50000000000023
 31
0.0
  0
LINE
  5
A110
330
A0F1
100
AcDbEntity
  8
AM_0 外形線1
100
AcDbLine
 10
0.0
 20
0.0
 30
0.0
 11
-236.0
 21
0.0000000000004547
 31
0.0
  0
ARC
  5
A111
330
A0F1
100
AcDbEntity
  8
AM_0 外形線1
100
AcDbCircle
 10
-99.50000000000001
 20
-102.4999999999997
 30
0.0
 40
174.0
100
AcDbArc
 50
79.5699787089503
 51
100.4300212910497
  0
ARC
  5
A112
330
A0F1
100
AcDbEntity
  8
AM_7 中心線
 48
0.5
100
AcDbCircle
 10
-99.50000000000001
 20
-102.4999999999997
 30
0.0
 40
180.0
100
AcDbArc
 50
77.88133304425794
 51
100.9427726604203
  0
ENDBLK
  5
A0F3
330
A0F1
100
AcDbEntity
  8
0
100
AcDbBlockEnd
  0
ENDSEC
  0
SECTION
  2
ENTITIES
  0
LINE
  5
455E
330
1F
100
AcDbEntity
  8
AM_7 中心線
100
AcDbLine
 10
727.453494261529
 20
1311.144792936595
 30
0.0
 11
1593.453494261529
 21
1311.144792936595
 31
0.0
  0
INSERT
  5
4D69
102
{ACAD_REACTORS
330
5A97
330
919E
330
920B
102
}
330
1F
100
AcDbEntity
  8
AM_0 外形線1
100
AcDbBlockReference
  2
ケースＡ-A CAMHY500
 10
1326.453494261529
 20
1311.144792936595
 30
0.0
  0
INSERT
  5
4EF8
102
{ACAD_REACTORS
330
5B31
330
5BD7
102
}
330
1F
100
AcDbEntity
  8
AM_0 外形線1
100
AcDbBlockReference
  2
ケースA-Ｂ CAMHY500
 10
994.4534942615293
 20
1311.144792936595
 30
0.0
  0
INSERT
  5
4FF9
102
{ACAD_REACTORS
330
5946
330
5A55
330
9E9F
330
9F7F
102
}
330
1F
100
AcDbEntity
  8
AM_0 外形線1
100
AcDbBlockReference
  2
センタＡ CAMHY500
 10
1337.453494261529
 20
1311.144792936595
 30
0.0
  0
INSERT
  5
5287
330
1F
100
AcDbEntity
  8
AM_0 外形線1
100
AcDbBlockReference
  2
リーマボルト-A CAMHY500 M20
 10
1301.453494261529
 20
1542.144792936595
 30
0.0
 41
-1.0
  0
INSERT
  5
540F
102
{ACAD_REACTORS
330
5A7F
330
920B
102
}
330
1F
100
AcDbEntity
  8
AM_0 外形線1
100
AcDbBlockReference
  2
ＧＣサイドカバ－A CAMHY500
 10
1478.453494261529
 20
1311.144792936595
 30
0.0
  0
INSERT
  5
5529
102
{ACAD_REACTORS
330
5896
330
5BD7
330
5C35
102
}
330
1F
100
AcDbEntity
  8
AM_0 外形線1
100
AcDbBlockReference
  2
ＧＣサイドカバ－Ｂ CAMHY500
 10
842.4534942615292
 20
1311.144792936595
 30
0.0
  0
DIMENSION
  5
5836
330
1F
100
AcDbEntity
  8
AM_5 寸法線
100
AcDbDimension
  2
*D14
 10
627.4534942615291
 20
1143.644792936595
 30
0.0
 11
607.953494261529
 21
1311.144792936596
 31
0.0
 70
    32
  1
%%c<>
 71
     5
 42
335.0
 73
     0
 74
     0
 75
     0
  3
SEISA$0
100
AcDbAlignedDimension
 13
803.4534942615291
 23
1478.644792936595
 33
0.0
 14
803.4534942615291
 24
1143.644792936595
 34
0.0
 50
90.0
100
AcDbRotatedDimension
1001
ACAD_DSTYLE_DIMINSPECT
1070
   396
1000
100%
1070
   395
1000

1070
   394
1070
    33
1070
   393
1070
     0
  0
DIMENSION
  5
587B
102
{ACAD_XDICTIONARY
360
588A
102
}
102
{ACAD_REACTORS
330
5896
330
9E0D
102
}
330
1F
100
AcDbEntity
  8
AM_5 寸法線
100
AcDbDimension
  2
*D15
 10
846.4534942615291
 20
1441.42911489355
 30
0.0
 11
801.6034942615291
 21
1460.92911489355
 31
0.0
 70
    32
 71
     5
 42
6.0
 73
     0
 74
     0
 75
     0
  3
SEISA$0
100
AcDbAlignedDimension
 13
852.4534942615289
 23
1479.144792936595
 33
0.0
 14
846.4534942615291
 24
1478.644792936595
 34
0.0
100
AcDbRotatedDimension
1001
ACAD
1000
DSTYLE
1002
{
1070
   279
1070
     0
1002
}
  0
DIMENSION
  5
58FB
330
1F
100
AcDbEntity
  8
AM_5 寸法線
100
AcDbDimension
  2
*D16
 10
747.453494261529
 20
1343.490830936595
 30
0.0
 11
865.4534942615292
 21
1362.990830936595
 31
0.0
 70
    32
 71
     5
 42
236.0
 73
     0
 74
     0
 75
     0
  3
SEISA$0
100
AcDbAlignedDimension
 13
983.4534942615292
 23
1311.144792936595
 33
0.0
 14
747.453494261529
 24
1311.144792936595
 34
0.0
100
AcDbRotatedDimension
  0
DIMENSION
  5
592F
102
{ACAD_XDICTIONARY
360
593C
102
}
102
{ACAD_REACTORS
330
5946
102
}
330
1F
100
AcDbEntity
  8
AM_5 寸法線
100
AcDbDimension
  2
*D17
 10
1573.453494261529
 20
1343.490830936595
 30
0.0
 11
1455.453494261529
 21
1362.990830936595
 31
0.0
 70
    32
 71
     5
 42
236.0
 73
     0
 74
     0
 75
     0
  3
SEISA$0
100
AcDbAlignedDimension
 13
1337.453494261529
 23
1311.144792936595
 33
0.0
 14
1573.453494261529
 24
1311.144792936595
 34
0.0
100
AcDbRotatedDimension
  0
DIMENSION
  5
5A3E
102
{ACAD_XDICTIONARY
360
5A4B
102
}
102
{ACAD_REACTORS
330
5A55
102
}
330
1F
100
AcDbEntity
  8
AM_5 寸法線
100
AcDbDimension
  2
*D18
 10
1663.453494261529
 20
1143.644792936595
 30
0.0
 11
1643.953494261529
 21
1311.144792936596
 31
0.0
 70
    32
  1
%%c<>
 71
     5
 42
335.0
 73
     0
 74
     0
 75
     0
  3
SEISA$0
100
AcDbAlignedDimension
 13
1517.453494261529
 23
1478.644792936595
 33
0.0
 14
1517.453494261529
 24
1143.644792936595
 34
0.0
 50
90.0
100
AcDbRotatedDimension
1001
ACAD_DSTYLE_DIMINSPECT
1070
   396
1000
100%
1070
   395
1000

1070
   394
1070
    33
1070
   393
1070
     0
1001
ACAD
1000
DSTYLE
1002
{
1070
   279
1070
     0
1002
}
  0
DIMENSION
  5
5A68
102
{ACAD_XDICTIONARY
360
5A75
102
}
102
{ACAD_REACTORS
330
5A7F
102
}
330
1F
100
AcDbEntity
  8
AM_5 寸法線
100
AcDbDimension
  2
*D19
 10
1711.453494261529
 20
1099.144792936595
 30
0.0
 11
1711.453494261529
 21
1311.144792936596
 31
0.0
 70
   160
  1
%%c<>
 71
     5
 42
424.0
 73
     0
 74
     0
 75
     0
  3
SEISA$0
100
AcDbAlignedDimension
 13
1494.453494261529
 23
1523.144792936595
 33
0.0
 14
1494.453494261526
 24
1099.144792936595
 34
0.0
 50
90.0
100
AcDbRotatedDimension
1001
ACAD_DSTYLE_DIMINSPECT
1070
   396
1000
100%
1070
   395
1000

1070
   394
1070
    33
1070
   393
1070
     0
1001
ACAD
1000
DSTYLE
1002
{
1070
   279
1070
     0
1002
}
  0
DIMENSION
  5
5A80
102
{ACAD_XDICTIONARY
360
5A8D
102
}
102
{ACAD_REACTORS
330
5A97
102
}
330
1F
100
AcDbEntity
  8
AM_5 寸法線
100
AcDbDimension
  2
*D20
 10
1759.45349426153
 20
1061.144792936595
 30
0.0
 11
1759.453494261529
 21
1311.144792936596
 31
0.0
 70
   160
  1
%%c<>
 71
     5
 42
500.0
 73
     0
 74
     0
 75
     0
  3
SEISA$0
100
AcDbAlignedDimension
 13
1350.453494261529
 23
1561.144792936595
 33
0.0
 14
1350.453494261529
 24
1061.144792936595
 34
0.0
 50
90.0
100
AcDbRotatedDimension
1001
ACAD_DSTYLE_DIMINSPECT
1070
   396
1000
100%
1070
   395
1000

1070
   394
1070
    33
1070
   393
1070
     0
1001
ACAD
1000
DSTYLE
1002
{
1070
   279
1070
     0
1002
}
  0
DIMENSION
  5
5B16
102
{ACAD_XDICTIONARY
360
5B25
102
}
102
{ACAD_REACTORS
330
5B31
102
}
330
1F
100
AcDbEntity
  8
AM_5 寸法線
100
AcDbDimension
  2
*D21
 10
969.4534942615293
 20
971.0163116349477
 30
0.0
 11
915.1534942615292
 21
971.0163116349477
 31
0.0
 70
   160
 71
     5
 42
25.0
 73
     0
 74
     0
 75
     0
  3
SEISA$0
100
AcDbAlignedDimension
 13
994.4534942615293
 23
1062.144792936595
 33
0.0
 14
969.4534942615293
 24
1062.144792936595
 34
0.0
100
AcDbRotatedDimension
1001
ACAD_DSTYLE_DIMINSPECT
1070
   396
1000
100%
1070
   395
1000

1070
   394
1070
    33
1070
   393
1070
     0
1001
ACAD
1000
DSTYLE
1002
{
1070
   279
1070
     0
1070
   173
1070
     1
1070
   342
1005
0
1070
   343
1005
3A85
1070
   344
1005
69
1002
}
  0
DIMENSION
  5
5BC0
102
{ACAD_XDICTIONARY
360
5BCD
102
}
102
{ACAD_REACTORS
330
5BD7
102
}
330
1F
100
AcDbEntity
  8
AM_5 寸法線
100
AcDbDimension
  2
*D22
 10
826.453494261529
 20
923.0163116349478
 30
0.0
 11
910.4534942615293
 21
923.0163116349478
 31
0.0
 70
   160
 71
     5
 42
168.0
 73
     0
 74
     0
 75
     0
  3
SEISA$0
100
AcDbAlignedDimension
 13
994.4534942615293
 23
1062.144792936595
 33
0.0
 14
826.453494261529
 24
1099.144792936595
 34
0.0
100
AcDbRotatedDimension
1001
ACAD
1000
DSTYLE
1002
{
1070
   279
1070
     0
1002
}
  0
DIMENSION
  5
5C1E
102
{ACAD_XDICTIONARY
360
5C2B
102
}
102
{ACAD_REACTORS
330
5C35
102
}
330
1F
100
AcDbEntity
  8
AM_5 寸法線
100
AcDbDimension
  2
*D23
 10
747.453494261529
 20
923.0163116349478
 30
0.0
 11
786.953494261529
 21
923.0163116349478
 31
0.0
 70
   160
 71
     5
 42
79.0
 73
     0
 74
     0
 75
     0
  3
SEISA$0
100
AcDbAlignedDimension
 13
826.453494261529
 23
1099.144792936595
 33
0.0
 14
747.453494261529
 24
1150.644792936595
 34
0.0
100
AcDbRotatedDimension
1001
ACAD
1000
DSTYLE
1002
{
1070
   279
1070
     0
1002
}
  0
INSERT
  5
7F6B
102
{ACAD_REACTORS
330
9124
330
9E6C
330
9E9F
102
}
330
1F
100
AcDbEntity
  8
AM_0 外形線1
100
AcDbBlockReference
  2
ＧＣスペーサ CAMHY500
 10
1326.453494261529
 20
1311.144792936595
 30
0.0
  0
INSERT
  5
8149
330
1F
100
AcDbEntity
  8
AM_0 外形線1
100
AcDbBlockReference
  2
リーマボルト-B CAMHY500 M20
 10
1019.453494261529
 20
1542.144792936595
 30
0.0
  0
DIMENSION
  5
9114
102
{ACAD_XDICTIONARY
360
9123
102
}
102
{ACAD_REACTORS
330
9124
102
}
330
1F
100
AcDbEntity
  8
AM_5 寸法線
100
AcDbDimension
  2
*D27
 10
1019.453494261529
 20
971.0163116349471
 30
0.0
 11
1073.753494261529
 21
990.5163116349472
 31
0.0
 70
    32
 71
     5
 42
24.99999999999977
 73
     0
 74
     0
 75
     0
  3
SEISA$0
100
AcDbAlignedDimension
 13
994.4534942615293
 23
1062.144792936596
 33
0.0
 14
1019.453494261529
 24
1062.144792936596
 34
0.0
100
AcDbRotatedDimension
1001
ACAD_DSTYLE_DIMINSPECT
1070
   396
1000
100%
1070
   395
1000

1070
   394
1070
    33
1070
   393
1070
     0
1001
ACAD
1000
DSTYLE
1002
{
1070
   173
1070
     1
1070
   342
1005
0
1070
   343
1005
3A85
1070
   344
1005
69
1002
}
  0
DIMENSION
  5
9151
330
1F
100
AcDbEntity
  8
AM_5 寸法線
100
AcDbDimension
  2
*D28
 10
1301.453494261529
 20
971.0163116349466
 30
0.0
 11
1247.153494261529
 21
990.5163116349466
 31
0.0
 70
    32
 71
     5
 42
24.99999999999956
 73
     0
 74
     0
 75
     0
  3
SEISA$0
100
AcDbAlignedDimension
 13
1326.453494261528
 23
1062.144792936596
 33
0.0
 14
1301.453494261529
 24
1062.144792936596
 34
0.0
100
AcDbRotatedDimension
1001
ACAD_DSTYLE_DIMINSPECT
1070
   396
1000
100%
1070
   395
1000

1070
   394
1070
    33
1070
   393
1070
     0
1001
ACAD
1000
DSTYLE
1002
{
1070
   173
1070
     1
1070
   342
1005
0
1070
   343
1005
3A85
1070
   344
1005
69
1002
}
  0
DIMENSION
  5
918E
102
{ACAD_XDICTIONARY
360
919D
102
}
102
{ACAD_REACTORS
330
919E
102
}
330
1F
100
AcDbEntity
  8
AM_5 寸法線
100
AcDbDimension
  2
*D29
 10
1351.453494261529
 20
971.0163116349459
 30
0.0
 11
1405.753494261529
 21
990.5163116349459
 31
0.0
 70
    32
 71
     5
 42
25.0
 73
     0
 74
     0
 75
     0
  3
SEISA$0
100
AcDbAlignedDimension
 13
1326.453494261529
 23
1062.144792936595
 33
0.0
 14
1351.453494261529
 24
1062.144792936595
 34
0.0
100
AcDbRotatedDimension
1001
ACAD_DSTYLE_DIMINSPECT
1070
   396
1000
100%
1070
   395
1000

1070
   394
1070
    33
1070
   393
1070
     0
1001
ACAD
1000
DSTYLE
1002
{
1070
   173
1070
     1
1070
   342
1005
0
1070
   343
1005
3A85
1070
   344
1005
69
1002
}
  0
DIMENSION
  5
91FD
102
{ACAD_XDICTIONARY
360
920A
102
}
102
{ACAD_REACTORS
330
920B
330
9F7F
102
}
330
1F
100
AcDbEntity
  8
AM_5 寸法線
100
AcDbDimension
  2
*D30
 10
1494.453494261529
 20
923.0163116349467
 30
0.0
 11
1410.453494261529
 21
942.5163116349471
 31
0.0
 70
    32
 71
     5
 42
168.0
 73
     0
 74
     0
 75
     0
  3
SEISA$0
100
AcDbAlignedDimension
 13
1326.453494261529
 23
1062.144792936595
 33
0.0
 14
1494.453494261529
 24
1099.144792936595
 34
0.0
100
AcDbRotatedDimension
1001
ACAD_DSTYLE_DIMINSPECT
1070
   396
1000
100%
1070
   395
1000

1070
   394
1070
    33
1070
   393
1070
     0
  0
LINE
  5
9CDB
330
1F
100
AcDbEntity
  8
AM_7 中心線
 48
0.5
100
AcDbLine
 10
883.9534942615291
 20
1501.894792936595
 30
0.0
 11
883.9534942615291
 21
1480.144792936594
 31
0.0
  0
MTEXT
  5
9DA6
330
1F
100
AcDbEntity
  8
AM_6 文字
100
AcDbMText
 10
1622.766400249779
 20
1014.199335981596
 30
0.0
 40
21.0
 41
419.6926901574479
 46
34.91701995222089
 71
     1
 72
     5
  1
{\W0.6;TYPE:CAM500/CAMH500\PSHAFT DIA:MAX/MIN φ250/φ170}
  7
SEISA
 73
     1
 44
1.0
  0
DIMENSION
  5
9DFF
102
{ACAD_XDICTIONARY
360
9E0C
102
}
102
{ACAD_REACTORS
330
9E0D
102
}
330
1F
100
AcDbEntity
  8
AM_5 寸法線
100
AcDbDimension
  2
*D31
 10
915.4534942615292
 20
1441.429114893551
 30
0.0
 11
883.9534942615291
 21
1460.929114893551
 31
0.0
 70
    32
 71
     5
 42
63.0
 73
     0
 74
     0
 75
     0
  3
SEISA$0
100
AcDbAlignedDimension
 13
852.4534942615289
 23
1479.144792936595
 33
0.0
 14
915.4534942615292
 24
1479.144792936595
 34
0.0
 50
0.0000000000001132
100
AcDbRotatedDimension
1001
ACAD_DSTYLE_DIMINSPECT
1070
   396
1000
100%
1070
   395
1000

1070
   394
1070
    33
1070
   393
1070
     0
  0
DIMENSION
  5
9E29
330
1F
100
AcDbEntity
  8
AM_5 寸法線
100
AcDbDimension
  2
*D32
 10
983.4534942615292
 20
1441.429114893551
 30
0.0
 11
949.4534942615292
 21
1460.929114893551
 31
0.0
 70
    32
 71
     5
 42
68.0
 73
     0
 74
     0
 75
     0
  3
SEISA$0
100
AcDbAlignedDimension
 13
915.4534942615292
 23
1477.644792936595
 33
0.0
 14
983.4534942615292
 24
1476.144792936595
 34
0.0
 50
0.0000000000001132
100
AcDbRotatedDimension
1001
ACAD_DSTYLE_DIMINSPECT
1070
   396
1000
100%
1070
   395
1000

1070
   394
1070
    33
1070
   393
1070
     0
  0
DIMENSION
  5
9E5C
102
{ACAD_XDICTIONARY
360
9E6B
102
}
102
{ACAD_REACTORS
330
9E6C
102
}
330
1F
100
AcDbEntity
  8
AM_5 寸法線
100
AcDbDimension
  2
*D33
 10
983.4534942615292
 20
1373.302438331829
 30
0.0
 11
933.2034942615292
 21
1392.802438331829
 31
0.0
 70
    32
 71
     5
 42
11.0
 73
     0
 74
     0
 75
     0
  3
SEISA$0
100
AcDbAlignedDimension
 13
994.4534942615293
 23
1512.144792936597
 33
0.0
 14
983.4534942615292
 24
1476.144792936595
 34
0.0
 50
0.0000000000001132
100
AcDbRotatedDimension
1001
ACAD_DSTYLE_DIMINSPECT
1070
   396
1000
100%
1070
   395
1000

1070
   394
1070
    33
1070
   393
1070
     0
  0
DIMENSION
  5
9E8F
102
{ACAD_XDICTIONARY
360
9E9E
102
}
102
{ACAD_REACTORS
330
9E9F
102
}
330
1F
100
AcDbEntity
  8
AM_5 寸法線
100
AcDbDimension
  2
*D34
 10
1337.453494261529
 20
1373.302438331829
 30
0.0
 11
1387.703494261529
 21
1392.802438331829
 31
0.0
 70
    32
 71
     5
 42
11.0
 73
     0
 74
     0
 75
     0
  3
SEISA$0
100
AcDbAlignedDimension
 13
1326.453494261529
 23
1512.144792936597
 33
0.0
 14
1337.453494261529
 24
1476.144792936595
 34
0.0
 50
0.0000000000001132
100
AcDbRotatedDimension
1001
ACAD_DSTYLE_DIMINSPECT
1070
   396
1000
100%
1070
   395
1000

1070
   394
1070
    33
1070
   393
1070
     0
  0
DIMENSION
  5
9F71
102
{ACAD_XDICTIONARY
360
9F7E
102
}
102
{ACAD_REACTORS
330
9F7F
102
}
330
1F
100
AcDbEntity
  8
AM_5 寸法線
100
AcDbDimension
  2
*D35
 10
1573.453494261529
 20
923.0163116349487
 30
0.0
 11
1533.953494261529
 21
942.5163116349487
 31
0.0
 70
    32
 71
     5
 42
79.0
 73
     0
 74
     0
 75
     0
  3
SEISA$0
100
AcDbAlignedDimension
 13
1494.453494261529
 23
1099.144792936595
 33
0.0
 14
1573.453494261529
 24
1150.644792936595
 34
0.0
 50
0.0000000000001132
100
AcDbRotatedDimension
1001
ACAD_DSTYLE_DIMINSPECT
1070
   396
1000
100%
1070
   395
1000

1070
   394
1070
    33
1070
   393
1070
     0
  0
INSERT
  5
A11C
330
1F
100
AcDbEntity
  8
AM_0 外形線1
100
AcDbBlockReference
  2
センタB CAMHY500
 10
983.4534942615292
 20
1413.644792936595
 30
0.0
  0
ENDSEC
  0
SECTION
  2
OBJECTS
  0
DICTIONARY
  5
C
330
0
100
AcDbDictionary
281
     1
  3
ACAD_COLOR
350
C5
  3
ACAD_GROUP
350
D
  3
ACAD_LAYOUT
350
1A
  3
ACAD_MATERIAL
350
C4
  3
ACAD_MLEADERSTYLE
350
2D5
  3
ACAD_MLINESTYLE
350
17
  3
ACAD_PLOTSETTINGS
350
19
  3
ACAD_PLOTSTYLENAME
350
E
  3
ACAD_SCALELIST
350
2B3
  3
ACAD_TABLESTYLE
350
121
  3
ACAD_VISUALSTYLE
350
27F
  3
ACDB_RECOMPOSE_DATA
350
2F7
  3
AcDbVariableDictionary
350
34
  3
AcmDictionary
350
49
  3
AMG
350
2B
  3
AMGSNAPSETTINGS
350
1DE
  0
DICTIONARY
  5
BF
330
2
100
AcDbDictionary
280
     1
281
     1
  3
ACAD_LAYERSTATES
360
3B58
  3
AMLAYER_GROUPCOLORS
360
C0
  0
DICTIONARY
  5
29F7
330
10
100
AcDbDictionary
280
     1
281
     1
  3
ADSK_XREC_LAYER_RECONCILED
360
29F8
  0
DICTIONARY
  5
29F9
330
81
100
AcDbDictionary
280
     1
281
     1
  3
ADSK_XREC_LAYER_RECONCILED
360
29FA
  0
DICTIONARY
  5
82
330
1F
100
AcDbDictionary
280
     1
281
     1
  3
ACAD_SORTENTS
360
A41
  0
DICTIONARY
  5
380D
330
380C
100
AcDbDictionary
280
     1
281
     1
  3
ACAD_SORTENTS
360
7318
  0
DICTIONARY
  5
4DF4
330
4D27
100
AcDbDictionary
280
     1
281
     1
  3
ACAD_SORTENTS
360
8D45
  0
DICTIONARY
  5
4F73
330
4EC2
100
AcDbDictionary
280
     1
281
     1
  3
ACAD_SORTENTS
360
8362
  0
DICTIONARY
  5
5049
330
4FD2
100
AcDbDictionary
280
     1
281
     1
  3
ACAD_SORTENTS
360
A0F0
  0
DICTIONARY
  5
52E8
330
525A
100
AcDbDictionary
280
     1
281
     1
  3
ACAD_SORTENTS
360
81E1
  0
DICTIONARY
  5
5480
330
53DA
100
AcDbDictionary
280
     1
281
     1
  3
ACAD_SORTENTS
360
8966
  0
DICTIONARY
  5
559C
330
54F7
100
AcDbDictionary
280
     1
281
     1
  3
ACAD_SORTENTS
360
8C47
  0
DICTIONARY
  5
734F
330
72FB
100
AcDbDictionary
280
     1
281
     1
  3
ACAD_SORTENTS
360
7350
  0
DICTIONARY
  5
869A
330
7F1D
100
AcDbDictionary
280
     1
281
     1
  3
ACAD_SORTENTS
360
A205
  0
DICTIONARY
  5
A15F
330
A0F1
100
AcDbDictionary
280
     1
281
     1
  3
ACAD_SORTENTS
360
A160
  0
DICTIONARY
  5
588A
330
587B
100
AcDbDictionary
280
     1
281
     1
  3
ACAD_DIMASSOC
360
5896
  0
DICTIONARY
  5
593C
330
592F
100
AcDbDictionary
280
     1
281
     1
  3
ACAD_DIMASSOC
360
5946
  0
DICTIONARY
  5
5A4B
330
5A3E
100
AcDbDictionary
280
     1
281
     1
  3
ACAD_DIMASSOC
360
5A55
  0
DICTIONARY
  5
5A75
330
5A68
100
AcDbDictionary
280
     1
281
     1
  3
ACAD_DIMASSOC
360
5A7F
  0
DICTIONARY
  5
5A8D
330
5A80
100
AcDbDictionary
280
     1
281
     1
  3
ACAD_DIMASSOC
360
5A97
  0
DICTIONARY
  5
5B25
330
5B16
100
AcDbDictionary
280
     1
281
     1
  3
ACAD_DIMASSOC
360
5B31
  0
DICTIONARY
  5
5BCD
330
5BC0
100
AcDbDictionary
280
     1
281
     1
  3
ACAD_DIMASSOC
360
5BD7
  0
DICTIONARY
  5
5C2B
330
5C1E
100
AcDbDictionary
280
     1
281
     1
  3
ACAD_DIMASSOC
360
5C35
  0
DICTIONARY
  5
9123
330
9114
100
AcDbDictionary
280
     1
281
     1
  3
ACAD_DIMASSOC
360
9124
  0
DICTIONARY
  5
919D
330
918E
100
AcDbDictionary
280
     1
281
     1
  3
ACAD_DIMASSOC
360
919E
  0
DICTIONARY
  5
920A
330
91FD
100
AcDbDictionary
280
     1
281
     1
  3
ACAD_DIMASSOC
360
920B
  0
DICTIONARY
  5
9E0C
330
9DFF
100
AcDbDictionary
280
     1
281
     1
  3
ACAD_DIMASSOC
360
9E0D
  0
DICTIONARY
  5
9E6B
330
9E5C
100
AcDbDictionary
280
     1
281
     1
  3
ACAD_DIMASSOC
360
9E6C
  0
DICTIONARY
  5
9E9E
330
9E8F
100
AcDbDictionary
280
     1
281
     1
  3
ACAD_DIMASSOC
360
9E9F
  0
DICTIONARY
  5
9F7E
330
9F71
100
AcDbDictionary
280
     1
281
     1
  3
ACAD_DIMASSOC
360
9F7F
  0
DICTIONARY
  5
C5
102
{ACAD_REACTORS
330
C
102
}
330
C
100
AcDbDictionary
281
     1
  0
DICTIONARY
  5
D
102
{ACAD_REACTORS
330
C
102
}
330
C
100
AcDbDictionary
281
     1
  0
DICTIONARY
  5
1A
102
{ACAD_REACTORS
330
C
102
}
330
C
100
AcDbDictionary
281
     1
  3
Model
350
22
  3
レイアウト1
350
1E
  3
レイアウト2
350
26
  0
DICTIONARY
  5
C4
102
{ACAD_REACTORS
330
C
102
}
330
C
100
AcDbDictionary
281
     1
  3
ByBlock
350
27D
  3
ByLayer
350
27C
  3
Global
350
27E
  0
DICTIONARY
  5
2D5
102
{ACAD_REACTORS
330
C
102
}
330
C
100
AcDbDictionary
281
     1
  3
Standard
350
2D6
  0
DICTIONARY
  5
17
102
{ACAD_REACTORS
330
C
102
}
330
C
100
AcDbDictionary
281
     1
  3
Standard
350
18
  0
DICTIONARY
  5
19
102
{ACAD_REACTORS
330
C
102
}
330
C
100
AcDbDictionary
281
     1
  3
SEISA基本
350
1C7E
  0
ACDBDICTIONARYWDFLT
  5
E
102
{ACAD_REACTORS
330
C
102
}
330
C
100
AcDbDictionary
281
     1
  3
Normal
350
F
100
AcDbDictionaryWithDefault
340
F
  0
DICTIONARY
  5
2B3
102
{ACAD_REACTORS
330
C
102
}
330
C
100
AcDbDictionary
281
     1
  3
*A1
350
2A1F
  3
*A2
350
9D48
  3
*A3
350
9D49
  3
*A4
350
9D9D
  3
A0
350
2B4
  3
A1
350
2B5
  3
A2
350
2B6
  3
A3
350
2B7
  3
A4
350
2B8
  3
A5
350
2B9
  3
A6
350
2BA
  3
A7
350
2BB
  3
A8
350
2BC
  3
A9
350
2BD
  3
B0
350
2BE
  3
B1
350
2BF
  3
B2
350
2C0
  3
B3
350
2C1
  3
B4
350
2C2
  3
B5
350
2C3
  3
B6
350
2C4
  3
B7
350
2C5
  3
B8
350
2C6
  3
B9
350
2C7
  3
C0
350
2C8
  3
C1
350
2C9
  3
C2
350
2CA
  3
C3
350
2CB
  3
C4
350
2CC
  3
C5
350
2CD
  3
C6
350
2CE
  3
C7
350
2CF
  3
C8
350
2D0
  3
C9
350
2D1
  3
D0
350
2D2
  3
D1
350
2D3
  3
D2
350
2D4
  0
DICTIONARY
  5
121
102
{ACAD_REACTORS
330
C
102
}
330
C
100
AcDbDictionary
281
     1
  3
Standard
350
122
  0
DICTIONARY
  5
27F
102
{ACAD_REACTORS
330
C
102
}
330
C
100
AcDbDictionary
281
     1
  3
2dWireframe
350
285
  3
3D Hidden
350
287
  3
3dWireframe
350
286
  3
Basic
350
284
  3
Brighten
350
28B
  3
ColorChange
350
28F
  3
Conceptual
350
288
  3
Dim
350
28A
  3
Facepattern
350
28E
  3
Flat
350
280
  3
FlatWithEdges
350
281
  3
Gouraud
350
282
  3
GouraudWithEdges
350
283
  3
Linepattern
350
28D
  3
Realistic
350
289
  3
Thicken
350
28C
  0
XRECORD
  5
2F7
102
{ACAD_REACTORS
330
C
102
}
330
C
100
AcDbXrecord
280
     1
 90
        1
330
122
  0
DICTIONARY
  5
34
102
{ACAD_REACTORS
330
C
102
}
330
C
100
AcDbDictionary
281
     1
  3
CANNOSCALE
350
2FA
  3
CMLEADERSTYLE
350
2F8
  3
CTABLESTYLE
350
140
  3
DIMASSOC
350
AC
  3
INDEXCTL
350
35
  3
LAYEREVAL
350
7168
  3
LAYERNOTIFY
350
7169
  3
LIGHTINGUNITS
350
2FB
  3
MSLTSCALE
350
2F9
  0
DICTIONARY
  5
49
102
{ACAD_REACTORS
330
C
102
}
330
C
100
AcDbDictionary
281
     1
  3
AcmBOM
350
161B
  3
AcmStdDictionary
350
4A
  3
AMDTSECTSYM_ARROWCOLOR
350
12B
  0
DICTIONARY
  5
2B
102
{ACAD_REACTORS
330
C
102
}
330
C
100
AcDbDictionary
281
     1
  0
DICTIONARY
  5
1DE
102
{ACAD_REACTORS
330
C
102
}
330
C
100
AcDbDictionary
281
     1
  0
DICTIONARY
  5
3B58
102
{ACAD_REACTORS
330
BF
102
}
330
BF
100
AcDbDictionary
281
     1
  0
DICTIONARY
  5
C0
102
{ACAD_REACTORS
330
BF
102
}
330
BF
100
AcDbDictionary
280
     1
281
     1
  0
XRECORD
  5
29F8
102
{ACAD_REACTORS
330
29F7
102
}
330
29F7
100
AcDbXrecord
280
     1
290
     1
  0
XRECORD
  5
29FA
102
{ACAD_REACTORS
330
29F9
102
}
330
29F9
100
AcDbXrecord
280
     1
290
     1
  0
SORTENTSTABLE
  5
A41
102
{ACAD_REACTORS
330
82
102
}
330
82
100
AcDbSortentsTable
330
1F
331
5C1E
  5
6B19
331
592F
  5
6348
331
5836
  5
62A7
331
4D69
  5
56CE
331
5BC0
  5
6B18
331
5529
  5
60E9
331
91FD
  5
9CC1
331
9151
  5
9574
331
5B16
  5
64F9
331
4EF8
  5
5713
331
5A3E
  5
635B
331
455E
  5
455E
331
9DA6
  5
9DA6
331
8149
  5
956E
331
7F6B
  5
956D
331
5287
  5
601A
331
9114
  5
9573
331
58FB
  5
6345
331
587B
  5
62C2
331
9CDB
  5
5C56
331
5A80
  5
63A0
331
4FF9
  5
5744
331
5A68
  5
635C
331
540F
  5
6041
331
918E
  5
95BC
  0
SORTENTSTABLE
  5
7318
102
{ACAD_REACTORS
330
380D
102
}
330
380D
100
AcDbSortentsTable
330
380C
  0
SORTENTSTABLE
  5
8D45
102
{ACAD_REACTORS
330
4DF4
102
}
330
4DF4
100
AcDbSortentsTable
330
4D27
  0
SORTENTSTABLE
  5
8362
102
{ACAD_REACTORS
330
4F73
102
}
330
4F73
100
AcDbSortentsTable
330
4EC2
331
4EE0
  5
4EE9
331
4EC6
  5
4ED0
331
4ED5
  5
4EDE
331
4EF7
  5
804D
331
4EE4
  5
4EEF
331
4ED9
  5
4EE2
331
4EE8
  5
4EF4
331
4EDD
  5
4EE6
331
4EC8
  5
4ED2
331
4ECC
  5
4ED6
331
804B
  5
4EC9
331
4ED0
  5
4ED9
331
4F72
  5
804F
331
804F
  5
4ECE
331
4EC5
  5
4ECF
331
4ED4
  5
4EDD
331
4EF6
  5
804C
331
4EE3
  5
4EEE
331
4ED8
  5
4EE1
331
4EE7
  5
4EF3
331
4EDC
  5
4EE5
331
4EEF
  5
4F72
331
4ECB
  5
4ED5
331
4ECF
  5
4ED8
331
804A
  5
4EC8
331
4EF1
  5
8048
331
4F6F
  5
804E
331
4ED3
  5
4EDC
331
804E
  5
4ECC
331
4EF5
  5
804B
331
4EE2
  5
4EED
331
4ED7
  5
4EE0
331
8047
  5
4EC5
331
4EE6
  5
4EF1
331
4EDB
  5
4EE4
331
4EEA
  5
4EF6
331
4EDF
  5
4EE8
331
4EEE
  5
4F6F
331
4ECA
  5
4ED4
331
4EF0
  5
8047
331
4ECE
  5
4ED7
331
8049
  5
4EC7
331
804D
  5
4ECB
331
4ED2
  5
4EDB
331
4EF4
  5
804A
331
4EE1
  5
4EEA
331
4EC7
  5
4ED1
331
4ED6
  5
4EDF
331
4EE5
  5
4EF0
331
4EDA
  5
4EE3
331
4EE9
  5
4EF5
331
4EDE
  5
4EE7
331
4EED
  5
4EF7
331
4EC9
  5
4ED3
331
8048
  5
4EC6
331
804C
  5
4ECA
331
4ED1
  5
4EDA
331
4EF3
  5
8049
  0
SORTENTSTABLE
  5
A0F0
102
{ACAD_REACTORS
330
5049
102
}
330
5049
100
AcDbSortentsTable
330
4FD2
331
4FE2
  5
4FE4
331
4FD5
  5
4FD7
331
4FEA
  5
4FEC
331
4FF5
  5
9F06
331
4FDE
  5
4FE0
331
9F05
  5
4FD5
331
4FE1
  5
4FE3
331
4FE9
  5
4FEB
331
4FF4
  5
9F05
331
4FDD
  5
4FDF
331
4FE0
  5
4FE2
331
4FDC
  5
4FDE
331
4FF3
  5
4FF5
331
4FE7
  5
4FEA
331
4FF2
  5
4FF4
331
4FEF
  5
4FF1
331
4FDB
  5
4FDD
331
4FF1
  5
4FF3
331
4FEE
  5
4FF0
331
4FDA
  5
4FDC
331
4FE5
  5
4FE9
331
4FF0
  5
4FF2
331
4FED
  5
4FEF
331
4FD9
  5
4FDB
331
4FE4
  5
4FE7
331
4FD7
  5
4FD9
331
4FEC
  5
4FEE
331
4FD8
  5
4FDA
331
4FD6
  5
4FD8
331
4FE3
  5
4FE5
331
4FEB
  5
4FED
331
4FDF
  5
4FE1
331
9F06
  5
4FD6
  0
SORTENTSTABLE
  5
81E1
102
{ACAD_REACTORS
330
52E8
102
}
330
52E8
100
AcDbSortentsTable
330
525A
  0
SORTENTSTABLE
  5
8966
102
{ACAD_REACTORS
330
5480
102
}
330
5480
100
AcDbSortentsTable
330
53DA
331
540D
  5
540E
331
53E6
  5
53E7
331
540C
  5
540D
331
53E5
  5
53E6
331
53FF
  5
5400
331
540B
  5
540C
331
53E4
  5
53E5
331
53FE
  5
53FF
331
540A
  5
540B
331
53E3
  5
53E4
331
53FD
  5
53FE
331
5409
  5
540A
331
53E2
  5
53E3
331
53FC
  5
53FD
331
5408
  5
5409
331
53E1
  5
53E2
331
53FB
  5
53FC
331
53E0
  5
53E1
331
544E
  5
547F
331
53FA
  5
53FB
331
544D
  5
547E
331
53F9
  5
53FA
331
544C
  5
544E
331
53F8
  5
53F9
331
544B
  5
53DD
331
53F7
  5
53F8
331
53F6
  5
53F7
331
53F5
  5
53F6
331
53F4
  5
53F5
331
5407
  5
5408
331
53F3
  5
53F4
331
53F2
  5
53F3
331
5405
  5
5407
331
53F1
  5
53F2
331
53DF
  5
53E0
331
53DE
  5
53DF
331
53F0
  5
53F1
331
5403
  5
5405
331
53EF
  5
53F0
331
53DD
  5
53DE
331
5402
  5
5403
331
53EE
  5
53EF
331
5401
  5
5402
331
53ED
  5
53EE
331
5400
  5
5401
331
53EB
  5
53ED
331
53EA
  5
53EB
331
53E9
  5
53EA
331
547F
  5
544D
331
53E8
  5
53E9
331
547E
  5
544C
331
540E
  5
544B
331
53E7
  5
53E8
  0
SORTENTSTABLE
  5
8C47
102
{ACAD_REACTORS
330
559C
102
}
330
559C
100
AcDbSortentsTable
330
54F7
331
5510
  5
5511
331
5522
  5
5523
331
5519
  5
551A
331
5596
  5
5597
331
5598
  5
5599
331
5527
  5
5528
331
551E
  5
551F
331
5515
  5
5516
331
550C
  5
550D
331
5597
  5
5598
331
5523
  5
5524
331
551A
  5
551B
331
5511
  5
5512
331
550D
  5
550E
331
551F
  5
5520
331
5516
  5
5517
331
5599
  5
559A
331
5512
  5
5513
331
5524
  5
5525
331
551B
  5
551C
331
550E
  5
550F
331
559A
  5
550B
331
5520
  5
5521
331
5517
  5
5518
331
5594
  5
5595
331
5525
  5
5526
331
551C
  5
551D
331
5513
  5
5515
331
5595
  5
5596
331
5521
  5
5522
331
5518
  5
5519
331
550F
  5
5510
331
550B
  5
550C
331
5528
  5
5594
331
5526
  5
5527
331
551D
  5
551E
  0
SORTENTSTABLE
  5
7350
102
{ACAD_REACTORS
330
734F
102
}
330
734F
100
AcDbSortentsTable
330
72FB
  0
SORTENTSTABLE
  5
A205
102
{ACAD_REACTORS
330
869A
102
}
330
869A
100
AcDbSortentsTable
330
7F1D
331
7F45
  5
7F48
331
7F48
  5
7F4B
331
7F4B
  5
7F4E
331
7F4E
  5
7F51
331
7F51
  5
7F54
331
7F54
  5
7F57
331
7F59
  5
7F5C
331
7F57
  5
7F5A
331
7F5C
  5
7F5F
331
7F5F
  5
99FF
331
7F24
  5
7F25
331
9A01
  5
7F28
331
99FE
  5
9A01
331
7F27
  5
7F29
331
7F2A
  5
7F2C
331
7F2D
  5
7F2F
331
7F30
  5
7F33
331
7F33
  5
7F36
331
7F36
  5
7F39
331
7F38
  5
7F3B
331
7F3B
  5
7F3E
331
7F3E
  5
7F41
331
7F41
  5
7F44
331
7F44
  5
7F47
331
7F47
  5
7F4A
331
7F4A
  5
7F4D
331
7F4D
  5
7F50
331
7F50
  5
7F53
331
7F53
  5
7F56
331
7F56
  5
7F59
331
7F58
  5
7F5B
331
7F5B
  5
7F5E
331
7F5E
  5
99FE
331
7F23
  5
7F24
331
7F26
  5
7F27
331
9A00
  5
7F30
331
7F29
  5
7F2B
331
7F2C
  5
7F2E
331
7F2F
  5
7F32
331
7F32
  5
7F35
331
7F35
  5
7F38
331
7F3A
  5
7F3D
331
7F3D
  5
7F40
331
7F40
  5
7F43
331
7F43
  5
7F46
331
7F46
  5
7F49
331
7F49
  5
7F4C
331
7F4C
  5
7F4F
331
7F4F
  5
7F52
331
7F52
  5
7F55
331
7F55
  5
7F58
331
7F5A
  5
7F5D
331
7F5D
  5
7F60
331
7F60
  5
9A00
331
7F25
  5
7F26
331
7F28
  5
7F2A
331
99FF
  5
9A02
331
9A02
  5
7F23
331
7F2B
  5
7F2D
331
7F2E
  5
7F31
331
7F31
  5
7F34
331
7F34
  5
7F37
331
7F37
  5
7F3A
331
7F39
  5
7F3C
331
7F3C
  5
7F3F
331
7F3F
  5
7F42
331
7F42
  5
7F45
  0
SORTENTSTABLE
  5
A160
102
{ACAD_REACTORS
330
A15F
102
}
330
A15F
100
AcDbSortentsTable
330
A0F1
  0
DIMASSOC
  5
5896
102
{ACAD_REACTORS
330
588A
102
}
330
588A
100
AcDbDimAssoc
330
587B
 90
        2
 70
     0
 71
     0
  1
AcDbOsnapPointRef
 72
     1
331
5529
331
5509
 73
     2
 91
        0
 40
1.0
 10
0.0
 20
0.0
 30
2.000000000000000E+50
 75
     0
  0
DIMASSOC
  5
5946
102
{ACAD_REACTORS
330
593C
102
}
330
593C
100
AcDbDimAssoc
330
592F
 90
        3
 70
     0
 71
     0
  1
AcDbOsnapPointRef
 72
     1
331
4FF9
331
4FD7
 73
     2
 91
        0
 40
1.0
 10
0.0
 20
0.0
 30
2.000000000000000E+50
 75
     0
  1
AcDbOsnapPointRef
 72
     2
331
4FF9
331
4FF2
 73
     2
 91
        0
 40
0.5
 10
0.0
 20
0.0
 30
0.0
 75
     0
  0
DIMASSOC
  5
5A55
102
{ACAD_REACTORS
330
5A4B
102
}
330
5A4B
100
AcDbDimAssoc
330
5A3E
 90
        3
 70
     0
 71
     0
  1
AcDbOsnapPointRef
 72
    13
331
4FF9
331
4FED
 73
     2
 91
        0
 40
0.0
 10
0.0
 20
0.0
 30
2.000000000000000E+50
 75
     0
  1
AcDbOsnapPointRef
 72
    13
331
4FF9
331
4FDD
 73
     2
 91
        0
 40
0.0
 10
0.0
 20
0.0
 30
2.000000000000000E+50
 75
     0
  0
DIMASSOC
  5
5A7F
102
{ACAD_REACTORS
330
5A75
102
}
330
5A75
100
AcDbDimAssoc
330
5A68
 90
        3
 70
     0
 71
     0
  1
AcDbOsnapPointRef
 72
    13
331
540F
331
5402
 73
     2
 91
        0
 40
0.0
 10
0.0
 20
0.0
 30
2.000000000000000E+50
 75
     0
  1
AcDbOsnapPointRef
 72
     8
331
540F
331
53DF
 73
     2
 91
        0
 40
0.999999999999815
 10
0.0
 20
0.0
 30
0.0
 75
     1
  1
AcDbOsnapPointRef
 72
    13
331
540F
331
5402
 73
     2
 91
        0
 40
0.0
 10
0.0
 20
0.0
 30
2.000000000000000E+50
 75
     0
  0
DIMASSOC
  5
5A97
102
{ACAD_REACTORS
330
5A8D
102
}
330
5A8D
100
AcDbDimAssoc
330
5A80
 90
        3
 70
     0
 71
     0
  1
AcDbOsnapPointRef
 72
     1
331
4D69
331
4D5F
 73
     2
 91
        0
 40
1.0
 10
0.0
 20
0.0
 30
2.000000000000000E+50
 75
     0
  1
AcDbOsnapPointRef
 72
     1
331
4D69
331
4D62
 73
     2
 91
        0
 40
1.0
 10
0.0
 20
0.0
 30
2.000000000000000E+50
 75
     0
  0
DIMASSOC
  5
5B31
102
{ACAD_REACTORS
330
5B25
102
}
330
5B25
100
AcDbDimAssoc
330
5B16
 90
        3
 70
     0
 71
     0
  1
AcDbOsnapPointRef
 72
    13
331
4EF8
331
4EF5
 73
     2
 91
        0
 40
0.0
 10
0.0
 20
0.0
 30
2.000000000000000E+50
 75
     0
  1
AcDbOsnapPointRef
 72
    13
331
4EF8
331
4EC5
 73
     2
 91
        0
 40
0.0
 10
0.0
 20
0.0
 30
2.000000000000000E+50
 75
     0
  0
DIMASSOC
  5
5BD7
102
{ACAD_REACTORS
330
5BCD
102
}
330
5BCD
100
AcDbDimAssoc
330
5BC0
 90
        3
 70
     0
 71
     0
  1
AcDbOsnapPointRef
 72
    13
331
4EF8
331
4EF5
 73
     2
 91
        0
 40
0.0
 10
0.0
 20
0.0
 30
2.000000000000000E+50
 75
     0
  1
AcDbOsnapPointRef
 72
    13
331
5529
331
54FC
 73
     2
 91
        0
 40
0.0
 10
0.0
 20
0.0
 30
2.000000000000000E+50
 75
     0
  0
DIMASSOC
  5
5C35
102
{ACAD_REACTORS
330
5C2B
102
}
330
5C2B
100
AcDbDimAssoc
330
5C1E
 90
        1
 70
     0
 71
     0
  1
AcDbOsnapPointRef
 72
    13
331
5529
331
54FC
 73
     2
 91
        0
 40
0.0
 10
0.0
 20
0.0
 30
2.000000000000000E+50
 75
     0
  0
DIMASSOC
  5
9124
102
{ACAD_REACTORS
330
9123
102
}
330
9123
100
AcDbDimAssoc
330
9114
 90
        3
 70
     0
 71
     0
  1
AcDbOsnapPointRef
 72
    13
331
7F6B
331
7F41
 73
     0
 91
        0
 40
0.0
 10
0.0
 20
0.0
 30
2.000000000000000E+50
 75
     0
  1
AcDbOsnapPointRef
 72
     1
331
7F6B
331
7F4C
 73
     0
 91
        0
 40
0.0
 10
0.0
 20
0.0
 30
2.000000000000000E+50
 75
     0
  0
DIMASSOC
  5
919E
102
{ACAD_REACTORS
330
919D
102
}
330
919D
100
AcDbDimAssoc
330
918E
 90
        3
 70
     0
 71
     0
  1
AcDbOsnapPointRef
 72
     1
331
4D69
331
4D2B
 73
     0
 91
        0
 40
0.0
 10
0.0
 20
0.0
 30
2.000000000000000E+50
 75
     0
  1
AcDbOsnapPointRef
 72
    13
331
4D69
331
4D2A
 73
     0
 91
        0
 40
0.0
 10
0.0
 20
0.0
 30
2.000000000000000E+50
 75
     0
  0
DIMASSOC
  5
920B
102
{ACAD_REACTORS
330
920A
102
}
330
920A
100
AcDbDimAssoc
330
91FD
 90
        3
 70
     0
 71
     0
  1
AcDbOsnapPointRef
 72
     1
331
4D69
331
4D2B
 73
     0
 91
        0
 40
0.0
 10
0.0
 20
0.0
 30
2.000000000000000E+50
 75
     0
  1
AcDbOsnapPointRef
 72
     1
331
540F
331
53DF
 73
     0
 91
        0
 40
0.0
 10
0.0
 20
0.0
 30
2.000000000000000E+50
 75
     0
  0
DIMASSOC
  5
9E0D
102
{ACAD_REACTORS
330
9E0C
102
}
330
9E0C
100
AcDbDimAssoc
330
9DFF
 90
        1
 70
     0
 71
     0
  1
AcDbOsnapPointRef
 72
     4
331
587B
331
9617
 73
     0
 91
        0
 40
0.0
 10
0.0
 20
0.0
 30
0.0
 75
     0
  0
DIMASSOC
  5
9E6C
102
{ACAD_REACTORS
330
9E6B
102
}
330
9E6B
100
AcDbDimAssoc
330
9E5C
 90
        1
 70
     0
 71
     0
  1
AcDbOsnapPointRef
 72
     1
331
7F6B
331
7F46
 73
     0
 91
        0
 40
0.0
 10
0.0
 20
0.0
 30
2.000000000000000E+50
 75
     0
  0
DIMASSOC
  5
9E9F
102
{ACAD_REACTORS
330
9E9E
102
}
330
9E9E
100
AcDbDimAssoc
330
9E8F
 90
        3
 70
     0
 71
     0
  1
AcDbOsnapPointRef
 72
     1
331
7F6B
331
7F28
 73
     0
 91
        0
 40
0.0
 10
0.0
 20
0.0
 30
2.000000000000000E+50
 75
     0
  1
AcDbOsnapPointRef
 72
    13
331
4FF9
331
4FE4
 73
     0
 91
        0
 40
0.0
 10
0.0
 20
0.0
 30
2.000000000000000E+50
 75
     0
  0
DIMASSOC
  5
9F7F
102
{ACAD_REACTORS
330
9F7E
102
}
330
9F7E
100
AcDbDimAssoc
330
9F71
 90
        3
 70
     0
 71
     0
  1
AcDbOsnapPointRef
 72
     4
331
91FD
331
972D
 73
     0
 91
        0
 40
0.0
 10
0.0
 20
0.0
 30
0.0
 75
     0
  1
AcDbOsnapPointRef
 72
    13
331
4FF9
331
4FF2
 73
     0
 91
        0
 40
0.0
 10
0.0
 20
0.0
 30
2.000000000000000E+50
 75
     0
  0
LAYOUT
  5
22
102
{ACAD_REACTORS
330
1A
102
}
330
1A
100
AcDbPlotSettings
  1

  2
KONICA MINOLTA 501 PCL
  4
A4
  6

 40
5.027082920074462
 41
5.027085781097412
 42
5.027069091796875
 43
5.027069091796875
 44
209.9733276367186
 45
296.9259948730469
 46
27.11336995802255
 47
0.0
 48
0.0
 49
0.0
140
0.0
141
0.0
142
1.0
143
4.409228251158223
 70
 11956
 72
     1
 73
     1
 74
     1
  7
SEISA.ctb
 75
     0
147
0.2267970590402795
 76
     0
 77
     2
 78
   300
148
-597.2772293909437
149
-918.8709485971504
100
AcDbLayout
  1
Model
 70
     1
 71
     0
 10
0.0
 20
0.0
 11
12.0
 21
9.0
 12
0.0
 22
0.0
 32
0.0
 14
0.0
 24
0.0
 34
0.0
 15
0.0
 25
0.0
 35
0.0
146
0.0
 13
0.0
 23
0.0
 33
0.0
 16
1.0
 26
0.0
 36
0.0
 17
0.0
 27
1.0
 37
0.0
 76
     0
330
1F
331
27A
1001
ACAD_PSEXT
1000
KONICA MINOLTA 501 PCL
1000
KONICA MINOLTA 501/421/361PCL
1000
IP_192.168.20.231_(1)
1000

1070
     0
  0
LAYOUT
  5
1E
102
{ACAD_REACTORS
330
1A
102
}
330
1A
100
AcDbPlotSettings
  1

  2
none_device
  4
Letter_(8.50_x_11.00_Inches)
  6

 40
6.349999904632567
 41
6.349999904632567
 42
6.350006103515625
 43
6.350006103515625
 44
215.8999938964844
 45
279.3999938964844
 46
0.0
 47
0.0
 48
0.0
 49
0.0
140
0.0
141
0.0
142
1.0
143
1.0
 70
 15024
 72
     1
 73
     1
 74
     5
  7
SEISA.ctb
 75
    16
147
1.0
 76
     0
 77
     2
 78
   300
148
0.0
149
0.0
100
AcDbLayout
  1
レイアウト1
 70
     1
 71
     1
 10
0.0
 20
0.0
 11
420.0
 21
297.0
 12
0.0
 22
0.0
 32
0.0
 14
1.000000000000000E+20
 24
1.000000000000000E+20
 34
1.000000000000000E+20
 15
-1.000000000000000E+20
 25
-1.000000000000000E+20
 35
-1.000000000000000E+20
146
0.0
 13
0.0
 23
0.0
 33
0.0
 16
1.0
 26
0.0
 36
0.0
 17
0.0
 27
1.0
 37
0.0
 76
     0
330
1B
  0
LAYOUT
  5
26
102
{ACAD_REACTORS
330
1A
102
}
330
1A
100
AcDbPlotSettings
  1

  2
none_device
  4
Letter_(8.50_x_11.00_Inches)
  6

 40
6.349999904632567
 41
6.349999904632567
 42
6.350006103515625
 43
6.350006103515625
 44
215.8999938964844
 45
279.3999938964844
 46
0.0
 47
0.0
 48
0.0
 49
0.0
140
0.0
141
0.0
142
1.0
143
1.0
 70
 15024
 72
     1
 73
     1
 74
     5
  7
SEISA.ctb
 75
    16
147
1.0
 76
     0
 77
     2
 78
   300
148
0.0
149
0.0
100
AcDbLayout
  1
レイアウト2
 70
     1
 71
     2
 10
0.0
 20
0.0
 11
12.0
 21
9.0
 12
0.0
 22
0.0
 32
0.0
 14
0.0
 24
0.0
 34
0.0
 15
0.0
 25
0.0
 35
0.0
146
0.0
 13
0.0
 23
0.0
 33
0.0
 16
1.0
 26
0.0
 36
0.0
 17
0.0
 27
1.0
 37
0.0
 76
     0
330
23
  0
MATERIAL
  5
27D
102
{ACAD_REACTORS
330
C4
102
}
330
C4
100
AcDbMaterial
  1
ByBlock
 73
     1
 78
     1
172
     1
176
     1
270
     1
274
     1
 94
       63
  0
MATERIAL
  5
27C
102
{ACAD_REACTORS
330
C4
102
}
330
C4
100
AcDbMaterial
  1
ByLayer
 73
     1
 78
     1
172
     1
176
     1
270
     1
274
     1
 94
       63
  0
MATERIAL
  5
27E
102
{ACAD_REACTORS
330
C4
102
}
330
C4
100
AcDbMaterial
  1
Global
 73
     1
 78
     1
172
     1
176
     1
270
     1
274
     1
 94
       63
  0
MLEADERSTYLE
  5
2D6
102
{ACAD_REACTORS
330
2D5
102
}
330
2D5
100
AcDbMLeaderStyle
170
     2
171
     1
172
     0
 90
        2
 40
0.0
 41
0.0
173
     1
 91
-1056964608
340
14
 92
       -2
290
     1
 42
2.0
291
     1
 43
0.36
  3
Standard
 44
4.0
300

342
11
174
     1
178
     6
175
     1
176
     0
 93
-1056964608
 45
4.0
292
     0
297
     0
 46
4.0
 94
-1056964608
 47
1.0
 49
1.0
140
1.0
293
     1
141
0.0
294
     1
177
     0
142
1.0
295
     0
296
     0
143
0.125
1001
ACAD_MLEADERVER
1070
     2
  0
MLINESTYLE
  5
18
102
{ACAD_REACTORS
330
17
102
}
330
17
100
AcDbMlineStyle
  2
STANDARD
 70
     0
  3

 62
   256
 51
90.0
 52
90.0
 71
     2
 49
0.5
 62
   256
  6
BYLAYER
 49
-0.5
 62
   256
  6
BYLAYER
  0
PLOTSETTINGS
  5
1C7E
102
{ACAD_REACTORS
330
19
102
}
330
19
100
AcDbPlotSettings
  1
SEISA基本
  2
none_device
  4
Letter_(8.50_x_11.00_Inches)
  6

 40
6.349999904632567
 41
6.349999904632567
 42
6.350006103515625
 43
6.350006103515625
 44
215.8999938964844
 45
279.3999938964844
 46
7.302498226506357
 47
0.0
 48
0.0
 49
0.0
140
0.0
141
0.0
142
1.0
143
1.574803221122935
 70
 11956
 72
     1
 73
     1
 74
     2
  7
SEISA.ctb
 75
     0
147
0.6349999711627054
 76
     0
 77
     2
 78
   300
148
0.0
149
0.0
1001
ACAD_PSEXT
1000
なし
1000
なし
1000
適切ではありません
1000
新しいプロッタ環境設定名を選択しない限り、レイアウトは印刷されません。
1070
     0
  0
ACDBPLACEHOLDER
  5
F
102
{ACAD_REACTORS
330
E
102
}
330
E
  0
SCALE
  5
2A1F
102
{ACAD_REACTORS
330
2B3
102
}
330
2B3
100
AcDbScale
 70
     0
300
1:6
140
1.0
141
6.0
290
     0
  0
SCALE
  5
9D48
102
{ACAD_REACTORS
330
2B3
102
}
330
2B3
100
AcDbScale
 70
     0
300
1:1.5
140
1.0
141
1.5
290
     0
  0
SCALE
  5
9D49
102
{ACAD_REACTORS
330
2B3
102
}
330
2B3
100
AcDbScale
 70
     0
300
1:2.5
140
1.0
141
2.5
290
     0
  0
SCALE
  5
9D9D
102
{ACAD_REACTORS
330
2B3
102
}
330
2B3
100
AcDbScale
 70
     0
300
1:3
140
1.0
141
3.0
290
     0
  0
SCALE
  5
2B4
102
{ACAD_REACTORS
330
2B3
102
}
330
2B3
100
AcDbScale
 70
     0
300
1:1
140
1.0
141
1.0
290
     1
  0
SCALE
  5
2B5
102
{ACAD_REACTORS
330
2B3
102
}
330
2B3
100
AcDbScale
 70
     0
300
1:2
140
1.0
141
2.0
290
     0
  0
SCALE
  5
2B6
102
{ACAD_REACTORS
330
2B3
102
}
330
2B3
100
AcDbScale
 70
     0
300
1:4
140
1.0
141
4.0
290
     0
  0
SCALE
  5
2B7
102
{ACAD_REACTORS
330
2B3
102
}
330
2B3
100
AcDbScale
 70
     0
300
1:5
140
1.0
141
5.0
290
     0
  0
SCALE
  5
2B8
102
{ACAD_REACTORS
330
2B3
102
}
330
2B3
100
AcDbScale
 70
     0
300
1:8
140
1.0
141
8.0
290
     0
  0
SCALE
  5
2B9
102
{ACAD_REACTORS
330
2B3
102
}
330
2B3
100
AcDbScale
 70
     0
300
1:10
140
1.0
141
10.0
290
     0
  0
SCALE
  5
2BA
102
{ACAD_REACTORS
330
2B3
102
}
330
2B3
100
AcDbScale
 70
     0
300
1:16
140
1.0
141
16.0
290
     0
  0
SCALE
  5
2BB
102
{ACAD_REACTORS
330
2B3
102
}
330
2B3
100
AcDbScale
 70
     0
300
1:20
140
1.0
141
20.0
290
     0
  0
SCALE
  5
2BC
102
{ACAD_REACTORS
330
2B3
102
}
330
2B3
100
AcDbScale
 70
     0
300
1:30
140
1.0
141
30.0
290
     0
  0
SCALE
  5
2BD
102
{ACAD_REACTORS
330
2B3
102
}
330
2B3
100
AcDbScale
 70
     0
300
1:40
140
1.0
141
40.0
290
     0
  0
SCALE
  5
2BE
102
{ACAD_REACTORS
330
2B3
102
}
330
2B3
100
AcDbScale
 70
     0
300
1:50
140
1.0
141
50.0
290
     0
  0
SCALE
  5
2BF
102
{ACAD_REACTORS
330
2B3
102
}
330
2B3
100
AcDbScale
 70
     0
300
1:100
140
1.0
141
100.0
290
     0
  0
SCALE
  5
2C0
102
{ACAD_REACTORS
330
2B3
102
}
330
2B3
100
AcDbScale
 70
     0
300
2:1
140
2.0
141
1.0
290
     0
  0
SCALE
  5
2C1
102
{ACAD_REACTORS
330
2B3
102
}
330
2B3
100
AcDbScale
 70
     0
300
4:1
140
4.0
141
1.0
290
     0
  0
SCALE
  5
2C2
102
{ACAD_REACTORS
330
2B3
102
}
330
2B3
100
AcDbScale
 70
     0
300
8:1
140
8.0
141
1.0
290
     0
  0
SCALE
  5
2C3
102
{ACAD_REACTORS
330
2B3
102
}
330
2B3
100
AcDbScale
 70
     0
300
10:1
140
10.0
141
1.0
290
     0
  0
SCALE
  5
2C4
102
{ACAD_REACTORS
330
2B3
102
}
330
2B3
100
AcDbScale
 70
     0
300
100:1
140
100.0
141
1.0
290
     0
  0
SCALE
  5
2C5
102
{ACAD_REACTORS
330
2B3
102
}
330
2B3
100
AcDbScale
 70
     0
300
1/128" = 1'-0"
140
0.0078125
141
12.0
290
     0
  0
SCALE
  5
2C6
102
{ACAD_REACTORS
330
2B3
102
}
330
2B3
100
AcDbScale
 70
     0
300
1/64" = 1'-0"
140
0.015625
141
12.0
290
     0
  0
SCALE
  5
2C7
102
{ACAD_REACTORS
330
2B3
102
}
330
2B3
100
AcDbScale
 70
     0
300
1/32" = 1'-0"
140
0.03125
141
12.0
290
     0
  0
SCALE
  5
2C8
102
{ACAD_REACTORS
330
2B3
102
}
330
2B3
100
AcDbScale
 70
     0
300
1/16" = 1'-0"
140
0.0625
141
12.0
290
     0
  0
SCALE
  5
2C9
102
{ACAD_REACTORS
330
2B3
102
}
330
2B3
100
AcDbScale
 70
     0
300
3/32" = 1'-0"
140
0.09375
141
12.0
290
     0
  0
SCALE
  5
2CA
102
{ACAD_REACTORS
330
2B3
102
}
330
2B3
100
AcDbScale
 70
     0
300
1/8" = 1'-0"
140
0.125
141
12.0
290
     0
  0
SCALE
  5
2CB
102
{ACAD_REACTORS
330
2B3
102
}
330
2B3
100
AcDbScale
 70
     0
300
3/16" = 1'-0"
140
0.1875
141
12.0
290
     0
  0
SCALE
  5
2CC
102
{ACAD_REACTORS
330
2B3
102
}
330
2B3
100
AcDbScale
 70
     0
300
1/4" = 1'-0"
140
0.25
141
12.0
290
     0
  0
SCALE
  5
2CD
102
{ACAD_REACTORS
330
2B3
102
}
330
2B3
100
AcDbScale
 70
     0
300
3/8" = 1'-0"
140
0.375
141
12.0
290
     0
  0
SCALE
  5
2CE
102
{ACAD_REACTORS
330
2B3
102
}
330
2B3
100
AcDbScale
 70
     0
300
1/2" = 1'-0"
140
0.5
141
12.0
290
     0
  0
SCALE
  5
2CF
102
{ACAD_REACTORS
330
2B3
102
}
330
2B3
100
AcDbScale
 70
     0
300
3/4" = 1'-0"
140
0.75
141
12.0
290
     0
  0
SCALE
  5
2D0
102
{ACAD_REACTORS
330
2B3
102
}
330
2B3
100
AcDbScale
 70
     0
300
1" = 1'-0"
140
1.0
141
12.0
290
     0
  0
SCALE
  5
2D1
102
{ACAD_REACTORS
330
2B3
102
}
330
2B3
100
AcDbScale
 70
     0
300
1-1/2" = 1'-0"
140
1.5
141
12.0
290
     0
  0
SCALE
  5
2D2
102
{ACAD_REACTORS
330
2B3
102
}
330
2B3
100
AcDbScale
 70
     0
300
3" = 1'-0"
140
3.0
141
12.0
290
     0
  0
SCALE
  5
2D3
102
{ACAD_REACTORS
330
2B3
102
}
330
2B3
100
AcDbScale
 70
     0
300
6" = 1'-0"
140
6.0
141
12.0
290
     0
  0
SCALE
  5
2D4
102
{ACAD_REACTORS
330
2B3
102
}
330
2B3
100
AcDbScale
 70
     0
300
1'-0" = 1'-0"
140
12.0
141
12.0
290
     0
  0
TABLESTYLE
  5
122
102
{ACAD_XDICTIONARY
360
2F5
102
}
102
{ACAD_REACTORS
330
121
102
}
330
121
100
AcDbTableStyle
  3
Standard
 70
     0
 71
     0
 40
1.5
 41
1.5
280
     0
281
     0
  7
STANDARD
140
4.5
170
     2
 62
     0
 63
     7
283
     0
 90
      512
 91
        0
  1

274
    -2
284
     1
 64
     0
275
    -2
285
     1
 65
     0
276
    -2
286
     1
 66
     0
277
    -2
287
     1
 67
     0
278
    -2
288
     1
 68
     0
279
    -2
289
     1
 69
     0
  7
STANDARD
140
6.0
170
     5
 62
     0
 63
     7
283
     0
 90
      512
 91
        0
  1

274
    -2
284
     1
 64
     0
275
    -2
285
     1
 65
     0
276
    -2
286
     1
 66
     0
277
    -2
287
     1
 67
     0
278
    -2
288
     1
 68
     0
279
    -2
289
     1
 69
     0
  7
STANDARD
140
4.5
170
     5
 62
     0
 63
     7
283
     0
 90
      512
 91
        0
  1

274
    -2
284
     1
 64
     0
275
    -2
285
     1
 65
     0
276
    -2
286
     1
 66
     0
277
    -2
287
     1
 67
     0
278
    -2
288
     1
 68
     0
279
    -2
289
     1
 69
     0
  0
VISUALSTYLE
  5
285
102
{ACAD_REACTORS
330
27F
102
}
330
27F
100
AcDbVisualStyle
  2
2dWireframe
 70
     4
 71
     0
 72
     2
 73
     0
 90
        0
 40
-0.6
 41
-30.0
 62
     5
 63
     7
421
 16777215
 74
     1
 91
        4
 64
     7
 65
   257
 75
     1
175
     1
 42
1.0
 92
        0
 66
   257
 43
1.0
 76
     1
 77
     6
 78
     2
 67
     7
 79
     5
170
     0
171
     0
290
     0
174
     0
 93
        1
 44
0.0
173
     0
291
     0
 45
0.0
  0
VISUALSTYLE
  5
287
102
{ACAD_REACTORS
330
27F
102
}
330
27F
100
AcDbVisualStyle
  2
3D Hidden
 70
     6
 71
     1
 72
     2
 73
     2
 90
        0
 40
-0.6
 41
-30.0
 62
     5
 63
     7
421
 16777215
 74
     2
 91
        2
 64
     7
 65
   257
 75
     2
175
     1
 42
40.0
 92
        0
 66
   257
 43
1.0
 76
     1
 77
     6
 78
     2
 67
     7
 79
     3
170
     0
171
     0
290
     0
174
     0
 93
        1
 44
0.0
173
     0
291
     0
 45
0.0
  0
VISUALSTYLE
  5
286
102
{ACAD_REACTORS
330
27F
102
}
330
27F
100
AcDbVisualStyle
  2
3dWireframe
 70
     5
 71
     0
 72
     2
 73
     0
 90
        0
 40
-0.6
 41
-30.0
 62
     5
 63
     7
421
 16777215
 74
     1
 91
        4
 64
     7
 65
   257
 75
     1
175
     1
 42
1.0
 92
        0
 66
   257
 43
1.0
 76
     1
 77
     6
 78
     2
 67
     7
 79
     5
170
     0
171
     0
290
     0
174
     0
 93
        1
 44
0.0
173
     0
291
     0
 45
0.0
  0
VISUALSTYLE
  5
284
102
{ACAD_REACTORS
330
27F
102
}
330
27F
100
AcDbVisualStyle
  2
Basic
 70
     7
 71
     1
 72
     0
 73
     1
 90
        0
 40
-0.6
 41
-30.0
 62
     5
 63
     7
421
 16777215
 74
     0
 91
        4
 64
     7
 65
   257
 75
     1
175
     1
 42
1.0
 92
        8
 66
     7
 43
1.0
 76
     1
 77
     6
 78
     2
 67
     7
 79
     5
170
     0
171
     0
290
     0
174
     0
 93
        1
 44
0.0
173
     0
291
     1
 45
0.0
  0
VISUALSTYLE
  5
28B
102
{ACAD_REACTORS
330
27F
102
}
330
27F
100
AcDbVisualStyle
  2
Brighten
 70
    12
 71
     2
 72
     2
 73
     0
 90
        0
 40
-0.6
 41
-30.0
 62
     5
 63
     7
421
 16777215
 74
     1
 91
        4
 64
     7
 65
   257
 75
     1
175
     1
 42
1.0
 92
        8
 66
     7
 43
1.0
 76
     1
 77
     6
 78
     2
 67
     7
 79
     5
170
     0
171
     0
290
     0
174
     0
 93
        1
 44
50.0
173
     0
291
     1
 45
0.0
  0
VISUALSTYLE
  5
28F
102
{ACAD_REACTORS
330
27F
102
}
330
27F
100
AcDbVisualStyle
  2
ColorChange
 70
    16
 71
     2
 72
     2
 73
     3
 90
        0
 40
-0.6
 41
-30.0
 62
     5
 63
     8
421
  8421504
 74
     1
 91
        4
 64
     7
 65
   257
 75
     1
175
     1
 42
1.0
 92
        8
 66
     8
424
  8421504
 43
1.0
 76
     1
 77
     6
 78
     2
 67
     7
 79
     5
170
     0
171
     0
290
     0
174
     0
 93
        1
 44
0.0
173
     0
291
     1
 45
0.0
  0
VISUALSTYLE
  5
288
102
{ACAD_REACTORS
330
27F
102
}
330
27F
100
AcDbVisualStyle
  2
Conceptual
 70
     9
 71
     3
 72
     2
 73
     0
 90
        0
 40
-0.6
 41
-30.0
 62
     5
 63
     7
421
 16777215
 74
     2
 91
        2
 64
     7
 65
   257
 75
     1
175
     1
 42
40.0
 92
        8
 66
     7
 43
1.0
 76
     1
 77
     6
 78
     2
 67
     7
 79
     3
170
     0
171
     0
290
     0
174
     0
 93
        1
 44
0.0
173
     0
291
     0
 45
0.0
  0
VISUALSTYLE
  5
28A
102
{ACAD_REACTORS
330
27F
102
}
330
27F
100
AcDbVisualStyle
  2
Dim
 70
    11
 71
     2
 72
     2
 73
     0
 90
        0
 40
-0.6
 41
-30.0
 62
     5
 63
     7
421
 16777215
 74
     1
 91
        4
 64
     7
 65
   257
 75
     1
175
     1
 42
1.0
 92
        8
 66
     7
 43
1.0
 76
     1
 77
     6
 78
     2
 67
     7
 79
     5
170
     0
171
     0
290
     0
174
     0
 93
        1
 44
-50.0
173
     0
291
     1
 45
0.0
  0
VISUALSTYLE
  5
28E
102
{ACAD_REACTORS
330
27F
102
}
330
27F
100
AcDbVisualStyle
  2
Facepattern
 70
    15
 71
     2
 72
     2
 73
     0
 90
        0
 40
-0.6
 41
-30.0
 62
     5
 63
     7
421
 16777215
 74
     1
 91
        4
 64
     7
 65
   257
 75
     1
175
     1
 42
1.0
 92
        8
 66
     7
 43
1.0
 76
     1
 77
     6
 78
     2
 67
     7
 79
     5
170
     0
171
     0
290
     0
174
     0
 93
        1
 44
0.0
173
     0
291
     1
 45
0.0
  0
VISUALSTYLE
  5
280
102
{ACAD_REACTORS
330
27F
102
}
330
27F
100
AcDbVisualStyle
  2
Flat
 70
     0
 71
     2
 72
     1
 73
     1
 90
        2
 40
-0.6
 41
30.0
 62
     5
 63
     7
421
 16777215
 74
     0
 91
        4
 64
     7
 65
   257
 75
     1
175
     1
 42
1.0
 92
        8
 66
     7
 43
1.0
 76
     1
 77
     6
 78
     2
 67
     7
 79
     5
170
     0
171
     0
290
     0
174
     0
 93
       13
 44
0.0
173
     0
291
     1
 45
0.0
  0
VISUALSTYLE
  5
281
102
{ACAD_REACTORS
330
27F
102
}
330
27F
100
AcDbVisualStyle
  2
FlatWithEdges
 70
     1
 71
     2
 72
     1
 73
     1
 90
        2
 40
-0.6
 41
30.0
 62
     5
 63
     7
421
 16777215
 74
     1
 91
        4
 64
     7
 65
   257
 75
     1
175
     1
 42
1.0
 92
        0
 66
   257
 43
1.0
 76
     1
 77
     6
 78
     2
 67
     7
 79
     5
170
     0
171
     0
290
     0
174
     0
 93
       13
 44
0.0
173
     0
291
     1
 45
0.0
  0
VISUALSTYLE
  5
282
102
{ACAD_REACTORS
330
27F
102
}
330
27F
100
AcDbVisualStyle
  2
Gouraud
 70
     2
 71
     2
 72
     2
 73
     1
 90
        2
 40
-0.6
 41
30.0
 62
     5
 63
     7
421
 16777215
 74
     0
 91
        4
 64
     7
 65
   257
 75
     1
175
     1
 42
1.0
 92
        0
 66
     7
 43
1.0
 76
     1
 77
     6
 78
     2
 67
     7
 79
     5
170
     0
171
     0
290
     0
174
     0
 93
       13
 44
0.0
173
     0
291
     1
 45
0.0
  0
VISUALSTYLE
  5
283
102
{ACAD_REACTORS
330
27F
102
}
330
27F
100
AcDbVisualStyle
  2
GouraudWithEdges
 70
     3
 71
     2
 72
     2
 73
     1
 90
        2
 40
-0.6
 41
30.0
 62
     5
 63
     7
421
 16777215
 74
     1
 91
        4
 64
     7
 65
   257
 75
     1
175
     1
 42
1.0
 92
        0
 66
   257
 43
1.0
 76
     1
 77
     6
 78
     2
 67
     7
 79
     5
170
     0
171
     0
290
     0
174
     0
 93
       13
 44
0.0
173
     0
291
     1
 45
0.0
  0
VISUALSTYLE
  5
28D
102
{ACAD_REACTORS
330
27F
102
}
330
27F
100
AcDbVisualStyle
  2
Linepattern
 70
    14
 71
     2
 72
     2
 73
     0
 90
        0
 40
-0.6
 41
-30.0
 62
     5
 63
     7
421
 16777215
 74
     1
 91
        4
 64
     7
 65
   257
 75
     7
175
     7
 42
1.0
 92
        8
 66
     7
 43
1.0
 76
     1
 77
     6
 78
     2
 67
     7
 79
     5
170
     0
171
     0
290
     0
174
     0
 93
        1
 44
0.0
173
     0
291
     1
 45
0.0
  0
VISUALSTYLE
  5
289
102
{ACAD_REACTORS
330
27F
102
}
330
27F
100
AcDbVisualStyle
  2
Realistic
 70
     8
 71
     2
 72
     2
 73
     0
 90
        0
 40
-0.6
 41
-30.0
 62
     5
 63
     7
421
 16777215
 74
     1
 91
        0
 64
     7
 65
   257
 75
     1
175
     1
 42
1.0
 92
        8
 66
     8
424
  7895160
 43
1.0
 76
     1
 77
     6
 78
     2
 67
     7
 79
     5
170
     0
171
     0
290
     0
174
     0
 93
       13
 44
0.0
173
     0
291
     0
 45
0.0
  0
VISUALSTYLE
  5
28C
102
{ACAD_REACTORS
330
27F
102
}
330
27F
100
AcDbVisualStyle
  2
Thicken
 70
    13
 71
     2
 72
     2
 73
     0
 90
        0
 40
-0.6
 41
-30.0
 62
     5
 63
     7
421
 16777215
 74
     1
 91
        4
 64
     7
 65
   257
 75
     1
175
     1
 42
1.0
 92
       12
 66
     7
 43
1.0
 76
     1
 77
     6
 78
     2
 67
     7
 79
     5
170
     0
171
     0
290
     0
174
     0
 93
        1
 44
0.0
173
     0
291
     1
 45
0.0
  0
DICTIONARYVAR
  5
2FA
102
{ACAD_REACTORS
330
34
102
}
330
34
100
DictionaryVariables
280
     0
  1
1:6
  0
DICTIONARYVAR
  5
2F8
102
{ACAD_REACTORS
330
34
102
}
330
34
100
DictionaryVariables
280
     0
  1
STANDARD
  0
DICTIONARYVAR
  5
140
102
{ACAD_REACTORS
330
34
102
}
330
34
100
DictionaryVariables
280
     0
  1
STANDARD
  0
DICTIONARYVAR
  5
AC
102
{ACAD_REACTORS
330
34
102
}
330
34
100
DictionaryVariables
280
     0
  1
1
  0
DICTIONARYVAR
  5
35
102
{ACAD_REACTORS
330
34
102
}
330
34
100
DictionaryVariables
280
     0
  1
1
  0
DICTIONARYVAR
  5
7168
102
{ACAD_REACTORS
330
34
102
}
330
34
100
DictionaryVariables
280
     0
  1
1
  0
DICTIONARYVAR
  5
7169
102
{ACAD_REACTORS
330
34
102
}
330
34
100
DictionaryVariables
280
     0
  1
15
  0
DICTIONARYVAR
  5
2FB
102
{ACAD_REACTORS
330
34
102
}
330
34
100
DictionaryVariables
280
     0
  1
0
  0
DICTIONARYVAR
  5
2F9
102
{ACAD_REACTORS
330
34
102
}
330
34
100
DictionaryVariables
280
     0
  1
0
  0
DICTIONARY
  5
161B
102
{ACAD_REACTORS
330
49
102
}
330
49
100
AcDbDictionary
281
     1
  0
DICTIONARY
  5
4A
102
{ACAD_REACTORS
330
49
102
}
330
49
100
AcDbDictionary
281
     1
  0
XRECORD
  5
12B
102
{ACAD_REACTORS
330
49
102
}
330
49
100
AcDbXrecord
280
     1
 90
-1023410169
  0
DICTIONARY
  5
2F5
330
122
100
AcDbDictionary
280
     1
281
     1
  3
ACAD_ROUNDTRIP_2008_TABLESTYLE_CELLSTYLEMAP
360
A2B3
  0
CELLSTYLEMAP
  5
A2B3
102
{ACAD_REACTORS
330
2F5
102
}
330
2F5
100
AcDbCellStyleMap
 90
        3
300
CELLSTYLE
  1
TABLEFORMAT_BEGIN
 90
        5
170
     1
 91
        0
 92
    32768
 62
   257
 93
        1
300
CONTENTFORMAT
  1
CONTENTFORMAT_BEGIN
 90
        0
 91
        0
 92
      512
 93
        0
300

 40
0.0
140
1.0
 94
        5
 62
     0
340
11
144
6.0
309
CONTENTFORMAT_END
171
     1
301
MARGIN
  1
CELLMARGIN_BEGIN
 40
1.5
 40
1.5
 40
1.5
 40
1.5
 40
0.18
 40
0.18
309
CELLMARGIN_END
 94
        6
 95
        1
302
GRIDFORMAT
  1
GRIDFORMAT_BEGIN
 90
        0
 91
        1
 62
     0
 92
       -2
340
0
 93
        0
 40
0.045
309
GRIDFORMAT_END
 95
        2
302
GRIDFORMAT
  1
GRIDFORMAT_BEGIN
 90
        0
 91
        1
 62
     0
 92
       -2
340
0
 93
        0
 40
0.045
309
GRIDFORMAT_END
 95
        4
302
GRIDFORMAT
  1
GRIDFORMAT_BEGIN
 90
        0
 91
        1
 62
     0
 92
       -2
340
0
 93
        0
 40
0.045
309
GRIDFORMAT_END
 95
        8
302
GRIDFORMAT
  1
GRIDFORMAT_BEGIN
 90
        0
 91
        1
 62
     0
 92
       -2
340
0
 93
        0
 40
0.045
309
GRIDFORMAT_END
 95
       16
302
GRIDFORMAT
  1
GRIDFORMAT_BEGIN
 90
        0
 91
        1
 62
     0
 92
       -2
340
0
 93
        0
 40
0.045
309
GRIDFORMAT_END
 95
       32
302
GRIDFORMAT
  1
GRIDFORMAT_BEGIN
 90
        0
 91
        1
 62
     0
 92
       -2
340
0
 93
        0
 40
0.045
309
GRIDFORMAT_END
309
TABLEFORMAT_END
  1
CELLSTYLE_BEGIN
 90
        1
 91
        1
300
_TITLE
309
CELLSTYLE_END
300
CELLSTYLE
  1
TABLEFORMAT_BEGIN
 90
        5
170
     1
 91
        0
 92
        0
 62
   257
 93
        1
300
CONTENTFORMAT
  1
CONTENTFORMAT_BEGIN
 90
        0
 91
        0
 92
      512
 93
        0
300

 40
0.0
140
1.0
 94
        5
 62
     0
340
11
144
4.5
309
CONTENTFORMAT_END
171
     1
301
MARGIN
  1
CELLMARGIN_BEGIN
 40
1.5
 40
1.5
 40
1.5
 40
1.5
 40
0.18
 40
0.18
309
CELLMARGIN_END
 94
        6
 95
        1
302
GRIDFORMAT
  1
GRIDFORMAT_BEGIN
 90
        0
 91
        1
 62
     0
 92
       -2
340
0
 93
        0
 40
0.045
309
GRIDFORMAT_END
 95
        2
302
GRIDFORMAT
  1
GRIDFORMAT_BEGIN
 90
        0
 91
        1
 62
     0
 92
       -2
340
0
 93
        0
 40
0.045
309
GRIDFORMAT_END
 95
        4
302
GRIDFORMAT
  1
GRIDFORMAT_BEGIN
 90
        0
 91
        1
 62
     0
 92
       -2
340
0
 93
        0
 40
0.045
309
GRIDFORMAT_END
 95
        8
302
GRIDFORMAT
  1
GRIDFORMAT_BEGIN
 90
        0
 91
        1
 62
     0
 92
       -2
340
0
 93
        0
 40
0.045
309
GRIDFORMAT_END
 95
       16
302
GRIDFORMAT
  1
GRIDFORMAT_BEGIN
 90
        0
 91
        1
 62
     0
 92
       -2
340
0
 93
        0
 40
0.045
309
GRIDFORMAT_END
 95
       32
302
GRIDFORMAT
  1
GRIDFORMAT_BEGIN
 90
        0
 91
        1
 62
     0
 92
       -2
340
0
 93
        0
 40
0.045
309
GRIDFORMAT_END
309
TABLEFORMAT_END
  1
CELLSTYLE_BEGIN
 90
        2
 91
        1
300
_HEADER
309
CELLSTYLE_END
300
CELLSTYLE
  1
TABLEFORMAT_BEGIN
 90
        5
170
     1
 91
        0
 92
        0
 62
   257
 93
        1
300
CONTENTFORMAT
  1
CONTENTFORMAT_BEGIN
 90
        0
 91
        0
 92
      512
 93
        0
300

 40
0.0
140
1.0
 94
        2
 62
     0
340
11
144
4.5
309
CONTENTFORMAT_END
171
     1
301
MARGIN
  1
CELLMARGIN_BEGIN
 40
1.5
 40
1.5
 40
1.5
 40
1.5
 40
0.18
 40
0.18
309
CELLMARGIN_END
 94
        6
 95
        1
302
GRIDFORMAT
  1
GRIDFORMAT_BEGIN
 90
        0
 91
        1
 62
     0
 92
       -2
340
0
 93
        0
 40
0.045
309
GRIDFORMAT_END
 95
        2
302
GRIDFORMAT
  1
GRIDFORMAT_BEGIN
 90
        0
 91
        1
 62
     0
 92
       -2
340
0
 93
        0
 40
0.045
309
GRIDFORMAT_END
 95
        4
302
GRIDFORMAT
  1
GRIDFORMAT_BEGIN
 90
        0
 91
        1
 62
     0
 92
       -2
340
0
 93
        0
 40
0.045
309
GRIDFORMAT_END
 95
        8
302
GRIDFORMAT
  1
GRIDFORMAT_BEGIN
 90
        0
 91
        1
 62
     0
 92
       -2
340
0
 93
        0
 40
0.045
309
GRIDFORMAT_END
 95
       16
302
GRIDFORMAT
  1
GRIDFORMAT_BEGIN
 90
        0
 91
        1
 62
     0
 92
       -2
340
0
 93
        0
 40
0.045
309
GRIDFORMAT_END
 95
       32
302
GRIDFORMAT
  1
GRIDFORMAT_BEGIN
 90
        0
 91
        1
 62
     0
 92
       -2
340
0
 93
        0
 40
0.045
309
GRIDFORMAT_END
309
TABLEFORMAT_END
  1
CELLSTYLE_BEGIN
 90
        3
 91
        2
300
_DATA
309
CELLSTYLE_END
  0
ENDSEC
  0
EOF
